#TITLE:Black Ash Snowfall;
#SUBTITLE:;
#ARTIST:Krieg;
#TITLETRANSLIT:;
#SUBTITLETRANSLIT:;
#ARTISTTRANSLIT:;
#GENRE:;
#CREDIT:;
#MUSIC:Black Ash Snowfall.mp3;
#BANNER:Black Ash Snowfall.png;
#BACKGROUND:Black Ash Snowfall-bg.png;
#CDTITLE:;
#SAMPLESTART:0.000;
#SAMPLELENGTH:0.000;
#SELECTABLE:YES;
#OFFSET:-0.321;
#BPMS:0.000=160.234
,8.000=159.234
,13.000=153.734
,22.000=154.234
,30.000=149.484
,39.000=150.984
,49.000=138.984
,52.000=150.484
,62.000=148.484
,67.000=142.034
,71.000=142.534
,77.000=147.534
,86.000=140.784
,92.000=141.284
,102.000=140.534
,106.000=141.534
,110.000=145.534
,113.000=120.534
,114.000=123.534
,117.000=122.000
,120.000=130.000
,127.000=132.000
,134.000=133.500
,142.000=167.500
,143.000=132.500
,144.000=143.500
,149.000=138.500
,157.000=139.000
,165.000=142.000
,170.000=139.500
,187.000=139.250
,193.000=141.750
,203.000=139.750
;
#STOPS:;
#BGCHANGES:;
#FGCHANGES:;

//--------------- dance-single - ----------------
#NOTES:
     dance-single:
     :
     Hard:
     9:
     0,0,0,0,0:
1000
0000
0100
0010
0100
0010
0001
0000
0100
0000
0010
0000
0000
0000
0100
0000
,
0001
0000
1000
0000
0100
0000
1000
0001
0100
0001
0100
0010
1000
0000
0000
0001
,
0010
0000
0100
0000
1000
0010
0100
0001
1000
0000
0001
0000
1000
0000
0100
0000
,
1000
0001
0010
0000
0002
0000
0000
0000
0000
0000
0000
0000
0003
0000
1000
0000
,
0010
0100
0002
0000
0000
0000
1003
0001
1000
0000
0100
0000
0010
0000
0001
0000
,
1000
0010
1000
0000
0000
0000
0000
0001
4000
0000
0000
0000
0000
0000
0000
0000
,
0000
0000
0000
0000
0000
0000
0000
0000
3000
0000
0000
0000
1000
0000
1000
0010
,
0100
0000
0100
0001
0110
0000
0000
0000
1000
0000
0000
0000
0000
0000
0000
0000
,
0004
0000
0000
0003
0010
0100
0100
1000
,
0001
0000
0000
0001
0000
0000
0100
0000
0000
0000
0001
0000
0000
0000
1000
0000
0000
0000
0040
0000
0000
0000
0000
0000
,
0000
0000
0000
0000
0030
0100
0001
0000
,
1000
0000
0001
0000
1000
0100
0000
0010
0001
0000
0000
0000
0010
0000
0000
0000
,
0010
0000
0000
0100
1000
0000
0000
0000
0100
0000
0100
0010
0001
0010
0100
0000
,
4000
0000
0000
3000
4040
3030
0001
0000
,
0001
0100
0001
0100
0000
0010
1000
0000
0001
0010
0000
0001
1000
0001
0100
0001
,
0200
0000
0300
0000
0010
1000
0001
0010
0001
0000
0000
0000
0100
0010
0100
0000
,
0010
0000
1000
0010
0100
0001
0010
0100
1000
0001
1000
0010
1000
0010
1000
0100
,
1000
0001
0100
0001
0010
0001
0100
0000
0001
0010
0001
1000
0100
0000
0000
0000
,
0010
0001
1000
0000
0010
0000
1000
0000
0001
0000
1000
0010
1000
0000
0000
0000
,
0100
0000
0010
0001
0000
0100
0002
0000
,
0000
0000
0003
0000
1000
0100
1000
0000
0001
0000
0000
0000
0010
0000
0100
0000
,
1000
0000
0010
1000
0100
0000
0010
0000
0002
0000
0000
0000
0000
0000
0003
0000
,
0100
1000
0000
0000
0040
0000
0000
0000
0000
0000
0030
0000
0100
0000
0000
0000
,
0001
0000
0010
0000
0100
1000
0001
0000
1000
0000
0100
0000
0010
0000
0000
0000
,
0001
0000
0000
0000
0100
0000
0000
0000
0001
0000
1000
0000
0001
0000
0000
0010
,
0100
1000
0001
0000
0100
0000
0000
0000
0010
0000
0000
0000
0000
1000
0001
1000
,
0100
0000
0000
0000
0010
0000
0000
0000
0001
0000
0000
0000
1000
0000
0000
0010
0000
0000
0400
0000
0000
0000
0000
0000
,
0000
0301
0000
1000
0400
0000
0000
0300
,
0000
0010
0001
1000
0200
0000
0000
0000
1300
0000
0000
0000
0002
0000
0000
0000
,
0103
0000
0000
0000
0000
0000
0010
1000
0001
0000
0000
0000
0020
0000
0000
0030
0100
0000
1000
0000
0010
0000
0000
0000
,
0200
0000
0000
0301
0000
0000
1000
0000
0000
0100
0010
0000
,
0001
0000
0100
0001
0000
0000
0010
0000
0001
1000
0200
0000
,
1300
0000
1000
0020
0000
0000
0130
0000
0000
0002
0000
0000
,
0013
0000
0100
1000
0000
0000
1000
0000
0000
0100
0000
0000
,
0002
0000
1003
0010
0000
0000
0000
0000
0000
0200
0000
0000
,
0000
0000
0000
0310
0010
0000
0000
0000
0000
0200
0000
0000
,
0301
0000
0000
0000
0000
0000
2000
0000
0000
3001
0100
0000
,
0010
0000
0000
1000
0000
0000
0000
0000
0000
0001
0010
0000
,
0001
0000
0000
0000
0100
0000
0000
0000
0010
0000
0000
0000
0100
0010
1000
0100
,
0010
0000
0000
0001
0000
0100
0010
0000
0000
1000
0100
1000
,
0010
0000
0100
0010
0000
1000
0001
0010
0100
1000
0000
0100
,
1000
0000
0000
0000
0001
0000
0200
0000
0000
0000
0310
0000
1000
0000
0001
0010
0001
0000
1002
0000
0000
0000
0000
0000
,
0000
0000
0003
1000
0100
0010
0004
0000
0000
0000
0000
0000
,
2003
0000
3010
0200
0000
0000
0000
0000
0001
0310
0001
1000
,
2002
0000
0000
3003
0000
0000
0000
0000
0001
0010
0000
0000
,
1000
0100
0010
0011
0000
0000
0000
0000
0000
0100
0000
0000
,
0000
0000
0000
1010
0000
0000
0000
0000
0010
0011
0000
0101
,
1010
0000
0000
0400
0000
0000
0000
0300
1100
1000
0100
0010
,
1002
0000
0003
0004
0000
0000
0000
0000
0003
1000
0100
0000
,
0010
0001
0100
0001
0100
0001
0010
0100
1000
0001
0000
0010
,
0100
0010
0001
0100
0000
0000
0010
0000
0000
1000
0000
0000
,
0000
0000
0000
1000
0001
0000
0001
0100
0000
1000
0001
0100
,
0110
0000
0000
0000
;
