#TITLE:Biometrics Warrior;
#SUBTITLE:;
#ARTIST:GUHROOVY fw.NO+CHIN;
#TITLETRANSLIT:;
#SUBTITLETRANSLIT:;
#ARTISTTRANSLIT:;
#CREDIT:;
#BANNER:;
#BACKGROUND:;
#LYRICSPATH:;
#CDTITLE:;
#MUSIC:Biometrics Warrior.mp3;
#OFFSET:0.000;
#SAMPLESTART:20.300;
#SAMPLELENGTH:12.000;
#SELECTABLE:YES;
#BPMS:0.000=215.001;
#STOPS:;
#BGCHANGES:;

//---------------dance-single - ----------------
#NOTES:
     dance-single:
     :
     Hard:
     9:
     0.767,1.000,0.989,0.118,0.059: // measure 1
0000
0000
0000
0000
,  // measure 2
0000
0000
0000
0000
,  // measure 3
0000
0000
0000
0000
,  // measure 4
0000
0000
0000
0000
,  // measure 5
0000
0000
0000
0000
,  // measure 6
0000
0000
0000
0000
,  // measure 7
0000
0000
0000
0000
,  // measure 8
0000
0000
0100
1000
,  // measure 9
0100
0000
0000
0000
0100
0000
0000
0001
,  // measure 10
0100
0000
1000
0100
0000
0000
0000
0000
,  // measure 11
0000
1000
0100
1000
0001
0000
0000
0000
,  // measure 12
0000
0000
0100
1000
0100
0000
0000
0001
,  // measure 13
0100
0010
0100
0010
1000
0000
0000
0000
,  // measure 14
0100
1000
0001
0010
0020
0000
0030
0000
,  // measure 15
0100
0100
0100
1000
2000
0000
3100
0010
,  // measure 16
0100
0000
0000
1000
0000
0000
1000
0000
0000
0100
0000
0000
1001
0000
0000
0000
2002
0000
0000
0000
0000
0000
0000
0000
,  // measure 17
0000
0000
0000
0000
3013
0000
0000
0000
0000
0000
0000
0000
0100
0000
0000
0000
0000
0000
0000
0000
0000
0100
0000
0000
,  // measure 18
1000
1000
1000
1000
,  // measure 19
1001
0001
0001
0000
,  // measure 20
0010
0000
0010
0001
0001
0000
0000
0010
,  // measure 21
0010
0000
0000
0100
0000
0100
0000
0010
,  // measure 22
0100
0010
0001
0000
0001
0000
0001
0000
,  // measure 23
0000
0000
0001
0010
0100
0000
0000
0000
,  // measure 24
0010
0000
0000
0000
1000
0000
0000
0100
1000
0000
0000
0000
0000
0000
0000
0000
,  // measure 25
0000
0100
0100
0000
0100
0000
0100
0100
,  // measure 26
0011
0000
0010
0010
0101
0000
0101
0000
,  // measure 27
0101
0000
0000
0000
0000
0000
1000
0000
0010
0000
0010
0000
0000
0000
0000
0100
,  // measure 28
0010
0000
0000
0001
0010
0000
0000
0000
0100
0000
0000
0000
0000
0000
0000
0000
,  // measure 29
0000
0000
0110
0000
0000
0000
0000
1000
0100
0000
0000
0011
0000
0000
0000
0000
,  // measure 30
0010
0000
0001
0001
0001
0000
0000
0000
,  // measure 31
0010
0000
0000
0000
0100
0010
0100
0010
0010
0000
0000
0000
0000
0000
0000
0000
,  // measure 32
0100
1000
1000
0100
1000
0000
0110
0000
,  // measure 33
1100
1100
1100
1100
1100
0000
0000
0110
,  // measure 34
0000
0110
0110
0110
0110
0000
0000
0000
,  // measure 35
0101
0000
0101
0101
0000
0000
0101
0101
,  // measure 36
0101
0000
1001
0000
1001
0101
0000
0000
,  // measure 37
1100
0000
0010
0010
0001
0010
0100
0001
,  // measure 38
0001
0100
0001
0100
0100
0100
0010
1000
,  // measure 39
0010
0001
0001
0010
0100
1000
1000
0001
,  // measure 40
0010
1000
0001
1000
0100
0001
1000
1000
,  // measure 41
0011
0011
0011
0011
0011
0000
0000
1010
,  // measure 42
0000
1010
1010
1010
1010
0000
0000
0000
,  // measure 43
1001
0000
1001
1001
0000
0000
1001
1001
,  // measure 44
1001
0000
0101
0000
0101
1001
0000
0000
,  // measure 45
0110
1000
0100
0010
1000
0100
1000
0100
,  // measure 46
0010
1000
0010
0001
0001
0001
0001
1000
,  // measure 47
0001
1000
0100
0100
0100
1000
0100
0010
,  // measure 48
0100
0000
0001
0000
2002
0000
3223
0000
0000
0000
0000
2332
0000
0000
3003
0000
,  // measure 49
0011
0100
0000
0100
0100
0000
1000
0000
,  // measure 50
0100
0010
1000
0100
0001
0000
0001
0000
,  // measure 51
0000
0010
0000
0100
0100
0000
0100
0000
,  // measure 52
0100
1000
0100
0010
0001
0000
0001
0000
,  // measure 53
0100
1000
1000
1000
,  // measure 54
0001
0001
0010
0100
0010
0000
0001
0000
,  // measure 55
0000
0010
0100
0010
0010
0000
1000
0000
,  // measure 56
0100
1000
0100
1000
0000
1000
0001
0000
,  // measure 57
0000
0010
1000
1000
0010
0000
0010
0100
,  // measure 58
1000
0010
0001
0010
1000
0000
0110
0000
,  // measure 59
0000
0001
0100
0010
0100
0000
1000
0000
,  // measure 60
0100
0010
1000
0001
0000
0001
0001
0010
,  // measure 61
1000
0000
0100
1000
0100
0010
1000
0000
,  // measure 62
0100
0000
0001
0010
0010
0000
0010
0000
,  // measure 63
0000
0100
0010
0010
1000
0000
0100
0001
,  // measure 64
1000
0000
0000
0000
0000
0000
0010
0000
0000
0000
0000
0000
0100
0000
0000
0000
0000
0000
0000
0000
0010
0000
0000
0000
0000
0000
0000
0000
0100
0000
0000
0000
0000
0000
0000
0000
1000
0000
0000
0110
0000
0000
0000
0000
0000
0000
0000
0000
,  // measure 65
2200
0000
0010
0010
0000
0000
0010
0000
,  // measure 66
0000
0000
0000
0000
3300
0000
0000
0000
0010
0000
0000
0000
0001
0000
0000
0100
,  // measure 67
0022
0000
0100
0100
0000
0000
0100
0000
,  // measure 68
0033
0100
1000
0000
,  // measure 69
0100
0010
0010
0010
0110
0000
0000
1000
,  // measure 70
0100
0000
0000
0001
0010
0000
0000
0000
,  // measure 71
0100
0010
1000
0010
0100
0010
1000
0001
,  // measure 72
1000
0101
1010
0000
,  // measure 73
0110
0110
0110
0110
0110
0000
0000
1001
,  // measure 74
0000
1001
1001
1001
1001
0000
0000
0000
,  // measure 75
1010
0000
1010
1010
0000
0000
1010
1010
,  // measure 76
1010
0000
0011
0000
0011
1010
0000
0000
,  // measure 77
1001
0001
0100
0100
0010
0100
1000
0010
,  // measure 78
0100
0010
0010
0010
0010
1000
0001
0010
,  // measure 79
0010
0100
0100
0100
0001
0001
1000
0001
,  // measure 80
0001
0100
0010
0001
0010
1000
0100
1000
,  // measure 81
0011
0011
0011
0011
0011
0000
0000
1100
,  // measure 82
0000
1100
1100
1100
1100
0000
0000
0000
,  // measure 83
0110
0000
0110
0110
0000
0000
0110
0110
,  // measure 84
0110
0000
1010
0000
1010
1010
0000
0000
,  // measure 85
1001
0010
1000
0001
1000
1000
0100
0001
,  // measure 86
1000
0001
0010
0100
0100
0001
0100
0001
,  // measure 87
1000
0001
0001
0100
1000
1000
1000
0001
,  // measure 88
0100
0100
1000
0001
0010
0100
0100
0100
,  // measure 89
0011
0110
1010
0110
0011
0000
0000
0011
,  // measure 90
0000
0000
0011
0000
0000
0011
0000
0000
,  // measure 91
0101
0000
1001
1001
0000
0000
0000
1001
,  // measure 92
0000
0000
1001
0000
0000
1001
0000
0000
,  // measure 93
0010
0000
1000
1000
0000
0100
1000
0000
,  // measure 94
1000
0100
0001
0000
0001
0000
0010
0000
,  // measure 95
0000
0010
0001
0100
1000
0000
0000
0000
,  // measure 96
0001
0000
0001
0010
1000
0000
0000
0000
,  // measure 97
0010
0000
0010
1000
0000
1000
0010
0000
,  // measure 98
0010
0000
0010
0001
0000
0010
0010
0000
,  // measure 99
0100
0000
0010
0100
0000
0001
0010
0000
,  // measure 100
0001
0000
0001
0001
0000
0001
0100
0000
,  // measure 101
1000
0000
0001
0010
0000
1000
1000
0000
,  // measure 102
0010
0000
0100
0100
0000
0001
0010
0000
,  // measure 103
0010
0000
0100
1000
0000
0100
0010
0000
,  // measure 104
0010
0000
1000
0100
0000
0000
1010
0000
,  // measure 105
1010
0000
0000
0000
;
