#TITLE:Title Screen;
#SUBTITLE:Pokémon Origins;
#ARTIST:Jun'ichi Masuda, Shoya Kageyama & Game Freak;
#TITLETRANSLIT:;
#SUBTITLETRANSLIT:;
#ARTISTTRANSLIT:;
#CREDIT:Lisek;
#BANNER:Title Screen.png;
#BACKGROUND:Title Screen-bg.png;
#LYRICSPATH:;
#CDTITLE:cdtitle.png;
#MUSIC:Title Screen.ogg;
#OFFSET:-1.213;
#SAMPLESTART:1.000;
#SAMPLELENGTH:10.500;
#SELECTABLE:YES;
#BPMS:0.000=188.000,32.000=133.700,40.000=140.000,136.000=70.000,144.000=140.000;
#STOPS:;
#BGCHANGES:;

//---------------dance-single - Lisek----------------
#NOTES:
     dance-single:
     Lisek:
     Hard:
     8:
     0.503,0.634,0.412,0.537,0.100: // measure 1
1000
1100
0001
0101
,  // measure 2
1000
1100
0001
0101
,  // measure 3
1000
1100
0001
0101
,  // measure 4
2002
0000
0000
3003
0220
0000
0000
0330
,  // measure 5
2002
0000
0000
3003
0220
0000
0000
0330
,  // measure 6
0001
0010
0011
0000
1000
0010
1010
0000
,  // measure 7
0001
0010
0011
0000
1000
0010
1010
0000
,  // measure 8
2002
0000
0000
0000
0000
0000
0000
3003
,  // measure 9
1001
0000
0000
0000
,  // measure 10
0000
0000
0000
0000
,  // measure 11
1000
0010
0000
0001
0010
0000
0000
1000
,  // measure 12
0100
0010
0001
0000
1000
1000
0001
0001
,  // measure 13
1000
0100
0000
0001
0100
0000
0000
0000
,  // measure 14
0000
1000
0100
0000
0010
0010
0001
0001
,  // measure 15
2000
0010
0100
3001
,  // measure 16
0200
1000
0010
0301
,  // measure 17
0020
0001
0100
1000
,  // measure 18
0100
0001
0130
1001
,  // measure 19
2200
0000
0000
0010
0020
0000
0000
3330
,  // measure 20
0000
0000
0000
0000
0000
0000
0000
0000
0002
0000
0000
0000
0000
0000
1003
0001
,  // measure 21
1000
0100
0010
0001
0010
0100
1000
0001
,  // measure 22
0000
0001
0010
0100
1000
0100
0010
0001
,  // measure 23
0202
0000
0000
0010
0020
0000
0000
0333
,  // measure 24
0000
0000
0000
0000
0000
0000
0000
0000
2000
0000
0000
3002
0000
0000
0203
0000
,  // measure 25
0310
1000
0001
0100
0010
1000
0001
0100
,  // measure 26
0000
0100
0001
1000
0010
0100
0001
1000
,  // measure 27
2002
0000
0000
0010
0020
0000
0000
3033
,  // measure 28
0000
0000
0000
0000
0000
0000
0000
0000
2000
0000
0000
0000
0000
0000
3001
1000
,  // measure 29
0001
0010
0100
1000
0100
0010
0001
1000
,  // measure 30
0000
1000
0100
0010
0001
0010
0100
1000
,  // measure 31
2002
0000
0000
0100
0200
0000
0000
3303
,  // measure 32
0000
0000
0000
0000
0000
0000
0000
0000
0002
0000
0000
2003
0000
0000
3020
0000
,  // measure 33
0032
0000
0000
0023
2030
0000
0100
0000
,  // measure 34
0010
0000
0001
0000
0010
0010
3010
0000
,  // measure 35
2002
0000
0000
0010
0020
0000
0000
0000
3033
0000
0000
0000
0002
0000
2000
0000
,  // measure 36
0020
0000
0000
0000
0000
0000
0100
0000
0200
0000
0000
0000
3333
0000
0000
0000
0001
0000
0000
0000
1000
0000
0000
0000
0001
0000
1000
0000
0001
0100
0010
0000
,  // measure 37
1000
0100
0001
0100
1000
0010
0001
0010
,  // measure 38
1000
0000
0001
0000
0010
0000
0100
0000
1100
0000
0000
0110
0000
0000
0011
0000
,  // measure 39
0001
0100
1000
0100
0001
0010
1000
0010
,  // measure 40
0001
0000
0010
0000
0100
0000
1000
0000
0011
0000
0000
0110
0000
0000
1010
0000
,  // measure 41
1001
0000
0000
0000
0110
0000
0000
0000
0000
0000
1000
0001
1000
0000
0000
0000
,  // measure 42
0110
0000
0000
1001
0000
0000
1000
0010
0100
0001
1000
0100
,  // measure 43
0010
1001
0000
0000
;

//---------------dance-single - Lisek----------------
#NOTES:
     dance-single:
     Lisek:
     Medium:
     6:
     0.364,0.449,0.162,0.525,0.056:
1000
1000
0001
0001
,
0100
0100
0001
0001
,
0100
0100
0010
0010
,
0220
0000
0000
0330
2002
0000
0000
3003
,
0220
0000
0000
0330
2002
0000
0000
3003
,
0001
0001
1000
1000
,
0010
0010
0100
0100
,
0220
0000
0000
0330
,
1001
0000
0000
0000
,
0000
0000
0000
0000
,
1000
1000
0000
0001
0001
0000
0000
0000
,
1000
0001
0100
0010
,
0100
0100
0000
0010
0010
0000
0000
0000
,
0000
0100
0100
0000
0010
0010
0100
0100
,
0001
1000
0010
1000
,
0001
0010
0001
0100
,
0001
0010
0100
1000
,
0002
0203
0320
1030
,
2010
0000
0000
0001
3002
0000
0000
0000
,
0003
0000
0000
0000
2000
0000
0000
3010
,
0200
0001
0301
0100
,
0000
0001
1000
0010
,
0200
0000
0000
0010
0320
0000
0000
0000
,
0030
0000
0000
0000
0000
0000
0000
0000
2000
0000
0000
3200
0000
0000
0320
0000
,
0032
1000
1000
0103
,
0000
0001
1000
0010
,
2000
0000
0000
0001
3002
0000
0000
0000
,
0003
0000
0000
0000
0200
0000
0000
0310
,
2000
0010
0010
3001
,
0000
1000
0010
0100
,
0002
0000
0000
0010
0023
0000
0000
0000
,
0030
0000
0000
0000
0000
0000
0000
0000
0002
0000
0000
0023
0000
0000
0230
0000
,
2300
0000
0000
3001
0200
0000
0010
0000
,
0010
0000
0301
0000
1000
0001
1000
0000
,
2002
0000
0020
0000
3033
0000
1000
0001
,
2002
0000
0200
0000
3303
0000
1000
0001
,
0200
0010
0001
0010
,
0300
0000
0000
0000
0000
0000
0000
0000
0001
0000
0000
1000
0000
0000
0001
0000
,
2000
0010
0100
0010
,
3000
0000
0000
0000
0000
0000
0000
0000
0001
0000
0000
1000
0000
0000
0001
0000
,
1000
0000
0000
0000
1001
0000
0000
0000
0000
0000
1000
0001
1000
0000
0000
0000
,
1001
0000
0000
1001
0000
0000
1000
0001
1000
0001
1000
0001
,
1000
1001
0000
0000
;

//---------------dance-single - Lisek----------------
#NOTES:
     dance-single:
     Lisek:
     Beginner:
     1:
     0.086,0.158,0.062,0.162,0.000:
2000
0000
0000
3000
,
0002
0000
0000
0003
,
2000
0000
0000
3000
,
1001
0000
0000
0000
,
1001
0000
0000
0000
,
0002
0000
0000
0003
,
2000
0000
0000
3000
,
2002
0000
0000
0000
,
3003
0000
0000
0000
,
0000
0000
0000
0000
,
1000
0000
0000
0000
,
0100
0000
0000
0000
,
0010
0000
0000
0000
,
0001
0000
0000
0000
,
1000
0000
0000
0000
,
0010
0000
0000
0000
,
0100
0000
0000
0000
,
0001
0000
0000
0000
,
1000
0000
0000
0000
,
0000
0000
0000
0000
,
0100
0000
0000
0000
,
0000
0000
0000
0000
,
0010
0000
0000
0000
,
0000
0000
0000
0000
,
0001
0000
0000
0000
,
0000
0000
0000
0000
,
1000
0000
0000
0000
,
0000
0000
0000
0000
,
0001
0000
0000
0000
,
0000
0000
0000
0000
,
0100
0000
0000
0000
,
0000
0000
0000
0000
,
0010
0000
0000
0000
,
0000
0000
0000
0000
,
2000
0000
3000
0000
,
0002
0000
0003
0000
,
2000
0000
0000
0000
,
3000
0000
0000
0000
,
0002
0000
0000
0000
,
0003
0000
0000
0000
,
2002
0000
0000
0000
,
0000
0000
0000
0000
,
3003
1001
0000
0000
;

//---------------dance-single - Lisek----------------
#NOTES:
     dance-single:
     Lisek:
     Easy:
     3:
     0.216,0.238,0.012,0.450,0.000:
2000
0000
3002
0000
,
0203
0000
0320
0000
,
2030
0000
3002
0000
,
2003
0000
0000
3000
,
0002
0000
0000
0003
,
2000
0000
3002
0000
,
0203
0000
0320
0000
,
0230
0000
0000
0300
,
0100
0000
0000
0000
,
0000
0000
0000
0000
,
0001
0000
0000
0000
,
1000
0000
0000
0000
,
0010
0000
0000
0000
,
0100
0000
0000
0000
,
0001
0000
0100
0000
,
0001
0000
1000
0000
,
0010
0000
0100
0000
,
0010
1000
0001
0100
,
0002
0000
2003
0000
,
3000
0000
0020
0000
,
0230
0000
0300
0000
,
0001
0010
0100
1000
,
0002
0000
2003
0000
,
3000
0000
0020
0000
,
0230
0000
0300
0000
,
0010
0100
0001
1000
,
0020
0000
0230
0000
,
0300
0000
0002
0000
,
2003
0000
3000
0000
,
0001
0010
0100
1000
,
0002
0000
2003
0000
,
3000
0000
0020
0000
,
0230
0000
0300
0000
,
0001
1000
0010
0100
,
0002
2000
3003
0000
,
2000
0002
3003
0000
,
1000
0001
1000
0001
,
1000
0000
0020
0000
,
0130
0010
0100
0010
,
0100
0000
0002
0000
,
1003
1000
0000
0001
,
1000
0001
2000
0000
,
3001
1001
0000
0000
;
