#TITLE:Looking Like This;
#SUBTITLE:;
#ARTIST:Lyre Le Temps;
#TITLETRANSLIT:;
#SUBTITLETRANSLIT:;
#ARTISTTRANSLIT:;
#GENRE:;
#CREDIT:Lisek;
#BANNER:Looking Like This.png;
#BACKGROUND:Looking Like This-bg.png;
#LYRICSPATH:;
#CDTITLE:cdtitle.png;
#MUSIC:Looking Like This.ogg;
#OFFSET:-0.505488;
#SAMPLESTART:8.830000;
#SAMPLELENGTH:16.46;
#SELECTABLE:YES;
#DISPLAYBPM:115.00;
#BPMS:0.000000=115.00
,116.000000=122.60
,117.000000=115.00
,119.000000=131.40
,120.000000=115.00
,122.000000=105.00
,123.000000=99.60
,124.000000=115.00
,127.000000=128.50
,128.000000=115.00
,130.000000=110.36
,131.000000=115.00
;
#STOPS:
;
#BGCHANGES:0.000=Looking Like This.avi=1.000=1=0=0=StretchNoLoop==CrossFade==,
199.000=Looking Like This-bg.png=1.000=1=0=1===CrossFade==,
99999=-nosongbg-=1.000=0=0=0 // don't automatically add -songbackground-
;
#KEYSOUNDS:;
#ATTACKS:;

//---------------dance-single - ----------------
#NOTES:
     dance-single:
     Lisek:
     Hard:
     8:
     0.535204,0.545400,0.324118,0.181125,0.481411,393.000000,359.000000,34.000000,19.000000,0.000000,0.000000,0.535204,0.545400,0.324118,0.181125,0.481411,393.000000,359.000000,34.000000,19.000000,0.000000,0.000000:
// measure 0
0000
0000
0000
0000
,  // measure 1
0000
0000
0000
0000
,  // measure 2
0000
0000
0000
0000
,  // measure 3
0000
0000
0000
0000
,  // measure 4
1000
0000
0000
0010
0000
0000
0100
0000
0000
0000
0000
0001
0010
0000
0100
1000
0000
0000
0200
0000
0000
0000
0000
0310
,  // measure 5
0000
0000
0000
0001
0000
0000
1000
0000
0000
0000
0000
0010
0100
0000
0001
1000
0000
0000
0110
0000
0000
0100
0000
0000
,  // measure 6
0001
0000
0000
0010
0000
0000
1000
0000
0000
0000
0000
1000
0010
0000
0001
0000
0000
1000
0000
0000
0000
0000
0000
0001
,  // measure 7
0100
0000
1000
0000
0000
0100
0000
0000
0001
0010
0000
1000
0010
0000
0001
0000
0000
2002
0000
0000
0000
3003
0000
0000
,  // measure 8
0001
0000
0000
0000
0000
0000
0100
0000
0000
0000
0000
0000
0010
0000
0000
0000
0000
0000
0000
0000
0000
0000
1000
0000
0100
0000
0000
0000
0010
0000
0001
0000
0000
0000
0000
0000
2000
0000
0000
0000
0000
0000
0000
0000
0000
0000
0000
3001
,  // measure 9
0000
0000
0000
1000
0000
0000
0001
0000
0000
0000
0000
0010
0100
0000
1000
0001
0000
0000
1001
0000
0000
0000
0000
0000
,  // measure 10
1000
0000
0000
0100
0000
0000
0001
0000
0000
0000
0000
0001
0100
0000
1000
0000
0000
0001
0000
0000
0000
1000
0000
0010
,  // measure 11
0001
0000
0010
0000
0000
1000
0000
0000
0000
0001
0000
0010
0100
0000
1000
0100
0000
0010
0001
0000
0000
1001
0000
0000
,  // measure 12
0000
1000
0100
1000
0010
1000
0100
1000
,  // measure 13
0001
0000
0100
0010
0110
0000
1010
0000
,  // measure 14
1001
0001
0010
0100
0010
0001
0010
0100
,  // measure 15
1000
0000
0010
0100
0110
0000
0101
0000
,  // measure 16
1001
1000
0010
0100
0001
0010
0100
1000
,  // measure 17
0001
0000
0100
0010
1010
0000
1100
0000
,  // measure 18
1001
0000
0001
0000
0000
1000
0000
0000
0001
0100
0010
1000
0001
0000
1000
0000
,  // measure 19
0000
0000
0001
1000
1001
0000
0110
0000
,  // measure 20
2002
0000
0000
3003
,  // measure 21
0101
0001
0100
0100
0011
0001
0010
0010
,  // measure 22
0101
0000
0000
0001
0000
0000
0100
0000
0000
0100
0000
0000
0001
0000
0100
0010
0000
0100
0010
0000
0000
1000
0000
0000
,  // measure 23
1010
1000
0010
0010
1100
1000
0100
0100
,  // measure 24
1010
0000
0000
1000
0000
0000
0010
0000
0000
0010
0000
0000
1000
0000
0100
0010
0000
0100
0010
0000
0000
0001
0000
0000
,  // measure 25
0101
0100
0001
0001
1001
1000
0001
0001
,  // measure 26
0101
0000
0000
0100
0000
0000
0001
0000
0000
0001
0000
0000
1000
0000
0010
0100
0000
0010
0100
0000
0000
0001
0000
0000
,  // measure 27
1010
0010
1000
1000
1001
0001
1000
1000
,  // measure 28
1010
0000
0000
0010
0000
0000
1000
0000
0000
1000
0000
0000
0001
0000
0100
0010
0000
0100
0010
0000
0000
1000
0000
0000
,  // measure 29
0001
0000
0000
0000
0000
1000
0010
1000
0010
0000
0010
1000
0000
0000
0000
0000
,  // measure 30
0000
0001
0100
0010
2000
0000
3200
0000
,  // measure 31
0320
0000
0031
0000
0000
0010
0100
0010
0100
0000
0010
0100
0000
0000
0000
0000
,  // measure 32
0000
1000
0010
0100
0002
0000
2003
0000
,  // measure 33
3001
0100
1000
0010
,  // measure 34
0001
0000
0000
0100
0000
0000
0001
0000
0000
0000
0000
1000
0010
0000
0100
0001
0000
0000
0020
0000
0000
0000
0000
0130
,  // measure 35
0000
0000
0000
1000
0000
0000
0001
0000
0000
0000
0000
1000
0100
0000
0010
0001
0000
0000
0110
0000
0000
0001
0000
0000
,  // measure 36
1000
0000
0000
0010
0000
0000
0001
0000
0000
0000
0000
0001
0010
0000
1000
0000
0000
0001
0000
0000
0000
0000
0000
1000
,  // measure 37
0100
0000
0001
0000
0000
0100
0000
0000
1000
0010
0000
0001
0010
0000
1000
0000
0000
2002
0000
0000
0000
3003
0000
0000
,  // measure 38
1000
0000
0000
0000
0000
0000
0001
0000
0000
0000
0000
0000
0100
0000
0000
0000
0000
0000
0000
0000
0000
0000
0001
0000
0100
0000
0000
0000
0010
0000
1000
0000
0000
0000
0000
0000
0002
0000
0000
0000
0000
0000
0000
0000
0000
0000
0000
1003
,  // measure 39
0000
0000
0000
0010
0000
0000
1000
0000
0000
0000
0000
0001
0010
0000
0100
1000
0000
0000
1001
0000
0000
0000
0000
0000
,  // measure 40
0001
0000
0000
0100
0000
0000
1000
0000
0000
0000
0000
1000
0100
0000
0001
0000
0000
1000
0000
0000
0000
0001
0000
0010
,  // measure 41
1000
0000
0010
0000
0000
0001
0000
0000
0000
1000
0000
0010
0100
0000
0001
0100
0000
0010
1000
0000
0000
0001
0000
0000
,  // measure 42
1000
0000
0000
0100
0000
0000
0010
0000
0000
0000
0000
0001
0100
0000
0010
1000
0000
0000
0020
0000
0000
0000
0000
0130
,  // measure 43
0000
0000
0000
0010
0000
0000
1000
0000
0000
0000
0000
0100
0010
0000
0001
0100
0000
0000
0110
0000
0000
1000
0000
0000
,  // measure 44
0001
0000
0000
0010
0000
0000
1000
0000
0000
0000
0000
1000
0010
0000
0001
0000
0000
1000
0000
0000
0000
0000
0000
0001
,  // measure 45
0010
0000
1000
0000
0000
0010
0000
0000
0001
0100
0000
1000
0100
0000
0001
0000
0000
2002
0000
0000
0000
3003
0000
0000
,  // measure 46
0001
0000
0000
0000
0000
0000
1000
0000
0000
0000
0000
0000
0100
0000
0000
0000
0000
0000
0000
0000
0000
0000
1000
0000
0010
0000
0000
0000
0100
0000
0001
0000
0000
0000
0000
0000
0200
0000
0000
0000
0000
0000
0000
0000
0000
0000
0000
0310
,  // measure 47
0000
0000
0000
1000
0000
0000
0100
0000
0000
0000
0000
0010
0001
0000
1000
0100
0000
0000
1001
0000
0000
0000
0000
0000
,  // measure 48
1000
0000
0000
0010
0000
0000
0001
0000
0000
0000
0000
0001
0010
0000
1000
0000
0000
0001
0000
0000
0000
1000
0000
0100
,  // measure 49
0001
0000
0100
0000
0000
1000
0000
0000
0000
0001
0000
0000
0010
0000
0000
0100
0000
0000
1000
0000
0000
0000
0000
0000
;

//---------------dance-single - ----------------
#NOTES:
     dance-single:
     Lisek:
     Beginner:
     1:
     0.053112,0.070067,0.000000,0.047664,0.000000,39.000000,39.000000,0.000000,5.000000,0.000000,0.000000,0.053112,0.070067,0.000000,0.047664,0.000000,39.000000,39.000000,0.000000,5.000000,0.000000,0.000000:
0000
0000
0000
0000
,
0000
0000
0000
0000
,
0000
0000
0000
0000
,
0000
0000
0000
0000
,
1000
0000
0000
0000
,
0001
0000
0000
0000
,
1000
0000
0000
0000
,
0001
0000
0000
0000
,
0100
0000
0000
0000
,
0010
0000
0000
0000
,
0100
0000
0000
0000
,
0010
0000
0000
0000
,
2000
0000
0000
0000
,
3000
0000
0000
0000
,
0002
0000
0000
0000
,
0003
0000
0000
0000
,
2000
0000
0000
0000
,
3000
0000
0000
0000
,
0002
0000
0000
0000
,
0003
0000
0000
0000
,
0000
0000
0000
0000
,
1000
0000
0000
0000
,
0001
0000
0000
0000
,
0100
0000
0000
0000
,
0010
0000
0000
0000
,
1000
0000
0000
0000
,
0001
0000
0000
0000
,
0100
0000
0000
0000
,
0010
0000
0000
0000
,
1000
0000
0000
0000
,
0000
0000
0000
0000
,
0001
0000
0000
0000
,
0000
0000
0000
0000
,
0200
0000
0000
0000
,
0301
0000
0000
0000
,
1000
0000
0000
0000
,
0001
0000
0000
0000
,
1000
0000
0000
0000
,
0010
0000
0000
0000
,
0100
0000
0000
0000
,
0010
0000
0000
0000
,
0100
0000
0000
0000
,
0001
0000
0000
0000
,
0100
0000
0000
0000
,
0001
0000
0000
0000
,
0100
0000
0000
0000
,
0010
0000
0000
0000
,
1000
0000
0000
0000
,
0010
0000
0000
0000
,
0100
0000
0000
0000
;

//---------------dance-single - ----------------
#NOTES:
     dance-single:
     Lisek:
     Easy:
     3:
     0.132099,0.186845,0.028599,0.133460,0.000000,97.000000,94.000000,3.000000,14.000000,0.000000,0.000000,0.132099,0.186845,0.028599,0.133460,0.000000,97.000000,94.000000,3.000000,14.000000,0.000000,0.000000:
0000
0000
0000
0000
,
0000
0000
0000
0000
,
0000
0000
0000
0000
,
0000
0000
0000
0000
,
1000
0000
0010
0000
,
1000
0000
0100
0000
,
1000
0000
0100
0000
,
0010
0000
0001
1000
,
0001
0000
0100
0000
,
0001
0000
0010
0000
,
0001
0000
0100
0000
,
0010
0000
1000
0000
,
0002
0000
0000
0000
,
0003
0100
0010
0100
,
0020
0000
0000
0000
,
0030
1000
0001
1000
,
0002
0000
0000
0000
,
0003
0100
0010
0100
,
0020
0000
0000
0000
,
0030
1000
0001
1000
,
2002
0000
0000
3003
,
1000
0000
0001
0000
,
0100
0000
0020
0030
,
1000
0000
0100
0000
,
0010
0000
0002
0003
,
1000
0000
0001
0000
,
0100
0000
0020
0030
,
1000
0000
0100
0000
,
0010
0000
0002
0003
,
2002
0000
0000
3003
,
0000
0000
0001
1000
,
2002
0000
0000
3003
,
0000
0000
1000
0001
,
1000
0001
1000
0001
,
1000
0000
0100
0000
,
1000
0000
0010
0000
,
1000
0000
0100
0000
,
0010
0000
0001
1000
,
0001
0000
1000
0000
,
0001
0000
0100
0000
,
0001
0000
0100
0000
,
0010
0000
1000
0001
,
1000
0000
0001
0000
,
1000
0000
0010
0000
,
1000
0000
0010
0000
,
0100
0000
0001
1000
,
0001
0000
1000
0000
,
0001
0000
0010
0000
,
0001
0000
0010
0000
,
0100
0000
0000
0000
;

//---------------dance-single - ----------------
#NOTES:
     dance-single:
     Lisek:
     Medium:
     6:
     0.364973,0.355696,0.000000,0.190658,0.000000,268.000000,268.000000,0.000000,20.000000,0.000000,0.000000,0.364973,0.355696,0.000000,0.190658,0.000000,268.000000,268.000000,0.000000,20.000000,0.000000,0.000000:
0000
0000
0000
0000
,
0000
0000
0000
0000
,
0000
0000
0000
0000
,
0000
0000
0000
0000
,
1000
0010
0100
0000
0001
0000
0100
0000
,
0001
0100
0010
0000
1000
0010
0100
0000
,
0001
1000
0001
0000
1000
0001
1000
0000
,
0010
0100
0010
0000
0100
0010
0100
0000
,
0001
0100
0010
0000
1000
0000
0100
0000
,
0010
0001
1000
0000
0001
0100
0010
0000
,
1000
0010
1000
0000
0001
0100
0001
0000
,
1000
0100
1000
0000
0001
0010
0100
1000
,
0000
0001
1000
0001
1000
0001
1000
0001
,
1000
0000
0001
0100
0020
0000
2030
0000
,
3002
1003
0001
1000
0001
1000
0001
1000
,
0001
0000
0100
0010
2000
0000
3200
0000
,
0320
0031
1000
0001
1000
0010
0100
0010
,
0100
0000
0001
1000
0020
0000
0230
0000
,
0302
1003
0000
0001
0010
0100
1000
0001
,
1000
0000
0001
0100
0020
0000
2030
0000
,
3001
0000
0000
0000
,
1000
1000
0100
0100
0010
0010
0001
0001
,
1000
1000
0100
0100
0020
0000
0000
0030
,
0001
0001
0010
0010
0100
0100
1000
1000
,
0001
0001
0010
0010
0200
0000
0000
0300
,
1000
1000
0010
0010
0100
0100
0001
0001
,
1000
1000
0010
0010
0200
0000
0000
0300
,
0001
0001
0100
0100
0010
0010
1000
1000
,
0001
0001
0100
0100
0020
0000
0000
0030
,
1000
0000
0000
0001
1000
0001
1000
0000
,
0000
0001
0010
0100
2000
0000
3200
0000
,
0320
0031
0000
1000
0001
1000
0001
0000
,
0000
1000
0100
0010
0002
0000
2003
0000
,
3001
0010
0100
1000
,
0001
0100
0010
0000
1000
0000
0010
0000
,
1000
0100
0010
0000
0001
0010
0100
0000
,
1000
0001
1000
0000
0001
1000
0001
0000
,
0100
0010
0100
0000
0010
0100
0010
0000
,
1000
0100
0010
0000
0001
0000
0010
0000
,
0100
1000
0001
0000
1000
0001
0100
0000
,
0001
0010
0001
0000
1000
0100
1000
0000
,
0001
0100
0001
0000
1000
0100
0010
0001
,
1000
0010
0100
0000
0001
0000
0010
0000
,
0100
1000
0001
0000
1000
0100
0010
0000
,
0001
1000
0001
0000
1000
0001
1000
0000
,
0010
0100
0010
0000
0100
0010
0100
0000
,
0001
0010
0100
0000
0010
0000
0001
0000
,
1000
0010
0100
0000
0001
0100
0010
0000
,
1000
0100
0010
0000
0001
0010
0100
0000
,
1000
0100
0010
0000
0001
1000
0001
0000
;
