#TITLE:Galaxy Supernova;
#SUBTITLE:;
#ARTIST:Girls' Generation;
#TITLETRANSLIT:;
#SUBTITLETRANSLIT:;
#ARTISTTRANSLIT:;
#GENRE:K-pop;
#CREDIT:cdtitle.png;
#BANNER:Galaxy Supernova.png;
#BACKGROUND:Galaxy Supernova-bg.png;
#LYRICSPATH:;
#CDTITLE:cdtitle.png;
#MUSIC:Galaxy Supernova.ogg;
#OFFSET:-0.673000;
#SAMPLESTART:85.690002;
#SAMPLELENGTH:16.959999;
#SELECTABLE:YES;
#BPMS:0.000000=120.000000
;
#STOPS:
;
#BGCHANGES:0.667=Galaxy Supernova.avi=1.000=1=0=1===CrossFade==,
99999=-nosongbg-=1.000=0=0=0 // don't automatically add -songbackground-
;
#KEYSOUNDS:;
#ATTACKS:;

//---------------dance-single - Lisek----------------
#NOTES:
     dance-single:
     Lisek:
     Hard:
     8:
     0.456509,0.438371,0.383142,0.024456,0.228255,342.000000,47.000000,3.000000,0.000000,0.000000,0.000000,0.456509,0.438371,0.383142,0.024456,0.228255,342.000000,47.000000,3.000000,0.000000,0.000000,0.000000:
// measure 0
0000
0000
0000
0000
,  // measure 1
0000
0000
0000
0000
,  // measure 2
0000
0000
0000
0000
,  // measure 3
0000
0000
0000
0000
,  // measure 4
1000
0000
0000
0000
0001
0000
0000
0000
0100
0000
0000
0001
1000
0000
0100
0000
,  // measure 5
0010
0010
0001
0000
0011
0000
1001
0000
,  // measure 6
0001
0100
0001
0100
0010
1000
0010
0100
,  // measure 7
0010
0010
0010
0000
0100
0100
0100
0000
,  // measure 8
0001
0100
0001
0000
1000
0000
1000
0000
0010
1000
0010
0000
0100
0000
0000
0000
,  // measure 9
0010
1000
0010
0000
1000
0000
1000
0000
0001
0100
0001
0000
0010
0000
0000
0000
,  // measure 10
0001
0000
0000
0100
0000
1000
0000
0100
,  // measure 11
0001
0000
0000
1000
0000
0000
0100
0000
0000
0000
0010
0000
0000
0001
0000
0000
,  // measure 12
1000
0000
0000
0010
0100
0000
0000
0000
0010
0000
1000
0000
0010
0000
0000
0000
,  // measure 13
0100
0000
0000
0001
0010
0000
0000
0000
0100
0000
1000
0000
0100
0000
0000
0000
,  // measure 14
1000
0000
0000
0010
0100
0000
0000
0000
0001
0000
0100
0000
0001
0000
0000
0000
,  // measure 15
1001
0000
0000
0000
,  // measure 16
1001
0000
1000
0010
0100
0010
0100
0001
,  // measure 17
0011
0000
0000
0110
0000
0000
1100
0000
0000
0000
1000
0000
0010
0000
0100
0000
,  // measure 18
0110
0000
1001
0000
0110
0000
0010
1000
,  // measure 19
1010
0000
0000
0110
0000
0000
0101
0000
0000
0000
0001
0000
1000
0000
0001
0000
,  // measure 20
1000
0000
0100
0000
0010
0001
0000
0010
0000
0100
0000
0000
1000
0000
1001
0000
,  // measure 21
0001
0000
0010
0000
0100
1000
0000
0100
0000
0010
0000
0000
0001
0000
1001
0000
,  // measure 22
1000
0000
0100
0000
0010
0001
0000
0010
0000
0100
0000
0000
1000
0000
0010
0000
,  // measure 23
1010
0010
0100
1010
0010
0100
0101
0000
,  // measure 24
1001
0000
0000
1000
0100
0000
0001
0000
0100
0000
1000
0000
0100
0000
0000
0000
,  // measure 25
1000
1000
0001
0001
0100
0010
0100
0000
,  // measure 26
1001
0000
0000
0001
0100
0000
1000
0000
0100
0000
0001
0000
0100
0000
0000
0000
,  // measure 27
0001
0000
0001
0000
1000
0000
1000
0000
0100
0000
0010
0001
0010
0000
0001
0000
,  // measure 28
0100
0000
0010
0000
1000
0001
0000
0100
0000
0010
0000
0000
0100
0000
0110
0000
,  // measure 29
0010
0000
0100
0000
0001
1000
0000
0010
0000
0100
0000
0000
0010
0000
0110
0000
,  // measure 30
0100
0000
0010
0000
1000
0001
0000
0100
0000
0010
0000
0000
0100
0000
0001
0000
,  // measure 31
0101
1000
0010
0101
1000
0010
1010
0000
,  // measure 32
0000
0000
0000
0000
,  // measure 33
0000
0000
0000
0000
,  // measure 34
1000
0100
1000
0010
,  // measure 35
0100
0001
0100
0010
,  // measure 36
1000
0100
1000
0001
,  // measure 37
0100
0010
0100
0001
,  // measure 38
1000
0000
0100
0000
1000
0010
0100
0000
,  // measure 39
0001
0000
0010
0000
0001
0100
0010
0000
,  // measure 40
1000
0010
0100
0001
0010
0100
1000
0010
,  // measure 41
2000
0000
0001
0000
0001
0001
0000
0001
,  // measure 42
3000
0000
0000
0000
,  // measure 43
1001
0000
0001
0100
0010
0100
0001
1000
,  // measure 44
1010
0000
0000
0110
0000
0000
0101
0000
0000
0000
0001
0000
1000
0000
0100
0000
,  // measure 45
0110
0000
1001
0000
0110
0000
0001
0100
,  // measure 46
0101
0000
0000
0110
0000
0000
1010
0000
0000
0000
1000
0000
0001
0000
0100
0000
,  // measure 47
0001
0000
1000
0000
0010
0100
0000
0001
0000
1000
0000
0000
0001
0000
1001
0000
,  // measure 48
1000
0000
0010
0000
0100
0001
0000
1000
0000
0010
0000
0000
1000
0000
1001
0000
,  // measure 49
0001
0000
0100
0000
0010
1000
0000
0001
0000
0100
0000
0000
0001
0000
0100
0000
,  // measure 50
1010
0100
0001
1010
0001
0100
0101
0000
,  // measure 51
1001
0000
0000
1000
0100
0000
0001
0000
0100
0000
1000
0000
0001
0000
0000
0000
,  // measure 52
0100
0100
0001
0001
1000
0010
1000
0000
,  // measure 53
1001
0000
0000
0001
0010
0000
1000
0000
0010
0000
0001
0000
1000
0000
0000
0000
,  // measure 54
0010
0000
0010
0000
0100
0000
0100
0000
0001
0000
1000
0010
1000
0000
0001
0000
,  // measure 55
1000
0000
0100
0000
0010
0100
0000
1000
0000
0100
0000
0000
0010
0000
0110
0000
,  // measure 56
0100
0000
0010
0000
0001
0010
0000
0100
0000
0010
0000
0000
0100
0000
0110
0000
,  // measure 57
0010
0000
0100
0000
1000
0100
0000
0010
0000
0100
0000
0000
1000
0000
0010
0000
,  // measure 58
0101
0010
1000
0101
1000
0010
2002
0000
,  // measure 59
0000
0000
0000
3003
;

//---------------dance-single - Lisek----------------
#NOTES:
     dance-single:
     Lisek:
     Beginner:
     1:
     0.072203,0.094563,0.032608,0.114127,0.000000,44.000000,4.000000,14.000000,0.000000,0.000000,0.000000,0.072203,0.094563,0.032608,0.114127,0.000000,44.000000,4.000000,14.000000,0.000000,0.000000,0.000000:
0000
0000
0000
0000
,
0000
0000
0000
0000
,
0000
0000
0000
0000
,
0000
0000
0000
0000
,
1000
0000
0000
0000
,
0010
0000
0000
0000
,
0100
0000
0000
0000
,
0001
0000
0000
0000
,
1000
0000
0000
0000
,
0001
0000
0000
0000
,
1000
0000
0000
0000
,
0000
0000
0000
0000
,
0001
0000
0000
0000
,
0100
0000
0000
0000
,
0001
0000
0000
0000
,
0000
0000
0000
0000
,
1000
0000
0000
0000
,
0001
0000
0000
0000
,
1000
0000
0000
0000
,
0010
0000
0000
0000
,
2000
0000
3000
0000
,
0002
0000
0003
0000
,
2000
0000
3000
0000
,
1001
0000
0000
0000
,
1000
0000
0000
0000
,
0001
0000
0000
0000
,
0100
0000
0000
0000
,
0010
0000
0000
0000
,
2000
0000
3000
0000
,
0002
0000
0003
0000
,
2000
0000
3000
0000
,
1001
0000
0000
0000
,
0000
0000
0000
0000
,
0000
0000
0000
0000
,
0002
0000
0000
0000
,
0000
0000
0000
0000
,
0000
0000
0000
0000
,
0003
0000
0000
0000
,
2000
0000
0000
0000
,
0000
0000
0000
0000
,
0000
0000
0000
0000
,
3000
0000
0000
0000
,
0000
0000
0000
0000
,
0001
0000
0000
0000
,
0100
0000
0000
0000
,
0010
0000
0000
0000
,
1000
0000
0000
0000
,
0020
0000
0030
0000
,
0200
0000
0300
0000
,
0020
0000
0030
0000
,
0110
0000
0000
0000
,
1000
0000
0000
0000
,
0001
0000
0000
0000
,
0100
0000
0000
0000
,
0001
0000
0000
0000
,
0200
0000
0300
0000
,
0020
0000
0030
0000
,
0200
0000
0300
0000
,
0110
0000
0000
0000
;

//---------------dance-single - Lisek----------------
#NOTES:
     dance-single:
     Lisek:
     Easy:
     2:
     0.152558,0.167625,0.048912,0.187495,0.000000,102.000000,6.000000,23.000000,0.000000,0.000000,0.000000,0.152558,0.167625,0.048912,0.187495,0.000000,102.000000,6.000000,23.000000,0.000000,0.000000,0.000000:
0000
0000
0000
0000
,
0000
0000
0000
0000
,
0000
0000
0000
0000
,
0000
0000
0000
0000
,
1000
0000
0001
0000
,
0100
0000
0001
0000
,
1000
0000
0001
0000
,
1000
0000
0010
0000
,
0100
0000
0100
0000
,
0010
0000
0010
0000
,
1000
0000
0001
0000
,
2000
0000
3000
0000
,
0001
0000
0010
0000
,
0001
0000
1000
0000
,
0010
0000
1000
0000
,
1001
0000
0000
0000
,
1000
0000
0100
0000
,
1000
0001
1000
0000
,
0001
0000
0010
0000
,
0001
1000
0001
0000
,
2000
0000
3000
0010
,
0200
0000
0300
0001
,
2000
0000
3000
0010
,
2002
0000
0000
3003
,
1000
0000
0010
0000
,
1000
0001
1000
0001
,
1000
0000
0001
0000
,
1000
0001
1000
0001
,
2000
0000
3000
0010
,
0200
0000
0300
0001
,
2000
0000
3000
0010
,
2002
0000
0000
3003
,
0000
0000
0000
0000
,
0000
0000
0000
0000
,
1000
0000
0000
0000
,
0010
0000
0000
0000
,
0100
0000
0000
0000
,
0001
0000
0000
0000
,
1000
0000
0000
0000
,
0001
0000
0000
0000
,
0100
0000
0000
0000
,
2002
0000
0000
0000
,
3003
0000
0000
0000
,
1000
0000
0010
0000
,
1000
0001
1000
0000
,
0001
0000
0010
0000
,
0001
1000
0001
0000
,
0200
0000
0300
0010
,
2000
0000
3000
0001
,
0200
0000
0300
0010
,
0220
0000
0000
0330
,
0100
0000
0001
0000
,
0100
0001
0100
0001
,
0100
0000
0010
0000
,
1000
0010
1000
0010
,
2000
0000
3000
0001
,
0200
0000
0300
0010
,
2000
0000
3000
0001
,
0220
0000
0000
0330
;

//---------------dance-single - Lisek----------------
#NOTES:
     dance-single:
     Lisek:
     Medium:
     6:
     0.302787,0.340955,0.024456,0.171191,0.044836,236.000000,3.000000,21.000000,0.000000,0.000000,0.000000,0.302787,0.340955,0.024456,0.171191,0.044836,236.000000,3.000000,21.000000,0.000000,0.000000,0.000000:
0000
0000
0000
0000
,
0000
0000
0000
0000
,
0000
0000
0000
0000
,
0000
0000
0000
0000
,
1000
0000
0000
0000
0010
0000
0000
0000
0100
0000
0000
0010
0100
0000
0000
0000
,
0001
1000
0001
0000
1000
0000
1000
0000
,
0001
0010
0001
0010
0100
1000
0100
1000
,
0002
1003
2000
3001
,
1000
0010
0100
0000
0001
0100
0010
0000
,
1000
0100
0010
0000
0001
0010
0100
0000
,
1000
0000
0000
0001
0000
1000
0000
0010
,
1000
0000
0000
0100
0000
0000
0010
0000
0000
0000
0001
0000
0000
0010
0000
0000
,
0001
0000
1000
0000
0010
0100
0001
0000
,
1000
0000
0100
0000
0010
0100
1000
0000
,
0001
0000
0100
0000
0010
1000
0001
0000
,
1001
0000
0000
0000
,
1001
0000
0000
1000
0010
0100
0001
0010
,
0002
0000
0000
0100
0000
0000
0103
0000
0000
0000
0010
0000
1000
0000
0001
0000
,
1000
0000
0100
0000
0010
0000
0001
1000
,
0020
0000
0000
0100
0000
0000
0130
0000
0000
0000
0100
0000
0010
0000
1000
0000
,
0002
0000
0000
0000
0003
0000
0100
0010
,
2000
0000
0000
0000
3000
0000
0010
0100
,
0002
0000
0003
1000
,
0001
1000
0001
0100
0010
0100
0002
0000
,
1003
0000
0000
0100
0010
0000
0000
0000
0001
0000
0100
0000
0010
0000
0000
0000
,
1000
0010
0100
0001
,
1000
0000
0000
0001
1000
0000
0000
0000
0010
0000
1000
0000
0001
0000
0000
0000
,
1000
0100
0010
0001
,
0200
0000
0000
0000
0300
0000
0001
0100
,
0020
0000
0000
0000
0030
0000
1000
0010
,
0200
0000
0300
0010
,
1000
0001
1000
0010
0100
0010
1000
0000
,
0000
0000
0000
0000
,
0000
0000
0000
0000
,
0001
0100
0001
0100
,
0010
1000
0010
1000
,
0001
1000
0001
1000
,
0010
0100
0010
0100
,
0001
0000
0010
0000
0001
1000
0001
0000
,
1000
0000
0010
0000
1000
0001
1000
0000
,
0001
0010
0001
1000
,
0020
0000
0000
0000
,
0030
0000
0000
0000
,
1001
0000
0000
0001
0100
0010
1000
0100
,
2000
0000
0000
0010
0000
0000
3010
0000
0000
0000
1000
0000
0010
0000
0100
0000
,
0010
0000
0100
0000
0001
0000
1000
0001
,
0020
0000
0000
0001
0000
0000
0031
0000
0000
0000
1000
0000
0001
0000
1000
0000
,
0020
0000
0000
0000
0030
0000
0100
0001
,
2000
0000
0000
0000
3000
0000
0010
0100
,
0002
0000
0003
1000
,
0001
1000
0001
0100
0010
0100
0001
0000
,
1000
0000
0000
0001
0100
0000
0000
0000
0010
0000
1000
0000
0001
0000
0000
0000
,
1000
0100
0010
0001
,
1000
0000
0000
0010
0100
0000
0000
0000
0010
0000
1000
0000
0001
0000
0000
0000
,
1000
0010
1000
0001
,
0200
0000
0000
0000
0300
0000
0010
1000
,
0002
0000
0000
0000
0003
0000
1000
0010
,
0200
0000
0300
0001
,
1000
0001
1000
0010
0100
0010
2000
0000
,
0000
0000
0000
3000
;
