#TITLE:Dirty Little Pop Song;
#SUBTITLE:;
#ARTIST:Aqua;
#TITLETRANSLIT:;
#SUBTITLETRANSLIT:;
#ARTISTTRANSLIT:;
#GENRE:;
#CREDIT:Lisek;
#BANNER:Dirty Little Pop Song.png;
#BACKGROUND:Dirty Little Pop Song-bg.png;
#LYRICSPATH:;
#CDTITLE:cdtitle.png;
#MUSIC:Dirty Little Pop Song.ogg;
#OFFSET:-0.021451;
#SAMPLESTART:59.840000;
#SAMPLELENGTH:15.600000;
#SELECTABLE:YES;
#BPMS:0.000000=125
;
#STOPS:
;
#BGCHANGES:;
#KEYSOUNDS:;
#ATTACKS:;

//---------------dance-single - ----------------
#NOTES:
     dance-single:
     Lisek:
     Hard:
     7:
     0.404002,0.409093,0.069732,0.061984,0.220817,365.000000,356.000000,9.000000,8.000000,12.000000,0.000000,0.404002,0.409093,0.069732,0.061984,0.220817,365.000000,356.000000,9.000000,8.000000,12.000000,0.000000:
// measure 0
0000
0000
0000
0000
,  // measure 1
0000
0000
0000
0000
,  // measure 2
0000
0000
0000
0000
,  // measure 3
0000
0000
0000
0000
,  // measure 4
1000
0010
1000
0010
0100
0010
0100
0000
,  // measure 5
0001
0100
0001
0100
0010
0100
0010
1000
,  // measure 6
0100
0010
0000
0010
0000
0010
0000
0010
,  // measure 7
0001
0000
1000
0000
0010
0000
0000
0000
0100
0000
0000
0010
0000
0000
1000
0000
,  // measure 8
0001
0010
0001
0010
0100
0010
0100
0000
,  // measure 9
1000
0100
1000
0100
0010
0100
0010
0001
,  // measure 10
1000
0010
0000
0010
0000
0010
0000
0010
,  // measure 11
0100
0001
1000
0000
0001
0000
1000
0000
,  // measure 12
0001
0010
0100
0010
0001
1000
0100
0010
,  // measure 13
0100
1000
0001
1000
0000
0000
0001
0010
,  // measure 14
0100
0000
1000
0100
0010
0100
1000
0001
,  // measure 15
0010
0100
1000
0001
0000
0100
0010
1000
,  // measure 16
0001
0000
0011
0000
1001
0000
1000
0010
,  // measure 17
0100
0010
1000
0001
0000
0000
1000
0001
,  // measure 18
0100
0010
0100
0000
0001
0000
1000
0000
,  // measure 19
1100
0000
0110
0000
1001
0000
1000
0001
,  // measure 20
0100
0010
0100
0000
0010
0000
0100
0001
,  // measure 21
1000
1010
1000
0001
,  // measure 22
0400
0000
0000
0300
,  // measure 23
0000
0001
0010
0001
1000
0100
1000
0001
,  // measure 24
1000
0000
0000
0010
0000
0000
0001
0000
0000
0000
0001
0000
0000
0010
0000
0000
,  // measure 25
1000
0000
0000
0100
0000
0000
0001
0000
0000
0000
0001
0000
0000
0100
0000
0000
,  // measure 26
1000
0000
0000
0010
0000
0000
0001
0000
0000
0000
0001
0000
0000
0010
0000
0000
,  // measure 27
1000
0000
0000
0100
0000
0000
0001
0000
0100
0000
1000
0000
0100
0000
0010
0000
,  // measure 28
0001
0000
0000
0010
0000
0000
1000
0000
0000
0000
1000
0000
0000
0010
0000
0000
,  // measure 29
0001
0000
0000
0100
0000
0000
1000
0000
0000
0000
1000
0000
0000
0100
0000
0000
,  // measure 30
0001
0000
0000
0010
0000
0000
1000
0000
0000
0000
1000
0000
0000
0010
0000
0000
,  // measure 31
0001
0000
0000
0100
0000
0000
1000
0000
0100
0000
0001
0000
0010
0000
0100
0000
,  // measure 32
1000
0000
0000
0010
0100
0000
0010
0000
0000
0000
1000
0000
0000
0001
0000
0000
,  // measure 33
0100
0000
0000
0010
1000
0000
0001
0000
0000
0000
0100
0000
0000
0001
0000
0000
,  // measure 34
1000
0000
0000
0100
0010
0000
0001
0000
0000
0000
1000
0000
0000
0010
0000
0000
,  // measure 35
0100
0000
0000
0001
0100
0000
0010
0000
1000
0000
0100
0000
1000
0000
0001
0000
,  // measure 36
1000
0000
0000
0010
0100
0000
0001
0000
0000
0000
0100
0000
0000
0001
0000
0000
,  // measure 37
0010
0000
0000
0001
1000
0000
0010
0000
0000
0000
0100
0000
0000
0010
0000
0000
,  // measure 38
1000
0000
0000
0100
0010
0000
0001
0000
0000
0000
1000
0000
0000
0001
0000
0000
,  // measure 39
1000
0000
0000
0010
0100
0000
0001
0000
0000
0000
0010
0000
0100
0000
1000
0000
,  // measure 40
0001
1000
0001
0100
1000
0100
0001
0000
,  // measure 41
0M0M
0000
1000
0100
0001
0100
1000
0000
,  // measure 42
MM00
0000
0001
0100
1000
0100
0001
0000
,  // measure 43
0M0M
1000
0100
1000
0100
0010
0000
0010
,  // measure 44
0000
0001
1000
0010
0001
0010
1000
0000
,  // measure 45
M0M0
0000
0001
0010
1000
0010
0001
0000
,  // measure 46
00MM
0000
1000
0010
0001
0010
1000
0000
,  // measure 47
M0M0
0001
0010
0001
0010
0100
0000
2002
,  // measure 48
0000
0000
0000
3003
,  // measure 49
1000
0000
0000
0100
0000
0000
0010
0000
0000
0000
0001
0000
0000
1000
0000
0000
,  // measure 50
0001
0000
0000
0010
0000
0000
0100
0000
0000
0000
1000
0000
0000
0001
0000
0000
,  // measure 51
1000
0000
0000
0010
0000
0000
0100
0000
0000
0000
0001
0000
0000
1000
0000
0000
,  // measure 52
0001
0000
0000
0100
0000
0000
0010
0000
1000
0000
0100
0000
0010
0000
0001
0000
,  // measure 53
2000
0000
0000
0010
0000
0000
0001
0000
0000
0000
0100
0000
0000
3001
0000
0000
,  // measure 54
0002
0000
0000
0010
0000
0000
0100
0000
0000
0000
0010
0000
0000
1003
0000
0000
,  // measure 55
2000
0000
0000
0010
0000
0000
0100
0000
0000
0000
0010
0000
0000
3001
0000
0000
,  // measure 56
0002
0000
0000
1000
0000
0000
0100
0000
1000
0000
0100
0000
1003
0000
0001
0000
,  // measure 57
2000
0000
0000
0000
0002
0000
0000
3003
,  // measure 58
1001
0000
0000
0001
0100
0000
0010
0000
0000
0000
1000
0000
0000
0100
0000
0000
,  // measure 59
0010
0000
0000
0001
0100
0000
0010
0000
0000
0000
1000
0000
0000
0010
0000
0000
,  // measure 60
0100
0000
0000
0010
1000
0000
0001
0000
0000
0000
0100
0000
0000
0010
0000
0000
,  // measure 61
1000
0000
0000
0100
0010
0000
0001
0000
0100
0000
0010
0000
0100
0000
0001
0000
,  // measure 62
1000
0000
0000
0001
0100
0000
0010
0000
0000
0000
1000
0000
0000
0100
0000
0000
,  // measure 63
0010
0000
0000
0100
1000
0000
0001
0000
0000
0000
0100
0000
0000
0010
0000
0000
,  // measure 64
1000
0000
0000
0001
0010
0000
0100
0000
0000
0000
1000
0000
0000
0010
0000
0000
,  // measure 65
0100
0000
0000
0001
0000
0000
0100
0000
0010
0000
1000
0000
0001
0000
1000
0000
,  // measure 66
1001
0000
0000
0000
;

//---------------dance-single - ----------------
#NOTES:
     dance-single:
     Lisek:
     Medium:
     5:
     0.254576,0.306820,0.116220,0.178203,0.030992,230.000000,215.000000,15.000000,23.000000,0.000000,0.000000,0.254576,0.306820,0.116220,0.178203,0.030992,230.000000,215.000000,15.000000,23.000000,0.000000,0.000000:
0000
0000
0000
0000
,
0000
0000
0000
0000
,
0000
0000
0000
0000
,
0000
0000
0000
0000
,
1000
0100
0010
0001
,
0001
0010
0100
1000
,
0001
1000
0000
1000
0000
1000
0000
1000
,
0001
1000
0000
0000
0000
0000
0000
0000
,
0001
0100
0010
1000
,
1000
0010
0100
0001
,
1000
0001
0000
0001
0000
0001
0000
0001
,
1000
0001
0000
0000
0000
0000
0000
0000
,
0001
0100
0010
0100
,
0001
0100
0010
1000
0000
0000
0000
0000
,
1000
0010
0100
0010
,
1000
0100
0010
0001
0000
0001
1000
0010
,
0100
0010
0100
0001
,
1000
0100
0010
0001
0000
0000
1000
0000
,
0001
0100
0010
0000
0000
0000
1000
0100
,
0010
0001
1000
0001
,
1000
0010
0100
0000
0000
0000
0001
0000
,
1000
0100
0020
0000
,
0034
0000
0000
0003
,
0000
1000
0001
1000
,
1001
2002
0000
0000
,
3003
0000
0000
0000
0000
0001
1000
0000
,
0001
1000
0000
0001
0000
1000
0000
0010
,
0000
0100
0001
1000
,
0010
2020
0000
0000
,
3030
0000
0000
0000
0000
1000
0001
0000
,
1000
0000
0010
0100
0000
0010
0000
0100
,
0000
0010
1000
0001
,
0101
0202
0000
0000
,
0303
0001
0010
0100
,
1000
0010
0000
1000
0000
0010
0000
1000
,
0000
0001
0010
0000
0100
0000
1000
0000
,
1100
2200
0000
0000
,
3300
1000
0010
0100
,
0001
0000
0100
0010
0000
0100
0000
0000
,
2002
0000
0000
0000
0000
0000
0000
3003
,
1000
0000
0100
0000
0100
0010
0001
0000
,
0000
0000
0010
0000
0010
0100
1000
0000
,
0000
0000
0100
0000
0100
0010
0001
0000
,
2002
0000
0000
0000
0000
0000
0000
3003
,
0001
0000
0100
0000
0100
0010
1000
0000
,
0000
0000
0010
0000
0010
0100
0001
0000
,
0000
0000
0100
0000
0100
0010
1000
0000
,
2002
0000
0000
0000
,
3003
0000
0000
0000
,
0001
0000
0000
0100
0000
0000
0001
0000
0000
0000
0001
0000
0000
0000
0000
0000
,
1000
0000
0000
0010
0000
0000
1000
0000
0000
0000
1000
0000
0000
0000
0000
0000
,
0001
0000
0000
0010
0000
0000
0001
0000
0000
0000
0001
0000
0000
0000
0000
0000
,
1000
0000
0000
0100
0000
0000
2000
0000
0000
0000
0000
0000
0000
0000
0000
0000
,
3001
0000
0000
0100
0000
0000
0010
0000
0000
0000
0010
0000
0000
0000
0000
0000
,
1000
0000
0000
0010
0000
0000
0100
0000
0000
0000
0100
0000
0000
0000
0000
0000
,
0001
0000
0000
0010
0000
0000
0100
0000
0000
0000
0100
0000
0000
0000
0000
0000
,
1000
0000
0000
0100
0000
0000
0020
0000
0000
0000
0000
0000
0000
0000
0000
0000
,
0032
0000
0000
0000
2000
0000
0000
3003
,
1001
2002
0000
0000
,
3003
1000
0001
0100
,
0010
0100
0000
0010
0000
0100
0000
0010
,
0000
1000
0001
0000
1000
0000
0010
0000
,
1010
2020
0000
0000
,
3030
1000
0001
0100
,
0010
0000
1000
0001
0000
1000
0000
0001
,
1000
0100
0010
0001
,
1001
0000
0000
0000
;

//---------------dance-single - ----------------
#NOTES:
     dance-single:
     Lisek:
     Easy:
     2:
     0.118433,0.178978,0.023244,0.139464,0.000000,107.000000,104.000000,3.000000,18.000000,0.000000,0.000000,0.118433,0.178978,0.023244,0.139464,0.000000,107.000000,104.000000,3.000000,18.000000,0.000000,0.000000:
0000
0000
0000
0000
,
0000
0000
0000
0000
,
0000
0000
0000
0000
,
0000
0000
0000
0000
,
1000
0000
0000
0000
,
0001
0000
0000
0000
,
1000
0000
0000
0000
,
0001
0000
0000
0000
,
0100
0000
0000
0000
,
0010
0000
0000
0000
,
0100
0000
0000
0000
,
0010
0000
0000
0000
,
1000
0000
0100
0000
,
0010
0000
0001
0000
,
1000
0000
0010
0000
,
0100
0000
0001
0000
,
1000
0000
0010
0000
,
1000
0000
0100
0000
,
0010
0000
0001
0000
,
0100
0000
0001
0000
,
1000
0000
0010
0000
,
0100
0000
0002
0000
,
0000
0000
0000
0003
,
1000
0000
0001
0000
,
1000
0002
0000
0000
,
1003
0000
0000
0000
,
0001
0000
1000
0000
,
0010
0000
0100
0000
,
0010
0200
0000
0000
,
0301
0000
0000
0000
,
1000
0000
0010
0000
,
0100
0000
0001
0000
,
1000
0002
0000
0000
,
1003
0000
0100
0000
,
0010
0000
0001
0000
,
1000
0000
0010
0000
,
0100
0020
0000
0000
,
0130
0000
0001
0000
,
1000
0000
0010
0000
,
2002
0000
0000
0000
,
3003
1000
0001
1000
,
0000
0010
0100
0010
,
0000
1000
0001
1000
,
0000
0000
0000
0000
,
0000
0001
0100
0001
,
0000
1000
0010
1000
,
0000
0001
0100
0001
,
0000
0000
0000
0000
,
1001
0000
0000
0000
,
0002
0000
0000
0000
,
0203
0000
0000
0000
,
0320
0000
0000
0000
,
2030
0000
0000
0000
,
3200
0000
0000
0000
,
0320
0000
0000
0000
,
0032
0000
0000
0000
,
2003
0000
0000
0000
,
0002
0000
0000
3003
,
0001
2000
0000
0000
,
3010
0000
0100
0000
,
0001
0000
0010
0000
,
0100
0000
0010
0000
,
0001
0200
0000
0000
,
0310
0000
1000
0000
,
0001
0000
0100
0000
,
0001
0000
1000
0000
,
1001
0000
0000
0000
;

//---------------dance-single - ----------------
#NOTES:
     dance-single:
     Lisek:
     Beginner:
     1:
     0.055343,0.102273,0.007748,0.092976,0.000000,50.000000,49.000000,1.000000,12.000000,0.000000,0.000000,0.055343,0.102273,0.007748,0.092976,0.000000,50.000000,49.000000,1.000000,12.000000,0.000000,0.000000:
0000
0000
0000
0000
,
0000
0000
0000
0000
,
0000
0000
0000
0000
,
0000
0000
0000
0000
,
1000
0000
0000
0000
,
0001
0000
0000
0000
,
0000
0000
0000
0000
,
0000
0000
0000
0000
,
0001
0000
0000
0000
,
1000
0000
0000
0000
,
0000
0000
0000
0000
,
0000
0000
0000
0000
,
0001
0000
0000
0000
,
0100
0000
0000
0000
,
0001
0000
0000
0000
,
0100
0000
0000
0000
,
0010
0000
0000
0000
,
1000
0000
0000
0000
,
0010
0000
0000
0000
,
1000
0000
0000
0000
,
0001
0000
0000
0000
,
1000
0000
0000
0000
,
0000
0000
0000
0000
,
0000
0000
0000
0000
,
0002
0000
0000
0000
,
0000
0000
0000
0003
,
2000
0000
0000
0000
,
0000
0000
0000
3000
,
0020
0000
0000
0000
,
0000
0000
0000
0030
,
0200
0000
0000
0000
,
0000
0000
0000
0300
,
0001
0000
0000
0000
,
0100
0000
0000
0000
,
0001
0000
0000
0000
,
1000
0000
0000
0000
,
0010
0000
0000
0000
,
0100
0000
0000
0000
,
0010
0000
0000
0000
,
1000
0000
0000
0000
,
0001
0000
0000
0000
,
0100
0000
0000
0000
,
0001
0000
0000
0000
,
0000
0000
0000
0000
,
1000
0000
0000
0000
,
0010
0000
0000
0000
,
1000
0000
0000
0000
,
0000
0000
0000
0000
,
0000
0000
0000
0000
,
0002
0000
0000
0003
,
0020
0000
0000
0030
,
0200
0000
0000
0300
,
2000
0000
0000
3000
,
0002
0000
0000
0003
,
0020
0000
0000
0030
,
0200
0000
0000
0300
,
2000
0000
0000
3000
,
0000
0000
0000
0000
,
0001
0000
0000
0000
,
0100
0000
0000
0000
,
0001
0000
0000
0000
,
0100
0000
0000
0000
,
0010
0000
0000
0000
,
1000
0000
0000
0000
,
0010
0000
0000
0000
,
1000
0000
0000
0000
,
1001
0000
0000
0000
;
