#TITLE:Black Light Machine;
#ARTIST:Frost*;
#CREDIT:Lisek;
#BANNER:Black Light Machine.png;
#BACKGROUND:Black Light Machine-bg.png;
#CDTITLE:cdtitle.png;
#MUSIC:Black Light Machine.ogg;
#OFFSET:-0.047;
#SAMPLESTART:75.472;
#SAMPLELENGTH:13.674;
#SELECTABLE:YES;
#BPMS:0.000=140.000;

//---------------dance-single - Lisek----------------
#NOTES:
     dance-single:
     Lisek:
     Hard:
     8:
     0.526,0.566,0.065,0.382,0.061: // measure 1
0000
0000
0000
0000
,  // measure 2
0000
0000
0000
0000
,  // measure 3
0000
0000
0000
0000
,  // measure 4
0000
0000
0000
0000
,  // measure 5
1000
0000
0010
0000
0100
0100
0001
0000
,  // measure 6
0010
0000
0100
0000
1000
0001
0001
0000
,  // measure 7
0100
0000
0010
0000
1000
0100
0100
0000
,  // measure 8
0010
0011
0000
1001
,  // measure 9
1000
0010
0000
0010
0000
0010
0100
0000
,  // measure 10
0001
0010
0000
0010
0000
0010
0100
0000
,  // measure 11
1000
0010
0000
0010
0000
0010
0100
0000
,  // measure 12
0002
0203
0320
2030
,  // measure 13
3001
0010
0000
0010
0000
0010
0100
0000
,  // measure 14
1000
0010
0000
0010
0000
0010
0100
0000
,  // measure 15
0001
0010
0000
0010
0000
0010
0100
0000
,  // measure 16
2002
0000
0000
0000
0000
0000
0000
3003
,  // measure 17
1000
0000
0000
0010
0000
0000
0100
0000
0010
0000
1000
0000
0010
0000
0000
0000
,  // measure 18
1000
0100
1000
0000
0000
0000
0001
0000
0000
0000
0000
0000
0010
0000
0000
0000
,  // measure 19
0001
0100
0010
1000
0100
0010
0001
0001
,  // measure 20
0100
0010
1000
0010
0100
0001
1000
1000
,  // measure 21
0100
0010
0001
0010
0100
1000
0001
0001
,  // measure 22
2000
3200
0320
0032
,  // measure 23
1003
0010
0100
0010
1000
0100
0010
0010
,  // measure 24
0001
0100
0010
1000
0010
0100
0010
0010
,  // measure 25
1000
0100
0010
0001
0010
0100
0010
0001
,  // measure 26
2002
0000
0000
0000
0000
0000
0000
3003
,  // measure 27
1000
0010
0100
0001
0010
0000
0011
0000
,  // measure 28
0001
0100
0010
1000
0200
0000
0320
0000
,  // measure 29
0031
1000
0100
1000
0001
0000
1000
0000
,  // measure 30
0002
0203
0320
2030
,  // measure 31
3100
0010
0001
0100
0010
1000
0100
0100
,  // measure 32
1000
0001
0010
0100
0020
0000
0230
0000
,  // measure 33
1300
0100
0010
0100
1000
0010
1000
0001
,  // measure 34
2002
0000
0000
0000
0000
0000
0000
3003
,  // measure 35
0001
0000
0000
0000
0100
0000
0001
0000
0000
0001
0100
0000
0001
0000
0000
0000
,  // measure 36
0100
0000
0010
1000
0000
0010
0100
0000
0000
0000
0100
0000
0100
0000
0000
0000
,  // measure 37
0001
0000
0010
0000
0100
0000
1000
0000
0001
0000
0010
0100
0000
0000
1000
0000
,  // measure 38
0000
0000
0010
0000
1000
0000
0001
0000
0100
0000
0010
1000
0000
0000
0001
0000
,  // measure 39
0000
0000
1000
0000
0100
0000
0010
0000
0001
0000
1000
0100
0000
0000
0010
0000
,  // measure 40
0001
0000
0100
0010
0000
0000
1000
0000
0010
0000
0100
0000
0002
0000
0000
0000
,  // measure 41
0003
0000
1000
0000
0100
0000
0010
0000
0100
0000
1000
0100
0000
0000
0010
0000
,  // measure 42
0000
0000
0001
0000
0010
0000
0100
0000
0010
0000
0001
0010
0000
0000
0100
0000
,  // measure 43
0000
0000
1000
0000
0100
0000
0010
0000
0001
0000
0010
0100
0000
0000
0010
0000
,  // measure 44
0001
0000
1000
0010
0000
0000
0100
0000
0010
0000
1000
0000
0020
0000
0000
0000
,  // measure 45
1030
0100
0001
0100
1000
0100
0010
0010
,  // measure 46
0001
0100
1000
0100
0001
0010
0100
0100
,  // measure 47
1000
0010
0001
0010
1000
0100
0010
0001
,  // measure 48
2000
3002
0203
0320
,  // measure 49
1030
0100
0001
0100
1000
0010
0200
0000
,  // measure 50
0301
0010
1000
0010
0001
0100
0010
0010
,  // measure 51
1000
0010
0001
0010
1000
0010
0100
0100
,  // measure 52
0002
1000
2003
0001
3002
0100
0203
0000
,  // measure 53
0301
0010
0100
0001
0100
0010
0001
0100
,  // measure 54
0000
0010
1000
0100
0010
0100
1000
0000
,  // measure 55
0010
0100
1000
0100
0010
1000
0100
0010
,  // measure 56
0002
0203
0320
0230
,  // measure 57
0301
0100
0010
0100
1000
0100
0010
1000
,  // measure 58
0000
0100
0001
0100
0010
0001
0100
0000
,  // measure 59
0002
0203
0320
2030
,  // measure 60
3001
0010
0100
1000
0001
0100
0010
1000
,  // measure 61
1010
0000
1000
0001
0000
1000
0100
0000
;

//---------------dance-single - Lisek----------------
#NOTES:
     dance-single:
     Lisek:
     Medium:
     5:
     0.325,0.396,0.037,0.270,0.000:
0000
0000
0000
0000
,
0000
0000
0000
0000
,
0000
0000
0000
0000
,
0000
0000
0000
0000
,
1000
0010
0100
0000
,
0001
0010
0100
0000
,
1000
0001
0100
0000
,
0001
1000
0000
0001
,
1000
0000
0000
0010
0000
0010
0000
0000
,
0100
0000
0000
0001
0000
0001
0000
0000
,
1000
0000
0000
0010
0000
0010
0000
0000
,
0100
0010
0100
0010
,
0100
0000
0000
0001
0000
0001
0000
0000
,
1000
0000
0000
0010
0000
0010
0000
0000
,
1000
0000
0000
0001
0000
0001
0000
0000
,
1000
0001
1000
0001
,
2002
0000
0000
3003
,
0000
0000
0000
0000
,
0001
0010
0100
1000
,
1000
0100
0010
0001
,
0001
0100
0010
1000
,
0020
0230
0320
0230
,
0301
0100
0010
1000
,
1000
0010
0100
0001
,
0001
0010
0100
1000
,
0020
0230
0320
0000
,
1030
0100
0010
0001
,
0001
0100
0010
1000
,
1000
0100
0010
0001
,
0200
0320
0230
0320
,
1030
0010
0100
0001
,
0001
0010
0100
1000
,
1000
0010
0100
0001
,
2002
0000
0000
3003
,
0000
0000
0000
0000
,
0200
0000
0000
0300
0000
0010
0000
0000
,
1000
0000
0010
0000
1000
0010
1000
0000
,
0001
0000
0100
0000
0001
0100
0001
0000
,
1000
0000
0100
0000
1000
0100
1000
0000
,
0001
0100
0001
0000
0001
0100
0002
0000
,
1003
0000
0100
0000
1000
0100
1000
0000
,
0001
0000
0100
0000
0001
0100
0001
0000
,
1000
0000
0010
0000
1000
0010
1000
0000
,
0001
0100
0001
0000
0001
0100
0001
0000
,
1000
0100
0001
0100
,
1000
0010
0100
0001
,
0100
1000
0100
0001
,
0200
0320
0230
0320
,
1030
0010
0001
0010
,
1000
0100
0010
0001
,
0010
1000
0010
0001
,
2002
0000
0000
3003
,
0001
0000
1000
0000
0100
0010
0001
0000
,
1000
0000
0010
0000
0100
0010
0100
0000
,
0001
0000
0010
0000
0001
0010
0100
0000
,
2000
3002
0203
0320
,
1030
0000
0100
0000
0010
0100
1000
0000
,
0001
0000
0100
0000
0001
0100
0001
0000
,
1000
0000
0010
0000
1000
0100
0010
0000
,
2002
0000
0000
3003
,
1000
0000
0001
0000
0000
1000
0001
0000
;

//---------------dance-single - Lisek----------------
#NOTES:
     dance-single:
     Lisek:
     Beginner:
     1:
     0.071,0.083,0.000,0.037,0.000:
0000
0000
0000
0000
,
0000
0000
0000
0000
,
0000
0000
0000
0000
,
0000
0000
0000
0000
,
1000
0000
0000
0000
,
0001
0000
0000
0000
,
1000
0000
0000
0000
,
0001
0000
0000
0000
,
1000
0000
0000
0000
,
0010
0000
0000
0000
,
1000
0000
0000
0000
,
0010
0000
0000
0000
,
0100
0000
0000
0000
,
0001
0000
0000
0000
,
0100
0000
0000
0000
,
0001
0000
0000
0000
,
1000
0000
0000
0000
,
0000
0000
0000
0000
,
0002
0000
0000
0000
,
0000
0000
0000
0003
,
0200
0000
0000
0000
,
0000
0000
0000
0300
,
0020
0000
0000
0000
,
0000
0000
0000
0030
,
2000
0000
0000
0000
,
0000
0000
0000
3000
,
0001
0000
0000
0000
,
0100
0000
0000
0000
,
0001
0000
0000
0000
,
0100
0000
0000
0000
,
0010
0000
0000
0000
,
1000
0000
0000
0000
,
0010
0000
0000
0000
,
1000
0000
0000
0000
,
0000
0000
0000
0000
,
0000
0000
0000
0000
,
0001
0000
0000
0000
,
0100
0000
0000
0000
,
0001
0000
0000
0000
,
0100
0000
0000
0000
,
0010
0000
0000
0000
,
1000
0000
0000
0000
,
0010
0000
0000
0000
,
1000
0000
0000
0000
,
0001
0000
0000
0000
,
1000
0000
0000
0000
,
0001
0000
0000
0000
,
1000
0000
0000
0000
,
0010
0000
0000
0000
,
0100
0000
0000
0000
,
0010
0000
0000
0000
,
0100
0000
0000
0000
,
0001
0000
0000
0000
,
0010
0000
0000
0000
,
0100
0000
0000
0000
,
1000
0000
0000
0000
,
0001
0000
0000
0000
,
0100
0000
0000
0000
,
0010
0000
0000
0000
,
1000
0000
0000
0000
;

//---------------dance-single - Lisek----------------
#NOTES:
     dance-single:
     Lisek:
     Easy:
     2:
     0.141,0.142,0.000,0.131,0.000:
0000
0000
0000
0000
,
0000
0000
0000
0000
,
0000
0000
0000
0000
,
0000
0000
0000
0000
,
1000
0000
0000
0000
,
0010
0000
0000
0000
,
0100
0000
0000
0000
,
0001
0000
1000
0000
,
0002
0000
0000
0003
,
0020
0000
0000
0030
,
0002
0000
0000
0003
,
0010
0000
0010
0000
,
0200
0000
0000
0300
,
2000
0000
0000
3000
,
0200
0000
0000
0300
,
1000
0000
1000
0000
,
0001
0000
0000
0000
,
0000
0000
0000
0000
,
1000
0000
0010
0000
,
1000
0000
0010
0000
,
1000
0000
0100
0000
,
1000
0000
0100
0000
,
0010
0000
0001
0000
,
0010
0000
0001
0000
,
0100
0000
0001
0000
,
0100
0000
0010
0000
,
1000
0000
0100
0000
,
1000
0000
0100
0000
,
0010
0000
0100
0000
,
0010
0000
0001
0000
,
1000
0000
0010
0000
,
1000
0000
0010
0000
,
0100
0000
0001
0000
,
0100
0000
0010
0000
,
2000
0000
0000
3000
,
0000
0000
0000
0000
,
0001
0000
0100
0000
,
0001
0000
0100
0000
,
0010
0000
1000
0000
,
0010
0000
0010
0000
,
0100
0000
0001
0000
,
0100
0000
0001
0000
,
1000
0000
0010
0000
,
1000
0000
1000
0000
,
0010
0000
0100
0000
,
0001
0000
1000
0000
,
0100
0000
0010
0000
,
0001
0000
0001
0000
,
0100
0000
0010
0000
,
1000
0000
0100
0000
,
1000
0000
0001
0000
,
0100
0000
0100
0000
,
0020
0000
0000
0030
,
2000
0000
0000
3000
,
0002
0000
0000
0003
,
0100
0000
0100
0000
,
0020
0000
0000
0030
,
2000
0000
0000
3000
,
0002
0000
0000
0003
,
0100
0000
0100
0000
,
0002
0000
0000
0003
;
