#VERSION:0.83;
#TITLE:Kill This Love + Love Shot + Me + Bon Bon Chocolat;
#SUBTITLE:;
#ARTIST:BLACKPINK x EXO x CLC x EVERGLOW;
#TITLETRANSLIT:;
#SUBTITLETRANSLIT:;
#ARTISTTRANSLIT:;
#GENRE:;
#ORIGIN:;
#CREDIT:KimLipton;
#BANNER:banner.png;
#BACKGROUND:background.png;
#PREVIEWVID:;
#JACKET:jacket.png;
#CDIMAGE:;
#DISCIMAGE:;
#LYRICSPATH:;
#CDTITLE:;
#MUSIC:Kill This Love + Love Shot + Me + Bon Bon Chocolat.ogg;
#OFFSET:-0.304000;
#SAMPLESTART:64.550003;
#SAMPLELENGTH:12.000000;
#SELECTABLE:YES;
#BPMS:0.000=146.723,
120.000=147.000,
196.000=146.000,
252.000=147.500;
#STOPS:;
#DELAYS:;
#WARPS:;
#TIMESIGNATURES:0.000=4=4;
#TICKCOUNTS:0.000=4;
#COMBOS:0.000=1;
#SPEEDS:0.000=1.000=0.000=0;
#SCROLLS:0.000=1.000;
#FAKES:;
#LABELS:0.000=Song Start;
#BGCHANGES:0.000=Kill This Love + Love Shot + Me + Bon Bon Chocolat.avi=1.000=0=0=1===CrossFade_Fastest==,
99999=-nosongbg-=1.000=0=0=0 // don't automatically add -songbackground-
;
#KEYSOUNDS:;
#ATTACKS:
;

//---------------dance-single - ----------------
#NOTEDATA:;
#CHARTNAME:;
#STEPSTYPE:dance-single;
#DESCRIPTION:;
#CHARTSTYLE:;
#DIFFICULTY:Challenge;
#METER:13;
#RADARVALUES:0.480521,0.667267,0.206106,0.214350,0.387479,408.000000,383.000000,25.000000,26.000000,0.000000,0.000000,0.000000,0.000000,0.000000,0.480521,0.667267,0.206106,0.214350,0.387479,408.000000,383.000000,25.000000,26.000000,0.000000,0.000000,0.000000,0.000000,0.000000;
#CREDIT:;
#NOTES:
// measure 0
0000
0000
0000
0000
,  // measure 1
0000
0000
0000
0000
,  // measure 2
2000
0010
0010
3010
,  // measure 3
0002
0100
0100
0103
,  // measure 4
0110
0000
0000
0100
0000
1000
0100
0000
0000
0000
0000
0001
,  // measure 5
0010
0000
0001
0010
0000
0001
0010
0000
0000
0110
0000
0000
,  // measure 6
1000
0100
0010
0001
0000
0000
0001
0010
0100
1000
0000
0000
,  // measure 7
1000
0100
0010
0001
0010
0100
1000
0100
0010
0001
0000
0000
,  // measure 8
1000
0100
0010
1000
0000
0000
1000
0100
0000
0001
0010
0000
,  // measure 9
0100
0000
0000
1001
0000
0000
0000
0000
0000
1000
0000
0100
,  // measure 10
1000
0100
0010
0001
0000
0000
0020
0000
0000
0031
0000
0000
,  // measure 11
0000
0000
0000
1001
0000
0000
0000
0000
0000
1000
0000
0100
,  // measure 12
0010
0000
0010
0100
0000
0100
0010
0000
0000
0110
0000
0100
,  // measure 13
0010
0000
0010
0100
0000
0100
0010
0000
0000
0110
0000
0000
,  // measure 14
1000
0000
0100
0001
0000
0001
0100
0000
0000
0100
0000
0000
,  // measure 15
0100
0010
0000
0100
1000
0000
0100
0000
0010
0100
0000
0000
,  // measure 16
0110
0000
0000
0000
0110
0000
0000
0000
1000
0001
0000
0000
0100
0010
0000
0000
,  // measure 17
0001
1000
0010
0000
0100
0000
1000
0000
0100
0000
0010
0000
0001
0000
0000
0000
,  // measure 18
1000
0100
0000
0000
0100
0010
0000
0000
0010
0001
0000
0000
0001
0100
0000
0000
,  // measure 19
0000
0001
0010
0100
1000
0100
0010
0000
,  // measure 20
1000
0100
1000
0100
1000
0100
1000
0000
0000
0001
0010
0001
,  // measure 21
0010
0000
0000
0001
0010
0100
1000
0000
0000
1001
0000
0000
,  // measure 22
1000
0100
0010
0001
0000
0000
0001
0010
0100
1000
0000
0000
,  // measure 23
1000
0100
0010
0001
0010
0100
1000
0000
0000
1001
0000
0000
,  // measure 24
1000
0100
1000
0000
0000
0000
0000
0000
0001
0010
0001
0000
0000
0000
0000
0000
,  // measure 25
1000
0100
0010
0000
0000
0000
0000
0000
0001
0010
0100
0000
0000
0000
0000
0000
,  // measure 26
0200
0000
0010
0010
0010
0000
0010
0000
,  // measure 27
0310
0000
0000
0010
0000
0000
0010
0000
,  // measure 28
1000
0100
1000
0000
0000
0000
0000
0000
0100
0010
0100
0000
0000
0000
0000
0000
,  // measure 29
0001
0010
0001
0000
0000
0000
0000
0000
0010
0100
0010
0000
0000
0000
0000
0000
,  // measure 30
0000
0100
0010
0001
0010
0000
0010
0000
,  // measure 31
0100
1000
0100
0010
0100
0000
0100
0000
,  // measure 32
2000
0100
0100
0000
3002
0010
0010
0000
,  // measure 33
2003
0001
0001
0000
3002
1000
1000
0000
,  // measure 34
0203
0010
0010
0000
0320
0100
0100
0000
,  // measure 35
0230
1000
1000
0000
0320
0001
0001
0000
,  // measure 36
1030
0100
0010
0001
0010
0000
0010
0000
,  // measure 37
0020
0030
0110
0000
,  // measure 38
2000
0100
3200
0010
0320
0001
0032
1000
,  // measure 39
2003
0100
3000
0000
2000
0000
3000
0000
,  // measure 40
2000
0000
0000
0000
3100
0010
0000
0000
0100
1000
0000
0000
0100
0010
0000
0000
,  // measure 41
0110
2002
0000
3003
,  // measure 42
1000
0000
0000
0100
0000
0010
0001
0000
0010
0001
0000
0010
,  // measure 43
0000
0220
0000
0330
,  // measure 44
1000
0100
0000
0000
0100
0010
0000
0000
0010
0001
0000
0000
0001
1000
0000
0000
,  // measure 45
0220
0000
0330
0000
,  // measure 46
1000
0100
1000
0100
,  // measure 47
0110
0000
0110
0000
,  // measure 48
1000
0000
0100
0000
0010
0000
0001
0000
0010
0100
0010
0000
0100
0010
0100
0000
,  // measure 49
0110
0000
0110
0000
,  // measure 50
1001
0000
1001
0000
,  // measure 51
1000
0001
1000
0001
,  // measure 52
0100
0010
0100
0010
,  // measure 53
1000
0000
0000
0100
0010
0000
0000
0000
0001
0000
0000
0000
0010
0100
0000
0000
,  // measure 54
1000
0000
0100
0010
0001
0000
0010
0000
0010
0000
0010
0000
0010
0000
0000
0000
,  // measure 55
0100
0010
0100
0010
0100
0010
0100
0010
0100
0010
0100
0010
0100
0010
0100
0010
,  // measure 56
0100
0000
0110
0110
,  // measure 57
0100
0000
0010
0000
0100
0000
0001
0010
0100
0000
0010
0000
0100
0000
1000
0000
,  // measure 58
0100
0000
0010
0000
0001
0000
0010
0100
1000
0000
0000
0000
0100
0000
0010
0000
,  // measure 59
0100
0000
0010
0000
0100
0000
0010
0001
0010
0000
0100
0000
1000
0000
0100
0000
,  // measure 60
0010
0000
0001
0000
0010
0000
0100
1000
0100
0000
0010
0000
0100
0000
0000
0000
,  // measure 61
0100
0000
0010
0000
0001
0000
0010
0100
1000
0000
0100
0000
0010
0000
0001
0000
,  // measure 62
0010
0000
0100
0000
1000
0000
0100
0010
0001
0000
0000
0000
1001
0000
0000
0000
,  // measure 63
1000
0000
0100
0000
0010
0000
0001
0010
0100
0000
1000
0000
0100
0000
0010
0000
,  // measure 64
0001
0000
0010
0000
0100
0000
1000
0100
0010
0000
0000
0000
0110
0000
0000
0000
;
