#VERSION:0.83;
#TITLE:Eclipse x New (80's Ver. Remix);
#SUBTITLE:;
#ARTIST:LOONA (KimLip & Yves) feat. jxnsoull;
#TITLETRANSLIT:;
#SUBTITLETRANSLIT:;
#ARTISTTRANSLIT:;
#GENRE:;
#ORIGIN:;
#CREDIT:KimLipton;
#BANNER:Eclipse x New (80's Ver. Remix) - bn.png;
#BACKGROUND:Eclipse x New (80's Ver. Remix) - bg.png;
#PREVIEWVID:;
#JACKET:Eclipse x New (80's Ver. Remix) - jacket.png;
#CDIMAGE:;
#DISCIMAGE:;
#LYRICSPATH:;
#CDTITLE:;
#MUSIC:Eclipse x New (80's Ver. Remix).ogg;
#OFFSET:-0.264000;
#SAMPLESTART:58.515999;
#SAMPLELENGTH:12.000000;
#SELECTABLE:YES;
#BPMS:0.000=103.000;
#STOPS:;
#DELAYS:;
#WARPS:;
#TIMESIGNATURES:0.000=4=4;
#TICKCOUNTS:0.000=4;
#COMBOS:0.000=1;
#SPEEDS:0.000=1.000=0.000=0;
#SCROLLS:0.000=1.000;
#FAKES:;
#LABELS:0.000=Song Start;
#BGCHANGES:;
#KEYSOUNDS:;
#ATTACKS:
;

//---------------dance-single - ----------------
#NOTEDATA:;
#CHARTNAME:;
#STEPSTYPE:dance-single;
#DESCRIPTION:;
#CHARTSTYLE:;
#DIFFICULTY:Challenge;
#METER:10;
#RADARVALUES:0.367675,0.448525,0.536193,0.142985,0.150134,360.000000,285.000000,75.000000,20.000000,0.000000,0.000000,0.000000,0.000000,0.000000,0.367675,0.448525,0.536193,0.142985,0.150134,360.000000,285.000000,75.000000,20.000000,0.000000,0.000000,0.000000,0.000000,0.000000;
#CREDIT:;
#NOTES:
0000
0000
0000
0000
,
1000
1000
1000
1000
,
0001
0001
0001
0001
,
1000
1000
1000
1000
,
1000
0000
0100
1000
0100
0000
0010
0100
0000
0010
0100
0000
0110
0000
0000
0000
,
0001
0000
0010
0001
0010
0000
0010
0100
0000
0010
0100
0000
0110
0000
0000
0000
,
0100
0000
0100
0010
0100
0000
0010
0100
0000
0010
0100
0000
0000
0000
0220
0000
,
0000
0000
0330
0000
0010
0100
0010
0100
,
0100
0000
0010
0002
0000
0000
0003
0000
0001
0000
0001
0010
0100
0000
0001
0000
,
0100
0000
0010
0100
0000
0000
0000
0000
1001
0000
1000
0000
0010
0000
0100
0000
,
0010
0000
0010
0200
0000
0000
0000
0000
0300
0000
0100
0000
0100
0000
0200
0000
,
0000
0000
0320
0000
0030
0120
0100
0230
,
0000
0000
0000
0000
1300
0100
0000
0100
0000
0100
0010
0000
0010
0000
0000
0000
,
0100
1001
0010
1001
,
0200
0310
0020
0130
,
0200
0310
0020
0130
,
0110
0000
0000
0000
0100
0010
0000
0010
0000
0000
0010
0000
0000
0000
0000
0000
,
0110
1001
0110
1001
,
2000
3001
0002
1003
,
2000
3100
0020
0031
,
0000
0000
1001
0000
0000
0110
0000
0000
1001
0000
0000
0000
0110
0000
0000
0000
,
0000
0000
1001
0000
0000
0110
0000
0000
1001
0000
0000
0000
0110
0000
0000
0000
,
1000
0100
1000
0000
0001
0010
0001
0000
,
1000
0100
0010
0000
0001
0010
0100
0000
,
0000
0000
1100
0000
0000
1100
0000
0000
1100
0000
0000
0000
0110
0000
0000
0000
,
0000
0000
0011
0000
0000
0011
0000
0000
0011
0000
0000
0000
0110
0000
0000
0000
,
1000
0000
1001
0000
,
0011
0000
0000
1100
0000
0000
0011
0000
0000
0000
0000
0000
1001
0000
0000
0000
,
0000
0000
1000
0100
0010
0000
0100
0010
0000
0100
0010
0000
0000
0000
0000
0000
,
0000
0000
0001
0010
0100
0000
0010
0100
0000
0010
0100
0000
0000
0000
0000
0000
,
0000
0000
1000
0100
0010
0000
0001
0010
0000
0100
1000
0000
0000
0000
0220
0000
,
0000
0330
0000
0000
1000
0100
0010
0001
,
0000
0220
0000
0000
0300
0030
0000
0000
,
1000
1100
0010
0011
,
0100
1100
0100
0110
,
0010
0000
0011
0000
0000
1001
0110
1001
,
0000
1000
0000
1001
,
0000
0001
0000
1001
,
1000
1000
0001
0001
,
1000
0000
0100
0000
0010
0001
0010
0000
,
0100
0000
0110
0000
,
0010
0000
0110
0000
,
1000
0000
1100
0010
,
0011
0010
0110
0100
,
0000
0000
1001
0000
0000
1001
0000
0000
1001
0000
0000
0000
0110
0000
0000
0000
,
0000
0000
0110
0000
0000
0110
0000
0000
0110
0000
0000
0000
1001
0000
0000
0000
,
1000
0100
0010
0000
0001
0010
0100
0000
,
1000
0100
0010
0001
0010
0100
1000
0100
,
0000
0000
1100
0000
0000
0011
0000
0000
1100
0000
0000
0000
1100
0000
0000
0000
,
0000
0000
0011
0000
0000
1100
0000
0000
0011
0000
0000
0000
0011
0000
0000
0000
,
1000
1100
0010
0011
,
1000
0100
0010
0001
,
1000
0100
1000
0000
0001
0010
0100
1000
,
0100
0010
0001
0000
1001
0000
1000
0100
,
0010
0000
1001
0000
1000
0100
0010
0001
,
1000
0100
0000
0000
0001
0010
0000
0000
1000
0100
0000
0000
0001
0010
0000
0000
,
0110
0000
0110
0000
1000
0100
0010
0001
,
0010
0100
1000
0000
1001
0000
0000
0000
,
1000
0000
0100
1000
0000
0100
0000
0000
0100
0000
0000
0000
0100
0000
0010
0000
,
0000
0110
0000
0110
;
