#TITLE:Wrecking Ball;
#SUBTITLE:Sensibility Validation;
#ARTIST:Miley Cyrus;
#TITLETRANSLIT:;
#SUBTITLETRANSLIT:;
#ARTISTTRANSLIT:;
#GENRE:;
#CREDIT:;
#MUSIC:Wrecking Ball.ogg;
#BANNER:Wrecking Ball-bn.png;
#BACKGROUND:Wrecking Ball-bg.png;
#CDTITLE:;
#SAMPLESTART:40.890;
#SAMPLELENGTH:20.200;
#SELECTABLE:YES;
#OFFSET:-0.176;
#BPMS:0.000=120.000;
#STOPS:;
#BGCHANGES:;
#FGCHANGES:;

//--------------- dance-single - LinkDude03 ----------------
#NOTES:
     dance-single:
     LinkDude03:
     Beginner:
     2:
     0,0,0,0,0:
0000
0000
0000
0000
,
0000
0000
0000
0000
,
0000
0000
0000
0000
,
0000
0000
0000
0000
,
0001
0000
1000
0000
,
0001
0000
1000
0000
,
1100
0000
0010
0000
,
0001
0000
0000
0000
,
1000
0000
0100
0000
,
1000
0000
0100
0000
,
1100
0000
0100
0000
,
1000
0000
0000
0000
,
0001
0000
1000
0000
,
0100
0000
1000
0000
,
0100
0000
0010
0000
,
0001
0000
0000
0000
,
0010
0000
0001
0000
,
1000
0000
0010
0000
,
0100
0000
0010
0000
,
1000
0000
0000
0000
,
0000
0000
0010
0000
,
M20M
0300
0000
0000
0020
0000
0000
0000
,
M00M
0030
0000
0000
0100
0000
0000
0000
,
M0M2
0003
0000
0000
0200
0000
0000
0000
,
M0M0
0300
0000
0000
0010
0000
0000
0000
,
2M0M
3000
0000
0000
0020
0000
0000
0000
,
0M0M
0030
0000
0000
1000
0000
0002
0000
,
0MM0
0003
0000
0000
0010
0000
0000
0000
,
MM02
0003
0000
0000
0000
0000
0000
0020
,
MM00
0030
0000
0000
0001
0000
0000
0000
,
0010
0000
0000
0000
,
0001
0000
0010
0000
,
0100
0000
1000
0000
,
1100
0000
1000
0000
,
0100
0000
0000
0000
,
0010
0000
0001
0000
,
1000
0000
0010
0000
,
0110
0000
0001
0000
,
0100
0000
0000
0000
,
0010
0000
0100
0000
,
0001
0000
1000
0000
,
0001
0000
0100
0000
,
0001
0000
0000
0000
,
1000
0000
0001
0000
,
1000
0000
0010
0000
,
0100
0000
0001
0000
,
1000
0000
0100
0000
,
20MM
3000
0000
0000
0020
0000
0000
0000
,
0M0M
0030
0000
0000
1000
0000
0000
0000
,
0M2M
0030
0000
0000
2000
0000
0000
0000
,
0M0M
3000
0000
0000
0001
0000
0000
0000
,
2MM0
3000
0000
0000
0020
0000
0000
0000
,
0M0M
0030
1000
0000
0000
0000
0020
0000
,
0M0M
0030
0000
0000
0100
0000
0000
0000
,
M0M2
0003
0000
0000
0100
0000
0000
0000
,
M0M2
0003
0000
0000
2000
0000
0000
0000
,
0MM0
3000
0000
0000
0100
0000
0000
0000
,
M02M
0030
0000
0000
0200
0000
0000
0000
,
M00M
0300
0000
0000
1000
0000
0000
0000
,
02MM
0300
0000
0000
0020
0000
0000
0000
,
M00M
0030
0000
0000
0100
0000
0020
0000
,
M00M
0030
0000
0000
0001
0000
0000
0000
,
MM20
0030
0000
0000
0000
0000
0000
0200
,
M00M
0300
0000
0000
1000
0000
0000
0000
,
0100
0000
0000
0000
,
0000
0000
0000
0000
,
1000
0000
0001
0000
,
0100
0000
0000
0000
,
0001
0000
0100
0000
,
0001
0000
0000
0000
,
0100
0000
0001
0000
,
1000
0000
0000
0000
,
0100
0000
1000
0000
,
0010
0000
0000
0000
,
0100
0000
0001
0000
,
0100
0000
0000
0000
,
0001
0000
1000
0000
,
0100
0000
0000
0000
,
0010
0000
0001
0000
,
0010
0000
0000
0000
,
0000
0000
0000
0000
,
0100
0000
0010
0000
,
0001
0000
1000
0000
,
0001
0000
0010
0000
,
0001
0000
0000
0000
,
0000
0000
1000
0000
,
0MM2
0003
0000
0000
2000
0000
0000
0000
,
0MM0
3000
0000
0000
0100
0000
0000
0000
,
M02M
0030
0000
0000
0002
0000
0000
0000
,
MM00
0003
0000
0000
1000
0000
0000
0000
,
0M2M
0030
0000
0000
2000
0000
0000
0000
,
0M0M
3000
0000
0000
0100
0000
2000
0000
,
00MM
3000
0000
0000
0100
0000
0000
0000
,
20MM
3000
0000
0000
0001
0000
0000
0000
,
2MM0
3000
0000
0000
0200
0000
0000
0000
,
00MM
0300
0000
0000
1000
0000
0000
0000
,
02MM
0300
0000
0000
0020
0000
0000
0000
,
M00M
0030
0000
0000
0001
0000
0000
0000
,
MM20
0030
0000
0000
0002
0000
0000
0000
,
MM00
0003
0000
0000
1000
0000
0020
0000
,
0M0M
0030
0000
0000
0100
0000
0000
0000
,
M02M
0030
0000
0000
0000
0000
0000
2000
,
0M0M
3000
0000
0000
0010
0000
0000
0000
,
M20M
0300
0000
0000
0000
0000
0000
0020
,
M00M
0030
0000
0000
0100
0000
0000
0000
,
0001
0000
0000
0000
;

//--------------- dance-single - LinkDude05 ----------------
#NOTES:
     dance-single:
     LinkDude05:
     Easy:
     3:
     0,0,0,0,0:
0000
0000
0000
0000
,
0000
0000
0000
0000
,
0000
0000
0000
0000
,
0000
0000
0000
0001
,
1000
0001
1000
0100
,
0010
0000
0001
0000
1000
0000
0000
1010
,
0000
0000
1000
0100
,
0000
1000
0000
0000
0000
0000
0100
0000
,
1000
0001
0100
0001
,
1000
0000
0100
0000
0010
0000
0000
0011
,
0000
0000
0010
0001
,
0000
1000
0000
0000
0000
0000
0000
0000
,
0010
0100
0010
1000
,
0010
0100
0010
0100
,
0001
0000
0100
0000
0010
0000
0000
1000
,
0000
0010
0000
0000
0000
0000
0000
0000
,
1000
0001
0010
0001
,
0010
0001
0010
0001
,
1000
0000
0010
0000
1000
0000
0000
0100
,
0000
0010
0000
0000
0000
0000
0000
0000
,
0000
0000
0001
0010
,
MM02
0000
0000
0003
2000
0000
0000
0000
,
0MM0
0000
0000
3000
0010
0000
0100
0000
,
M0M2
0000
0000
0003
0200
0000
0000
0000
,
M0M0
0300
0010
0000
0100
0000
0001
0000
,
2MM0
0000
0000
3000
0002
0000
0000
0000
,
0MM0
0003
0100
0000
0001
0000
2000
0000
,
0MM0
0000
0000
0000
0000
0000
3000
0000
0001
0000
0000
1000
0000
0000
0000
0000
,
0M2M
0000
0000
0000
0000
0000
0030
0200
,
M00M
0000
0000
0000
0000
0000
0300
0000
0001
0000
0000
1000
0000
0000
0000
0000
,
0100
0000
0000
1000
,
0010
1000
0100
0010
,
0001
0000
1000
0000
0010
0000
0000
1010
,
0000
0000
0010
1000
,
0000
0100
0000
0000
0000
0000
1000
0000
,
0001
0100
1000
0100
,
0001
0000
1000
0000
0100
0000
0000
0110
,
0000
0000
0100
0010
,
0000
0001
0000
0000
0000
0000
0000
0000
,
0010
0100
1000
0100
,
1000
0001
0100
0001
,
0100
0000
0001
0000
0100
0000
0000
0001
,
0000
1000
0000
0000
0000
0000
0000
0000
,
0100
1000
0010
0100
,
0001
0100
0001
1000
,
0100
0000
0010
0000
0001
0000
0000
0010
,
0000
0100
0000
0000
0010
0000
0001
0000
,
2MM0
0000
0000
3000
0002
0000
0000
0000
,
0MM0
0000
0000
0003
0010
0000
0001
0000
,
2MM0
0000
0000
3000
0002
0000
0000
0000
,
0MM0
0003
1000
0000
0100
0000
0010
0000
,
MM02
0000
0000
0003
2000
0000
0000
0000
,
0MM0
3000
0010
0000
1000
0000
0200
0000
,
00MM
0000
0000
0000
0000
0000
0300
0000
1000
0000
0000
0100
0000
0000
0000
0000
,
20MM
0000
0000
3000
0001
0000
1000
0000
,
02MM
0000
0000
0300
2000
0000
0000
0000
,
00MM
0000
0000
3000
0100
0000
0010
0000
,
MM02
0000
0000
0003
0020
0000
0000
0000
,
MM00
0030
0001
0000
1000
0000
0010
0000
,
M20M
0000
0000
0300
0020
0000
0000
0000
,
M00M
0030
1000
0000
0010
0000
0200
0000
,
M00M
0000
0000
0000
0000
0000
0300
0000
0010
0000
0000
0100
0000
0000
0000
0000
,
M0M2
0000
0000
0000
0000
0000
0003
0200
,
M0M0
0000
0000
0000
0000
0000
0300
0000
0010
0000
0000
1000
0000
0000
0000
0000
,
0010
0000
0000
0000
,
0000
0000
0000
0000
,
1000
0000
0001
0000
0010
0000
0000
0001
,
0000
0000
0000
0000
,
0010
0000
0001
0000
0010
0000
0000
0001
,
0000
0000
0000
0000
,
1000
0000
0010
0000
1000
0000
0000
0100
,
0000
0000
0000
0000
,
0010
0000
0001
0000
0010
0000
0000
0001
,
0000
0000
0000
0000
,
1000
0000
0010
0000
0100
0000
0000
0001
,
0000
0000
0000
0000
,
0100
0000
0010
0000
0100
0000
0000
0001
,
0000
0000
0000
0000
,
1000
0000
0001
0000
0100
0000
0000
0001
,
0000
0000
0000
0000
,
0000
0000
0000
0000
,
1000
0001
1000
0010
,
0100
0001
1000
0100
,
1000
0000
0010
0000
1000
0000
0000
0010
,
0000
1000
0000
0000
0000
0000
0000
0000
,
0000
0000
0001
1000
,
0M2M
0000
0000
0030
2000
0000
0000
0000
,
0M0M
0000
0000
3000
0010
0000
0100
0000
,
M0M2
0000
0000
0003
0200
0000
0000
0000
,
M0M0
0300
0001
0000
1000
0000
0100
0000
,
M02M
0000
0000
0030
0200
0000
0000
0000
,
M00M
0300
1000
0000
0100
0000
0020
0000
,
M00M
0000
0000
0000
0000
0000
0030
0000
0100
0000
0000
0010
0000
0000
0000
0000
,
MM02
0000
0000
0003
0010
0000
0100
0000
,
20MM
0000
0000
3000
0200
0000
0000
0000
,
00MM
0000
0000
0300
1000
0000
0001
0000
,
M2M0
0000
0000
0300
0002
0000
0000
0000
,
M0M0
0000
0000
0003
0100
0000
0001
0000
,
M2M0
0000
0000
0300
0002
0000
0000
0000
,
M0M0
0003
1000
0000
0100
0000
2000
0000
,
00MM
0000
0000
0000
0000
0000
3000
0000
0010
0000
0000
0100
0000
0000
0000
0000
,
M0M2
0000
0000
0000
0000
0000
0003
0200
,
M0M0
0000
0000
0000
0000
0000
0300
0000
0001
0000
0000
1000
0000
0000
0000
0000
,
02MM
0000
0000
0000
0000
0000
0300
0020
,
M00M
0000
0000
0000
0000
0000
0030
0000
0001
0000
0000
0010
0000
0000
0000
0000
,
0000
0100
0000
0000
0000
0000
0000
0000
0000
0000
0000
0000
0000
0000
0000
0000
0000
0000
0000
0000
0000
0000
0000
0000
0000
0000
0000
0000
0000
0000
0000
0000
;

//--------------- dance-single - LinkDude09 ----------------
#NOTES:
     dance-single:
     LinkDude09:
     Medium:
     6:
     0,0,0,0,0:
0000
0000
0000
0000
,
0000
0000
0000
0000
,
0000
0000
0000
0000
,
0000
0000
0000
0001
,
1000
0001
1000
0100
,
0010
0000
0001
0000
1000
0000
0000
1010
,
0000
0000
0000
0000
0010
1000
0100
1000
,
0000
0001
0000
0000
0000
0000
1000
0000
,
0010
1000
0100
0010
,
0001
0000
0010
0000
0001
0000
0000
1010
,
0000
0000
0000
0000
1000
0010
1000
0100
,
0000
0010
0000
0000
0000
0000
0000
0000
,
0100
0000
0010
0000
0001
0010
0100
0000
,
1000
0000
0010
0000
1000
0001
0010
0000
,
0001
0000
0000
0000
0100
0000
0000
0000
0001
0000
0000
0100
0000
0000
0001
0000
,
0000
1000
0000
0000
0000
0000
0000
0000
,
0010
0000
1000
0000
0010
0100
0001
0000
,
0010
0000
0001
0000
1000
0010
0100
0000
,
0001
0000
0000
0000
0010
0000
0000
0000
0100
0000
0000
0010
0000
0000
0001
0000
,
0000
1000
0000
0000
0000
0000
0000
0000
,
0000
0000
0000
0001
0010
0001
1000
0001
,
2MM0
0000
0000
3010
0200
0000
0000
0000
,
M00M
0000
0000
0301
1000
0100
1000
0010
,
2M0M
0000
0000
3010
2000
0000
0000
0000
,
0M0M
0000
3001
1000
0100
1000
0100
0010
,
MM02
0000
0000
0103
0002
0000
0000
0000
,
M0M0
0000
1003
0100
0010
0100
1000
0020
,
0M0M
0000
0000
0000
0000
0000
0000
0000
0130
0000
0000
0010
0000
0000
0100
0000
,
M0M2
0000
0000
0000
0000
0000
0103
0020
,
M00M
0000
0000
0000
0000
0000
1030
0000
0100
0000
0000
1000
0000
0000
0001
0000
,
0100
0000
0000
0001
,
0010
0001
0100
0010
,
1000
0000
0100
0000
1000
0000
0000
0110
,
0000
0000
0000
0000
0001
0100
0001
1000
,
0000
0100
0000
0000
0000
0000
1000
0000
,
0001
0100
1000
0100
,
0001
0000
0010
0000
0001
0000
0000
0011
,
0000
0000
0000
0000
1000
0001
1000
0100
,
0000
0010
0000
0000
0000
0000
0000
0000
,
0001
0000
1000
0000
0010
1000
0100
0000
,
1000
0000
0100
0000
1000
0001
1000
0000
,
0010
0000
0000
0000
1000
0000
0000
0000
0010
0000
0000
0100
0000
0000
0001
0000
,
0000
0010
0000
0000
0000
0000
0000
0000
,
0001
0000
1000
0000
0010
0100
0010
0000
,
1000
0000
0100
0000
0010
0100
0010
0000
,
0001
0000
0000
0000
0010
0000
0000
0000
0100
0000
0000
1000
0000
0000
0010
0000
,
0000
1000
0000
0001
0010
0001
0100
0001
,
M2M0
0000
0000
0301
2000
0000
0000
0000
,
0MM0
0000
0000
3010
1000
0010
0100
0001
,
MM20
0000
0000
0031
2000
0000
0000
0000
,
0MM0
0000
3010
0100
0001
0010
0100
0010
,
MM02
0000
0000
1003
0002
0000
0000
0000
,
0MM0
0000
0013
0001
1000
0001
1000
0020
,
0M0M
0000
0000
0000
0000
0000
0000
0000
0130
0000
0000
0001
0000
0000
1000
0000
,
02MM
0000
0000
1300
0010
1000
0010
1000
,
0MM2
0000
0000
1003
0200
0000
0000
0000
,
00MM
0000
0000
1300
0100
0010
0001
0100
,
M0M2
0000
0000
1003
0200
0000
0000
0000
,
00MM
0000
0310
0100
1000
0010
0100
0010
,
M20M
0000
0000
0301
0200
0000
0000
0000
,
M0M0
0000
0310
1000
0100
1000
0001
0200
,
M0M0
0000
0000
0000
0000
0000
0000
0000
0301
0000
0000
0010
0000
0000
0001
0000
,
MM20
0000
0000
0000
0000
0000
0031
2000
,
0MM0
0000
0000
0000
0000
0000
3100
0000
1000
0000
0000
0100
0000
0000
0010
0000
,
0001
0000
0000
0000
,
0000
0000
0000
0000
,
0100
0001
1000
0100
0010
0000
0001
0100
,
0000
0000
0000
0000
0000
0000
0000
0010
,
0100
0001
1000
0001
0100
0000
0001
1000
,
0000
0000
0000
0000
,
0001
1000
0100
0010
0001
0000
1000
0010
,
0000
0000
0000
0000
0000
0000
0000
1000
,
0100
1000
0100
1000
0001
0000
1000
0010
,
0000
0000
0000
0000
0000
0000
0000
1000
,
0010
0100
0001
0010
0001
0000
1000
0010
,
0000
0000
0000
0000
0000
0000
0000
0100
,
0010
1000
0100
0010
0100
0000
0010
0001
,
0000
0000
0000
0000
0000
0000
0000
0010
,
0100
1000
0010
1000
0001
0000
0010
0001
,
0000
0000
0000
0000
,
0000
0000
0000
0000
,
0100
0000
0001
0000
0100
0001
1000
0000
,
0010
0000
1000
0000
0010
0100
0001
0000
,
0010
0000
0000
0000
0001
0000
0000
0000
1000
0000
0000
0010
0000
0000
0100
0000
,
0000
0000
0000
0001
0000
0000
0000
0000
0000
0000
0000
0000
0000
0000
0000
0000
,
0000
0000
0000
0010
0100
0010
0001
1000
,
0MM2
0000
0000
0013
0002
0000
0000
0000
,
MM00
0000
0000
1003
0001
1000
0010
0100
,
M0M2
0000
0000
1003
0200
0000
0000
0000
,
00MM
0000
1300
0010
1000
0010
1000
0001
,
2MM0
0000
0000
3100
2000
0000
0000
0000
,
00MM
0000
3100
0010
0001
0100
0001
2000
,
0MM0
0000
0000
0000
0000
0000
0000
0000
3100
0000
0000
0010
0000
0000
0100
0000
,
20MM
0000
0000
3010
0100
0010
0100
0001
,
M2M0
0000
0000
0310
2000
0000
0000
0000
,
0M0M
0000
0000
3100
1000
0001
0100
0001
,
MM20
0000
0000
0031
0020
0000
0000
0000
,
MM00
0000
0000
0031
1000
0100
1000
0100
,
M02M
0000
0000
0031
0200
0000
0000
0000
,
M0M0
0000
0301
1000
0100
0010
0001
0200
,
M0M0
0000
0000
0000
0000
0000
0000
0000
0310
0000
0000
0100
0000
0000
0001
0000
,
2MM0
0000
0000
0000
0000
0000
3001
0200
,
M0M0
0000
0000
0000
0000
0000
0301
0000
1000
0000
0000
0001
0000
0000
1000
0000
,
02MM
0000
0000
0000
0000
0000
0310
MM02
,
0000
0000
0000
0000
0000
0000
1003
0000
0010
0000
0000
1000
0000
0000
0100
0000
,
0000
1000
0000
0000
0000
0000
0000
0000
0000
0000
0000
0000
0000
0000
0000
0000
0000
0000
0000
0000
0000
0000
0000
0000
0000
0000
0000
0000
0000
0000
0000
0000
;

//--------------- dance-single - Cut from Gazebo + JDongs ----------------
#NOTES:
     dance-single:
     Cut from Gazebo + JDongs:
     Hard:
     7:
     0,0,0,0,0:
0001
1000
0001
1000
0100
0010
0001
1000
,
0100
1000
0010
1000
0100
1000
0001
1000
,
0010
1000
0100
0010
0001
0100
0001
1000
,
0010
0100
0010
1000
0100
0010
0100
0000
,
0010
0001
0100
0010
,
1000
0000
0100
0000
1000
0000
0001
0011
,
0001
0100
0000
0000
0001
0010
0001
1000
,
0000
0100
0000
0000
0000
0000
1000
0000
,
0010
0100
0001
0010
,
0001
0000
1000
0000
0100
0000
0010
0001
,
0100
0010
0000
0000
0100
0001
1000
0001
,
0000
0010
0000
0000
0000
0000
0000
0000
,
0001
1000
0001
1000
0010
0100
0001
1000
,
0010
1000
0100
1000
0010
1000
0001
1000
,
0100
1000
0010
0100
0001
0010
0001
1000
,
0000
0100
0000
0010
0100
1000
0010
0100
,
0010
0100
0001
0010
0100
1000
0010
1000
,
0001
0100
0001
0010
0001
0100
0001
1000
,
0010
1000
0100
0010
0001
0100
0001
1000
,
0010
0000
0100
0000
0000
0000
0000
0000
0000
0000
0000
0000
0MM0
MMMM
MMMM
MMMM
,
0MM0
0000
0000
0001
0010
0100
0010
0001
,
1000
0001
0100
0001
1000
0001
1000
0100
,
0010
0001
1000
0100
1000
0010
1000
0100
,
1000
0001
1000
0010
1000
0100
0010
0001
,
0100
0001
1000
0010
0100
0010
1000
0100
,
0010
0100
0010
0001
0100
0010
1000
0100
,
1000
0001
0010
0001
0100
0001
0010
0001
,
1000
0100
1000
0010
0100
0001
0010
0001
,
1000
0100
0010
0001
0100
0010
0100
0001
,
1000
0001
0010
0001
1000
0001
1000
0010
,
0100
0000
0000
0001
,
1000
0010
1000
0100
,
1000
0000
0010
0000
1000
0000
0001
1000
,
0100
1000
0000
0010
0100
0001
0010
0001
,
0000
1000
0000
0000
0000
0000
0100
0000
,
0010
0100
1000
0010
,
0100
0000
0010
0000
0100
0000
0001
0010
,
0100
1000
0000
0010
1000
0001
0100
0001
,
0000
0010
0000
0000
0000
0000
0000
0000
,
0001
0100
0001
1000
0010
1000
0100
0010
,
0001
0100
0001
1000
0010
0100
0001
0010
,
0100
0010
0001
1000
0001
0100
0001
1000
,
0001
1000
0100
0010
0001
1000
0100
1000
,
0010
1000
0100
1000
0001
1000
0010
1000
,
0100
0010
0001
0100
0001
1000
0010
0100
,
0010
1000
0100
0010
0100
0010
0001
0100
,
0010
1000
0100
1000
0001
0010
0001
0100
,
0001
0010
0001
1000
0100
1000
0010
0100
,
0001
0010
0001
1000
0100
0010
0001
0100
,
0010
0100
0001
1000
0001
0010
0001
1000
,
0001
1000
0010
0100
0001
1000
0010
1000
,
0100
1000
0010
1000
0001
1000
0100
1000
,
0010
0100
0001
0010
0001
1000
0100
0010
,
0100
1000
0010
0100
0010
0100
0001
0010
,
0100
1000
0010
1000
0001
0100
0001
0010
,
0001
0100
0001
1000
0010
1000
0100
0010
,
0001
0100
0001
1000
0010
0100
0001
0010
,
0100
0010
0001
1000
0001
0100
0001
1000
,
0001
1000
0100
0010
0001
1000
0100
1000
,
0010
1000
0100
1000
0001
1000
0010
1000
,
0100
0010
0001
0100
0001
1000
0010
0100
,
0010
1000
0100
0010
0100
0010
0001
0100
,
0010
1000
0100
1000
0001
0010
0001
0100
,
0001
0010
0001
1000
0100
1000
0010
0100
,
0001
0000
0000
0000
,
0010
0000
0000
0000
0001
0000
0000
1000
,
0100
0010
0001
0100
0010
0000
0100
0001
,
0000
0000
0000
0000
1000
0000
0001
0010
,
0001
1000
0001
1000
0010
0000
0100
0001
,
0000
0000
1000
0000
,
0010
1000
0100
1000
0010
0000
1000
0001
,
0000
0000
0000
0000
0000
0000
0000
1000
,
0100
1000
0010
0100
0001
0000
0010
0001
,
0000
0000
0000
0000
1000
0000
0000
0100
,
0010
0100
1000
0010
0100
0000
0010
0100
,
0000
0000
0000
0000
0001
0000
0010
0100
,
1000
0010
1000
0001
0100
0000
0001
0010
,
0000
0000
0001
0000
,
0100
0001
1000
0010
1000
0000
0100
0010
,
0000
0000
0000
0000
,
0000
0000
0000
0000
,
0001
0000
0100
0000
0001
1000
0010
0000
,
0100
0000
0001
0000
0010
0100
0010
0000
,
0001
0000
0000
1000
0000
0000
0001
0000
0100
0000
0000
0001
,
0000
0000
0000
1000
0000
0000
0000
0000
0000
0000
0000
0000
0000
0000
0000
0000
,
0000
0000
0000
0001
1000
0100
0010
0001
,
1000
0100
1000
0010
1000
0100
1000
0001
,
1000
0010
1000
0100
0010
0001
0100
0001
,
1000
0010
0100
0010
1000
0100
0010
0100
,
0010
0001
0100
0010
1000
0100
1000
0001
,
0010
0001
0100
0001
0010
0001
1000
0100
,
1000
0010
0100
0001
0010
0001
1000
0100
,
0010
0001
0100
0010
0100
0001
1000
0001
,
0010
0001
1000
0001
1000
0010
0100
0001
,
1000
0010
1000
0100
1000
0010
1000
0001
,
1000
0100
1000
0010
0100
0001
0010
0001
,
1000
0100
0010
0100
1000
0010
0100
0010
,
0100
0001
0010
0100
1000
0010
1000
0001
,
0100
0001
0010
0001
0100
0001
1000
0010
,
1000
0100
0010
0001
0100
0001
1000
0010
,
0100
0001
0010
0100
0010
0001
1000
0001
,
0100
0001
1000
0001
1000
0100
0010
0001
,
1000
0100
1000
0010
1000
0100
1000
0001
,
1000
0000
0000
0000
0010
0000
1000
0100
,
0000
0000
0000
0000
0000
0000
0000
0000
0000
0000
0000
0000
0000
0000
0000
0000
0000
0000
0000
0000
0000
0000
0000
0010
0000
0000
0000
0000
0000
0000
0000
0000
0000
0001
0000
0000
0000
0000
0000
0000
0000
0000
0000
0000
0100
0000
0000
0000
0000
0000
0000
0000
0000
0000
0001
0000
0000
0000
0000
0000
0000
0000
0000
0000
,
0000
0000
0000
0000
0000
1000
0000
0000
0000
0000
0000
0000
0000
0000
0000
0000
0000
0000
0000
0000
0000
0000
0000
0000
0000
0000
0000
0000
0000
0000
0000
0000
0000
0000
0000
0000
0000
0000
0000
0000
0000
0000
0000
0000
0000
0000
0000
0000
0000
0000
0000
0000
0000
0000
0000
0000
0000
0000
0000
0000
0000
0000
0000
0000
;

//--------------- dance-single - Gazebo + JDongs ----------------
#NOTES:
     dance-single:
     Gazebo + JDongs:
     Challenge:
     11:
     0.762,0.757,0,0.578,0.013,1063,0,129,16,1,0,0.762,0.757,0,0.578,0.013,1063,0,129,16,1,0:
1000
0001
1000
0001
1000
0001
1000
0001
,
1000
0010
1000
0010
1000
0010
1000
0010
,
0100
0001
0100
0001
0100
0001
0100
0001
,
0010
0100
0010
0100
0010
0100
2000
3000
,
0002
0003
2000
3000
0020
0030
0200
0300
,
0002
0003
0200
0300
0020
0030
2000
3200
,
0320
0032
0000
0000
0023
0230
2300
3002
,
0003
2000
0000
0000
3000
0000
0020
0030
,
2000
3000
0200
0300
0020
0030
0002
0003
,
0200
0300
0002
0003
2000
3000
0200
2300
,
3020
0230
0000
0000
0302
0023
0230
0320
,
0000
0002
0030
0000
0000
0000
0003
0000
,
2000
3001
0200
0310
0200
0302
0023
0130
,
2000
3001
0020
0130
2000
3020
0230
0310
,
0200
0301
2000
3100
0020
0032
2003
3020
,
0000
0200
0000
0031
0301
0001
0001
0001
,
0002
1003
0020
0130
0002
2003
3200
0310
,
0200
1300
0020
0130
0002
2003
3020
0130
,
0002
1003
0020
1030
0200
0310
0001
2000
,
3010
0000
0200
0000
0300
0000
0000
0000
0000
0000
0000
0000
0MM0
MMMM
MMMM
MMMM
,
0MM0
0000
0000
1000
0001
1000
0100
0010
,
0001
0100
0001
0100
0001
1000
0100
1000
0001
0010
0001
0010
0001
1000
0010
0100
,
0001
1000
0001
1000
0010
1000
0100
0010
0001
0100
0001
1000
0001
0010
0100
1000
,
0001
0100
0001
0100
0001
1000
0100
1000
0001
0010
0001
0010
0001
1000
0010
0100
,
0001
1000
0001
1000
0010
1000
0100
0010
0001
0100
0001
1000
0001
0010
0100
1000
,
0001
0100
0001
0100
0001
1000
0100
1000
0001
0010
0001
0010
0001
1000
0010
0100
,
0001
1000
0001
1000
0010
1000
0100
0010
0001
0100
0001
1000
0001
0010
0100
1000
,
0001
0010
0100
0010
0001
1000
0100
1000
0010
0100
0001
0010
0100
0010
0001
1000
,
0010
0100
0010
1000
0010
0100
0001
1000
0001
0010
0100
1000
0001
0100
0001
1000
,
0001
0010
0100
0010
0001
1000
0100
1000
0010
0100
0001
0010
0100
0010
0001
1000
,
0002
0000
0000
0000
0003
0000
2000
3000
,
0002
0003
2000
3000
0020
0030
2000
3000
,
0200
0300
0020
0030
0002
0003
0200
0320
,
0230
0302
0003
0001
2000
3020
2030
3200
,
0300
0020
0000
0000
0000
0030
0200
0300
,
2000
3000
0002
0003
0200
0300
0020
0030
,
2000
3000
0020
0030
2000
3000
0002
0203
,
0320
2030
3000
0200
0320
0032
0023
0230
,
0300
2000
0000
0000
3000
0000
0000
0000
,
0001
0100
0010
1000
0001
0100
0010
1000
0001
1000
0100
1000
0010
0100
0010
0100
,
0001
0010
0100
1000
0001
0010
0100
1000
0001
1000
0010
1000
0100
0010
0100
0010
,
0001
1000
0010
1000
0001
1000
0010
1000
0001
0010
0100
1000
0100
0010
0001
0100
,
0001
1000
0100
1000
0100
0010
0001
1000
0010
0000
0100
0000
0010
0000
1000
0000
,
0001
0010
0100
1000
0001
0010
0100
1000
0001
1000
0010
1000
0100
0010
0100
0010
,
0001
0100
0010
1000
0001
0100
0010
1000
0001
1000
0100
1000
0010
0100
0010
0100
,
0001
1000
0100
1000
0001
1000
0100
1000
0001
0100
0010
1000
0010
0100
0001
0010
,
0001
1000
0010
1000
0010
0100
0001
0000
1000
0000
0001
0000
1000
0000
0001
0000
,
1000
0100
1000
0100
1000
0001
0100
0001
1000
0010
1000
0010
1000
0001
0010
0100
,
1000
0001
1000
0001
0010
0001
0100
0010
1000
0100
1000
0001
1000
0010
0100
0001
,
1000
0100
1000
0100
1000
0001
0100
0001
1000
0010
1000
0010
1000
0001
0010
0100
,
1000
0001
1000
0001
0010
0001
0100
0010
1000
0100
1000
0001
1000
0010
0100
0001
,
1000
0100
1000
0100
1000
0001
0100
0001
1000
0010
1000
0010
1000
0001
0010
0100
,
1000
0001
1000
0001
0010
0001
0100
0010
1000
0100
1000
0001
1000
0010
0100
0001
,
1000
0010
0100
0010
1000
0001
0100
0001
0010
0100
1000
0010
0100
0010
1000
0001
,
0010
0100
0010
0001
1000
0100
1000
0001
0100
0001
1000
0001
0010
0100
0010
0001
,
1000
0010
1000
0010
1000
0001
0010
0001
1000
0100
1000
0100
1000
0001
0100
0010
,
1000
0001
1000
0001
0100
0001
0010
0100
1000
0010
1000
0001
1000
0100
0010
0001
,
1000
0010
1000
0010
1000
0001
0010
0001
1000
0100
1000
0100
1000
0001
0100
0010
,
1000
0001
1000
0001
0100
0001
0010
0100
1000
0010
1000
0001
1000
0100
0010
0001
,
1000
0010
1000
0010
1000
0001
0010
0001
1000
0100
1000
0100
1000
0001
0100
0010
,
1000
0001
1000
0001
0100
0001
0010
0100
1000
0010
1000
0001
1000
0100
0010
0001
,
1000
0100
0010
0100
1000
0001
0010
0001
0100
0010
1000
0100
0010
0100
1000
0001
,
0100
0010
0100
0001
1000
0010
1000
0001
0010
0100
1000
0001
0100
0001
0100
0001
,
0010
0100
0010
0001
1000
0100
1000
0001
0100
0001
1000
0001
0010
0100
0010
0001
,
2000
0000
3000
0000
,
2000
0000
0000
0000
3020
0000
0000
1030
,
0001
0001
0001
0001
0020
0000
0130
2000
,
0000
3000
0000
0000
0002
0000
0103
0100
,
0010
0100
0001
1000
0200
0000
0310
0002
,
0000
0003
0000
0000
2000
0000
0000
0000
,
3001
0001
0100
0001
0020
0000
0130
2000
,
0000
3000
0000
0000
0000
0000
0000
0001
,
0100
0001
0100
0001
0020
0000
0130
2000
,
0000
3000
0000
0000
0002
0000
0003
1000
,
0001
0001
0001
0001
0200
0000
0310
2000
,
0000
3000
0000
0000
0002
0000
0013
0010
,
0100
0010
0001
1000
0020
0000
0130
0002
,
0000
0003
0000
0000
2000
0000
0000
0000
,
3001
0001
0010
0001
0200
0000
0310
2000
,
0000
3000
0000
0000
0000
0000
0000
0000
,
0000
0000
0000
0000
,
0001
0000
1000
0000
0001
0010
0200
0000
,
0310
0000
0001
0000
0010
0001
2000
0000
,
3010
0000
0000
0100
0000
0000
0010
0000
1000
0000
0000
0001
,
0000
0000
0000
0020
0000
0000
0000
0000
0030
0000
0000
0000
0000
0000
0000
0000
,
0000
0000
0000
1000
0001
1000
0001
1000
,
0001
0010
0001
0010
0001
1000
0010
1000
0001
0100
0001
0100
0001
1000
0100
0010
,
0001
1000
0001
1000
0100
1000
0010
0100
0001
0010
0001
1000
0001
0100
0010
1000
,
0001
0010
0001
0010
0001
1000
0010
1000
0001
0100
0001
0100
0001
1000
0100
0010
,
0001
1000
0001
1000
0100
1000
0010
0100
0001
0010
0001
1000
0001
0100
0010
1000
,
0001
0010
0001
0010
0001
1000
0010
1000
0001
0100
0001
0100
0001
1000
0100
0010
,
0001
1000
0001
1000
0100
1000
0010
0100
0001
0010
0001
1000
0001
0100
0010
1000
,
0001
0100
0010
0100
0001
1000
0010
1000
0100
0010
0001
0100
0010
0100
0001
1000
,
0100
0010
0100
1000
0001
0010
0001
1000
0010
1000
0001
1000
0100
0010
0100
1000
,
0001
0100
0001
0100
0001
1000
0100
1000
0001
0010
0001
0010
0001
1000
0010
0100
,
0001
1000
0001
1000
0010
1000
0100
0010
0001
0100
0001
1000
0001
0010
0100
1000
,
0001
0100
0001
0100
0001
1000
0100
1000
0001
0010
0001
0010
0001
1000
0010
0100
,
0001
1000
0001
1000
0010
1000
0100
0010
0001
0100
0001
1000
0001
0010
0100
1000
,
0001
0100
0001
0100
0001
1000
0100
1000
0001
0010
0001
0010
0001
1000
0010
0100
,
0001
1000
0001
1000
0010
1000
0100
0010
0001
0100
0001
1000
0001
0010
0100
1000
,
0001
0010
0100
0010
0001
1000
0100
1000
0010
0100
0001
0010
0100
0010
0001
1000
,
0010
0100
0010
1000
0001
0100
0001
1000
0100
0010
0001
1000
0010
1000
0010
1000
,
0100
0010
0100
1000
0001
0010
0001
1000
0010
1000
0001
1000
0100
0010
0100
1000
,
0002
0000
0000
0000
1003
0000
0010
0010
,
0000
0000
0000
0000
0000
0000
0000
0000
0000
0000
0000
0000
0000
0000
0000
0000
0000
0000
0000
0000
0000
0000
0000
1000
0000
0000
0000
0000
0000
0000
0000
0000
0000
0100
0000
0000
0000
0000
0000
0000
0000
0000
0000
0000
0010
0000
0000
0000
0000
0000
0000
0000
0000
0000
0001
0000
0000
0000
0000
0000
0000
0000
0000
0000
,
0000
0000
0000
0000
0000
2000
0000
0000
0000
0000
0000
0000
0000
0000
0000
0000
0000
0000
0000
0000
0000
0000
0000
0000
0000
0000
0000
0000
0000
0000
0000
0000
0000
0000
0000
0000
0000
0000
0000
0000
0000
0000
0000
0000
0000
0000
3000
0000
0000
0000
0000
0000
0000
0000
0000
0000
0000
0000
0000
0000
0000
0000
0000
0000
;

//--------------- dance-single - JDongs ----------------
#NOTES:
     dance-single:
     JDongs:
     Edit:
     18:
     1,1,0,0.457,1,1994,0,102,16,1,0,1,1,0,0.457,1,1994,0,102,16,1,0:
1000
0001
1000
0001
1000
0001
1000
0001
,
1000
0010
1000
0010
1000
0010
1000
0010
,
0100
0001
0100
0001
0100
0001
0100
0001
,
0010
0100
0010
0100
0010
0100
2000
3000
,
0002
0003
2000
3000
0020
0030
0200
0300
,
0002
0003
0200
0300
0020
0030
2000
3200
,
0320
0032
0000
0000
0023
0230
2300
3002
,
0003
2000
0000
0000
3000
0000
0020
0030
,
2000
3000
0200
0300
0020
0030
0002
0003
,
0200
0300
0002
0003
2000
3000
0200
2300
,
3020
0230
0000
0000
0302
0023
0230
0320
,
0000
0002
0030
0000
0000
0000
0003
0000
,
2000
3001
0200
0310
0200
0302
0023
0130
,
2000
3001
0020
0130
2000
3020
0230
0310
,
0200
0301
2000
3100
0020
0032
2003
3020
,
0000
0200
0000
0031
0301
0001
0001
0001
,
0002
1003
0020
0130
0002
2003
3200
0310
,
0200
1300
0020
0130
0002
2003
3020
0130
,
0002
1003
0020
1030
0200
0310
0001
2000
,
3010
0000
0200
0000
0300
0000
0000
0000
0000
0000
0000
0000
0MM0
MMMM
MMMM
MMMM
,
0MM0
0000
0000
0100
0001
1000
0100
0010
,
0001
0010
0100
0010
0001
1000
0010
0100
0010
1000
0100
0010
0100
1000
0001
0100
0010
0100
0001
1000
0100
0010
0001
1000
0010
1000
0001
0010
0100
1000
0001
0100
,
0001
1000
0010
0100
0001
1000
0010
0100
0001
1000
0100
0010
0001
1000
0100
0010
,
0001
1000
0010
1000
0001
0100
0001
1000
0100
0010
0001
0100
0010
0100
0001
1000
0001
0100
0010
1000
0001
0010
0100
1000
0001
0010
0001
1000
0100
0010
0001
1000
,
0100
1000
0001
0100
0010
1000
0001
0010
0100
0010
0001
1000
0010
0100
0001
1000
,
0001
0010
0100
0010
0001
1000
0010
0100
0010
1000
0001
0100
0010
0100
0001
1000
0100
0010
0001
1000
0100
0010
0001
1000
0010
0100
0010
1000
0001
0100
0010
1000
,
0001
0010
0100
1000
0001
1000
0010
0100
0001
1000
0010
1000
0001
0100
0001
0010
,
0100
0000
1000
0000
0100
0000
0010
0000
0001
0000
1000
0000
0010
0000
0100
0000
0001
0010
0100
0010
0001
1000
0010
0100
0010
1000
0001
0010
0100
0010
0001
1000
,
0010
0100
0010
1000
0001
0010
0100
1000
0001
0010
0100
1000
0010
0100
0001
1000
0010
0100
0001
1000
0010
1000
0001
0100
0001
1000
0100
1000
0001
0100
0001
0010
,
0100
0000
1000
0000
0001
0000
0100
0000
0010
0000
0100
0000
0001
0000
1000
0000
0001
0100
0010
1000
0001
0100
0010
1000
0100
0010
0001
1000
0100
0010
0001
1000
,
0010
0100
0010
1000
0100
0010
0001
0100
0010
0100
0001
1000
0010
0100
0010
1000
0001
0010
0100
0010
0001
1000
0100
0010
0100
1000
0001
1000
0010
1000
0100
1000
,
0002
0003
2000
3000
0020
0030
2000
3000
,
0200
0300
0020
0030
0002
0003
0200
0320
,
0230
0302
0003
0001
2000
3020
2030
3200
,
0300
0020
0000
0000
0000
0030
0200
0300
,
2000
3000
0002
0003
0200
0300
0020
0030
,
2000
3000
0020
0030
2000
3000
0002
0203
,
0320
2030
3000
0200
0320
0032
0023
0230
,
0300
2000
0000
0000
0000
0000
0000
3000
,
0001
0000
0010
0000
0100
0000
1000
0000
0000
0010
0000
0000
1000
0000
0100
0000
0010
0000
0001
0000
0000
0100
0000
0000
0001
0000
1000
0000
0010
0000
0100
0000
0000
0001
0000
0000
1000
0000
0100
0000
0010
0000
0001
0000
0000
1000
0000
0000
,
0001
0000
0010
0000
0001
0000
0100
0000
0000
0001
0000
0000
0010
0000
0100
0000
0010
0000
0001
0000
0000
1000
0000
0000
0001
0000
1000
0000
0100
0000
0010
0000
0000
0100
0000
0000
1000
0000
0010
0000
0100
0000
0001
0000
0000
0100
0000
0000
,
0001
0000
0100
0000
0010
0000
1000
0000
0000
0001
0000
0000
1000
0000
0010
0000
0100
0000
0010
0000
0000
1000
0000
0000
0001
0000
0100
0000
0010
0000
0100
0000
0000
0001
0000
0000
0010
0000
0100
0000
1000
0000
0001
0000
0000
0000
0000
0000
,
0000
1000
0000
0010
1000
0001
0100
0010
,
1000
0000
0100
0000
0010
0000
0001
0000
0000
0100
0000
0000
0001
0000
1000
0000
0010
0000
0100
0000
0000
0001
0000
0000
1000
0000
0100
0000
0010
0000
0001
0000
0000
0100
0000
0000
0010
0000
0100
0000
0010
0000
1000
0000
0000
0001
0000
0000
,
1000
0000
0001
0000
0010
0000
0100
0000
0000
1000
0000
0000
0001
0000
1000
0000
0100
0000
0010
0000
0000
0001
0000
0000
1000
0000
0010
0000
0100
0000
0001
0000
0000
0100
0000
0000
0001
0000
1000
0000
0010
0000
1000
0000
0000
0001
0000
0000
,
0100
0000
0010
0000
1000
0000
0100
0000
0000
1000
0000
0000
0100
0000
0010
0000
0001
0000
1000
0000
0000
0100
0000
0000
1000
0000
0001
0000
0010
0000
0001
0000
0000
0000
0000
0000
0010
0000
0000
0000
0000
0000
0100
0000
0000
0000
0000
0000
,
0000
1000
0000
0001
1000
0010
0100
0001
,
1000
0100
0010
0100
1000
0001
0010
0100
0010
0001
1000
0010
0100
0010
1000
0001
0100
0010
0100
0001
1000
0100
1000
0010
0100
0001
0010
0001
0100
0001
1000
0010
,
0100
0001
1000
0100
0010
0001
1000
0010
0100
0001
0010
0100
1000
0001
0100
0010
,
1000
0010
0100
0010
1000
0001
0100
0010
0100
0001
1000
0100
0010
0100
1000
0001
0010
0100
0010
0001
1000
0010
1000
0100
0010
0001
0100
0001
0010
0100
1000
0001
,
0100
0010
1000
0001
0010
0100
1000
0010
0100
0001
1000
0100
0010
0001
1000
0010
,
0100
0001
1000
0010
0100
0010
1000
0001
0100
0010
1000
0100
0010
0100
1000
0010
0100
0010
1000
0100
0010
0001
0100
0010
0100
0001
0010
0100
0010
0001
0100
0010
,
1000
0001
0100
0010
0100
0001
1000
0100
0010
0001
1000
0010
0100
0010
1000
0001
,
0010
0000
0100
0000
1000
0000
0010
0000
0100
0000
0010
0000
1000
0000
0001
0000
1000
0100
0010
0001
1000
0010
0100
0001
1000
0100
0010
0001
1000
0010
0100
0001
,
1000
0001
0100
0010
0100
0001
0010
0001
0100
0010
1000
0100
1000
0010
0100
0010
1000
0100
1000
0010
0100
0001
1000
0001
0010
0100
0010
0001
1000
0010
0100
0010
,
1000
0001
0010
0100
1000
0010
0100
0010
1000
0100
0010
0001
0100
0010
0100
0001
1000
0010
1000
0100
1000
0010
0100
0001
0010
0001
0100
0010
0100
0001
1000
0100
,
0010
0001
1000
0001
0100
0010
1000
0001
0010
0100
0010
0001
1000
0010
0100
0001
,
1000
0100
0010
0001
1000
0010
0100
0010
1000
0001
0010
0100
1000
0001
0100
0010
0100
0001
1000
0100
0010
0001
1000
0001
0100
0010
0100
0001
0010
0001
1000
0100
,
1000
0001
0100
0010
1000
0001
0010
0100
1000
0001
0100
0010
1000
0100
0010
0001
,
1000
0001
0100
0010
1000
0100
1000
0001
0010
0001
0100
0010
0100
0001
1000
0010
0100
0010
1000
0001
0100
0001
1000
0010
1000
0100
0010
0001
1000
0100
1000
0001
,
0010
0100
1000
0010
0100
0010
1000
0001
0100
0010
0100
0001
0010
0100
1000
0001
,
1000
0000
0010
0000
0100
0000
0001
0000
0010
0000
0100
0000
1000
0000
0001
0000
0100
0001
1000
0010
0100
0010
1000
0100
0010
0001
0100
0010
0100
0001
1000
0010
,
1000
0001
0100
0001
1000
0100
0010
0001
1000
0100
0010
0100
1000
0001
0010
0001
1000
0100
1000
0010
0100
0001
0010
0001
0100
0010
1000
0100
1000
0001
0100
0010
,
1000
0001
0100
0010
0100
0001
0010
0100
1000
0010
1000
0100
0010
0001
0100
0010
0100
0001
1000
0010
0100
0010
1000
0001
0010
0100
1000
0001
0010
0100
0010
0001
,
1000
0100
0010
0100
1000
0001
0100
0001
1000
0010
1000
0100
1000
0010
0100
0010
1000
0100
0010
0100
1000
0001
0100
0010
0100
0001
1000
0001
0100
0010
1000
0010
,
0100
0001
1000
0010
0100
0010
1000
0001
0010
0100
1000
0001
0010
0100
1000
0010
0100
0010
1000
0100
0010
0001
1000
0100
,
0010
0001
0100
0010
0100
0001
1000
0010
1000
0100
1000
0010
0100
0001
0010
0001
0100
0010
0100
0001
1000
0010
0100
0010
,
1000
0001
0100
0010
1000
0001
0100
0010
1000
0100
0010
0001
1000
0100
1000
0010
0100
0010
1000
0100
0010
0001
1000
0100
,
0010
0001
0100
0010
0100
0001
0010
0100
0010
0001
1000
0001
0010
0100
1000
0001
0010
0100
0010
0001
1000
0010
0100
0010
,
1000
0001
0100
0010
0100
0001
1000
0010
0100
0001
1000
0010
0100
0001
1000
0100
0010
0100
1000
0001
0010
0100
1000
0001
,
0010
0100
1000
0010
0100
0010
1000
0100
1000
0001
0100
0001
1000
0010
1000
0001
0010
0001
1000
0100
1000
0010
1000
0001
,
0100
0001
0010
0001
1000
0010
0100
0001
1000
0100
0010
0100
1000
0001
0100
0010
1000
0001
0100
0010
0100
0001
1000
0100
,
1000
0010
0100
0001
0010
0001
0100
0010
0100
0001
1000
0010
0100
0010
1000
0100
0010
0001
1000
0100
1000
0001
0010
0001
,
1000
0001
0100
0001
0010
0100
1000
0001
0010
0100
0010
0001
1000
0010
0100
0010
1000
0001
0100
0010
0100
0001
1000
0010
,
0100
0001
1000
0100
0010
0100
1000
0001
0010
0100
1000
0100
0010
0100
1000
0010
0100
0001
1000
0010
0100
0010
1000
0100
,
0010
0001
0100
0010
0100
0001
1000
0010
0100
0010
1000
0100
1000
0001
0100
0001
0010
0001
1000
0001
0100
0001
1000
0100
,
1000
0010
1000
0100
1000
0010
0100
0001
1000
0100
0010
0001
0010
0100
1000
0010
0100
0001
1000
0010
0100
0010
1000
0001
,
0100
0010
0100
0001
1000
0100
0010
0100
1000
0001
0010
0100
0010
0001
1000
0010
1000
0001
0100
0001
1000
0100
1000
0001
,
0010
0100
1000
0001
0010
0001
1000
0010
1000
0001
0010
0001
0100
0010
1000
0001
0100
0010
1000
0100
0010
0100
1000
0010
,
0100
0010
1000
0001
0100
0010
0100
0001
1000
0010
0100
0001
1000
0100
0010
0100
1000
0001
0010
0100
1000
0010
0100
0010
,
1000
0100
1000
0001
0100
0001
0010
0001
0100
0010
1000
0100
1000
0001
0100
0001
1000
0010
0100
0001
1000
0100
0010
0100
,
1000
0000
0100
0000
0010
0100
1000
0000
,
0001
0000
0100
0000
0010
0100
0001
0000
,
0010
0000
0000
0000
0100
0000
0000
0000
1000
0000
0001
0000
0000
0000
0000
1000
,
0000
0000
0000
0020
0000
0000
0000
0000
0000
0000
0000
0000
0000
0000
0000
0000
,
0000
0000
0000
1030
0001
1000
0010
0100
,
0001
0100
0010
1000
0001
0100
0010
0100
0001
1000
0100
0010
0001
1000
0100
0010
0100
1000
0001
0010
0001
1000
0100
1000
0010
0100
0001
1000
0010
0100
0001
0100
,
0010
1000
0100
1000
0001
0010
0001
0100
0001
1000
0100
1000
0010
0100
0010
1000
0001
0100
0010
1000
0001
0100
0010
1000
0100
0010
0001
1000
0100
0010
0001
1000
,
0001
1000
0001
0100
0010
0100
0001
1000
0010
0100
0001
1000
0010
0100
0010
1000
0100
0010
0001
1000
0100
0010
0001
1000
0001
0100
0001
0010
0001
0100
0010
1000
,
0100
1000
0010
1000
0001
1000
0100
0010
0001
1000
0100
0010
0100
1000
0001
0010
0100
0010
0001
1000
0010
0100
0001
1000
0010
0100
0001
0100
0010
1000
0100
1000
,
0010
0100
0001
0010
0100
0010
0001
1000
0010
0100
0001
1000
0100
1000
0010
0100
0001
0010
0001
0100
0001
1000
0001
0010
0001
1000
0010
0100
0001
1000
0010
0100
,
0001
1000
0100
0010
0001
1000
0100
0010
0001
1000
0010
1000
0001
0100
0001
1000
0100
1000
0001
1000
0010
1000
0100
0010
0001
1000
0010
0100
0001
1000
0010
0100
,
0001
1000
0100
1000
0001
0100
0001
0010
0001
0100
0010
1000
0001
0100
0010
1000
0001
0100
0010
1000
0100
1000
0010
0100
0001
0010
0100
0010
0001
1000
0010
0100
,
0001
1000
0010
0100
0010
1000
0001
0100
0010
1000
0100
0010
0001
1000
0100
0010
0001
1000
0010
1000
0001
0100
0001
1000
0010
0100
0001
1000
0010
0100
0001
1000
,
0100
0010
0001
1000
0100
0010
0001
1000
0100
1000
0001
0010
0001
1000
0010
0100
0010
1000
0001
0100
0010
0100
0001
1000
0100
0010
0001
1000
0100
0010
0100
1000
,
0001
0100
0010
1000
0001
0100
0010
0100
0001
1000
0001
0010
0100
1000
0001
0010
0100
1000
0001
0100
0010
0100
0001
1000
0010
0100
0010
1000
0100
1000
0001
0100
,
0001
0010
0001
1000
0001
0100
0010
1000
0100
1000
0010
1000
0001
1000
0100
1000
0010
0100
0001
1000
0010
0100
0001
0010
0100
0010
0001
1000
0100
0010
0100
1000
,
0001
0100
0010
0100
0001
1000
0010
0100
0001
1000
0001
0100
0010
1000
0100
1000
0010
0100
0001
0010
0001
0100
0001
0010
0001
0100
0010
0100
0001
1000
0100
1000
,
0001
0010
0100
1000
0001
0010
0100
0010
0001
1000
0010
0100
0010
1000
0001
0100
0010
0100
0001
1000
0010
0100
0001
1000
0010
0100
0001
1000
0100
0010
0001
1000
,
0100
0010
0001
1000
0010
1000
0001
0100
0001
0010
0100
1000
0001
0010
0100
1000
0100
0010
0100
1000
0001
0100
0010
0100
0001
1000
0010
0100
0001
1000
0010
0100
,
0001
1000
0100
0010
0001
1000
0100
1000
0001
0010
0001
1000
0001
0010
0100
1000
0001
0010
0100
0010
0001
1000
0010
0100
0001
1000
0010
0100
0010
1000
0001
0100
,
0010
0100
0001
1000
0100
1000
0001
0100
0001
1000
0100
1000
0010
0100
0010
1000
0100
0010
0001
1000
0100
0010
0001
1000
0010
0100
0001
1000
0010
0100
0001
1000
,
0100
0010
0001
1000
0100
0010
0100
1000
0001
0010
0100
0010
0001
1000
0010
0100
0010
1000
0001
0100
0010
0100
0001
0010
0001
0100
0010
1000
0100
1000
0010
0100
,
0001
0010
0001
1000
0100
1000
0010
1000
0001
0100
0010
0100
0001
1000
0010
0100
0010
1000
0100
0010
0001
0100
0010
0100
0001
0010
0001
1000
0010
1000
0001
0010
,
0001
0000
0000
0000
0000
0000
0000
0000
0000
0000
0000
0000
0000
0000
0000
0000
0000
0000
0000
0000
0000
0000
0000
1000
0000
0000
0000
0000
0000
0000
0000
0000
0000
0010
0000
0000
0000
0000
0000
0000
0000
0000
0000
0000
0100
0000
0000
0000
0000
0000
0000
0000
0000
0000
0000
0000
0000
0001
0000
0000
0000
0000
0000
0000
,
0000
0000
0000
0000
0000
2000
0000
0000
0000
0000
0000
0000
0000
0000
0000
0000
0000
0000
0000
0000
0000
0000
0000
0000
0000
0000
0000
0000
0000
0000
0000
0000
0000
0000
0000
0000
0000
0000
0000
0000
0000
0000
0000
0000
0000
0000
3000
0000
0000
0000
0000
0000
0000
0000
0000
0000
0000
0000
0000
0000
0000
0000
0000
0000
;

//--------------- dance-double - LinkDubs03 ----------------
#NOTES:
     dance-double:
     LinkDubs03:
     Beginner:
     2:
     0,0,0,0,0:
00000000
00000000
00000000
00000000
,
00000000
00000000
00000000
00000000
,
00000000
00000000
00000000
00000000
,
00000000
00000000
00000000
00000000
,
00100000
00000000
10000000
00000000
,
00100000
00000000
10000000
00000000
,
10100000
00000000
01000000
00000000
,
00100000
00000000
00000000
00000000
,
01000000
00000000
00010000
00000000
,
10000000
00000000
00010000
00000000
,
10010000
00000000
00010000
00000000
,
01000000
00000000
00000000
00000000
,
00010000
00000000
01000000
00000000
,
00001000
00000000
00100000
00000000
,
00001000
00000000
00100000
00000000
,
00001000
00000000
00000000
00000000
,
00010000
00000000
00001000
00000000
,
00010000
00000000
00000010
00000000
,
00010000
00000000
00000100
00000000
,
00010000
00000000
00000000
00000000
,
00000000
00000000
00000100
00000000
,
MMMM20MM
00003000
00000000
00000000
00000020
00000000
00000000
00000000
,
MMMM0M0M
00000030
00000000
00000000
00001000
00000000
00000000
00000000
,
MMMM0M2M
00000030
00000000
00000000
00000200
00000000
00000000
00000000
,
MMMMM00M
00000300
00000000
00000000
00000010
00000000
00000000
00000000
,
MMMMM20M
00000300
00000000
00000000
00000002
00000000
00000000
00000000
,
MMMMM0M0
00000003
00000000
00000000
00001000
00000000
00000002
00000000
,
MMMM0MM0
00000003
00000000
00000000
00001000
00000000
00000000
00000000
,
MMMM0MM2
00000003
00000000
00000000
00000000
00000000
00000000
00000020
,
MMMMMM00
00000030
00000000
00000000
00000001
00000000
00000000
00000000
,
00000010
00000000
00000000
00000000
,
00000001
00000000
00000100
00000000
,
00000001
00000000
00000100
00000000
,
00000101
00000000
00001000
00000000
,
00000001
00000000
00000000
00000000
,
00001000
00000000
00000010
00000000
,
00000100
00000000
00000010
00000000
,
00000110
00000000
00000010
00000000
,
00001000
00000000
00000000
00000000
,
00000010
00000000
00001000
00000000
,
00000100
00000000
00010000
00000000
,
00000100
00000000
00010000
00000000
,
00001000
00000000
00000000
00000000
,
00010000
00000000
00001000
00000000
,
00010000
00000000
00001000
00000000
,
01000000
00000000
00001000
00000000
,
01000000
00000000
00010000
00000000
,
MM20MMMM
00300000
00000000
00000000
00020000
00000000
00000000
00000000
,
MM00MMMM
00030000
00000000
00000000
00100000
00000000
00000000
00000000
,
MM02MMMM
00030000
00000000
00000000
20000000
00000000
00000000
00000000
,
0MM0MMMM
30000000
00000000
00000000
00010000
00000000
00000000
00000000
,
2MM0MMMM
30000000
00000000
00000000
02000000
00000000
00000000
00000000
,
00MMMMMM
03000000
00100000
00000000
00000000
00000000
02000000
00000000
,
M00MMMMM
03000000
00000000
00000000
00100000
00000000
00000000
00000000
,
M20MMMMM
03000000
00000000
00000000
10000000
00000000
00000000
00000000
,
0M2MMMMM
00300000
00000000
00000000
20000000
00000000
00000000
00000000
,
0M0MMMMM
30000000
00000000
00000000
01000000
00000000
00000000
00000000
,
20MMMMMM
30000000
00000000
00000000
02000000
00000000
00000000
00000000
,
00MMMMMM
03000000
00000000
00000000
10000000
00000000
00000000
00000000
,
0M2MMMMM
00300000
00000000
00000000
02000000
00000000
00000000
00000000
,
M00MMMMM
03000000
00000000
00000000
00100000
00000000
02000000
00000000
,
M00MMMMM
03000000
00000000
00000000
00010000
00000000
00000000
00000000
,
2MM0MMMM
30000000
00000000
00000000
00000000
00000000
00000000
00020000
,
0MM0MMMM
00030000
00000000
00000000
10000000
00000000
00000000
00000000
,
00010000
00000000
00000000
00000000
,
00000000
00000000
00000000
00000000
,
01000000
00000000
00010000
00000000
,
01000000
00000000
00000000
00000000
,
00001000
00000000
00100000
00000000
,
00001000
00000000
00000000
00000000
,
00100000
00000000
00001000
00000000
,
00010000
00000000
00000000
00000000
,
00001000
00000000
00010000
00000000
,
00000100
00000000
00000000
00000000
,
00010000
00000000
00000010
00000000
,
00010000
00000000
00000000
00000000
,
00000010
00000000
00001000
00000000
,
00000100
00000000
00000000
00000000
,
00001000
00000000
00000100
00000000
,
00000010
00000000
00000000
00000000
,
00000000
00000000
00000000
00000000
,
00000100
00000000
00000010
00000000
,
00000001
00000000
00001000
00000000
,
00000001
00000000
00001000
00000000
,
00000001
00000000
00000000
00000000
,
00000000
00000000
00000100
00000000
,
MMMMM0M2
00000003
00000000
00000000
00000200
00000000
00000000
00000000
,
MMMMM0M0
00000300
00000000
00000000
00000001
00000000
00000000
00000000
,
MMMMMM20
00000030
00000000
00000000
00000002
00000000
00000000
00000000
,
MMMMMM00
00000003
00000000
00000000
00000010
00000000
00000000
00000000
,
MMMMMM02
00000003
00000000
00000000
00002000
00000000
00000000
00000000
,
MMMM0MM0
00003000
00000000
00000000
00000001
00000000
00002000
00000000
,
MMMM0MM0
00003000
00000000
00000000
00000100
00000000
00000000
00000000
,
MMMMM02M
00000030
00000000
00000000
00000100
00000000
00000000
00000000
,
MMMMM02M
00000030
00000000
00000000
00000200
00000000
00000000
00000000
,
MMMMM00M
00000300
00000000
00000000
00001000
00000000
00000000
00000000
,
MMMM02MM
00000300
00000000
00000000
00002000
00000000
00000000
00000000
,
MMMM00MM
00003000
00000000
00000000
00000010
00000000
00000000
00000000
,
MMM2MM0M
00030000
00000000
00000000
00000020
00000000
00000000
00000000
,
MMM0MM0M
00000030
00000000
00000000
00010000
00000000
00002000
00000000
,
MMM00MMM
00003000
00000000
00000000
00010000
00000000
00000000
00000000
,
MMM02MMM
00003000
00000000
00000000
00000000
00000000
00000000
00020000
,
MMM00MMM
00030000
00000000
00000000
00001000
00000000
00000000
00000000
,
M2MM0MMM
03000000
00000000
00000000
00000000
00000000
00000000
00002000
,
M0MM0MMM
00003000
00000000
00000000
01000000
00000000
00000000
00000000
,
00010000
00000000
00000000
00000000
;

//--------------- dance-double - LinkDubs05 ----------------
#NOTES:
     dance-double:
     LinkDubs05:
     Easy:
     3:
     0,0,0,0,0:
00000000
00000000
00000000
00000000
,
00000000
00000000
00000000
00000000
,
00000000
00000000
00000000
00000000
,
00000000
00000000
00000000
00100000
,
10000000
00100000
10000000
00100000
,
01000000
00000000
00100000
00000000
01000000
00000000
00000000
01010000
,
00000000
00000000
10000000
00010000
,
00000000
10000000
00000000
00000000
00000000
00000000
00010000
00000000
,
01000000
00010000
01000000
00001000
,
00100000
00000000
00001000
00000000
00100000
00000000
00000000
00101000
,
00000000
00000000
00010000
00001000
,
00000000
00010000
00000000
00000000
00000000
00000000
00000000
00000000
,
00000010
00010000
00000100
00010000
,
00000100
00001000
00000010
00001000
,
00000010
00000000
00000100
00000000
00000010
00000000
00000000
00000100
,
00000000
00000001
00000000
00000000
00000000
00000000
00000000
00000000
,
00001000
00000001
00001000
00000001
,
00000010
00000001
00000010
00000001
,
00000100
00000000
00000001
00000000
00000100
00000000
00000000
00000001
,
00000000
00001000
00000000
00000000
00000000
00000000
00000000
00000000
,
00000000
00000000
00000001
00001000
,
MMMM0M2M
00000000
00000000
00000030
00000200
00000000
00000000
00000000
,
MMMMM00M
00000000
00000000
00000300
00000010
00000000
00000100
00000000
,
MMMMM02M
00000000
00000000
00000030
00002000
00000000
00000000
00000000
,
MMMM0M0M
00003000
00000010
00000000
00001000
00000000
00000100
00000000
,
MMM2M0MM
00000000
00000000
00030000
00000200
00000000
00000000
00000000
,
MMM0M0MM
00000300
00010000
00000000
00001000
00000000
00020000
00000000
,
MMM00MMM
00000000
00000000
00000000
00000000
00000000
00030000
00000000
00001000
00000000
00000000
00010000
00000000
00000000
00000000
00000000
,
MMM02MMM
00000000
00000000
00000000
00000000
00000000
00003000
02000000
,
M0MM0MMM
00000000
00000000
00000000
00000000
00000000
03000000
00000000
00001000
00000000
00000000
01000000
00000000
00000000
00000000
00000000
,
00010000
00000000
00000000
00100000
,
00010000
00100000
00010000
10000000
,
00010000
00000000
10000000
00000000
01000000
00000000
00000000
01100000
,
00000000
00000000
01000000
00100000
,
00000000
01000000
00000000
00000000
00000000
00000000
10000000
00000000
,
00010000
01000000
10000000
01000000
,
00010000
00000000
10000000
00000000
00100000
00000000
00000000
01100000
,
00000000
00000000
00100000
01000000
,
00000000
00010000
00000000
00000000
00000000
00000000
00000000
00000000
,
10000000
00010000
10000000
00010000
,
01000000
00010000
01000000
00001000
,
00100000
00000000
00001000
00000000
00100000
00000000
00000000
00001000
,
00000000
00010000
00000000
00000000
00000000
00000000
00000000
00000000
,
00001000
00010000
00000100
00010000
,
00000010
00010000
00000010
00001000
,
00000100
00000000
00001000
00000000
00000100
00000000
00000000
00000010
,
00000000
00000100
00000000
00000000
00000010
00000000
00000001
00000000
,
MMMM2MM0
00000000
00000000
00003000
00000002
00000000
00000000
00000000
,
MMMM0MM0
00000000
00000000
00000003
00001000
00000000
00000001
00000000
,
MMMMM2M0
00000000
00000000
00000300
00000002
00000000
00000000
00000000
,
MMMMM0M0
00000003
00000100
00000000
00000001
00000000
00000010
00000000
,
MMMMMM02
00000000
00000000
00000003
00000020
00000000
00000000
00000000
,
MMMMMM00
00000030
00000001
00000000
00001000
00000000
00000002
00000000
,
MMMM0MM0
00000000
00000000
00000000
00000000
00000000
00000003
00000000
00001000
00000000
00000000
00000100
00000000
00000000
00000000
00000000
,
MMMMM02M
00000000
00000000
00000030
00000100
00000000
00000010
00000000
,
MMMMM20M
00000000
00000000
00000300
00002000
00000000
00000000
00000000
,
MMMM00MM
00000000
00000000
00003000
00000100
00000000
00001000
00000000
,
MMMM0M2M
00000000
00000000
00000030
00020000
00000000
00000000
00000000
,
MMM0MM0M
00030000
00000010
00000000
00010000
00000000
00001000
00000000
,
MMM20MMM
00000000
00000000
00030000
00002000
00000000
00000000
00000000
,
MMM00MMM
00003000
00010000
00000000
00001000
00000000
02000000
00000000
,
M0MM0MMM
00000000
00000000
00000000
00000000
00000000
03000000
00000000
00001000
00000000
00000000
01000000
00000000
00000000
00000000
00000000
,
M0M2MMMM
00000000
00000000
00000000
00000000
00000000
00030000
00200000
,
MM00MMMM
00000000
00000000
00000000
00000000
00000000
00300000
00000000
00010000
00000000
00000000
00100000
00000000
00000000
00000000
00000000
,
00010000
00000000
00000000
00000000
,
00000000
00000000
00000000
00000000
,
10000000
00000000
00010000
00000000
10000000
00000000
00000000
01000000
,
00000000
00000000
00000000
00000000
,
00100000
00000000
01000000
00000000
00100000
00000000
00000000
01000000
,
00000000
00000000
00000000
00000000
,
10000000
00000000
00100000
00000000
10000000
00000000
00000000
01000000
,
00000000
00000000
00000000
00000000
,
10000000
00000000
01000000
00000000
10000000
00000000
00000000
01000000
,
00000000
00000000
00000000
00000000
,
00100000
00000000
01000000
00000000
00100000
00000000
00000000
00010000
,
00000000
00000000
00000000
00000000
,
10000000
00000000
00010000
00000000
10000000
00000000
00000000
00010000
,
00000000
00000000
00000000
00000000
,
00100000
00000000
00010000
00000000
00100000
00000000
00000000
00001000
,
00000000
00000000
00000000
00000000
,
00000000
00000000
00000000
00000000
,
01000000
00001000
01000000
00001000
,
00010000
00001000
00010000
00000100
,
00010000
00000000
00000010
00000000
00010000
00000000
00000000
00000010
,
00000000
00001000
00000000
00000000
00000000
00000000
00000000
00000000
,
00000000
00000000
00000100
00001000
,
MMMM02MM
00000000
00000000
00000300
00000020
00000000
00000000
00000000
,
MMMMM00M
00000000
00000000
00000030
00000100
00000000
00000010
00000000
,
MMMMMM02
00000000
00000000
00000003
00002000
00000000
00000000
00000000
,
MMMM0MM0
00003000
00000001
00000000
00001000
00000000
00000001
00000000
,
MMMMM2M0
00000000
00000000
00000300
00000002
00000000
00000000
00000000
,
MMMMM0M0
00000003
00000100
00000000
00000001
00000000
00000020
00000000
,
MMMMMM00
00000000
00000000
00000000
00000000
00000000
00000030
00000000
00000001
00000000
00000000
00000010
00000000
00000000
00000000
00000000
,
MMMMMM02
00000000
00000000
00000003
00001000
00000000
00000001
00000000
,
MMMM2MM0
00000000
00000000
00003000
00000200
00000000
00000000
00000000
,
MMMM00MM
00000000
00000000
00000300
00000010
00000000
00000100
00000000
,
MMMMM02M
00000000
00000000
00000030
00000200
00000000
00000000
00000000
,
MMMMM00M
00000000
00000000
00000300
00001000
00000000
00000100
00000000
,
MMMM20MM
00000000
00000000
00003000
00000020
00000000
00000000
00000000
,
MMMM0M0M
00000030
00010000
00000000
00000010
00000000
00020000
00000000
,
MMM0MM0M
00000000
00000000
00000000
00000000
00000000
00030000
00000000
00001000
00000000
00000000
00010000
00000000
00000000
00000000
00000000
,
MMM02MMM
00000000
00000000
00000000
00000000
00000000
00003000
00020000
,
MMM00MMM
00000000
00000000
00000000
00000000
00000000
00030000
00000000
00001000
00000000
00000000
00100000
00000000
00000000
00000000
00000000
,
MM0M2MMM
00000000
00000000
00000000
00000000
00000000
00003000
00200000
,
MM0M0MMM
00000000
00000000
00000000
00000000
00000000
00300000
00000000
00010000
00000000
00000000
01000000
00000000
00000000
00000000
00000000
,
00000000
00010000
00000000
00000000
00000000
00000000
00000000
00000000
00000000
00000000
00000000
00000000
00000000
00000000
00000000
00000000
00000000
00000000
00000000
00000000
00000000
00000000
00000000
00000000
00000000
00000000
00000000
00000000
00000000
00000000
00000000
00000000
;

//--------------- dance-double - LinkDubs09 ----------------
#NOTES:
     dance-double:
     LinkDubs09:
     Medium:
     6:
     0,0,0,0,0:
00000000
00000000
00000000
00000000
,
00000000
00000000
00000000
00000000
,
00000000
00000000
00000000
00000000
,
00000000
00000000
00000000
00100000
,
10000000
00100000
10000000
01000000
,
00100000
00000000
01000000
00000000
00100000
00000000
00000000
10010000
,
00000000
00000000
00000000
00000000
00010000
10000000
00010000
01000000
,
00000000
00010000
00000000
00000000
00000000
00000000
00100000
00000000
,
00001000
00100000
00001000
01000000
,
00001000
00000000
00010000
00000000
00001000
00000000
00000000
00010010
,
00000000
00000000
00000000
00000000
00010000
00000100
00010000
00000100
,
00000000
00001000
00000000
00000000
00000000
00000000
00000000
00000000
,
00000010
00000000
00001000
00000000
00000010
00000100
00000010
00000000
,
00000100
00000000
00000001
00000000
00001000
00000001
00001000
00000000
,
00000001
00000000
00000000
00000000
00000010
00000000
00000000
00000000
00000001
00000000
00000000
00000010
00000000
00000000
00000001
00000000
,
00000000
00000100
00000000
00000000
00000000
00000000
00000000
00000000
,
00000001
00000000
00001000
00000000
00000100
00000010
00000100
00000000
,
00001000
00000000
00000010
00000000
00010000
00001000
00010000
00000000
,
00001000
00000000
00000000
00000000
01000000
00000000
00000000
00000000
00010000
00000000
00000000
00100000
00000000
00000000
00010000
00000000
,
00000000
10000000
00000000
00000000
00000000
00000000
00000000
00000000
,
00000000
00000000
00000000
00100000
01000000
00100000
10000000
01000000
,
20MMMMMM
00000000
00000000
31000000
00200000
00000000
00000000
00000000
,
M00MMMMM
00000000
00000000
00310000
10000000
00010000
01000000
00001000
,
M2MM0MMM
00000000
00000000
03001000
00020000
00000000
00000000
00000000
,
MMM00MMM
00000000
00030010
00010000
00000100
00001000
00000100
00000010
,
MMMMMM02
00000000
00000000
00001003
00000002
00000000
00000000
00000000
,
MMMM0MM0
00000000
00000103
00000001
00000100
00000001
00000010
00000002
,
MMMMMM00
00000000
00000000
00000000
00000000
00000000
00000000
00000000
00001003
00000000
00000000
00000001
00000000
00000000
00001000
00000000
,
MMMM0M2M
00000000
00000000
00000000
00000000
00000000
00000130
00000020
,
MMMMM00M
00000000
00000000
00000000
00000000
00000000
00000130
00000000
00000010
00000000
00000000
00001000
00000000
00000000
00000100
00000000
,
00001000
00000000
00000000
00000100
,
00010000
00000010
00010000
00001000
,
00010000
00000000
00001000
00000000
00010000
00000000
00000000
00101000
,
00000000
00000000
00000000
00000000
00001000
00100000
00010000
01000000
,
00000000
00010000
00000000
00000000
00000000
00000000
01000000
00000000
,
00001000
01000000
10000000
01000000
,
00010000
00000000
01000000
00000000
00100000
00000000
00000000
01100000
,
00000000
00000000
00000000
00000000
10000000
01000000
10000000
00100000
,
00000000
10000000
00000000
00000000
00000000
00000000
00000000
00000000
,
00100000
00000000
10000000
00000000
01000000
00100000
01000000
00000000
,
00100000
00000000
00010000
00000000
10000000
00010000
10000000
00000000
,
00010000
00000000
00000000
00000000
01000000
00000000
00000000
00000000
00010000
00000000
00000000
00100000
00000000
00000000
00001000
00000000
,
00000000
00100000
00000000
00000000
00000000
00000000
00000000
00000000
,
00001000
00000000
01000000
00000000
00001000
00010000
00001000
00000000
,
00010000
00000000
00000010
00000000
00010000
00000100
00010000
00000000
,
00000100
00000000
00000000
00000000
00001000
00000000
00000000
00000000
00000010
00000000
00000000
00001000
00000000
00000000
00000010
00000000
,
00000000
00000100
00000000
00000010
00000100
00000001
00001000
00000001
,
MMMM2MM0
00000000
00000000
00003001
00000020
00000000
00000000
00000000
,
MMMMMM00
00000000
00000000
00000031
00000010
00000001
00000100
00000001
,
MMMM2MM0
00000000
00000000
00003100
00000020
00000000
00000000
00000000
,
MMMMM00M
00000000
00000130
00001000
00000010
00010000
00001000
00010000
,
MMM02MMM
00000000
00000000
01003000
00020000
00000000
00000000
00000000
,
M0M0MMMM
00000000
00130000
00010000
10000000
00100000
01000000
00200000
,
M00MMMMM
00000000
00000000
00000000
00000000
00000000
00000000
00000000
10300000
00000000
00000000
01000000
00000000
00000000
10000000
00000000
,
02MMMMMM
00000000
00000000
03100000
00010000
10000000
00010000
01000000
,
M0MM2MMM
00000000
00000000
01003000
00002000
00000000
00000000
00000000
,
M0MM0MMM
00000000
00000000
00013000
00000010
00010000
00000100
00001000
,
MMMM02MM
00000000
00000000
00000310
00000002
00000000
00000000
00000000
,
MMMMMM00
00000000
00001003
00000001
00000100
00000001
00000100
00000001
,
MMMMMM20
00000000
00000000
00000031
00002000
00000000
00000000
00000000
,
MMMM0MM0
00000000
00003001
00001000
00000010
00000100
00000010
00000200
,
MMMMM00M
00000000
00000000
00000000
00000000
00000000
00000000
00000000
00000310
00000000
00000000
00001000
00000000
00000000
00000100
00000000
,
MMMM20MM
00000000
00000000
00000000
00000000
00000000
00003100
00020000
,
MMM0M0MM
00000000
00000000
00000000
00000000
00000000
00030010
00000000
00010000
00000000
00000000
00001000
00000000
00000000
00010000
00000000
,
00001000
00000000
00000000
00000000
,
00000000
00000000
00000000
00000000
,
00010000
00001000
00100000
00001000
00100000
00000000
00010000
01000000
,
00000000
00000000
00000000
00000000
00000000
00000000
00000000
00010000
,
01000000
00010000
10000000
00010000
10000000
00000000
00100000
01000000
,
00000000
00000000
00000000
00000000
,
00100000
01000000
00100000
10000000
01000000
00000000
10000000
00100000
,
00000000
00000000
00000000
00000000
00000000
00000000
00000000
10000000
,
00100000
10000000
01000000
00100000
01000000
00000000
00100000
00010000
,
00000000
00000000
00000000
00000000
00000000
00000000
00000000
10000000
,
00010000
10000000
00010000
01000000
00010000
00000000
00100000
00001000
,
00000000
00000000
00000000
00000000
00000000
00000000
00000000
00100000
,
00001000
01000000
00001000
00010000
00001000
00000000
00010000
00000010
,
00000000
00000000
00000000
00000000
00000000
00000000
00000000
00010000
,
00000100
00010000
00000100
00001000
00000010
00000000
00001000
00000010
,
00000000
00000000
00000000
00000000
,
00000000
00000000
00000000
00000000
,
00000100
00000000
00000010
00000000
00000100
00000001
00001000
00000000
,
00000001
00000000
00001000
00000000
00000001
00000010
00000001
00000000
,
00000010
00000000
00000000
00000000
00000001
00000000
00000000
00000000
00000100
00000000
00000000
00000001
00000000
00000000
00001000
00000000
,
00000000
00000000
00000000
00000100
00000000
00000000
00000000
00000000
00000000
00000000
00000000
00000000
00000000
00000000
00000000
00000000
,
00000000
00000000
00000000
00000010
00000100
00001000
00000010
00010000
,
MMM02MMM
00000000
00000000
00013000
00002000
00000000
00000000
00000000
,
MMM00MMM
00000000
00000000
01003000
00010000
00100000
00010000
10000000
,
0M2MMMMM
00000000
00000000
01300000
00200000
00000000
00000000
00000000
,
M00MMMMM
00000000
10300000
01000000
10000000
01000000
00100000
00010000
,
2MM0MMMM
00000000
00000000
30010000
02000000
00000000
00000000
00000000
,
M0M0MMMM
00000000
03001000
01000000
00001000
00010000
00000010
00020000
,
MMM0MM0M
00000000
00000000
00000000
00000000
00000000
00000000
00000000
00030100
00000000
00000000
00001000
00000000
00000000
00000100
00000000
,
MMMMM02M
00000000
00000000
00000031
00001000
00000001
00000100
00000001
,
MMMMM2M0
00000000
00000000
00000301
00000020
00000000
00000000
00000000
,
MMMMMM00
00000000
00000000
00000031
00001000
00000001
00001000
00000010
,
MMMMM20M
00000000
00000000
00000310
00000200
00000000
00000000
00000000
,
MMMMM00M
00000000
00000000
00000310
00001000
00000100
00001000
00000100
,
MMM2M0MM
00000000
00000000
00030010
00020000
00000000
00000000
00000000
,
MMM0MM0M
00000000
00031000
00010000
00001000
00010000
00001000
00200000
,
MM0M0MMM
00000000
00000000
00000000
00000000
00000000
00000000
00000000
00301000
00000000
00000000
00100000
00000000
00000000
00010000
00000000
,
M2M0MMMM
00000000
00000000
00000000
00000000
00000000
03010000
02000000
,
M0M0MMMM
00000000
00000000
00000000
00000000
00000000
03010000
00000000
10000000
00000000
00000000
00010000
00000000
00000000
10000000
00000000
,
0M2MMMMM
00000000
00000000
00000000
00000000
00000000
01300000
00200000
,
M00MMMMM
00000000
00000000
00000000
00000000
00000000
01300000
00000000
00100000
00000000
00000000
10000000
00000000
00000000
01000000
00000000
,
00000000
10000000
00000000
00000000
00000000
00000000
00000000
00000000
00000000
00000000
00000000
00000000
00000000
00000000
00000000
00000000
00000000
00000000
00000000
00000000
00000000
00000000
00000000
00000000
00000000
00000000
00000000
00000000
00000000
00000000
00000000
00000000
;

//--------------- dance-double - Cut from Gazebo + JDongs ----------------
#NOTES:
     dance-double:
     Cut from Gazebo + JDongs:
     Hard:
     7:
     0,0,0,0,0:
00100000
10000000
01000000
00100000
00010000
10000000
00010000
01000000
,
00001000
00100000
00001000
00010000
00000010
00010000
00000100
00001000
,
00000010
00000100
00000001
00001000
00000001
00000010
00000001
00000100
,
00000001
00001000
00000010
00000100
00000010
00001000
00000100
00000000
,
00010000
00001000
00010000
00001000
,
01000000
00000000
00010000
00000000
00100000
00000000
00010000
10010000
,
01000000
00100000
00000000
00000000
01000000
10000000
01000000
10000000
,
00000000
00100000
00000000
00000000
00000000
00000000
01000000
00000000
,
00010000
10000000
00010000
00100000
,
00001000
00000000
01000000
00000000
00001000
00000000
00010000
00010010
,
00010000
00000100
00000000
00000000
00001000
00000010
00000100
00000001
,
00000000
00001000
00000000
00000000
00000000
00000000
00000000
00000000
,
00000001
00000010
00000001
00000100
00000001
00001000
00000010
00000100
,
00000010
00001000
00000100
00010000
00001000
00010000
00001000
00100000
,
00010000
01000000
00010000
10000000
00100000
01000000
00100000
10000000
,
00000000
01000000
00000000
10000000
00100000
01000000
00010000
10000000
,
00010000
00100000
00001000
01000000
00001000
00010000
00000100
00010000
,
00000010
00001000
00000100
00000010
00000001
00001000
00000001
00000100
,
00000001
00000010
00000001
00001000
00000100
00000010
00000100
00001000
,
00000010
00000000
00010000
00000000
000MM000
00M00M00
00M00M00
0M0000M0
0M0000M0
0M0000M0
M000000M
M000000M
M000000M
M000000M
0M0000M0
0M0000M0
,
0M0000M0
00M00M00
00M00M00
00000000
000MM000
00000000
00001000
00000000
00010000
00000000
00001000
00000000
00100000
00000000
00010000
00000000
,
01000000
00010000
10000000
00100000
01000000
00100000
10000000
00100000
,
10000000
01000000
00100000
00010000
10000000
00010000
01000000
00001000
,
00100000
00001000
00010000
00000100
00010000
00000010
00001000
00000100
,
00000010
00000001
00001000
00000001
00000100
00000001
00000010
00000001
,
00001000
00000100
00000010
00000100
00001000
00000010
00010000
00001000
,
00010000
00001000
01000000
00010000
00100000
00010000
10000000
01000000
,
00100000
01000000
10000000
00100000
10000000
01000000
00100000
00010000
,
10000000
00010000
01000000
00001000
00100000
00001000
00010000
00000010
,
00010000
00000100
00001000
00000010
00000100
00000001
00001000
00000001
,
00000010
00000000
00000000
00000001
,
00000100
00000001
00001000
00000010
,
00000100
00000000
00000010
00000000
00001000
00000000
00000100
00010100
,
00001000
00010000
00000000
00001000
01000000
00010000
00100000
00010000
,
00000000
10000000
00000000
00000000
00000000
00000000
01000000
00000000
,
00100000
01000000
10000000
01000000
,
10000000
00000000
00100000
00000000
01000000
00000000
00010000
10010000
,
00010000
00100000
00000000
00001000
01000000
00001000
00010000
00000010
,
00000000
00010000
00000000
00000000
00000000
00000000
00000000
00000000
,
00000100
00001000
00000010
00000100
00000001
00001000
00000001
00000010
,
00000001
00000100
00000001
00001000
00000010
00000100
00000010
00001000
,
00000100
00010000
00001000
00010000
00001000
00100000
00010000
01000000
,
00010000
10000000
00100000
01000000
00100000
10000000
01000000
10000000
,
00100000
01000000
00010000
10000000
00010000
00100000
00001000
01000000
,
00001000
00010000
00000100
00010000
00000010
00001000
00000100
00000010
,
00000001
00001000
00000001
00000100
00000001
00000010
00000001
00001000
,
00000100
00000010
00000100
00001000
00000010
00010000
00001000
00010000
,
00001000
00100000
00010000
01000000
00010000
10000000
00100000
01000000
,
00100000
10000000
00100000
10000000
01000000
00100000
00010000
10000000
,
00010000
01000000
00001000
00100000
00001000
00010000
00000100
00010000
,
00000010
00001000
00000100
00000010
00000001
00001000
00000001
00000100
,
00000001
00000010
00000001
00001000
00000100
00000010
00000100
00001000
,
00000010
00010000
00001000
00010000
00001000
01000000
00010000
00100000
,
00010000
10000000
01000000
00100000
01000000
10000000
00100000
10000000
,
01000000
00100000
00010000
10000000
00010000
01000000
00001000
00100000
,
00001000
00010000
00000010
00010000
00000100
00001000
00000010
00000100
,
00000001
00001000
00000001
00000010
00000001
00000100
00000001
00001000
,
00000010
00000100
00000010
00001000
00000100
00010000
00001000
00010000
,
00001000
01000000
00010000
00100000
00010000
10000000
01000000
00100000
,
01000000
10000000
01000000
10000000
00100000
01000000
00010000
10000000
,
00010000
00100000
00001000
01000000
00001000
00010000
00000010
00010000
,
00000100
00001000
00000010
00000100
00000001
00001000
00000001
00000010
,
00000001
00000100
00000001
00001000
00000010
00000100
00000010
00001000
,
00000100
00010000
00001000
00010000
00001000
00100000
00010000
01000000
,
00010000
00000000
00000000
00000000
,
10000000
00000000
00000000
00000000
00100000
00000000
00000000
01000000
,
00100000
10000000
01000000
10000000
00100000
00000000
01000000
00010000
,
00000000
00000000
00000000
00000000
10000000
00000000
00010000
00100000
,
00001000
01000000
00001000
00010000
00000100
00000000
00010000
00000010
,
00000000
00000000
00001000
00000000
,
00000100
00000010
00000001
00001000
00000001
00000000
00000100
00000001
,
00000000
00000000
00000000
00000000
00000000
00000000
00000000
00000010
,
00000001
00001000
00000100
00000010
00000100
00000000
00001000
00000010
,
00000000
00000000
00000000
00000000
00010000
00000000
00000000
00001000
,
00010000
00001000
00100000
00010000
01000000
00000000
00010000
10000000
,
00000000
00000000
00000000
00000000
00100000
00000000
01000000
00100000
,
10000000
00100000
10000000
01000000
00100000
00000000
00010000
10000000
,
00000000
00000000
00010000
00000000
,
01000000
00001000
00100000
00001000
00010000
00000000
00000100
00010000
,
00000000
00000000
00000000
00000000
,
00000000
00000000
00000000
00000000
,
00000010
00000000
00001000
00000000
00000100
00000010
00000001
00000000
,
00001000
00000000
00000001
00000000
00000100
00000001
00000010
00000000
,
00000001
00000000
00000000
00001000
00000000
00000000
00000100
00000000
00000010
00000000
00000000
00000100
,
00000000
00000000
00000000
00001000
00000000
00000000
00000000
00000000
00000000
00000000
00000000
00000000
00000000
00000000
00000000
00000000
,
00000000
00000000
00000000
00000010
00010000
00001000
00010000
00001000
,
01000000
00010000
00100000
00010000
10000000
01000000
00100000
01000000
,
10000000
00100000
10000000
01000000
00100000
00010000
10000000
00010000
,
01000000
00001000
00100000
00001000
00010000
00000010
00010000
00000100
,
00001000
00000010
00000100
00000001
00001000
00000001
00000010
00000001
,
00000100
00000001
00001000
00000010
00000100
00000010
00001000
00000100
,
00010000
00001000
00010000
00001000
01000000
00010000
00100000
00010000
,
10000000
01000000
00100000
01000000
10000000
01000000
10000000
00100000
,
01000000
00010000
10000000
00010000
00100000
00001000
01000000
00001000
,
00010000
00000010
00010000
00000100
00001000
00000010
00000100
00000001
,
00001000
00000001
00000010
00000001
00000100
00000001
00001000
00000010
,
00000100
00000010
00001000
00000100
00010000
00001000
00010000
00001000
,
00100000
00010000
01000000
00010000
10000000
00100000
01000000
00100000
,
10000000
01000000
10000000
00100000
01000000
00010000
10000000
00010000
,
00100000
00001000
01000000
00001000
00010000
00000100
00010000
00000010
,
00001000
00000100
00000010
00000001
00001000
00000001
00000100
00000001
,
00000010
00000001
00001000
00000100
00000010
00000100
00001000
00000010
,
00010000
00001000
00010000
00001000
00100000
00010000
01000000
00010000
,
10000000
00000000
00000000
00000000
00100000
00000000
01000000
00100000
,
00000000
00000000
00000000
00000000
00000000
00000000
00000000
00000000
00000000
00000000
00000000
00000000
00000000
00000000
00000000
00000000
00000000
00000000
00000000
00000000
00000000
00000000
00000000
10000000
00000000
00000000
00000000
00000000
00000000
00000000
00000000
00000000
00000000
00100000
00000000
00000000
00000000
00000000
00000000
00000000
00000000
00000000
00000000
00000000
10000000
00000000
00000000
00000000
00000000
00000000
00000000
00000000
00000000
00000000
01000000
00000000
00000000
00000000
00000000
00000000
00000000
00000000
00000000
00000000
,
00000000
00000000
00000000
00000000
00000000
00100000
00000000
00000000
00000000
00000000
00000000
00000000
00000000
00000000
00000000
00000000
00000000
00000000
00000000
00000000
00000000
00000000
00000000
00000000
00000000
00000000
00000000
00000000
00000000
00000000
00000000
00000000
00000000
00000000
00000000
00000000
00000000
00000000
00000000
00000000
00000000
00000000
00000000
00000000
00000000
00000000
00000000
00000000
00000000
00000000
00000000
00000000
00000000
00000000
00000000
00000000
00000000
00000000
00000000
00000000
00000000
00000000
00000000
00000000
;
