#TITLE:Temmie Village;
#SUBTITLE:;
#ARTIST:Unknown artist;
#TITLETRANSLIT:;
#SUBTITLETRANSLIT:;
#ARTISTTRANSLIT:;
#GENRE:;
#CREDIT:;
#MUSIC:43 - Temmie Village.mp3;
#BANNER:Temmie Village-bn.png;
#BACKGROUND:Temmie Village-bg.png;
#CDTITLE:;
#SAMPLESTART:34.473;
#SAMPLELENGTH:12.000;
#SELECTABLE:YES;
#OFFSET:1.381;
#BPMS:0.000=168.035;
#STOPS:;
#LASTBEATHINT:0.572905;
#BGCHANGES:;
#FGCHANGES:;

//--------------- dance-single - LinkDude01 ----------------
#NOTES:
     dance-single:
     LinkDude01:
     Beginner:
     1:
     0.098665,0.103598,0,0,0,40,40,0,0,0,0,0.098665,0.103598,0,0,0,40,40,0,0,0,0:
0000
0000
0000
0000
,
0000
0000
0000
0000
,
0000
0000
0000
0000
,
0001
0000
0000
0000
,
0100
0000
0000
0000
,
0010
0000
0000
0000
,
1000
0000
0000
0000
,
0010
0000
0000
0000
,
1000
0000
0000
0000
,
0100
0000
0000
0000
,
1000
0000
0000
0000
,
0100
0000
0000
0000
,
0010
0000
0000
0000
,
0100
0000
0000
0000
,
0010
0000
0000
0000
,
0001
0000
0000
0000
,
0010
0000
0000
0000
,
0001
0000
0000
0000
,
0100
0000
0000
0000
,
0001
0000
0000
0000
,
0100
0000
0000
0000
,
0010
0000
0000
0000
,
0100
0000
0000
0000
,
0010
0000
0000
0000
,
1000
0000
0000
0000
,
0010
0000
0000
0000
,
1000
0000
0000
0000
,
0100
0000
0000
0000
,
1000
0000
0000
0000
,
0100
0000
0000
0000
,
0010
0000
0000
0000
,
0100
0000
0000
0000
,
0010
0000
0000
0000
,
0001
0000
0000
0000
,
0010
0000
0000
0000
,
0001
0000
0000
0000
,
0100
0000
0000
0000
,
0001
0000
0000
0000
,
0100
0000
0000
0000
,
0010
0000
0000
0000
,
0100
0000
M00M
0000
;

//--------------- dance-single - LinkDude03 ----------------
#NOTES:
     dance-single:
     LinkDude03:
     Easy:
     2:
     0.19733,0.174822,0,0,0,80,80,0,0,0,0,0.19733,0.174822,0,0,0,80,80,0,0,0,0:
0000
0000
0000
0000
,
0000
0000
0000
0000
,
0000
0000
0000
0000
,
0001
0000
1000
0000
,
0010
0000
0100
0000
,
0001
0000
1000
0000
,
0001
0000
0100
0000
,
0001
0000
1000
0000
,
0100
0000
0010
0000
,
0001
0000
0010
0000
,
0100
0000
0010
0000
,
0001
0000
1000
0000
,
0010
0000
0100
0000
,
0001
0000
1000
0000
,
0001
0000
0100
0000
,
0001
0000
0100
0000
,
0010
0000
1000
0000
,
0001
0000
0010
0000
,
0001
0000
1000
0000
,
0001
0000
0010
0000
,
0100
0000
1000
0000
,
0001
0000
0100
0000
,
0010
0000
0100
0000
,
0001
0000
0100
0000
,
0010
0000
1000
0000
,
0001
0000
0010
0000
,
0001
0000
1000
0000
,
0001
0000
0010
0000
,
0100
0000
1000
0000
,
0100
0000
1000
0000
,
0001
0000
0100
0000
,
0010
0000
1000
0000
,
0001
0000
1000
0000
,
0010
0000
0100
0000
,
0010
0000
1000
0000
,
0001
0000
0010
0000
,
0100
0000
1000
0000
,
0100
0000
1000
0000
,
0001
0000
0100
0000
,
0010
0000
1000
0000
,
0001
0000
2MM0
3000
;

//--------------- dance-single - LinkDude06 ----------------
#NOTES:
     dance-single:
     LinkDude06:
     Medium:
     4:
     0.392194,0.31468,0,0,0,159,159,0,0,0,0,0.392194,0.31468,0,0,0,159,159,0,0,0,0:
0000
0000
0000
0000
,
0000
0000
0000
0000
,
0000
0000
0000
0000
,
0001
0010
0001
1000
,
0010
0100
0001
0100
,
0010
0100
0001
1000
,
0100
0010
0001
1000
,
0001
0010
0001
0010
,
0100
1000
0001
0100
,
0001
1000
0001
0100
,
0010
1000
0001
0010
,
0100
0010
0001
0010
,
0100
1000
0001
0100
,
0001
1000
0001
0100
,
0010
1000
0010
1000
,
0001
0010
0100
1000
,
0001
1000
0100
0010
,
0100
1000
0001
0100
,
0010
1000
0010
1000
,
0001
0010
0100
1000
,
0001
1000
0100
1000
,
0100
0010
0001
1000
,
0010
0100
0010
1000
,
0001
1000
0010
0100
,
0001
1000
0100
1000
,
0100
0010
0001
1000
,
0010
1000
0001
1000
,
0010
0100
0001
0100
,
0010
0100
0001
1000
,
0100
0010
0001
1000
,
0001
0010
0001
1000
,
0010
0100
0001
0100
,
0001
1000
0100
0010
,
0001
1000
0001
0010
,
0100
0010
0001
0010
,
0100
1000
0001
0100
,
0001
1000
0001
0100
,
0010
1000
0001
0010
,
0001
0010
0100
1000
,
0001
0100
0010
0100
,
0001
1000
0MM2
0003
;

//--------------- dance-single - LinkDude07 ----------------
#NOTES:
     dance-single:
     LinkDude07:
     Hard:
     5:
     0.476059,0.489502,0,0,0.293529,193,193,0,0,0,0,0.476059,0.489502,0,0,0.293529,193,193,0,0,0,0:
0000
0000
0000
0000
,
0000
0000
0000
0000
,
0000
0000
0000
0000
,
0001
1000
0100
1000
,
0001
0000
0000
0100
0000
0000
0010
0000
0000
1000
0000
0010
,
1000
0010
1000
0001
,
0010
0000
0000
0100
0000
0000
1000
0000
0000
0001
0000
1000
,
0001
1000
0100
0010
,
0001
0000
0000
1000
0000
0000
0010
0000
0000
1000
0000
0001
,
1000
0010
1000
0000
,
0001
0000
0000
1000
0000
0100
0000
0000
1000
0100
0000
1000
,
0000
0000
0000
0001
0000
0000
1000
0000
0000
0000
0000
0010
,
0000
0000
0000
0100
0000
0000
0010
0000
0100
0010
0000
0000
,
0000
0000
0000
1001
0000
0000
0000
0000
0010
0000
0000
0000
,
0000
0110
0000
0000
,
0000
0000
1100
0000
0000
0000
0001
0000
0000
0000
0000
0000
,
0000
0000
1010
0000
0000
0000
0001
0000
0000
0000
0000
0000
,
0000
1000
0001
0000
,
1000
0000
0000
0010
0000
0100
0000
0000
0010
0100
0000
0010
,
0000
0000
0000
1000
0000
0000
0100
0000
0000
0000
0000
0010
,
0000
0000
0001
0000
0000
0000
0010
0000
0001
0010
0000
0000
,
0001
0000
0000
0011
0000
0000
0000
0000
0100
0000
0000
0000
,
0000
1010
0000
0000
,
0000
0000
0101
0000
0000
0000
0010
0000
0000
0000
0000
0000
,
0000
0000
1100
0000
0000
0000
0010
0000
0000
0000
0000
0000
,
0001
1000
0010
1000
,
0010
0000
0000
0100
0000
0000
0001
0000
0000
1000
0000
0100
,
1000
0001
1000
0100
,
0010
0000
0000
0001
0000
0000
0010
0000
0000
0001
0000
0010
,
0001
1000
0010
0100
,
0001
0000
0000
1000
0000
0000
0001
0000
0000
1000
0000
0001
,
1000
0100
0010
0001
,
0010
0000
0000
0001
0000
0000
1000
0000
0000
0001
0000
0100
,
0001
1000
0001
0100
,
0010
0000
0000
0100
0000
0000
0001
0000
0000
1000
0000
0010
,
1000
0001
0010
0001
,
1000
0000
0000
0001
0000
0000
0010
0000
0000
0001
0000
1000
,
0001
0100
0001
0100
,
0010
0000
0000
1000
0000
0000
0001
0000
0000
0010
0000
0100
,
0010
0001
1000
0001
,
0010
0100
M22M
0330
;

//--------------- dance-single - LinkDude12 ----------------
#NOTES:
     dance-single:
     LinkDude12:
     Challenge:
     8:
     0,0,0,0,0:
0000
0000
0000
0000
,
0000
0000
0000
0000
,
0000
0000
0000
0000
,
0001
1000
0010
1000
,
0001
0000
0000
0010
0000
0000
0100
0000
0000
1000
0000
0100
,
0010
0100
1000
0001
,
0100
0000
0000
0010
0000
0000
1000
0000
0000
0001
0000
1000
,
0010
1000
0010
0100
,
0001
0000
0000
1000
0000
0000
0100
0000
0000
1000
0000
0001
,
1000
0001
1000
0100
,
1000
0000
0000
0001
0000
0010
0001
0000
1000
0010
0000
1000
,
0010
0000
0000
1000
0000
0000
0010
0000
0000
0100
0000
0010
,
1000
0000
0000
0010
0000
0000
0100
0000
0010
0100
0000
0010
,
1000
0000
0000
0001
0000
0000
1000
0000
0010
1000
0000
0000
,
0001
0000
0000
1000
0000
0000
0001
0000
0000
0010
0000
0100
,
1000
0000
0100
1000
0000
0000
0001
0000
0000
1000
0000
0000
,
0100
0000
0010
0001
0000
0000
1000
0000
0000
0001
0000
1000
,
0010
1000
0010
0100
,
0010
0000
0000
1000
0000
0010
1000
0000
0001
1000
0000
0001
,
0010
0000
0000
0001
0000
0000
1000
0000
0000
0100
0000
1000
,
0100
0000
1000
0001
0000
0000
0100
0000
0010
0100
0000
0010
,
0100
0000
0000
0001
0000
0000
1000
0000
0001
1000
0000
0000
,
0010
0000
0000
1000
0000
0000
0001
0000
0000
0010
0000
0100
,
1000
0000
0001
0100
0000
0000
0010
0000
0000
0100
0000
0000
,
0010
0000
1000
0001
0000
0000
1000
0000
0000
0010
0000
0100
,
0001
1000
0100
1000
,
0100
0000
0000
0010
0000
0000
0001
0000
0000
1000
0000
0010
,
1000
0001
1000
0010
,
0100
0000
0000
0001
0000
0000
0100
0000
0000
0010
0000
0100
,
0001
1000
0100
0010
,
0001
0000
0000
1000
0000
0000
0001
0000
0000
0010
0000
0001
,
1000
0010
0100
0001
,
0100
0000
0000
0001
0000
0000
1000
0000
0000
0100
0000
0010
,
0001
1000
0001
0010
,
0100
0000
0000
0010
0000
0000
0001
0000
0000
0010
0000
0100
,
1000
0001
0100
0001
,
1000
0000
0000
0001
0000
0000
0100
0000
0000
0010
0000
1000
,
0001
0010
0001
0010
,
0100
0000
0000
1000
0000
0000
0001
0000
0000
0100
0000
0010
,
0100
0001
1000
0001
,
0100
0010
2MM2
3003
;
