#TITLE:Tem Shop;
#SUBTITLE:;
#ARTIST:Toby Fox;
#TITLETRANSLIT:;
#SUBTITLETRANSLIT:;
#ARTISTTRANSLIT:;
#GENRE:;
#CREDIT:LinkDude;
#BANNER:Tem Shop-bn.png;
#BACKGROUND:Tem Shop-bg.png;
#LYRICSPATH:;
#CDTITLE:;
#MUSIC:44 - Tem Shop.mp3;
#OFFSET:1.221063;
#SAMPLESTART:-1.209000;
#SAMPLELENGTH:11.309000;
#LASTBEATHINT:0.206313;
#SELECTABLE:YES;
#BPMS:0.000000=191.000000
;
#STOPS:
;
#BGCHANGES:;
#KEYSOUNDS:;
#ATTACKS:;

//---------------dance-single - LinkDude03----------------
#NOTES:
     dance-single:
     LinkDude03:
     Beginner:
     2:
     0.120048,0.150376,0.000000,0.000000,0.000000,38.000000,38.000000,0.000000,0.000000,0.000000,0.000000,0.120048,0.150376,0.000000,0.000000,0.000000,38.000000,38.000000,0.000000,0.000000,0.000000,0.000000:
0000
0000
0000
0000
,
0000
0001
0000
0000
,
1000
0000
0000
0000
,
0000
0100
0000
0000
,
0010
0000
0000
0000
,
0000
0001
0000
0000
,
0100
0000
0000
0000
,
0010
0000
0100
0000
,
0010
0000
0000
0000
,
0000
1000
0000
0000
,
0100
0000
0000
0000
,
0000
0010
0000
0000
,
0001
0000
0000
0000
,
0000
0100
0000
0000
,
0010
0000
0000
0000
,
1000
0000
0010
0000
,
1000
0000
0000
0000
,
0000
0100
0000
0000
,
0010
0000
0000
0000
,
0000
0001
0000
0000
,
0100
0000
0000
0000
,
0000
0010
0000
0000
,
1000
0000
0000
0000
,
0100
0000
1000
0000
,
0100
0000
0000
0000
,
0000
0010
0000
0000
,
0001
0000
0000
0000
,
0000
0100
0000
0000
,
0010
0000
0000
0000
,
0000
1000
0000
0000
,
0100
0000
0000
0000
,
0010
0000
0100
0000
,
0010
0000
0000
0000
,
0000
0001
0000
0000
,
1000
0000
0000
0000
;

//---------------dance-single - LinkDude04----------------
#NOTES:
     dance-single:
     LinkDude04:
     Easy:
     3:
     0.192709,0.187970,0.044228,0.000000,0.000000,61.000000,59.000000,2.000000,0.000000,0.000000,0.000000,0.192709,0.187970,0.044228,0.000000,0.000000,61.000000,59.000000,2.000000,0.000000,0.000000,0.000000:
0000
0000
0000
0000
,
0000
0000
0001
0000
0000
1000
0000
0000
,
0100
0000
0000
0000
,
0000
0000
1000
0000
0000
0001
0000
0000
,
0100
0000
0000
0000
,
0000
0000
0001
0000
0000
1000
0000
0000
,
0100
0000
0000
0000
,
0010
0000
0001
0000
,
0011
0000
0000
0000
,
0000
0000
1000
0000
0000
0001
0000
0000
,
0010
0000
0000
0000
,
0000
0000
0001
0000
0000
1000
0000
0000
,
0010
0000
0000
0000
,
0000
0000
1000
0000
0000
0001
0000
0000
,
0010
0000
0000
0000
,
0100
0000
1000
0000
,
1100
0000
0000
0000
,
0000
0000
0001
0000
0000
1000
0000
0000
,
0001
0000
0000
1000
0000
0000
0000
0000
,
0000
0000
0100
0000
0000
1000
0000
0000
,
0100
0000
0000
1000
0000
0000
0000
0000
,
0000
0000
0001
0000
0000
0010
0000
0000
,
0001
0000
0000
0010
0000
0000
0000
0000
,
0000
0000
0100
0000
0000
0010
0000
0000
,
0100
0000
0000
0010
0000
0000
0000
0000
,
0000
0000
0001
0000
0000
0100
0000
0000
,
0001
0000
0000
0100
0000
0000
0000
0000
,
0000
0000
0010
0000
0000
0100
0000
0000
,
0010
0000
0000
0100
0000
0000
0000
0000
,
0000
0000
0001
0000
0000
1000
0000
0000
,
0001
0000
0000
1000
0000
0000
0000
0000
,
0000
0000
0100
0000
0000
0010
0000
0000
,
0100
0000
0000
0010
0000
0000
0000
0000
,
0000
0000
0001
0000
0000
1000
0000
0000
,
0010
0000
0000
0000
;

//---------------dance-single - LinkDude06----------------
#NOTES:
     dance-single:
     LinkDude06:
     Medium:
     4:
     0.262210,0.230540,0.000000,0.000000,0.000000,83.000000,83.000000,0.000000,0.000000,0.000000,0.000000,0.262210,0.230540,0.000000,0.000000,0.000000,83.000000,83.000000,0.000000,0.000000,0.000000,0.000000:
0000
0000
0000
0000
,
0000
0000
0001
0000
0000
0100
0000
0000
,
0001
0000
0000
0100
0000
0000
0001
0000
,
0000
0000
1000
0000
0000
0010
0000
0000
,
1000
0000
0000
0010
0000
0000
0000
0000
,
0000
0000
0100
0000
0000
0001
0000
0000
,
0100
0000
0000
0001
0000
0000
0100
0000
,
0010
0000
1000
0000
,
0010
1000
0010
0000
,
0000
0000
1000
0000
0000
0100
0000
0000
,
1000
0000
0000
0100
0000
0000
1000
0000
,
0000
0000
0001
0000
0000
0010
0000
0000
,
0001
0000
0000
0010
0000
0000
0000
0000
,
0000
0000
0100
0000
0000
1000
0000
0000
,
0100
0000
0000
1000
0000
0000
0100
0000
,
0010
0000
0001
0000
,
0010
0001
0010
0000
,
0000
0000
0001
0000
0000
0100
0000
0000
,
0001
0000
0000
0010
0000
0000
0001
0000
,
0000
0000
1000
0000
0000
0010
0000
0000
,
1000
0000
0000
0100
0000
0000
1000
0000
,
0000
0000
0001
0000
0000
0010
0000
0000
,
0001
0000
0000
0100
0000
0000
0001
0000
,
0000
0000
1000
0000
0000
0100
0000
0000
,
1000
0000
0000
0010
0000
0000
1000
0000
,
0000
0000
0001
0000
0000
0100
0000
0000
,
0010
0000
0000
0100
0000
0000
0001
0000
,
0000
0000
0100
0000
0000
1000
0000
0000
,
0100
0000
0000
0001
0000
0000
0100
0000
,
0000
0000
0001
0000
0000
0010
0000
0000
,
0100
0000
0000
0010
0000
0000
0001
0000
,
0000
0000
0010
0000
0000
1000
0000
0000
,
0010
0000
0000
0001
0000
0000
0010
0000
,
0000
0000
0001
0000
0000
0100
0000
0000
,
0010
0000
0000
1000
0000
0000
0100
0000
;

//---------------dance-single - LinkDude09----------------
#NOTES:
     dance-single:
     LinkDude09:
     Hard:
     6:
     0.426486,0.350785,0.000000,0.066342,0.000000,135.000000,135.000000,0.000000,3.000000,10.000000,0.000000,0.426486,0.350785,0.000000,0.066342,0.000000,135.000000,135.000000,0.000000,3.000000,10.000000,0.000000:
0000
0000
0000
0000
,
0001
0010
0001
0010
,
0001
0100
0001
0100
,
0010
0100
0010
0100
,
0010
1000
0010
1000
,
0100
1000
0100
1000
,
0100
0010
0100
0010
,
0001
0010
0001
0010
,
0001
0100
0002
0003
,
1000
0010
0100
0001
,
1000
0010
0100
0001
,
0100
0010
1000
0001
,
0100
0010
1000
0010
,
0100
0001
1000
0010
,
0100
0001
0100
0010
,
1000
0001
0100
0010
,
1000
0010
0200
0300
,
0001
0010
0100
1000
,
0100
0010
0001
0010
,
0100
1000
0100
0010
,
0001
0010
0100
1000
,
0001
0100
0001
0100
,
10MM
0100
0001
0100
,
0001
0010
0001
0010
,
1M0M
0010
0001
0010
,
0001
1000
0100
1000
,
0100
M0M1
0100
1000
,
0100
1000
0010
1000
,
0010
MM01
0010
1000
,
0010
1000
0100
0010
,
0001
0100
0010
1000
,
0100
0010
0001
0100
,
0010
1000
0100
0010
,
0001
0100
0001
0100
,
10MM
0100
0001
0100
,
0002
0003
0000
0000
;

//---------------dance-single - LinkDude13----------------
#NOTES:
     dance-single:
     LinkDude13:
     Challenge:
     9:
     0.597081,0.545666,0.000000,0.066342,0.000000,189.000000,189.000000,0.000000,3.000000,0.000000,0.000000,0.597081,0.545666,0.000000,0.066342,0.000000,189.000000,189.000000,0.000000,3.000000,0.000000,0.000000:
0000
0000
0000
0000
,
0001
0000
0010
0000
0100
1000
0100
0000
,
1000
0000
0010
0100
0010
0100
0010
0100
,
0010
0000
0100
0000
0001
0010
0001
0000
,
0010
0000
0100
1000
0100
0000
1000
0000
,
0010
0000
0100
0000
0001
0010
0001
0000
,
0010
0000
0100
1000
0100
1000
0100
1000
,
0100
1000
0100
0000
1000
0010
1000
0000
,
0010
0100
0002
0003
,
1000
0000
0010
0000
0100
0001
0100
0000
,
0001
0000
0010
0100
0010
0100
0010
0100
,
0010
0000
0100
0000
1000
0010
1000
0000
,
0010
0000
0100
0001
0100
0000
0001
0000
,
0010
0000
0100
0000
1000
0010
1000
0000
,
0010
0000
0100
0001
0100
0001
0100
0001
,
0100
0001
0100
0000
0001
0010
0001
0000
,
0010
0100
2000
3000
,
0001
0000
1000
0000
0010
0100
0010
0000
,
1000
0000
0010
1000
0010
1000
0100
1000
,
0100
0000
1000
0000
0100
0010
0100
0000
,
1000
0000
0001
0010
0001
0100
0001
0000
,
1000
0000
0001
0000
0010
0100
0010
0000
,
0001
0000
0010
0001
0010
0001
0100
0001
,
0100
0000
0001
0000
0100
0010
0100
0000
,
0001
0000
1000
0100
1000
0000
0001
0000
,
0100
0000
0001
0000
1000
0100
1000
0000
,
0001
0000
0100
0001
1000
0001
0100
0001
,
1000
0000
0001
0000
1000
0100
1000
0000
,
0001
0000
0100
0001
1000
0001
0100
0000
,
0001
0000
1000
0000
0001
0010
0001
0000
,
1000
0000
0010
1000
0001
1000
0010
1000
,
0001
0000
1000
0000
0001
0010
0001
0000
,
1000
0000
0001
0010
0001
0000
1000
0000
,
0001
0000
1000
0000
0010
0100
0010
0000
,
1000
0000
0100
0010
0100
0010
0001
0010
,
0002
0003
0000
0000
;
