#TITLE:Ending;
#SUBTITLE:Super Mario Land;
#ARTIST:8BitDanoOct1;
#TITLETRANSLIT:;
#SUBTITLETRANSLIT:;
#ARTISTTRANSLIT:;
#GENRE:;
#CREDIT:Link AKA Dude;
#BANNER:SMLEnding.png;
#BACKGROUND:SMLEnding-bg.png;
#LYRICSPATH:;
#CDTITLE:;
#MUSIC:SMLEnding.ogg;
#OFFSET:1.169000;
#SAMPLESTART:46.400002;
#SAMPLELENGTH:12.500000;
#LASTBEATHINT:0.285075;
#SELECTABLE:YES;
#BPMS:0.000000=140.001007,135.500000=160.102005;
#STOPS:;
#BGCHANGES:;
#KEYSOUNDS:;
#ATTACKS:;

//---------------dance-single - LinkDude05----------------
#NOTES:
     dance-single:
     LinkDude05:
     Beginner:
     3:
     0.235154,0.319513,0.107062,0.153902,0.000000,246.000000,230.000000,16.000000,23.000000,0.000000,0.000000,0.235154,0.319513,0.107062,0.153902,0.000000,246.000000,230.000000,16.000000,23.000000,0.000000,0.000000:
// measure 0
0000
0000
0000
0000
,  // measure 1
0000
0000
0000
0000
,  // measure 2
0001
0000
0001
0000
,  // measure 3
0001
0000
0001
0000
,  // measure 4
1000
0000
1000
0000
,  // measure 5
1000
0000
1000
0000
,  // measure 6
0010
0000
0010
0000
,  // measure 7
0010
0000
0010
0000
,  // measure 8
0100
0000
0100
0000
,  // measure 9
0100
0000
0100
0000
,  // measure 10
0001
0000
0001
0000
,  // measure 11
1000
0000
1000
0000
,  // measure 12
0001
0000
0001
0000
,  // measure 13
1000
0000
1000
0000
,  // measure 14
0100
0000
0100
0000
,  // measure 15
0010
0000
0010
0000
,  // measure 16
0100
0000
0100
0000
,  // measure 17
0010
0000
0010
0000
,  // measure 18
0001
0001
0001
0000
,  // measure 19
1000
1000
1000
0000
,  // measure 20
0001
0001
0001
0000
,  // measure 21
1000
1000
1000
0000
,  // measure 22
0010
0010
0010
0000
,  // measure 23
0100
0100
0100
0000
,  // measure 24
0010
0010
0010
0000
,  // measure 25
0100
0100
0100
0000
,  // measure 26
1000
1000
1000
0000
,  // measure 27
0001
0001
0001
0000
,  // measure 28
1000
1000
1000
0000
,  // measure 29
0001
0001
0001
0000
,  // measure 30
0100
0100
0100
0000
,  // measure 31
0010
0010
0010
0000
,  // measure 32
0100
0100
0100
0000
,  // measure 33
0010
0010
0010
0000
,  // measure 34
1000
0000
1000
0000
,  // measure 35
0100
0000
0100
0000
,  // measure 36
0010
0000
0010
0000
,  // measure 37
0001
0000
0001
0000
,  // measure 38
0100
0000
0100
0000
,  // measure 39
0010
0000
0010
0000
,  // measure 40
1000
0000
1000
0000
,  // measure 41
0100
0000
0100
0000
,  // measure 42
1000
1000
1000
0000
,  // measure 43
0010
0010
0010
0000
,  // measure 44
0100
0100
0100
0000
,  // measure 45
0001
0001
0001
0000
,  // measure 46
0010
0010
0010
0000
,  // measure 47
0100
0100
0100
0000
,  // measure 48
1000
1000
1000
0000
,  // measure 49
0010
0010
0010
0000
,  // measure 50
0100
0010
0100
0000
,  // measure 51
0001
1000
0001
0000
,  // measure 52
0010
0100
0010
0000
,  // measure 53
0100
0010
0100
0000
,  // measure 54
1000
0001
1000
0000
,  // measure 55
0010
0100
0010
0000
,  // measure 56
0100
0010
0100
0000
,  // measure 57
0001
1000
0001
0000
,  // measure 58
2002
0000
3003
0000
,  // measure 59
0110
0000
1001
0000
,  // measure 60
0220
0000
0330
0000
,  // measure 61
1001
0000
0110
0000
,  // measure 62
0202
0000
0303
0000
,  // measure 63
1001
0000
0110
0000
,  // measure 64
2020
0000
3030
0000
,  // measure 65
1001
0000
0110
0000
,  // measure 66
1100
0000
0011
0000
,  // measure 67
2002
0000
3003
0000
,  // measure 68
0220
0000
0330
0000
,  // measure 69
1000
1000
0001
0000
,  // measure 70
1000
1000
0100
0000
,  // measure 71
1000
1000
0010
0000
,  // measure 72
1000
1000
0001
0000
,  // measure 73
0001
0001
1000
0000
,  // measure 74
0001
0001
0100
0000
,  // measure 75
0001
0001
0010
0000
,  // measure 76
0001
0001
1000
0000
,  // measure 77
0010
0100
0010
0000
,  // measure 78
1000
0001
1000
0000
,  // measure 79
0100
0010
0100
0000
,  // measure 80
1000
0001
1000
0000
,  // measure 81
0001
1000
0001
0000
,  // measure 82
0100
0010
0100
0000
,  // measure 83
0001
1000
0001
0000
,  // measure 84
0010
0100
0010
0000
,  // measure 85
0002
0000
1003
0000
,  // measure 86
2000
0000
3010
0000
,  // measure 87
0020
0000
0130
0000
,  // measure 88
0200
0000
0301
0000
,  // measure 89
0002
0000
0013
0000
,  // measure 90
0020
0000
0130
0000
,  // measure 91
0200
0000
1300
0000
,  // measure 92
2000
0000
3010
0000
,  // measure 93
0020
0000
0130
0000
,  // measure 94
0200
0000
0301
0000
,  // measure 95
0002
0000
1003
0000
;

//---------------dance-single - LinkDude07----------------
#NOTES:
     dance-single:
     LinkDude07:
     Easy:
     4:
     0.325966,0.383416,0.153902,0.314495,0.000000,341.000000,318.000000,23.000000,47.000000,0.000000,0.000000,0.325966,0.383416,0.153902,0.314495,0.000000,341.000000,318.000000,23.000000,47.000000,0.000000,0.000000:
0000
0000
0000
0000
,
0000
0000
0000
0000
,
0001
0000
0001
0000
,
1000
0000
1000
0000
,
0001
0000
0001
0000
,
1000
0000
1000
0000
,
0010
0000
0010
0000
,
0100
0000
0100
0000
,
0010
0000
0010
0000
,
0100
0000
0100
0000
,
0001
0001
0001
0000
,
1000
1000
1000
0000
,
0001
0001
0001
0000
,
1000
1000
1000
0000
,
0010
0010
0010
0000
,
0100
0100
0100
0000
,
0010
0010
0010
0000
,
0100
0100
0100
0000
,
0001
0001
0001
0001
,
1000
1000
1000
1000
,
0001
0001
0001
0001
,
1000
1000
1000
1000
,
0010
0010
0010
0010
,
0100
0100
0100
0100
,
0010
0010
0010
0010
,
0100
0100
0100
0100
,
0001
0001
0001
0001
,
1000
1000
1000
1000
,
0001
0001
0001
0001
,
1000
1000
1000
1000
,
0100
0100
0100
0100
,
0010
0010
0010
0010
,
0100
0100
0100
0100
,
0010
0010
0010
0010
,
0001
0001
1000
1000
,
0100
0100
1000
1000
,
0010
0010
1000
1000
,
0001
0001
1000
1000
,
0001
0001
0100
0100
,
0001
0001
0010
0010
,
0001
0001
1000
1000
,
0100
0100
0010
0010
,
0001
1000
0001
1000
,
0010
1000
0010
1000
,
0010
0100
0010
0100
,
0001
0100
0001
0100
,
0001
0010
0001
0010
,
0100
0010
0100
0010
,
0100
1000
0100
1000
,
0010
1000
0010
1000
,
0001
0001
0010
0010
,
1000
1000
0010
0010
,
0001
0001
0010
0010
,
0100
0100
0001
0001
,
0100
0100
1000
1000
,
0001
1000
0010
0100
,
0001
1000
0100
0010
,
0001
1000
0010
0100
,
0002
1000
0103
0000
,
0101
0000
1010
0000
,
0020
0100
1030
0000
,
1010
0000
0101
0000
,
0002
1000
0013
0000
,
0011
0000
1100
0000
,
0200
0010
1300
0000
,
1100
0000
0011
0000
,
2020
3030
2200
3300
,
0202
0000
0000
0303
,
0022
0000
0000
0033
,
1000
0001
1000
0001
,
1000
0010
1000
0001
,
0010
0001
1000
0100
,
1000
0001
0100
0001
,
1000
0001
0100
0001
,
1000
0100
1000
0001
,
0010
0001
1000
0010
,
1000
0010
0100
0010
,
0100
0001
0100
0010
,
1000
0010
0100
0001
,
0100
0010
1000
0010
,
1000
0001
1000
0001
,
0100
0010
1000
0100
,
0010
0001
0100
0010
,
1000
0100
0010
0001
,
0100
0010
1000
0100
,
2000
3020
0230
0302
,
0023
0230
2300
3020
,
0230
0302
0023
0230
,
2300
3020
0230
0302
,
2003
3000
2200
3300
,
0220
0330
0022
0033
,
2002
3003
2020
3030
,
0110
0100
0101
0001
,
2002
3003
0220
0330
,
2002
0000
0000
3003
,
0220
0000
0330
0000
;

//---------------dance-single - LinkDude08----------------
#NOTES:
     dance-single:
     LinkDude08:
     Medium:
     5:
     0.361335,0.381409,0.528619,0.120445,0.006691,378.000000,299.000000,79.000000,18.000000,28.000000,0.000000,0.361335,0.381409,0.528619,0.120445,0.006691,378.000000,299.000000,79.000000,18.000000,28.000000,0.000000:
0000
0000
0000
0000
,
0000
0000
0000
0000
,
0011
0000
0100
0001
,
0101
0000
0000
0000
0001
0000
0100
0001
,
1000
1000
0100
0010
,
0001
0001
0010
0110
,
0000
0001
0010
0100
,
1100
0000
0011
0000
,
1000
0010
0100
0001
,
0101
0000
1010
0000
,
0101
0000
0010
0001
,
0011
0000
0000
0000
0001
0000
0010
0001
,
1000
1000
0010
0100
,
0001
0001
0100
0110
,
0000
0001
0100
0010
,
1010
0000
0101
0000
,
1000
0100
0010
0001
,
0011
0000
0000
0000
0000
0000
1100
0000
0000
1000
0100
1000
,
0100
0000
0010
1000
,
1010
0000
0000
0000
1000
0000
0010
1000
,
0001
0001
0010
0100
,
1000
1000
0100
0110
,
0000
1000
0100
0010
,
0011
0000
1100
0000
,
0001
0100
0010
1000
,
1010
0000
0101
0000
,
1010
0000
0100
1000
,
1100
0000
0000
0000
1000
0000
0100
1000
,
0001
0001
0100
0010
,
1000
1000
0010
0110
,
0000
1000
0010
0100
,
0101
0000
1010
0000
,
0001
0010
0100
1000
,
1100
0000
0011
0000
,
0001
0010
0001
0010
,
1000
0010
0001
0010
,
0001
0100
0001
0100
,
1000
0100
0001
0100
,
0001
1000
0010
1000
,
0010
0001
0010
1000
,
0100
1000
0100
1000
,
0100
0001
0100
1000
,
1100
0000
0000
1001
0000
0000
0011
0000
,
0000
0001
0000
0010
0000
0100
1000
0020
,
0000
1000
1000
1000
,
0100
0000
0100
0000
0100
0030
0100
0000
,
0110
0000
0000
1010
0000
0000
1000
0000
,
1001
0000
0000
0000
0000
0001
0010
0100
,
0000
0000
0110
0000
,
2200
0000
3300
MMMM
,
1010
0000
0000
1001
0000
0000
0101
0000
,
0000
0001
0000
1000
0000
0100
0010
0002
,
0000
0010
0010
0010
,
1000
0000
0100
0000
1000
0003
0100
0000
,
1001
0000
0000
0110
0000
0000
0001
0000
,
0101
0000
0000
0000
0000
0001
0100
0010
,
0000
0000
0110
0000
,
2020
0000
3030
MMMM
,
1100
0000
0000
0000
1000
0000
0001
0010
,
1000
0000
0011
0000
,
0110
0000
0000
0000
0001
0000
1000
0100
,
0001
0100
1000
0100
,
1100
0000
0000
0000
1000
0000
0001
0100
,
0010
0000
1010
0000
,
0110
0000
0000
0000
1000
0000
0001
1000
,
0100
1000
0010
0100
,
0110
0000
1001
0000
,
0022
0000
0033
MMMM
,
2200
0000
3300
MMMM
,
0011
0000
0000
1001
0000
0000
0101
0000
,
0000
1000
0000
0001
0000
0100
0010
2000
,
0000
0001
0001
0001
,
0100
0000
0010
0000
0100
3000
0010
0000
,
1010
0000
0000
1001
0000
0000
1000
0000
,
1100
0000
0000
0000
0000
0010
0001
0010
,
0000
0000
0110
0000
,
2002
0000
3003
MMMM
,
1001
0000
0000
0110
0000
0000
1001
0000
,
0000
0010
0000
1000
0000
0100
0010
0200
,
0000
0010
1000
0010
,
0001
0000
0010
0000
1000
0300
0010
0000
,
0110
0000
0000
0011
0000
0000
0010
0000
,
1010
0000
0000
0000
0000
0010
0100
0010
,
0000
0000
1001
0000
,
0220
0000
0330
MMMM
,
0110
0000
0000
0000
1000
0000
0001
0100
,
0001
0000
1010
0000
,
0101
0000
0000
0000
0001
0000
1000
0100
,
1000
0010
0001
0100
,
1100
0000
0000
0000
0100
0000
0001
0100
,
0010
0000
0110
0000
,
1100
0000
0000
0000
0001
0000
0100
0001
,
0010
1000
0100
0001
,
0101
0000
1010
0000
,
0022
0000
0033
MMMM
,
0011
0000
0000
0000
;

//---------------dance-single - LinkDude12----------------
#NOTES:
     dance-single:
     LinkDude12:
     Hard:
     8:
     0.488471,0.541040,0.876571,0.120445,0.000000,511.000000,380.000000,131.000000,18.000000,32.000000,0.000000,0.488471,0.541040,0.876571,0.120445,0.000000,511.000000,380.000000,131.000000,18.000000,32.000000,0.000000:
0000
0000
0000
0000
,
0M00
M000
00M0
M000
,
0011
0001
0000
0000
1000
0000
0001
0000
,
0101
0100
0000
0000
0001
0000
0100
0001
,
1001
1000
1100
0100
,
0110
0010
0011
0001
,
0101
0100
0110
0010
,
1010
1000
0000
0000
0011
0001
0000
0000
,
1010
0010
0110
0100
,
0101
0001
0000
0000
1010
1000
0000
0000
,
0101
0001
0000
0000
1000
0000
0001
0000
,
0011
0010
0000
0000
0001
0000
0010
0001
,
1001
1000
1010
0010
,
0110
0100
0101
0001
,
0011
0010
0110
0100
,
1100
1000
0000
0000
0101
0001
0000
0000
,
1100
0100
0110
0010
,
0011
0001
0000
0000
1100
1000
0100
1000
,
1100
0100
0000
0000
0001
0000
1000
0000
,
1010
0010
0000
0000
1000
0000
0010
1000
,
1001
0001
0011
0010
,
0110
0100
1100
1000
,
1010
0010
0110
0100
,
0101
0001
0000
0000
1100
1000
0000
0000
,
0101
0100
0110
0010
,
1010
1000
0000
0000
0101
0001
0000
0000
,
1010
1000
0000
0000
0001
0000
1000
0000
,
1100
0100
0000
0000
1000
0000
0100
1000
,
1001
0001
0101
0100
,
0110
0010
1010
1000
,
1100
0100
0110
0010
,
0011
0001
0000
0000
1010
1000
0000
0000
,
0011
0010
0110
0100
,
1100
1000
0000
0000
0011
0001
0000
0000
,
0001
0010
1000
0010
,
0001
0010
1000
0010
,
0001
0100
1000
0100
,
0001
0100
1000
0100
,
0001
0010
1000
0100
,
0001
0010
1000
0100
,
0001
0100
1000
0010
,
0001
0100
1000
0010
,
1010
0000
0000
1001
0000
0000
0011
0000
,
0000
0001
0000
0010
0000
0100
1000
0020
,
1000
0100
0001
0100
,
1000
0000
0100
0000
0001
0030
0100
0000
,
0110
0010
0000
1010
1000
0000
1000
0000
,
1001
0001
0000
0000
0000
0001
0010
0100
,
0100
0000
0000
0000
0110
0010
0000
0000
,
2200
0000
3300
MMMM
,
1010
0010
0000
1001
1000
0000
0101
0001
,
0000
0001
0000
1000
0000
0100
0010
0002
,
0010
1000
0100
1000
,
0010
0000
1000
0000
0100
0003
0100
0000
,
0101
0001
0000
0110
0100
0000
0100
0000
,
0101
0001
0000
0000
0000
0001
0100
0010
,
0010
0000
0000
0000
0110
0100
0000
0000
,
2020
0000
3030
MMMM
,
1100
0100
0000
0000
1000
0000
0001
0010
,
1000
1000
0000
0000
0011
0001
0000
0000
,
0110
0010
0000
0000
0001
0000
1000
0100
,
0101
0100
1100
1000
,
1001
0001
0000
0000
1000
0000
0001
0100
,
0010
0010
0000
0000
1010
1000
0000
0000
,
0110
0010
0000
0000
1000
0000
0001
1000
,
1100
1000
1010
0010
,
0110
0100
0000
0000
1001
0001
0000
0000
,
0022
0000
0033
MMMM
,
2200
0000
3300
MMMM
,
0011
0010
0000
1001
0001
0000
0101
0100
,
0000
1000
0000
0001
0000
0100
0010
2000
,
0010
0001
0100
0001
,
0010
0000
0001
0000
0100
3000
0001
0000
,
1010
0010
0000
1001
1000
0000
1000
0000
,
1100
0100
0000
0000
0000
0010
0001
0010
,
0010
0000
0000
0000
0110
0110
0000
0000
,
2002
0000
3003
MMMM
,
1001
0001
0000
0110
0100
0000
1001
1000
,
0000
0010
0000
1000
0000
0100
0010
0200
,
0010
0001
0010
1000
,
0010
0000
0001
0000
0010
0300
1000
0000
,
1100
0100
0000
0011
0010
0000
0010
0000
,
0110
0100
0000
0000
0000
0010
0100
0010
,
0010
0000
0000
0000
1001
1001
0000
0000
,
0220
0000
0330
MMMM
,
0110
0110
0000
0000
1000
0000
0001
0100
,
0101
0101
0000
0000
1010
1010
0000
0000
,
0101
0101
0000
0000
0001
0000
1000
0100
,
1100
1000
1001
0001
,
0101
0101
0000
0000
0100
0000
0010
0100
,
0110
0110
0000
0000
1010
1010
0000
0000
,
0101
0101
0000
0000
0001
0000
1000
0100
,
1100
1000
1010
0010
,
0110
0110
0000
0000
1010
1010
0000
0000
,
0022
0000
0033
MMMM
,
1100
0011
0000
0000
0000
0000
0000
0000
;

//---------------dance-single - LinkDude15----------------
#NOTES:
     dance-single:
     LinkDude15:
     Challenge:
     10:
     0.751346,0.702009,0.508545,0.046840,0.113753,786.000000,710.000000,76.000000,7.000000,124.000000,0.000000,0.751346,0.702009,0.508545,0.046840,0.113753,786.000000,710.000000,76.000000,7.000000,124.000000,0.000000:
0000
0000
0000
0000
,
0M00
M000
00M0
M000
,
0011
0010
0011
0001
,
1001
1000
1001
0001
,
0101
0100
0101
0001
,
1001
1000
1001
0001
,
0011
0010
0110
0100
,
1100
1000
1001
0001
,
0101
0100
0110
0010
,
1010
1000
1001
0001
,
1000
0001
0100
0001
0010
0001
1000
0000
,
0001
1000
0010
1000
0100
1000
0001
0000
,
1000
0100
0010
0100
1000
0100
0010
0000
,
0001
0010
0100
0010
0001
0010
0100
0000
,
1000
0010
0100
0010
0001
0010
1000
0000
,
0001
0100
0010
0100
1000
0100
0001
0000
,
1000
0100
0010
0001
0010
0100
1000
0000
,
0001
0000
0000
0010
0000
0000
0100
0000
0000
1000
0000
0000
0100
0000
0000
0010
0000
0000
0001
0000
0010
0000
0001
0000
,
0010
0000
0000
0010
0001
0010
0001
0000
0000
0001
0100
0001
,
0100
0000
0000
0100
0010
0100
0010
0000
0000
0010
1000
0010
,
1000
0000
0000
1000
0100
1000
0100
0000
0000
0100
0010
0100
,
0010
0000
0000
0010
0001
0010
0001
0000
0000
0001
1000
0001
,
1000
0000
0000
1000
0010
1000
0001
0000
0000
0001
0010
0001
,
1000
0000
0000
1000
0100
1000
0001
0000
0000
0001
0100
0001
,
1000
0000
0000
1000
0100
0010
0001
0000
0000
0001
0010
0100
,
1000
0000
0000
1000
0010
0100
0001
0000
0000
0001
0100
0010
,
1000
0010
0100
0001
0010
0100
1000
0010
,
0100
0001
0010
0100
1000
0010
0100
0001
,
1000
0100
0010
0001
0100
0010
1000
0100
,
0010
0001
0100
0010
1000
0100
0010
0001
,
1000
0100
1000
0100
0010
0100
0001
0100
,
1000
0100
0010
0100
0010
1000
0010
0001
,
1000
0001
0100
0010
0100
0001
1000
0001
,
0010
0100
0010
0001
1000
0001
0010
0001
,
1000
1000
0001
0001
0100
0100
1000
1000
,
0100
0100
0010
0010
1000
1000
0001
0001
,
0010
0010
0100
0100
1000
1000
0100
0100
,
0001
0001
0100
0100
1000
1000
0010
0010
,
1000
1000
0010
0100
0001
0001
0100
0010
,
1000
1000
0100
0010
0001
0001
0010
0100
,
1000
1000
0100
0100
0001
0001
0100
0100
,
0010
0010
0001
0001
1000
1000
0001
0001
,
MM11
0010
0010
M11M
0100
0100
11MM
1000
,
1000
1000
0001
0010
0100
1000
0100
0010
,
0001
0010
0100
0010
1000
0010
0100
0010
,
0001
0010
0100
0010
1000
0010
0100
0010
,
M11M
0100
0100
11MM
1000
1000
1MM1
0001
,
MM11
0010
0010
0010
0001
0010
0001
0100
,
0010
1000
0100
0010
0001
0010
0100
0010
,
M21M
0010
0010
0010
0010
0010
0310
0010
,
MM11
0001
0001
1MM1
1000
1000
11MM
0100
,
0100
0100
1000
0010
0100
0010
1000
0001
,
0010
0001
1000
0001
0100
0001
1000
0001
,
0010
0100
1000
0100
0001
0100
1000
0100
,
11MM
1000
1000
11MM
0100
0100
M11M
0010
,
MM11
0001
0001
0001
0100
0001
1000
0010
,
1000
0001
0100
0001
1000
0010
1000
0001
,
MM21
0001
0001
0001
0001
0001
0031
0001
,
1MM1
1000
1000
1000
0010
0100
0001
0010
,
0100
1000
0001
0100
0010
1000
0001
0010
,
0100
1000
0010
0100
0001
0010
0100
1000
,
11MM
0100
0100
0100
M11M
0010
0010
0010
,
MM11
0001
0001
0001
0100
0010
0100
1000
,
0100
0010
0100
0001
M1M1
0100
0100
0100
,
M11M
0010
0010
0010
1000
0001
1000
0001
,
0100
0010
1000
0010
0001
0010
1000
0100
,
11MM
1000
1000
1000
1MM1
0001
0001
0001
,
MM12
0010
0010
0010
0010
0010
0013
0010
,
M12M
0100
0100
0100
0100
0100
0130
0100
,
11MM
1000
1000
1MM1
0001
0001
MM11
0010
,
0010
0010
0001
1000
0010
0100
0001
1000
,
0010
1000
0001
1000
0100
1000
0001
0010
,
0100
0010
1000
0010
0100
0010
0001
0010
,
MM11
0010
0010
M11M
0100
0100
11MM
1000
,
1MM1
0001
0001
0001
0100
0010
1000
0010
,
0100
0001
0010
0100
M11M
0010
0010
0010
,
MM21
0001
0001
0001
0001
0001
0031
0001
,
1MM1
1000
1000
11MM
0100
0100
M11M
0010
,
0010
0010
0001
0010
0001
0100
0010
0100
,
0010
0100
1000
0100
0010
0100
0001
1000
,
0010
1000
0001
1000
0010
1000
0100
1000
,
11MM
0100
0100
M11M
0010
0010
MM11
0001
,
1MM1
1000
1000
1000
0001
0010
0001
0100
,
0010
1000
0010
1000
1MM1
0001
0001
0001
,
M1M2
0100
0100
0100
0100
0100
0103
0100
,
M11M
0010
0010
0010
1000
0001
1000
0100
,
11MM
1000
1000
1000
1MM1
0001
0001
0001
,
M1M1
0100
0100
0100
0001
1000
0100
1000
,
11MM
0100
0100
0100
M11M
0010
0010
0010
,
MM11
0001
0001
0001
0100
0010
1000
0100
,
11MM
1000
1000
1000
11MM
0100
0100
0100
,
M1M1
0001
0001
0001
0100
0010
0100
1000
,
11MM
0100
0100
0100
M11M
0010
0010
0010
,
MM11
0001
0001
0001
1MM1
1000
1000
1000
,
2M1M
0010
0010
0010
0010
0010
3010
0010
,
M11M
0100
0100
0100
0000
0000
0000
0000
;

//---------------dance-double - LinkDubs05----------------
#NOTES:
     dance-double:
     LinkDubs05:
     Beginner:
     3:
     0.235154,0.319513,0.107062,0.153902,0.000000,246.000000,230.000000,16.000000,23.000000,0.000000,0.000000,0.235154,0.319513,0.107062,0.153902,0.000000,246.000000,230.000000,16.000000,23.000000,0.000000,0.000000:
00000000
00000000
00000000
00000000
,
00000000
00000000
00000000
00000000
,
00000100
00000000
00000100
00000000
,
00000100
00000000
00000100
00000000
,
00010000
00000000
00010000
00000000
,
00010000
00000000
00010000
00000000
,
00001000
00000000
00001000
00000000
,
00001000
00000000
00001000
00000000
,
01000000
00000000
01000000
00000000
,
01000000
00000000
01000000
00000000
,
00001000
00000000
00001000
00000000
,
00010000
00000000
00010000
00000000
,
00000010
00000000
00000010
00000000
,
00010000
00000000
00010000
00000000
,
00001000
00000000
00001000
00000000
,
00100000
00000000
00100000
00000000
,
00001000
00000000
00001000
00000000
,
00010000
00000000
00010000
00000000
,
00000100
00000100
00000100
00000000
,
00010000
00010000
00010000
00000000
,
00001000
00001000
00001000
00000000
,
01000000
01000000
01000000
00000000
,
00001000
00001000
00001000
00000000
,
00010000
00010000
00010000
00000000
,
00000010
00000010
00000010
00000000
,
00001000
00001000
00001000
00000000
,
00000100
00000100
00000100
00000000
,
00010000
00010000
00010000
00000000
,
00001000
00001000
00001000
00000000
,
00100000
00100000
00100000
00000000
,
00010000
00010000
00010000
00000000
,
01000000
01000000
01000000
00000000
,
00001000
00001000
00001000
00000000
,
00010000
00010000
00010000
00000000
,
00000100
00000000
00000100
00000000
,
00010000
00000000
00001000
00000000
,
01000000
00000000
01000000
00000000
,
00001000
00000000
00010000
00000000
,
00000010
00000000
00000010
00000000
,
00010000
00000000
00001000
00000000
,
00100000
00000000
00100000
00000000
,
00001000
00000000
00010000
00000000
,
00000100
00000100
00000100
00000000
,
00010000
00010000
00010000
00000000
,
00001000
00001000
00001000
00000000
,
01000000
01000000
01000000
00000000
,
00001000
00001000
00001000
00000000
,
00010000
00010000
00010000
00000000
,
00000010
00000010
00000010
00000000
,
00010000
00010000
00010000
00000000
,
00001000
00010000
00001000
00000000
,
00010000
00001000
00010000
00000000
,
00001000
00100000
00001000
00000000
,
00100000
00001000
00100000
00000000
,
00001000
00010000
00001000
00000000
,
00010000
00001000
00010000
00000000
,
00000100
00010000
00000100
00000000
,
00010000
00000100
00010000
00000000
,
00022000
00000000
00033000
00000000
,
00010010
00000000
00010100
00000000
,
00022000
00000000
00033000
00000000
,
01001000
00000000
00101000
00000000
,
00022000
00000000
00033000
00000000
,
00010100
00000000
00010010
00000000
,
00022000
00000000
00033000
00000000
,
00011000
00000000
00101000
00000000
,
00011000
00000000
01001000
00000000
,
02020000
00000000
03030000
00000000
,
02200000
00000000
03300000
00000000
,
01000000
01000000
00001000
00000000
,
01000000
01000000
00010000
00000000
,
01000000
01000000
00100000
00000000
,
01000000
01000000
00001000
00000000
,
00001000
00001000
01000000
00000000
,
00001000
00001000
00100000
00000000
,
00001000
00001000
00010000
00000000
,
00001000
00001000
01000000
00000000
,
00001000
00010000
00001000
00000000
,
00010000
00001000
00010000
00000000
,
00000100
00010000
00000100
00000000
,
00010000
00000100
00010000
00000000
,
00001000
00010000
00001000
00000000
,
00010000
00001000
00010000
00000000
,
00001000
01000000
00001000
00000000
,
01000000
00001000
01000000
00000000
,
00002000
00000000
00013000
00000000
,
00020000
00000000
00030010
00000000
,
00000020
00000000
00010030
00000000
,
00020000
00000000
00031000
00000000
,
00002000
00000000
00103000
00000000
,
00200000
00000000
00301000
00000000
,
00002000
00000000
00013000
00000000
,
00020000
00000000
00030100
00000000
,
00000200
00000000
00010300
00000000
,
00020000
00000000
00031000
00000000
,
00002000
00000000
00013000
00000000
;

//---------------dance-double - LinkDubs07----------------
#NOTES:
     dance-double:
     LinkDubs07:
     Easy:
     4:
     0.325966,0.383416,0.153902,0.314495,0.000000,341.000000,318.000000,23.000000,47.000000,0.000000,0.000000,0.325966,0.383416,0.153902,0.314495,0.000000,341.000000,318.000000,23.000000,47.000000,0.000000,0.000000:
00000000
00000000
00000000
00000000
,
00000000
00000000
00000000
00000000
,
00000100
00000000
00000100
00000000
,
00001000
00000000
00001000
00000000
,
00000010
00000000
00000010
00000000
,
00010000
00000000
00010000
00000000
,
00001000
00000000
00001000
00000000
,
01000000
00000000
01000000
00000000
,
00010000
00000000
00010000
00000000
,
00100000
00000000
00100000
00000000
,
00001000
00001000
00001000
00000000
,
00010000
00010000
00010000
00000000
,
00000100
00000100
00000100
00000000
,
00001000
00001000
00001000
00000000
,
00000010
00000010
00000010
00000000
,
00010000
00010000
00010000
00000000
,
00001000
00001000
00001000
00000000
,
01000000
01000000
01000000
00000000
,
00010000
00010000
00010000
00010000
,
00100000
00100000
00100000
00100000
,
00001000
00001000
00001000
00001000
,
00010000
00010000
00010000
00010000
,
00000010
00000010
00000010
00000010
,
00000100
00000100
00000100
00000100
,
00000010
00000010
00000010
00000010
,
00001000
00001000
00001000
00001000
,
00000100
00000100
00000100
00000100
,
00010000
00010000
00010000
00010000
,
00001000
00001000
00001000
00001000
,
01000000
01000000
01000000
01000000
,
00100000
00100000
00100000
00100000
,
01000000
01000000
01000000
01000000
,
00010000
00010000
00010000
00010000
,
00100000
00100000
00100000
00100000
,
00001000
00001000
00010000
00010000
,
00000100
00000100
00010000
00010000
,
00001000
00001000
01000000
01000000
,
00001000
00001000
00010000
00010000
,
00000010
00000010
00010000
00010000
,
00001000
00001000
00100000
00100000
,
00001000
00001000
00010000
00010000
,
00000100
00000100
00001000
00001000
,
00000010
00001000
00000010
00001000
,
00000010
00010000
00000010
00010000
,
00001000
00010000
00001000
00010000
,
00001000
00100000
00001000
00100000
,
00010000
00100000
00010000
00100000
,
00010000
01000000
00010000
01000000
,
00001000
01000000
00001000
01000000
,
00001000
00010000
00001000
00010000
,
00000100
00000100
00010000
00001000
,
01000000
01000000
00001000
00010000
,
00000010
00000010
00010000
00001000
,
00100000
00100000
00001000
00010000
,
00000100
00001000
00000100
00010000
,
00000100
00001000
00000010
00010000
,
00000010
00001000
00000010
00010000
,
00001000
00100000
00001000
01000000
,
00002000
00100000
00013000
00000000
,
00011000
00000000
00010010
00000000
,
00000020
00000100
00010030
00000000
,
00011000
00000000
01001000
00000000
,
02000000
00100000
03001000
00000000
,
01001000
00000000
00011000
00000000
,
00000200
00010000
00000310
00000000
,
00010100
00000000
00011000
00000000
,
00202000
00303000
00022000
00033000
,
00020200
00000000
00000000
00030300
,
00020020
00000000
00000000
00030030
,
00010000
00000100
00010000
00000100
,
00010000
00000010
00010000
00000100
,
00000010
00000100
00010000
00001000
,
00010000
00000100
00001000
00000100
,
00010000
00000100
00001000
00000100
,
00010000
00001000
00010000
00000100
,
00000010
00000100
00010000
00000010
,
00010000
00000010
00001000
00000010
,
00001000
00000100
00001000
00000010
,
00010000
00000010
00001000
00000100
,
00001000
00000010
00010000
00000010
,
00010000
00000100
00010000
00000100
,
00001000
00000010
00010000
00001000
,
00100000
00001000
01000000
00010000
,
00100000
00001000
00010000
00001000
,
01000000
00010000
00100000
00001000
,
00200000
00320000
02030000
03002000
,
00203000
02300000
03200000
00320000
,
02030000
03002000
00203000
02300000
,
03200000
00320000
02030000
03002000
,
00203000
00300000
02200000
03300000
,
00220000
00330000
00202000
00303000
,
00022000
00033000
00020020
00030030
,
00001010
00001000
00001100
00000100
,
00020200
00030300
00022000
00033000
,
02002000
00000000
00000000
03003000
,
02200000
00000000
03300000
00000000
;

//---------------dance-double - LinkDubs08----------------
#NOTES:
     dance-double:
     LinkDubs08:
     Medium:
     5:
     0.361335,0.381409,0.528619,0.120445,0.006691,378.000000,299.000000,79.000000,18.000000,28.000000,0.000000,0.361335,0.381409,0.528619,0.120445,0.006691,378.000000,299.000000,79.000000,18.000000,28.000000,0.000000:
00000000
00000000
00000000
00000000
,
00000000
00000000
00000000
00000000
,
00000011
00000000
00001000
00000001
,
00001001
00000000
00000000
00000000
00000001
00000000
00001000
00000100
,
00010000
00010000
00001000
00000010
,
00000001
00000001
00000010
00001010
,
00000000
00000001
00000010
00001000
,
00011000
00000000
00000110
00000000
,
00010000
00000010
00001000
00000001
,
00001100
00000000
00010010
00000000
,
00001100
00000000
00000010
00000001
,
00000011
00000000
00000000
00000000
00000001
00000000
00000010
00000100
,
00010000
00010000
00000010
00001000
,
00000001
00000001
00001000
00001010
,
00000000
00000001
00001000
00000010
,
00010010
00000000
00001100
00000000
,
00010000
00001000
00000010
00000001
,
00000110
00000000
00000000
00000000
00000000
00000000
00011000
00000000
00000000
00001000
00010000
00001000
,
00010000
00000000
00001000
00100000
,
10010000
00000000
00000000
00000000
10000000
00000000
00010000
00100000
,
00001000
00001000
00010000
01000000
,
10000000
10000000
01000000
01010000
,
00000000
10000000
01000000
00010000
,
00011000
00000000
01100000
00000000
,
00001000
01000000
00010000
10000000
,
00110000
00000000
01001000
00000000
,
00110000
00000000
01000000
10000000
,
11000000
00000000
00000000
00000000
10000000
00000000
01000000
00100000
,
00001000
00001000
01000000
00010000
,
10000000
10000000
00010000
01010000
,
00000000
10000000
00010000
01000000
,
01001000
00000000
00110000
00000000
,
00001000
00010000
01000000
10000000
,
01100000
00000000
00011000
00000000
,
00000100
00001000
00000100
00001000
,
00010000
00001000
00000100
00001000
,
00000010
00001000
00000010
00001000
,
00010000
00001000
00000010
00001000
,
00000100
00010000
00001000
01000000
,
00001000
00010000
00000010
00010000
,
00001000
00100000
00001000
00010000
,
00100000
00010000
00001000
00010000
,
00011000
00000000
00000000
00010100
00000000
00000000
00000110
00000000
,
00000000
00000001
00000000
00000010
00000000
00001000
00010000
00000020
,
00000000
00010000
00010000
00010000
,
00001000
00000000
00001000
00000000
00001000
00000030
00001000
00000000
,
00001010
00000000
00000000
00010010
00000000
00000000
00010000
00000000
,
00010100
00000000
00000000
00000000
00000000
00000100
00000010
00001000
,
00000000
00000000
00001010
00000000
,
00022000
00000000
00033000
00MMMM00
,
00110000
00000000
00000000
00101000
00000000
00000000
01001000
00000000
,
00000000
00001000
00000000
00100000
00000000
01000000
00010000
00002000
,
00000000
00010000
00010000
00010000
,
00100000
00000000
01000000
00000000
00100000
00003000
01000000
00000000
,
00101000
00000000
00000000
01010000
00000000
00000000
00001000
00000000
,
01001000
00000000
00000000
00000000
00000000
00001000
01000000
00010000
,
00000000
00000000
01010000
00000000
,
20020000
00000000
30030000
MMMM0000
,
00110000
00000000
00000000
00000000
01000000
00000000
00001000
00010000
,
01000000
00000000
00011000
00000000
,
00110000
00000000
00000000
00000000
00001000
00000000
01000000
00100000
,
00001000
00100000
01000000
00100000
,
01100000
00000000
00000000
00000000
01000000
00000000
00001000
00100000
,
00010000
00000000
01010000
00000000
,
00011000
00000000
00000000
00000000
00010000
00000000
00000010
00010000
,
00001000
00010000
00000100
00001000
,
00001100
00000000
00010010
00000000
,
00000220
00000000
00000330
0000MMMM
,
00022000
00000000
00033000
00MMMM00
,
00011000
00000000
00000000
00101000
00000000
00000000
01001000
00000000
,
00000000
00100000
00000000
00001000
00000000
01000000
00010000
00200000
,
00000000
00001000
00001000
00001000
,
01000000
00000000
00010000
00000000
01000000
00300000
00010000
00000000
,
00110000
00000000
00000000
00101000
00000000
00000000
00100000
00000000
,
00101000
00000000
00000000
00000000
00000000
00010000
00001000
00010000
,
00000000
00000000
01010000
00000000
,
00022000
00000000
00033000
00MMMM00
,
00010100
00000000
00000000
00001010
00000000
00000000
00010100
00000000
,
00000000
00000010
00000000
00010000
00000000
00001000
00010000
00002000
,
00000000
00000010
00010000
00000010
,
00010000
00000000
00000010
00000000
00010000
00003000
00000010
00000000
,
00001010
00000000
00000000
00000110
00000000
00000000
00000010
00000000
,
00010010
00000000
00000000
00000000
00000000
00000010
00001000
00000010
,
00000000
00000000
00010100
00000000
,
00002020
00000000
00003030
0000MMMM
,
00000110
00000000
00000000
00000000
00010000
00000000
00000100
00001000
,
00000100
00000000
00010010
00000000
,
00001100
00000000
00000000
00000000
00000100
00000000
00010000
00001000
,
00010000
00000010
00000100
00001000
,
00011000
00000000
00000000
00000000
00100000
00000000
00001000
00100000
,
00010000
00000000
00110000
00000000
,
01100000
00000000
00000000
00000000
00001000
00000000
00100000
00001000
,
00010000
01000000
00100000
00001000
,
00101000
00000000
01010000
00000000
,
00022000
00000000
00033000
00MMMM00
,
00011000
00000000
00000000
00000000
;

//---------------dance-double - LinkDubs12----------------
#NOTES:
     dance-double:
     LinkDubs12:
     Hard:
     8:
     0.487515,0.541040,0.876571,0.120445,0.000000,510.000000,379.000000,131.000000,18.000000,32.000000,0.000000,0.487515,0.541040,0.876571,0.120445,0.000000,510.000000,379.000000,131.000000,18.000000,32.000000,0.000000:
00000000
00000000
00000000
00000000
,
0M000000
M0000000
00M00000
M0000000
,
00011000
00001000
00000000
00000000
00100000
00000000
00001000
00000000
,
01001000
01000000
00000000
00000000
00001000
00000000
01000000
00001000
,
00101000
00100000
01100000
01000000
,
01010000
00010000
00011000
00001000
,
01001000
01000000
01010000
00010000
,
00110000
00100000
00000000
00000000
00011000
00001000
00000000
00000000
,
00110000
00010000
01010000
01000000
,
01001000
00001000
00000000
00000000
00110000
00100000
00000000
00000000
,
01001000
00001000
00000000
00000000
00100000
00000000
00001000
00000000
,
00011000
00010000
00000000
00000000
00001000
00000000
00010000
00001000
,
00101000
00100000
00110000
00010000
,
01010000
01000000
01001000
00001000
,
00011000
00010000
01010000
01000000
,
01100000
00100000
00000000
00000000
01001000
00001000
00000000
00000000
,
01100000
01000000
01010000
00010000
,
00011000
00001000
00000000
00000000
00011000
00001000
00010000
00001000
,
00011000
00010000
00000000
00000000
00000100
00000000
00010000
00000000
,
00010010
00000010
00000000
00000000
00010000
00000000
00000010
00010000
,
00010100
00000100
00000110
00000010
,
00001010
00001000
00011000
00010000
,
00010010
00000010
00001010
00001000
,
00001100
00000100
00000000
00000000
00011000
00010000
00000000
00000000
,
00001100
00001000
00001010
00000010
,
00010010
00010000
00000000
00000000
00001100
00000100
00000000
00000000
,
00010010
00010000
00000000
00000000
00000100
00000000
00010000
00000000
,
00011000
00001000
00000000
00000000
00010000
00000000
00001000
00010000
,
00010100
00000100
00001100
00001000
,
00001010
00000010
00010010
00010000
,
00011000
00001000
00001010
00000010
,
00000110
00000100
00000000
00000000
00010010
00010000
00000000
00000000
,
00000110
00000010
00001010
00001000
,
00011000
00010000
00000000
00000000
00000110
00000100
00000000
00000000
,
00000100
00010000
00001000
00010000
,
00100000
00010000
00001000
00010000
,
01000000
00100000
00010000
00100000
,
00001000
00100000
00010000
00100000
,
00001000
00010000
00100000
01000000
,
00100000
00010000
00001000
00010000
,
00000100
00001000
00000010
00000100
,
00000001
00000010
00000100
00010000
,
00010100
00000000
00000000
00010010
00000000
00000000
00000110
00000000
,
00000000
00000010
00000000
00001000
00000000
00000010
00010000
00000020
,
00010000
00001000
00000001
00001000
,
00010000
00000000
00001000
00000000
00000001
00000030
00001000
00000000
,
00001010
00000010
00000000
00010010
00010000
00000000
00010000
00000000
,
00010100
00000100
00000000
00000000
00000000
00000100
00000010
00001000
,
00001000
00000000
00000000
00000000
00001010
00000010
00000000
00000000
,
00022000
00000000
00033000
00MMMM00
,
00110000
00010000
00000000
00101000
00100000
00000000
01001000
00001000
,
00000000
00001000
00000000
00100000
00000000
00001000
00010000
00002000
,
00010000
00100000
01000000
00100000
,
00010000
00000000
00100000
00000000
01000000
00003000
01000000
00000000
,
01001000
00001000
00000000
01010000
01000000
00000000
01000000
00000000
,
01001000
00001000
00000000
00000000
00000000
00001000
01000000
00010000
,
00010000
00000000
00000000
00000000
01010000
01000000
00000000
00000000
,
20020000
00000000
30030000
MMMM0000
,
11000000
01000000
00000000
00000000
00100000
00000000
00001000
00010000
,
00100000
00100000
00000000
00000000
00011000
00001000
00000000
00000000
,
01010000
00010000
00000000
00000000
00001000
00000000
01000000
00001000
,
01001000
01000000
01100000
00100000
,
00101000
00001000
00000000
00000000
00100000
00000000
00001000
01000000
,
00010000
00010000
00000000
00000000
00110000
00100000
00000000
00000000
,
01010000
00010000
00000000
00000000
00100000
00000000
00001000
00100000
,
01100000
10000000
10010000
00010000
,
01010000
01000000
00000000
00000000
00101000
00001000
00000000
00000000
,
00022000
00000000
00033000
00MMMM00
,
02200000
00000000
03300000
MMMM0000
,
00011000
00001000
00000000
00010010
00000010
00000000
00010100
00000100
,
00000000
00010000
00000000
00000100
00000000
00001000
00000010
00020000
,
00000010
00000100
00001000
00000100
,
00000010
00000000
00000100
00000000
00001000
00030000
00000100
00000000
,
00010010
00000010
00000000
00010100
00010000
00000000
00010000
00000000
,
00011000
00001000
00000000
00000000
00000000
00000010
00000100
00000010
,
00000010
00000000
00000000
00000000
00001010
00001010
00000000
00000000
,
00020200
00000000
00030300
00MMMM00
,
00010100
00000100
00000000
00001010
00001000
00000000
00010100
00010000
,
00000000
00000010
00000000
00010000
00000000
00001000
00000010
00002000
,
00000010
00000001
00000010
00010000
,
00000010
00000000
00000001
00000000
00000010
00003000
00010000
00000000
,
00011000
00001000
00000000
00000110
00000010
00000000
00000010
00000000
,
00001010
00001000
00000000
00000000
00000000
00000010
00001000
00000010
,
00000010
00000000
00000000
00000000
00010100
00010100
00000000
00000000
,
00002020
00000000
00003030
0000MMMM
,
00001010
00001010
00000000
00000000
00010000
00000000
00000100
00001000
,
00001100
00001100
00000000
00000000
00010010
00010010
00000000
00000000
,
00001100
00001100
00000000
00000000
00000100
00000000
00010000
00001000
,
00011000
00010000
00010100
00000100
,
00001100
00001100
00000000
00000000
00010000
00000000
00001000
01000000
,
01001000
01001000
00000000
00000000
00011000
00011000
00000000
00000000
,
00101000
00101000
00000000
00000000
00000000
00000000
00100000
00010000
,
10010000
10000000
10010000
00010000
,
01010000
01010000
00000000
00000000
10010000
10010000
00000000
00000000
,
00022000
00000000
00033000
00MMMM00
,
00011000
00010010
00000000
00000000
00000000
00000000
00000000
00000000
;

//---------------dance-double - LinkDubs15----------------
#NOTES:
     dance-double:
     LinkDubs15:
     Challenge:
     10:
     0.751346,0.702009,0.508545,0.046840,0.113753,786.000000,710.000000,76.000000,7.000000,124.000000,0.000000,0.751346,0.702009,0.508545,0.046840,0.113753,786.000000,710.000000,76.000000,7.000000,124.000000,0.000000:
00000000
00000000
00000000
00000000
,
0M000000
M0000000
00M00000
M0000000
,
00000011
00000001
00001001
00001000
,
00001100
00000100
00010100
00010000
,
00010010
00000010
00010010
00010000
,
00010100
00000100
00010100
00010000
,
00011000
00001000
00101000
00100000
,
01100000
01000000
11000000
10000000
,
10100000
00100000
10100000
10000000
,
11000000
01000000
01100000
00100000
,
00001000
00100000
00010000
00100000
01000000
00100000
00001000
00000000
,
00100000
00001000
01000000
00001000
00010000
00001000
00100000
00000000
,
00001000
00010000
01000000
00010000
00001000
00010000
01000000
00000000
,
00100000
01000000
00010000
01000000
00100000
01000000
00010000
00000000
,
00001000
01000000
00010000
01000000
00100000
01000000
00001000
00000000
,
00100000
00010000
01000000
00010000
00001000
00010000
00100000
00000000
,
00001000
00010000
01000000
00100000
01000000
00010000
00001000
00000000
,
00100000
00000000
00000000
01000000
00000000
00000000
00010000
00000000
00000000
00001000
00000000
00000000
00010000
00000000
00000000
01000000
00000000
00000000
00100000
00000000
01000000
00000000
00100000
00000000
,
01000000
00000000
00000000
01000000
10000000
01000000
10000000
00000000
00000000
10000000
00010000
10000000
,
00010000
00000000
00000000
00010000
01000000
00010000
01000000
00000000
00000000
01000000
00001000
01000000
,
00001000
00000000
00000000
00001000
00010000
00001000
00010000
00000000
00000000
00010000
01000000
00010000
,
01000000
00000000
00000000
01000000
00100000
01000000
00100000
00000000
00000000
00100000
00001000
00100000
,
00001000
00000000
00000000
00001000
00100000
00001000
00010000
00000000
00000000
00010000
00001000
00010000
,
00000100
00000000
00000000
00000100
00001000
00000100
00000010
00000000
00000000
00000010
00000100
00000010
,
00000001
00000000
00000000
00000001
00001000
00000100
00010000
00000000
00000000
00001000
01000000
00010000
,
10000000
00000000
00000000
10000000
00010000
00100000
00001000
00000000
00000000
00010000
00000010
00001000
,
00000001
00001000
00000010
00010000
00001000
00000010
00000001
00001000
,
00000010
00010000
00001000
00000010
00000001
00001000
00000010
00010000
,
00000100
00000010
00001000
00010000
00000010
00001000
00000100
00000010
,
00001000
00010000
00000010
00001000
00000001
00000010
00001000
00010000
,
00000100
00000010
00000001
00000010
00001000
00000010
00010000
00000010
,
00001000
00000010
00000100
00000010
00000001
00001000
00000100
00010000
,
00000100
00010000
00000010
00001000
00000010
00010000
00000100
00010000
,
00001000
00000010
00001000
00010000
00000100
00010000
00001000
00010000
,
00000100
00000100
00001000
00001000
00000010
00000010
00000001
00000001
,
00000010
00000010
00000100
00000100
00000001
00000001
00001000
00001000
,
00000100
00000100
00000010
00000010
00000001
00000001
00000010
00000010
,
00010000
00010000
00000010
00000010
00000100
00000100
00010000
00010000
,
00000100
00000100
00010000
00001000
00100000
00100000
00001000
00010000
,
00000100
00000100
00010000
00001000
00100000
00100000
00001000
00010000
,
00000100
00000100
00010000
00010000
00001000
00001000
00100000
00100000
,
01000000
01000000
10000000
10000000
01000000
01000000
10000000
10000000
,
11MM0000
01000000
01000000
M11M0000
00100000
00100000
MM110000
00010000
,
00010000
00010000
10000000
01000000
00100000
00001000
00100000
01000000
,
10000000
01000000
00100000
01000000
10000000
01000000
00100000
00001000
,
00010000
00001000
00010000
00000100
00010000
00000100
00010000
00000100
,
00M1M100
00010000
00010000
00M11M00
00001000
00001000
001M1M00
00100000
,
001M1M00
00001000
00001000
00001000
00010000
00001000
00010000
00000010
,
00000100
00000001
00000010
00000100
00010000
00001000
00000010
00000100
,
0000M12M
00000100
00000100
00000100
00000100
00000100
00000130
00000100
,
000101MM
00010000
00010000
0001M1M0
00000100
00000100
000MM110
00000010
,
00000010
00000010
00000001
00001000
00000010
00010000
00001000
00100000
,
00010000
10000000
00100000
10000000
01000000
10000000
00100000
10000000
,
00010000
00100000
00001000
00100000
01000000
00100000
00001000
00100000
,
0M1M1000
00001000
00001000
0M1M1000
00100000
00100000
M11M0000
01000000
,
11MM0000
10000000
10000000
10000000
01000000
10000000
00010000
01000000
,
00001000
00010000
00000100
00001000
00000001
00000100
00000010
00010000
,
00012MM0
00010000
00010000
00010000
00010000
00010000
00013000
00010000
,
0001MM10
00000010
00000010
00000010
00001000
00000100
00010000
00000010
,
00001000
00000100
00010000
00000010
00001000
00000100
00010000
00000010
,
00001000
00000100
00010000
00000010
00001000
00000100
00010000
00000100
,
000MM110
00000010
00000010
00000010
000M1M10
00001000
00001000
00001000
,
00011MM0
00010000
00010000
00010000
00000010
00001000
00000010
00000100
,
00000010
00001000
00000010
00010000
0001MM10
00000010
00000010
00000010
,
0001MM10
00010000
00010000
00010000
00001000
01000000
00001000
01000000
,
00010000
00100000
00001000
00100000
01000000
00100000
00001000
00010000
,
0MM11000
00001000
00001000
00001000
01MM1000
01000000
01000000
01000000
,
021MM000
00100000
00100000
00100000
00100000
00100000
03100000
00100000
,
1M2M0000
10000000
10000000
10000000
10000000
10000000
10300000
10000000
,
1MM10000
00010000
00010000
M1M10000
01000000
01000000
01MM1000
00001000
,
00001000
00001000
00100000
00010000
01000000
00100000
10000000
00010000
,
01000000
00010000
10000000
00010000
00100000
00010000
10000000
01000000
,
00100000
01000000
00001000
01000000
00100000
01000000
10000000
01000000
,
11MM0000
01000000
01000000
M11M0000
00100000
00100000
MM110000
00010000
,
1MM10000
10000000
10000000
10000000
00100000
01000000
00001000
01000000
,
00100000
10000000
01000000
00100000
M11M0000
01000000
01000000
01000000
,
12MM0000
10000000
10000000
10000000
10000000
10000000
13000000
10000000
,
1MM10000
00010000
00010000
MM110000
00100000
00100000
0M1M1000
00001000
,
00001000
00001000
00010000
00000100
00010000
00000010
00001000
00000010
,
00000100
00000010
00000001
00000010
00000100
00000010
00001000
00000001
,
00000100
00000001
00001000
00000010
00000100
00000001
00000010
00000001
,
0000MM11
00000010
00000010
0000M11M
00000100
00000100
000101MM
00010000
,
0001MM10
00000010
00000010
00000010
00010000
00001000
00010000
00000100
,
00001000
00000001
00000100
00000001
00001MM1
00001000
00001000
00001000
,
00002M1M
00000010
00000010
00000010
00000010
00000010
00003010
00000010
,
0001MM10
00010000
00010000
00010000
00000100
00001000
00000001
00000010
,
0000M11M
00000100
00000100
00000100
000101MM
00010000
00010000
00010000
,
0001MM10
00000010
00000010
00000010
00010000
00000100
00001000
00000001
,
0000MM11
00000010
00000010
00000010
0000M11M
00000100
00000100
00000100
,
000101MM
00010000
00010000
00010000
00001000
01000000
00010000
00100000
,
MM101000
00001000
00001000
00001000
0M1M1000
00100000
00100000
00100000
,
1M1M0000
10000000
10000000
10000000
00100000
01000000
00100000
00001000
,
0M1M1000
00100000
00100000
00100000
M11M0000
01000000
01000000
01000000
,
11MM0000
10000000
10000000
10000000
1MM10000
00010000
00010000
00010000
,
M1M20000
01000000
01000000
01000000
01000000
01000000
01030000
01000000
,
01MM1000
00001000
00001000
00001000
00000000
00000000
00000000
00000000
;

//---------------dance-single - LinkDump17----------------
#NOTES:
     dance-single:
     LinkDump17:
     Edit:
     11:
     0.849805,1.053014,0.000000,0.000000,0.769509,889.000000,889.000000,0.000000,0.000000,4.000000,0.000000,0.849805,1.053014,0.000000,0.000000,0.769509,889.000000,889.000000,0.000000,0.000000,4.000000,0.000000:
0000
0000
0000
0000
,
0M00
M000
00M0
M000
,
0001
1000
0001
0100
,
0010
1000
0100
0010
,
0001
1000
0001
1000
,
0100
0010
0001
1000
,
0001
0100
0010
1000
,
0100
1000
0001
0010
,
0001
1000
0100
0010
,
0100
1000
0001
1000
,
0001
0010
0100
1000
0001
0010
0001
1000
,
0100
1000
0010
0100
0001
1000
0001
0010
,
0100
1000
0010
1000
0001
0100
0001
1000
,
0010
0100
0001
1000
0001
1000
0010
0100
,
0010
1000
0001
0100
0001
1000
0010
1000
,
0100
0010
0001
1000
0001
0100
0010
1000
,
0001
1000
0001
0100
0010
1000
0100
0010
,
0001
0000
0000
1000
0000
0000
0001
0000
0000
1000
0000
0000
0100
0000
0000
0010
0000
0000
0100
0000
1000
0000
0001
0000
,
0010
0001
1000
0100
1000
0001
0010
0001
1000
0100
0010
0100
,
1000
0001
1000
0001
1000
0010
0100
0001
0010
0100
1000
0001
,
1000
0001
0010
0100
1000
0001
1000
0010
0100
0001
0010
0001
,
1000
0100
1000
0001
0010
0100
0010
0001
1000
0001
1000
0100
,
0010
0001
1000
0100
1000
0001
0010
0001
0100
0010
1000
0001
,
1000
0100
0010
0001
0100
0001
1000
0010
1000
0001
0100
0010
,
1000
0001
1000
0001
0100
0010
0100
0001
1000
0010
1000
0001
,
0100
0001
0010
0100
1000
0001
1000
0010
0100
0001
1000
0001
,
1000
0010
0100
0001
0010
0100
1000
0001
1000
0001
0010
0100
,
0010
0001
1000
0100
1000
0001
0010
0001
1000
0100
1000
0001
,
0010
0100
0010
0001
1000
0001
1000
0100
0010
0001
1000
0001
,
0100
0010
1000
0100
1000
0001
0010
0100
1000
0010
0100
0001
,
1000
0001
1000
0010
0100
0010
1000
0001
0100
0001
1000
0010
,
1000
0100
0010
0001
1000
0100
0010
0100
1000
0001
1000
0001
,
0010
0100
1000
0010
0100
0001
1000
0001
1000
0010
0100
0010
1000
0001
0100
0010
,
1000
0100
1000
0001
0010
0001
1000
0100
0010
0100
1000
0001
1000
0001
0010
0100
,
1000
0010
0100
0001
1000
0010
1000
0100
,
0010
0001
1000
0001
0100
0010
1000
0100
,
1000
0001
0010
0001
1000
0100
0010
0100
,
1000
0001
1000
0010
0100
0010
1000
0001
,
0100
0001
1000
0010
1000
0001
0100
0010
,
1000
0001
1000
0100
0010
0001
0100
0001
,
1000
0010
0100
0001
0010
0100
1000
0001
,
1000
0001
0010
0100
0010
0001
1000
0100
,
1000
0001
0010
0001
0100
0010
1000
0001
,
0100
0010
0100
0001
1000
0001
1000
0010
,
0100
0001
0010
0100
1000
0001
1000
0001
0010
0100
0010
0001
1000
0100
0010
0001
,
0100
0001
1000
0010
1000
0001
0100
0010
0100
0001
1000
0001
1000
0010
0100
0001
,
0010
0100
1000
0001
0010
0001
0100
0010
,
1000
0001
1000
0100
0010
0001
0100
0001
,
1000
0010
1000
0001
0100
0010
0100
0001
,
1000
0001
0010
0100
0010
0001
1000
0100
,
1000
0001
0010
0001
0100
0001
1000
0010
,
0100
0010
1000
0001
0100
0001
0010
0100
,
1000
0001
0010
0001
1000
0100
0010
0100
0010
0001
1000
0001
0100
0010
1000
0100
,
0010
0001
0100
0001
1000
0010
0100
0001
1000
0001
0010
0100
0010
0100
1000
0001
,
0010
0001
1000
0100
0010
0100
0010
0001
,
1000
0001
0100
0010
1000
0001
0100
0001
,
0010
0100
1000
0010
0100
0001
1000
0001
,
0010
0100
0010
0100
1000
0001
0010
0001
,
1000
0100
0010
0001
0100
0001
1000
0010
0100
0000
0010
0000
1000
0000
0001
0000
,
0100
0001
0010
0100
1000
0010
0100
0001
,
1000
0001
0010
0100
0010
0001
1000
0001
0100
0000
0010
0000
1000
0000
0100
0000
,
0010
0001
1000
0100
1000
0001
0010
0100
,
0010
0001
1000
0100
1000
0010
0100
0001
1000
0000
0010
0000
1000
0000
0001
0000
,
0100
0010
0100
0010
1000
0001
1000
0100
,
0010
0001
0100
0010
1000
0100
1000
0001
0010
0000
0100
0000
1000
0000
0001
0000
,
1000
0010
0100
0010
0100
0001
1000
0010
,
1000
0001
0100
0010
0100
0010
1000
0001
,
1000
0100
0010
0001
1000
0100
1000
0010
,
0100
0001
0010
0100
1000
0001
1000
0010
,
0100
0010
0100
0001
1000
0010
1000
0001
,
0100
0010
1000
0100
1000
0001
0010
0100
,
0010
0001
1000
0100
1000
0010
0100
0001
0010
0100
1000
0001
1000
0010
0100
0010
,
1000
0001
1000
0100
0010
0001
0100
0010
1000
0001
0100
0010
1000
0001
0100
0001
,
1000
0010
0100
0010
0100
0001
1000
0010
,
0100
0010
1000
0001
0100
0001
0010
0100
,
1000
0010
0100
0001
1000
0001
0010
0100
,
0010
0100
1000
0001
0010
0100
1000
0010
,
0100
0001
0010
0001
1000
0100
0010
0100
,
1000
0001
0010
0001
0100
0010
1000
0100
,
0010
0001
1000
0100
0010
0100
0010
0001
1000
0001
0100
0010
1000
0100
0010
0001
,
0100
0001
1000
0010
0100
0010
1000
0001
0100
0010
0100
0010
1000
0001
0100
0001
,
1000
0010
0100
0010
0100
0001
1000
0001
,
0010
0100
1000
0010
0100
0001
0010
0100
,
1000
0010
0100
0001
1000
0001
0010
0100
,
1000
0010
0100
0001
1000
0010
1000
0001
,
0100
0010
0100
0010
1000
0001
0100
0010
0100
0000
0001
0000
1000
0000
0010
0000
,
1000
0100
0010
0001
0100
0010
1000
0001
,
1000
0100
0010
0100
0010
0001
1000
0100
0010
0000
0001
0000
0100
0000
0010
0000
,
1000
0100
1000
0001
0010
0100
0010
0001
,
1000
0100
1000
0010
0100
0001
0010
0100
1000
0000
0001
0000
0010
0000
0100
0000
,
0010
0100
1000
0001
1000
0010
0100
0001
,
0010
0100
1000
0010
1000
0001
0100
0010
0100
0000
0001
0000
1000
0000
0010
0000
,
0100
0010
0100
0001
1000
0010
1000
0001
,
0100
0010
0100
0010
1000
0001
1000
0100
0010
0000
0001
0000
0100
0000
0010
0000
,
1000
0100
0010
0001
0100
0010
1000
0001
,
1000
0100
0010
0001
0000
0000
0000
0000
;

//---------------dance-double - LinkDump17----------------
#NOTES:
     dance-double:
     LinkDump17:
     Edit:
     11:
     0.849805,1.053014,0.000000,0.000000,0.769509,889.000000,889.000000,0.000000,0.000000,4.000000,0.000000,0.849805,1.053014,0.000000,0.000000,0.769509,889.000000,889.000000,0.000000,0.000000,4.000000,0.000000:
00000000
00000000
00000000
00000000
,
0M000000
M0000000
00M00000
M0000000
,
00001000
00010000
00000010
00001000
,
00000100
00010000
00000100
00001000
,
00000010
00010000
00000010
00010000
,
00000100
00001000
00000010
00010000
,
00000010
00001000
00000100
00010000
,
00000100
00010000
00000010
00001000
,
00000010
00010000
00000100
00001000
,
00000100
00010000
00000010
00010000
,
00000010
00001000
00000100
00010000
00000010
00001000
00000010
00010000
,
00000100
00010000
00000100
00001000
00000010
00010000
00000010
00001000
,
00000100
00010000
00000100
00010000
00000010
00001000
00000010
00010000
,
00000010
00000100
00000001
00001000
00000001
00001000
00000010
00000100
,
00000010
00001000
00000001
00000100
00000001
00001000
00000010
00010000
,
00000100
00000010
00000001
00001000
00000001
00000100
00000010
00001000
,
00000001
00001000
00000001
00000100
00000010
00001000
00000100
00000010
,
00000001
00000000
00000000
00001000
00000000
00000000
00000001
00000000
00000000
00001000
00000000
00000000
00000100
00000000
00000000
00000010
00000000
00000000
00000100
00000000
00001000
00000000
00000001
00000000
,
00000010
00000001
00001000
00000100
00001000
00000001
00000010
00000001
00001000
00000100
00000010
00000100
,
00001000
00000001
00001000
00000010
00010000
00000010
00001000
00000001
00001000
00000100
00010000
00000010
,
00010000
00000010
00001000
00000100
00010000
00000010
00010000
00000100
00001000
00000001
00001000
00000010
,
00010000
00000100
00010000
00000010
00001000
00000100
00001000
00000010
00010000
00000010
00010000
00000100
,
00001000
00000010
00010000
00000100
00010000
00000010
00001000
00000001
00001000
00000100
00010000
00000010
,
00010000
00000100
00001000
00000001
00001000
00000010
00010000
00000100
00010000
00000010
00010000
00001000
,
01000000
00001000
01000000
00001000
00100000
00010000
00100000
00001000
01000000
00010000
01000000
00001000
,
00100000
00001000
00100000
00010000
01000000
00001000
01000000
00010000
00100000
00001000
01000000
00001000
,
01000000
00010000
00100000
00001000
00100000
00010000
01000000
00001000
01000000
00001000
00100000
00010000
,
00100000
00001000
01000000
00010000
01000000
00001000
00100000
00001000
01000000
00010000
01000000
00001000
,
00100000
00010000
00100000
00001000
01000000
00010000
10000000
00100000
01000000
00010000
10000000
00010000
,
00100000
01000000
10000000
00100000
10000000
00010000
01000000
00100000
10000000
01000000
00100000
00010000
,
10000000
00010000
10000000
01000000
00100000
01000000
10000000
00010000
00100000
00010000
10000000
01000000
,
10000000
00100000
01000000
00010000
10000000
00100000
01000000
00100000
10000000
00010000
10000000
00010000
,
01000000
00100000
10000000
01000000
00100000
00010000
10000000
00010000
10000000
01000000
00100000
01000000
00100000
00001000
00100000
00010000
,
10000000
00010000
01000000
00001000
00100000
00001000
01000000
00010000
00100000
00010000
01000000
00001000
01000000
00001000
00100000
00010000
,
10000000
00010000
00100000
00001000
01000000
00010000
10000000
00010000
,
00100000
00001000
01000000
00001000
00100000
00010000
10000000
00010000
,
01000000
00001000
00100000
00001000
01000000
00010000
00100000
00010000
,
01000000
00001000
01000000
00010000
00100000
00010000
01000000
00001000
,
00100000
00001000
01000000
00001000
00010000
00000010
00001000
00000100
,
00010000
00000010
00010000
00000100
00001000
00000001
00001000
00000010
,
00010000
00000100
00001000
00000001
00001000
00000100
00010000
00000010
,
00010000
00000010
00001000
00000100
00001000
00000010
00010000
00000100
,
00010000
00000010
00001000
00000001
00001000
00000100
00010000
00000010
,
00001000
00000100
00001000
00000010
00010000
00000010
00010000
00000100
,
00001000
00000001
00001000
00000100
00010000
00000010
00010000
00000010
00001000
00000100
00001000
00000001
00001000
00000100
00000010
00000001
,
00000100
00000001
00001000
00000010
00001000
00000001
00000100
00000010
00000100
00000001
00001000
00000001
00001000
00000010
00000100
00000001
,
00000010
00000100
00001000
00000001
00000010
00000001
00000100
00000010
,
00001000
00000001
00001000
00000100
00000010
00000001
00000100
00000001
,
00001000
00000010
00001000
00000001
00000100
00000010
00000100
00000001
,
00001000
00000001
00000010
00000100
00000010
00000001
00001000
00000100
,
00001000
00000001
00000010
00000001
00001000
00000010
00010000
00000100
,
00001000
00000100
00010000
00000010
00001000
00000001
00001000
00000100
,
00010000
00000010
00001000
00000010
00010000
00000100
00001000
00000100
00001000
00000010
00010000
00000010
00001000
00000100
00010000
00000100
,
00001000
00000001
00001000
00000010
00010000
00000100
00001000
00000010
00010000
00000010
00001000
00000100
00001000
00000100
00010000
00000010
,
00001000
00000010
00010000
00000100
00001000
00000100
00001000
00000010
,
00010000
00000010
00001000
00000100
00010000
00001000
00100000
00001000
,
00100000
00010000
10000000
00010000
00100000
00001000
01000000
00001000
,
00100000
00010000
00100000
00010000
01000000
00001000
00100000
00001000
,
01000000
00010000
00100000
00001000
00100000
00001000
01000000
00010000
00100000
00000000
00010000
00000000
01000000
00000000
00001000
00000000
,
00100000
00001000
00100000
00010000
10000000
00010000
00100000
00001000
,
01000000
00001000
00100000
00010000
00100000
00001000
01000000
00001000
00100000
00000000
00010000
00000000
01000000
00000000
00010000
00000000
,
00100000
00001000
01000000
00100000
10000000
00010000
00100000
01000000
,
00100000
00010000
10000000
01000000
10000000
00100000
01000000
00010000
10000000
00000000
00100000
00000000
10000000
00000000
00010000
00000000
,
01000000
00100000
01000000
00100000
10000000
00010000
10000000
01000000
,
00100000
00001000
01000000
00100000
10000000
01000000
10000000
00010000
00100000
00000000
01000000
00000000
10000000
00000000
00010000
00000000
,
10000000
00100000
01000000
00100000
01000000
00010000
10000000
00100000
,
10000000
00010000
01000000
00100000
01000000
00100000
10000000
00010000
,
10000000
01000000
00100000
00001000
01000000
00010000
10000000
00010000
,
00100000
00001000
00100000
00010000
01000000
00001000
01000000
00010000
,
00100000
00010000
00100000
00001000
01000000
00010000
01000000
00001000
,
00100000
00010000
10000000
00010000
01000000
00001000
00100000
00010000
,
00100000
00001000
01000000
00010000
10000000
00010000
00100000
00001000
00100000
00010000
01000000
00001000
01000000
00010000
00100000
00010000
,
01000000
00001000
01000000
00010000
00100000
00001000
00100000
00010000
01000000
00001000
00010000
00000100
00010000
00000010
00001000
00000010
,
00010000
00000100
00001000
00000100
00001000
00000010
00010000
00000100
,
00001000
00000100
00010000
00000010
00001000
00000001
00001000
00000100
,
00010000
00000100
00001000
00000010
00010000
00000010
00001000
00000100
,
00001000
00000100
00010000
00000010
00001000
00000100
00010000
00000100
,
00001000
00000001
00001000
00000010
00010000
00000100
00001000
00000100
,
00010000
00000010
00001000
00000001
00001000
00000100
00010000
00000100
,
00001000
00000001
00001000
00000100
00000010
00000100
00000010
00000001
00001000
00000001
00000100
00000010
00010000
00000100
00000010
00000001
,
00000100
00000001
00001000
00000010
00000100
00000010
00001000
00000001
00000100
00000010
00000100
00000010
00001000
00000001
00000100
00000001
,
00001000
00000010
00000100
00000010
00000100
00000001
00001000
00000001
,
00000010
00000100
00010000
00000010
00000100
00000001
00000010
00000100
,
00010000
00000010
00000100
00000001
00001000
00000001
00000010
00000100
,
00010000
00000100
00001000
00000010
00010000
00000100
00010000
00000010
,
00001000
00000100
00001000
00000100
00010000
00000010
00001000
00000100
00001000
00000000
00000010
00000000
00010000
00000000
00000100
00000000
,
00010000
00000100
00001000
00000001
00001000
00000100
00010000
00000010
,
00010000
00000100
00001000
00000100
00001000
00000010
00010000
00000100
00001000
00000000
00000001
00000000
00001000
00000000
00000100
00000000
,
00010000
00000100
00010000
00000010
00001000
00000100
00001000
00000010
,
00010000
00000100
00010000
00000100
00001000
00000001
00001000
00000100
00010000
00000000
00001000
00000000
00100000
00000000
00010000
00000000
,
00100000
00010000
01000000
00001000
01000000
00010000
00100000
00001000
,
00100000
00010000
10000000
00010000
01000000
00001000
00100000
00010000
00100000
00000000
00001000
00000000
01000000
00000000
00010000
00000000
,
00100000
00010000
00100000
00001000
01000000
00010000
01000000
00001000
,
00100000
00010000
00100000
00010000
01000000
00001000
01000000
00010000
00100000
00000000
00001000
00000000
00100000
00000000
00010000
00000000
,
10000000
00010000
00100000
00001000
00100000
00010000
01000000
00001000
,
01000000
00010000
00100000
00001000
00000000
00000000
00000000
00000000
;
