#VERSION:0.83;
#TITLE:Final Zone;
#SUBTITLE:Sonic 1;
#ARTIST:8BitDanoOct1;
#TITLETRANSLIT:Final Zone;
#SUBTITLETRANSLIT:;
#ARTISTTRANSLIT:;
#GENRE:;
#ORIGIN:;
#CREDIT:Link AKA Dude;
#BANNER:FinalZone.PNG;
#BACKGROUND:FinalZone.bg.PNG;
#PREVIEWVID:;
#JACKET:;
#CDIMAGE:;
#DISCIMAGE:;
#LYRICSPATH:;
#CDTITLE:;
#MUSIC:FinalZone.ogg;
#OFFSET:1.868000;
#SAMPLESTART:29.500000;
#SAMPLELENGTH:12.500000;
#SELECTABLE:YES;
#BPMS:0.000=124.102;
#STOPS:;
#DELAYS:;
#WARPS:;
#TIMESIGNATURES:0.000=4=4;
#TICKCOUNTS:0.000=4;
#COMBOS:0.000=1;
#SPEEDS:0.000=1.000=0.000=0;
#SCROLLS:0.000=1.000;
#FAKES:;
#LABELS:0.000=Song Start;
#BGCHANGES:0.000=FinalZone.bg.PNG=1.000=0=0=0=StretchNoLoop====,
4.313=FinalZone.mpg=1.000=0=0=0=StretchNoLoop====,
143.500=FinalZone.bg.PNG=1.000=0=0=0=StretchNoLoop====,
99999=-nosongbg-=1.000=0=0=0 // don't automatically add -songbackground-
;
#KEYSOUNDS:;
#ATTACKS:
;

//---------------dance-single - LinkDude02----------------
#NOTEDATA:;
#CHARTNAME:LinkDude02;
#STEPSTYPE:dance-single;
#DESCRIPTION:LinkDude02;
#CHARTSTYLE:;
#DIFFICULTY:Beginner;
#METER:1;
#RADARVALUES:0.084330,0.100353,0.000000,0.103304,0.000000,40.000000,40.000000,0.000000,7.000000,0.000000,0.000000,0.000000,0.000000,0.000000,0.084330,0.100353,0.000000,0.103304,0.000000,40.000000,40.000000,0.000000,7.000000,0.000000,0.000000,0.000000,0.000000,0.000000;
#CREDIT:LinkDude02;
#NOTES:
// measure 0
0000
0000
0000
0000
,  // measure 1
0000
0000
0000
0000
,  // measure 2
0000
0002
0000
0003
,  // measure 3
1000
0000
0001
0000
,  // measure 4
0100
0000
0000
0000
,  // measure 5
0000
0000
0000
0000
,  // measure 6
0000
2000
0000
3000
,  // measure 7
0001
0000
1000
0000
,  // measure 8
0100
0000
0000
0000
,  // measure 9
1000
0000
0001
0000
,  // measure 10
0010
0000
0000
0000
,  // measure 11
0010
0000
0000
0000
,  // measure 12
0000
0002
0000
0003
,  // measure 13
1000
0000
0001
0000
,  // measure 14
0100
0000
0000
0000
,  // measure 15
0000
0000
0000
0000
,  // measure 16
0000
2000
0000
3000
,  // measure 17
0001
0000
1000
0000
,  // measure 18
0100
0000
0000
0000
,  // measure 19
1000
0000
0001
0000
,  // measure 20
0010
0000
0000
0000
,  // measure 21
0010
0000
0000
0000
,  // measure 22
0000
0002
0000
0003
,  // measure 23
1000
0000
0001
0000
,  // measure 24
0100
0000
0000
0000
,  // measure 25
0000
0000
0000
0000
,  // measure 26
0000
2000
0000
3000
,  // measure 27
0001
0000
1000
0000
,  // measure 28
0100
0000
0000
0000
,  // measure 29
1000
0000
0001
0000
,  // measure 30
0010
0000
0000
0000
,  // measure 31
0010
0000
0000
0000
,  // measure 32
0000
0002
0000
0003
,  // measure 33
1000
0000
0001
0000
,  // measure 34
0100
0000
0000
0000
;

//---------------dance-single - LinkDude06----------------
#NOTEDATA:;
#CHARTNAME:LinkDude06;
#STEPSTYPE:dance-single;
#DESCRIPTION:LinkDude06;
#CHARTSTYLE:;
#DIFFICULTY:Easy;
#METER:4;
#RADARVALUES:0.309913,0.316554,0.265640,0.206609,0.000000,147.000000,129.000000,18.000000,14.000000,0.000000,0.000000,0.000000,0.000000,0.000000,0.309913,0.316554,0.265640,0.206609,0.000000,147.000000,129.000000,18.000000,14.000000,0.000000,0.000000,0.000000,0.000000,0.000000;
#CREDIT:LinkDude06;
#NOTES:
0000
0000
0000
0000
,
0000
0000
0000
0000
,
0011
2000
0010
0001
,
3010
0002
0010
1000
,
0013
0001
1000
0100
,
0010
0001
1000
0100
,
1100
0002
0100
1000
,
0103
2000
0100
0001
,
3100
1000
0001
0010
,
0100
1000
0001
0010
,
0011
0010
0001
0010
,
0110
0100
0010
0100
,
1100
1000
0100
1000
,
1001
0001
1000
0001
,
0101
0100
0001
0100
,
0110
0010
0100
0010
,
1010
1000
0010
1000
,
1001
0001
1000
0001
,
2000
3000
0020
0000
,
0230
0000
0302
0000
,
1003
1000
0100
0100
,
1000
1000
0010
0010
,
1010
0002
0010
1000
,
0013
2000
0010
0001
,
3010
1000
0001
0100
,
0010
1000
0001
0100
,
0101
2000
0100
0001
,
3100
0002
0100
1000
,
0103
0001
1000
0010
,
0100
0001
1000
0010
,
1010
0010
1000
0010
,
0110
0100
0010
0100
,
0101
0001
0100
0001
,
1001
1000
0001
1000
,
1100
0100
1000
0100
,
0220
0000
0000
0330
;

//---------------dance-single - LinkDude09----------------
#NOTEDATA:;
#CHARTNAME:LinkDude09;
#STEPSTYPE:dance-single;
#DESCRIPTION:LinkDude09;
#CHARTSTYLE:;
#DIFFICULTY:Medium;
#METER:6;
#RADARVALUES:0.438516,0.446883,0.368944,0.162335,0.132820,208.000000,183.000000,25.000000,11.000000,8.000000,0.000000,0.000000,0.000000,0.000000,0.438516,0.446883,0.368944,0.162335,0.132820,208.000000,183.000000,25.000000,11.000000,8.000000,0.000000,0.000000,0.000000,0.000000;
#CREDIT:LinkDude09;
#NOTES:
0000
0000
0000
0000
,
0000
0000
0000
0000
,
0011
0000
0002
0000
0020
0003
0200
0030
,
2000
0300
0100
3000
0010
0000
0002
0000
,
0010
0000
0003
0000
0001
0000
0000
0010
0001
0000
0010
0000
0000
0000
0000
0000
,
0001
0000
0000
0000
1000
0000
0000
0010
1000
0000
0010
0000
0000
0000
0000
0000
,
1010
0000
1000
1000
0010
0010
0100
0100
,
0001
0001
0010
0010
0100
0100
1000
1000
,
0100
0000
0100
0000
1000
0000
0000
0100
1000
0000
0100
0000
0000
0000
0000
0000
,
1000
0000
0000
0000
0001
0000
0000
0100
0001
0000
0100
0000
0000
0000
0000
0000
,
0002
0000
0000
0000
0010
0000
0000
0010
0010
0000
0010
0000
0003
0000
0000
0000
,
2000
0000
0000
0000
0010
0000
0000
0010
0010
0000
0010
0000
3000
0000
0000
0000
,
0000
0010
1001
0100
,
1001
0010
1001
0100
,
1001
0000
0000
0000
0001
0000
0000
0010
0100
0000
1000
0000
0000
0000
0000
0000
,
1001
0000
0000
0000
0001
0000
0000
0100
0010
0000
1000
0000
0000
0000
0000
0000
,
2020
3030
1000
0010
1000
0010
0100
0010
,
0100
0001
0010
0001
0010
0100
1000
0100
,
1000
0000
0000
0000
1100
0000
0000
0010
0001
0000
0100
0000
0000
0000
0000
0000
,
0110
0000
0000
0000
0011
0000
0000
0100
1000
0000
0010
0000
0000
0000
0000
0000
,
0001
0010
0001
1000
0010
1000
0001
0100
,
0001
1000
0100
1000
0001
0010
0100
0010
,
0001
M11M
110M
1001
,
M011
M11M
110M
1001
,
M011
0000
0000
0000
1000
0000
0000
0010
1000
0000
0010
0000
0000
0000
0000
0000
,
1000
0000
0000
0000
0001
0000
0000
0010
0001
0000
0010
0000
0000
0000
0000
0000
,
0011
0000
0001
0001
0010
0010
0100
0100
,
1000
1000
0010
0010
0100
0100
0001
0001
,
0100
0000
0100
0000
0001
0000
0000
0100
0001
0000
0100
0000
0000
0000
0000
0000
,
0001
0000
0000
0000
1000
0000
0000
0100
1000
0000
0100
0000
0000
0000
0000
0000
,
2000
0000
0000
0000
0010
0000
0000
0010
0010
0000
0010
0000
3000
0000
0000
0000
,
0002
0000
0000
0000
0010
0000
0000
0010
0010
0000
0010
0000
0003
0000
0000
0000
,
0000
0010
1001
0100
,
1001
0010
1001
0100
,
1001
0000
0000
0000
1000
0000
0000
0010
0100
0000
0001
0000
0000
0000
0000
0000
,
1001
0000
0000
0000
1000
0000
0000
0100
0010
0000
0001
0000
0000
0000
0000
0000
;

//---------------dance-single - LinkDude11----------------
#NOTEDATA:;
#CHARTNAME:LinkDude11;
#STEPSTYPE:dance-single;
#DESCRIPTION:LinkDude11;
#CHARTSTYLE:;
#DIFFICULTY:Hard;
#METER:7;
#RADARVALUES:0.602960,0.555906,0.250882,0.236124,0.147578,286.000000,269.000000,17.000000,16.000000,22.000000,0.000000,0.000000,0.000000,0.000000,0.602960,0.555906,0.250882,0.236124,0.147578,286.000000,269.000000,17.000000,16.000000,22.000000,0.000000,0.000000,0.000000,0.000000;
#CREDIT:LinkDude11;
#NOTES:
0000
0000
0000
0000
,
0M00
0000
0000
0000
M000
0000
0000
0000
00M0
0000
0001
0100
M001
0000
0100
0001
,
0100
0001
1000
0100
0010
0001
0100
0010
,
0100
0001
1000
0010
1000
0100
0010
0001
,
0100
0000
0010
0000
1000
0000
0000
0001
1000
0000
0100
0000
0010
0000
0001
0000
,
1000
0000
0100
0000
1000
0000
0000
0010
1000
0000
0010
0000
0100
0000
0001
0000
,
0100
0010
1000
0100
0010
0001
0100
0010
,
1000
0100
0010
0001
0100
0010
1000
0100
,
0010
0000
0100
0000
1000
0000
0000
0100
1000
0000
0100
0000
1000
0000
0001
0000
,
0010
0000
0100
0000
1000
0000
0000
0100
0010
0000
0100
0000
0010
0000
0001
0000
,
1000
0000
0100
0000
0010
0000
0000
0001
0010
0000
0100
0000
1000
0000
0010
0000
,
0100
0000
0001
0000
0100
0000
0000
0010
1000
0000
0001
0000
0010
0000
0001
0000
,
1000
0000
0100
0000
0010
0000
0100
0000
2002
3003
0010
0000
0100
0000
0010
0000
,
2002
3003
0100
0000
0010
0000
0100
0000
2002
3003
0010
0000
0100
0000
0010
0000
,
2002
0000
3003
0000
0000
0000
0100
0000
0000
0000
0000
0000
1000
0000
0000
0000
0000
0000
0000
0000
0000
0100
0000
0000
0010
0000
0000
0000
0000
0000
0001
0000
0000
0000
0000
0000
0010
0000
0000
0000
0000
0000
0100
0000
0000
0000
0000
0000
,
1000
0000
0010
0000
1000
0000
0000
0010
0100
0000
0001
0000
1000
0000
0010
0000
,
0100
0001
1000
0100
1000
0010
0100
0010
,
1000
0001
0100
0001
0010
0100
1000
0010
,
1000
0000
0100
0000
0010
0000
0000
0100
1000
0000
0010
0000
0100
0000
0010
0000
,
1000
0000
0001
0000
0100
0000
0000
0010
1000
0000
0010
0000
0100
0000
0001
0000
,
1000
0100
1000
0001
0100
0001
1000
0010
,
1000
0001
0010
0001
1000
0001
0010
0100
,
0010
0100
M11M
0000
MM11
0000
1MM1
0000
,
11MM
M11M
1M1M
1MM1
,
M1M1
0000
0000
0000
M11M
0000
0000
1000
0001
0000
0100
0000
0010
0000
1000
0000
,
0001
0000
0100
0000
0001
0000
0000
0010
0001
0000
0010
0000
0100
0000
1000
0000
,
0100
0010
0001
0100
0010
1000
0100
0010
,
0001
0100
0010
1000
0100
0010
0001
0100
,
0010
0000
0100
0000
0001
0000
0000
0100
0001
0000
0100
0000
0001
0000
1000
0000
,
0010
0000
0100
0000
0001
0000
0000
0100
0010
0000
0100
0000
0010
0000
1000
0000
,
0001
0000
0100
0000
0010
0000
0000
1000
0010
0000
0100
0000
0001
0000
0010
0000
,
0100
0000
1000
0000
0100
0000
0000
0010
0001
0000
1000
0000
0010
0000
1000
0000
,
0001
0000
0100
0000
0010
0000
0100
0000
2002
3003
0010
0000
0100
0000
0010
0000
,
2002
3003
0100
0000
0010
0000
0100
0000
2002
3003
0010
0000
0100
0000
0010
0000
,
2002
0000
3003
0000
0000
0000
0100
0000
0000
0000
0000
0000
0001
0000
0000
0000
0000
0000
0000
0000
0000
0100
0000
0000
0010
0000
0000
0000
0000
0000
1000
0000
0000
0000
0000
0000
0010
0000
0000
0000
0000
0000
0100
0000
0000
0000
0000
0000
,
0001
0000
0010
0000
0001
0000
0000
0010
0100
0000
1000
0000
0001
0000
0010
0000
;

//---------------dance-single - LinkDude13----------------
#NOTEDATA:;
#CHARTNAME:LinkDude13;
#STEPSTYPE:dance-single;
#DESCRIPTION:LinkDude13;
#CHARTSTYLE:;
#DIFFICULTY:Challenge;
#METER:9;
#RADARVALUES:0.685181,0.661793,0.427975,0.236124,0.154956,325.000000,296.000000,29.000000,16.000000,20.000000,0.000000,0.000000,0.000000,0.000000,0.685181,0.661793,0.427975,0.236124,0.154956,325.000000,296.000000,29.000000,16.000000,20.000000,0.000000,0.000000,0.000000,0.000000;
#CREDIT:LinkDude13;
#NOTES:
0000
0000
0000
0000
,
0M00
0000
0000
0000
M000
0000
0000
0000
00M0
0000
0001
0010
M001
0100
0010
1000
,
0010
0100
0001
0010
0100
1000
0010
0100
,
0010
1000
0001
0100
0001
0010
0100
1000
,
0010
0000
1000
0000
0001
0000
0100
0010
0100
0000
0010
0000
1000
0000
0001
0000
,
0100
0000
0010
0000
1000
0000
0001
0010
0001
0000
0100
0000
0010
0000
1000
0000
,
0010
0100
0001
0010
0100
1000
0010
0100
,
0001
0010
0100
1000
0010
0100
0001
0010
,
0100
0000
0010
0000
0001
0000
1000
0010
1000
0000
0100
0000
1000
0000
0001
0000
,
0010
0000
0100
0000
1000
0000
0010
0100
0010
0000
0100
0000
0010
0000
1000
0000
,
0001
0000
0100
0000
0010
0000
0100
0001
0100
0000
0010
0000
1000
0000
0100
0000
,
0010
0000
0001
0000
0010
0000
0001
0100
0001
0000
1000
0000
0100
0000
1000
0000
,
0010
0000
0100
0000
0001
0000
0010
0000
2002
3003
0100
0000
1000
0000
0100
0000
,
2002
3003
0010
0000
1000
0000
0010
0000
2002
3003
0100
0000
0001
0000
0100
0000
,
2002
3003
0010
0000
1000
0000
0100
1000
0100
0000
1000
0000
0010
0000
0100
0000
,
0001
0000
0010
0000
0001
0000
0100
0010
0100
0000
0001
0000
1000
0000
0010
0000
,
0100
0001
0101
0100
0110
0010
1010
1000
,
1001
0001
0011
0010
0110
0100
1100
1000
,
1001
0000
0001
0000
0100
0000
0010
1000
0010
0000
1000
0000
0100
0000
0010
0000
,
0001
0000
1000
0000
0010
0000
0100
0001
0100
0000
0010
0000
0100
0000
0001
0000
,
1000
0010
1100
0001
1010
0100
1001
0010
,
1100
0001
1010
0100
1000
0001
0010
0100
,
0010
0001
MM11
0001
1MM1
1000
11MM
0100
,
M11M
0010
1MM1
1000
1M1M
0010
M11M
0100
,
M1M1
0000
0001
0000
1000
0000
0100
0010
0100
0000
0010
0000
0001
0000
1000
0000
,
0100
0000
0010
0000
0001
0000
1000
0010
1000
0000
0100
0000
0010
0000
0001
0000
,
0010
0100
1000
0010
0100
0001
0010
0100
,
1000
0010
0100
0001
0010
0100
1000
0010
,
0100
0000
0010
0000
1000
0000
0001
0010
0001
0000
0100
0000
0001
0000
1000
0000
,
0010
0000
0100
0000
0001
0000
0010
0100
0010
0000
0100
0000
0010
0000
0001
0000
,
1000
0000
0100
0000
0010
0000
0100
0001
0100
0000
0010
0000
0001
0000
0100
0000
,
0010
0000
1000
0000
0010
0000
1000
0100
1000
0000
0001
0000
0100
0000
0001
0000
,
0010
0000
0100
0000
1000
0000
0010
0000
2002
3003
0100
0000
0001
0000
0100
0000
,
2002
3003
0010
0000
0001
0000
0010
0000
2002
3003
0100
0000
1000
0000
0100
0000
,
2002
3003
0010
0000
0001
0000
0100
0001
0100
0000
0001
0000
0010
0000
0100
0000
,
1000
0000
0010
0000
1000
0000
0100
0010
0100
0000
1000
0000
0001
0000
0010
0000
;

//---------------dance-single - LinkDude16----------------
#NOTEDATA:;
#CHARTNAME:LinkDude16;
#STEPSTYPE:dance-single;
#DESCRIPTION:LinkDude16;
#CHARTSTYLE:;
#DIFFICULTY:Edit;
#METER:11;
#RADARVALUES:1.081532,0.873567,0.531279,0.265640,1.490533,513.000000,477.000000,36.000000,18.000000,12.000000,0.000000,0.000000,0.000000,0.000000,1.081532,0.873567,0.531279,0.265640,1.490533,513.000000,477.000000,36.000000,18.000000,12.000000,0.000000,0.000000,0.000000,0.000000;
#CREDIT:LinkDude16;
#NOTES:
0000
0000
0000
0000
,
0M00
0000
0000
0000
M000
0000
0000
0000
00M0
0000
0001
0010
M001
0100
0001
1000
,
0001
0010
0001
0000
0101
0000
0100
0000
0110
0000
0010
0000
1010
0000
1000
0000
,
1001
0001
0011
0010
0110
0100
1100
1000
,
1010
0000
0010
0000
0110
0000
0001
0100
0001
0010
0001
1000
0100
1000
0010
0100
,
0001
0010
0100
0010
0100
1000
0010
0100
0010
1000
0100
1000
0010
0100
0001
0100
,
0010
1000
0100
0010
0001
0010
0100
1000
0001
0100
0010
1000
0001
0100
0010
1000
,
0010
0100
0010
1000
0010
0100
0001
0010
0100
1000
0010
0100
0001
0010
0100
1000
,
0001
0010
0100
1000
0100
0010
0001
0100
0001
0010
0100
1000
0100
0010
0001
1000
,
0100
0010
0001
0100
0010
1000
0100
0010
0001
0100
0001
1000
0010
1000
0100
0010
,
0001
0100
0010
0100
0010
1000
0100
0010
0100
1000
0010
1000
0100
0010
0001
0010
,
0100
1000
0010
0100
0001
0100
0010
1000
0001
0010
0100
1000
0001
0010
0100
1000
,
0001
0010
0200
0300
0110
0000
0002
0003
0011
0000
0200
0300
1100
0000
0020
0030
,
1010
0000
0002
0003
0101
0000
0020
0030
1010
0000
0002
0003
1001
0000
0200
0300
,
1100
0000
0002
0003
0011
0000
0001
0010
0100
1000
0010
0100
0001
0010
0001
1000
,
0010
1000
0100
0010
0001
1000
0010
0100
0010
1000
0100
1000
0010
0100
0001
1000
,
0100
0010
0001
0100
0001
0010
0100
1000
0010
1000
0100
0010
0001
0100
0010
0100
,
0001
1000
0001
0010
0100
1000
0010
0100
0001
0010
0100
0010
0001
0100
0010
1000
,
0100
0010
0001
0010
0100
1000
0100
0010
0001
1000
0001
0100
0010
0100
0001
1000
,
0100
0010
0001
1000
0100
1000
0010
0100
0010
1000
0100
0010
0001
0100
0001
1000
,
0100
1000
0010
0100
0001
1000
0100
0010
0100
1000
0010
1000
0100
0010
0001
1000
,
0010
0100
0001
0010
0001
0100
0010
1000
0100
1000
0010
0100
0001
0010
0100
0010
,
0001
1000
0001
0000
0110
0000
M001
0000
1100
0000
00M1
0000
0110
0000
100M
0000
,
0011
1M00
0110
M001
1010
0M01
0110
100M
,
0101
0000
10M0
0000
0110
0000
1000
0100
1000
0010
1000
0001
0100
0001
0010
0100
,
1000
0010
0100
0010
0100
0001
0010
0100
0010
0001
0100
0001
0010
0100
1000
0100
,
0010
0001
0100
0010
1000
0010
0100
0001
1000
0100
0010
0001
1000
0100
0010
0001
,
0010
0100
0010
0001
0010
0100
1000
0010
0100
0001
0010
0100
1000
0010
0100
0001
,
1000
0010
0100
0001
0100
0010
1000
0100
1000
0010
0100
0001
0100
0010
1000
0001
,
0100
0010
1000
0100
0010
0001
0100
0010
1000
0100
1000
0001
0010
0001
0100
0010
,
1000
0100
0010
0100
0010
0001
0100
0010
0100
0001
0010
0001
0100
0010
1000
0010
,
0100
0001
0010
0100
1000
0100
0010
0001
1000
0010
0100
0001
1000
0010
0100
0001
,
1000
0010
0200
0300
0110
0000
2000
3000
1010
0000
0200
0300
0101
0000
0020
0030
,
0011
0000
2000
3000
1100
0000
0020
0030
0011
0000
2000
3000
1001
0000
0200
0300
,
0101
0000
2000
3000
1010
0000
1000
0010
0100
0001
0010
0100
1000
0010
1000
0001
,
0010
0001
0100
0010
1000
0001
0010
0100
0010
0001
0100
0001
0010
0100
1000
0000
;

//---------------dance-double - LinkDubs02----------------
#NOTEDATA:;
#CHARTNAME:LinkDubs02;
#STEPSTYPE:dance-double;
#DESCRIPTION:LinkDubs02;
#CHARTSTYLE:;
#DIFFICULTY:Beginner;
#METER:1;
#RADARVALUES:0.084330,0.100353,0.000000,0.103304,0.000000,40.000000,40.000000,0.000000,7.000000,0.000000,0.000000,0.000000,0.000000,0.000000,0.084330,0.100353,0.000000,0.103304,0.000000,40.000000,40.000000,0.000000,7.000000,0.000000,0.000000,0.000000,0.000000,0.000000;
#CREDIT:LinkDubs02;
#NOTES:
00000000
00000000
00000000
00000000
,
00000000
00000000
00000000
00000000
,
00000000
00000002
00000000
00000003
,
00000100
00000000
00000001
00000000
,
00000100
00000000
00000000
00000000
,
00000000
00000000
00000000
00000000
,
00000000
00000020
00000000
00000030
,
00001000
00000000
00000010
00000000
,
00001000
00000000
00000000
00000000
,
00000100
00000000
00010000
00000000
,
00000100
00000000
00000000
00000000
,
00010000
00000000
00000000
00000000
,
00000000
00002000
00000000
00003000
,
00100000
00000000
00001000
00000000
,
00100000
00000000
00000000
00000000
,
00000000
00000000
00000000
00000000
,
00000000
00020000
00000000
00030000
,
01000000
00000000
00010000
00000000
,
01000000
00000000
00000000
00000000
,
00100000
00000000
10000000
00000000
,
00100000
00000000
00000000
00000000
,
10000000
00000000
00000000
00000000
,
00000000
02000000
00000000
03000000
,
10000000
00000000
00100000
00000000
,
01000000
00000000
00000000
00000000
,
00000000
00000000
00000000
00000000
,
00000000
00020000
00000000
00030000
,
00100000
00000000
00001000
00000000
,
00010000
00000000
00000000
00000000
,
00000100
00000000
00001000
00000000
,
00000010
00000000
00000000
00000000
,
00000100
00000000
00000000
00000000
,
00000000
00000002
00000000
00000003
,
00000010
00000000
00000100
00000000
,
00010000
00000000
00000000
00000000
;

//---------------dance-double - LinkDubs06----------------
#NOTEDATA:;
#CHARTNAME:LinkDubs06;
#STEPSTYPE:dance-double;
#DESCRIPTION:LinkDubs06;
#CHARTSTYLE:;
#DIFFICULTY:Easy;
#METER:4;
#RADARVALUES:0.314129,0.316554,0.250882,0.177093,0.000000,149.000000,132.000000,17.000000,12.000000,0.000000,0.000000,0.000000,0.000000,0.000000,0.314129,0.316554,0.250882,0.177093,0.000000,149.000000,132.000000,17.000000,12.000000,0.000000,0.000000,0.000000,0.000000,0.000000;
#CREDIT:LinkDubs06;
#NOTES:
00000000
00000000
00000000
00000000
,
00000000
00000000
00000000
00000000
,
00011000
02000000
00010000
00001000
,
03010000
00002000
00010000
01000000
,
00013000
00001000
00010000
00000100
,
00001000
00000010
00010000
00001000
,
00011000
00000020
00010000
00001000
,
00010030
00020000
00000010
00001000
,
00030010
00010000
00001000
00010000
,
00001000
01000000
00001000
01000000
,
01001000
00001000
01000000
00001000
,
00011000
00001000
00010000
00001000
,
00101000
00001000
00100000
00001000
,
01001000
00001000
01000000
00001000
,
00011000
00001000
00010000
00001000
,
00010100
00010000
00000100
00010000
,
00010010
00010000
00000010
00010000
,
00010100
00010000
00000100
00010000
,
00020000
00000000
00030200
00000000
,
00002300
00000000
00003020
00000000
,
00010030
00010000
00001000
00001000
,
00010000
00010000
00000100
00000100
,
00000100
00020000
00000100
00000010
,
00031000
00002000
01000000
00100000
,
00013000
00010000
00000100
00001000
,
00000100
00010000
00001000
01000000
,
01001000
00002000
01000000
00100000
,
00013000
00020000
00001000
00000100
,
00030010
00010000
00000010
00010000
,
00000100
00010000
00001000
00010000
,
00000110
00010000
00001000
00010000
,
00011000
00001000
00010000
00001000
,
01100000
00001000
00010000
00001000
,
00011000
00010000
00001000
00010000
,
00000110
00010000
00001000
00010000
,
00011000
00001000
00010000
00001000
;

//---------------dance-double - LinkDubs09----------------
#NOTEDATA:;
#CHARTNAME:LinkDubs09;
#STEPSTYPE:dance-double;
#DESCRIPTION:LinkDubs09;
#CHARTSTYLE:;
#DIFFICULTY:Medium;
#METER:6;
#RADARVALUES:0.440624,0.473170,0.368944,0.132820,0.132820,209.000000,184.000000,25.000000,9.000000,8.000000,0.000000,0.000000,0.000000,0.000000,0.440624,0.473170,0.368944,0.132820,0.132820,209.000000,184.000000,25.000000,9.000000,8.000000,0.000000,0.000000,0.000000,0.000000;
#CREDIT:LinkDubs09;
#NOTES:
00000000
00000000
00000000
00000000
,
00000000
00000000
00000000
00000000
,
00011000
00000000
00002000
00000000
00020000
00003000
00000200
00030000
,
00000020
00000300
00000100
00000030
00010000
00000000
00000200
00000000
,
00010000
00000000
00000300
00000000
00000100
00000000
00000000
00010000
00000100
00000000
00010000
00000000
00000000
00000000
00000000
00000000
,
00000010
00000000
00000000
00000000
00010000
00000000
00000000
00000010
00010000
00000000
00000010
00000000
00000000
00000000
00000000
00000000
,
00010010
00000000
00000010
00000010
00001000
00001000
00000100
00000100
,
00010000
00010000
00001000
00001000
00100000
00100000
00010000
00010000
,
01000000
00000000
01000000
00000000
00001000
00000000
00000000
00010000
00001000
00000000
00010000
00000000
00000000
00000000
00000000
00000000
,
00000010
00000000
00000000
00000000
00010000
00000000
00000000
00000100
00010000
00000000
00000100
00000000
00000000
00000000
00000000
00000000
,
00020000
00000000
00000000
00000000
00001000
00000000
00000000
00001000
00001000
00000000
00001000
00000000
00030000
00000000
00000000
00000000
,
00000020
00000000
00000000
00000000
00001000
00000000
00000000
00001000
00001000
00000000
00001000
00000000
00000030
00000000
00000000
00000000
,
00000000
00001000
00010010
00001000
,
00010010
00001000
00010100
00001000
,
00010100
00000000
00000000
00000000
00010000
00000000
00000000
00001000
00010000
00000000
00001000
00000000
00000000
00000000
00000000
00000000
,
01001000
00000000
00000000
00000000
01000000
00000000
00000000
00010000
00100000
00000000
00001000
00000000
00000000
00000000
00000000
00000000
,
01010000
00100000
01000000
00100000
01000000
00010000
00100000
00010000
,
00100000
00001000
00010000
00001000
00010000
00000100
00001000
00000100
,
00001000
00000000
00000000
00000000
00001100
00000000
00000000
00000100
00001000
00000000
00000010
00000000
00000000
00000000
00000000
00000000
,
00000110
00000000
00000000
00000000
00001010
00000000
00000000
00001000
00000010
00000000
00001000
00000000
00000000
00000000
00000000
00000000
,
00001000
00000010
00000100
00000010
00000100
00000010
00001000
00000100
,
00001000
00000100
00010000
00000100
00010000
00001000
00100000
00001000
,
00100000
0M1M1000
01M01000
00110000
,
01M10000
0M1M1000
01M01000
00110000
,
01M10000
00000000
00000000
00000000
01000000
00000000
00000000
00001000
01000000
00000000
00001000
00000000
00000000
00000000
00000000
00000000
,
00100000
00000000
00000000
00000000
00001000
00000000
00000000
00100000
00001000
00000000
00100000
00000000
00000000
00000000
00000000
00000000
,
01001000
00000000
01000000
01000000
00010000
00010000
00100000
00100000
,
00001000
00001000
00010000
00010000
00000100
00000100
00001000
00001000
,
00000010
00000000
00000010
00000000
00010000
00000000
00000000
00001000
00010000
00000000
00001000
00000000
00000000
00000000
00000000
00000000
,
01000000
00000000
00000000
00000000
00001000
00000000
00000000
00100000
00001000
00000000
00100000
00000000
00000000
00000000
00000000
00000000
,
00002000
00000000
00000000
00000000
00010000
00000000
00000000
00010000
00010000
00000000
00010000
00000000
00003000
00000000
00000000
00000000
,
02000000
00000000
00000000
00000000
00010000
00000000
00000000
00010000
00010000
00000000
00010000
00000000
03000000
00000000
00000000
00000000
,
00000000
00010000
01001000
00010000
,
00101000
00010000
01001000
00010000
,
00101000
00000000
00000000
00000000
00001000
00000000
00000000
00010000
00001000
00000000
00010000
00000000
00000000
00000000
00000000
00000000
,
00010010
00000000
00000000
00000000
00000010
00000000
00000000
00001000
00000100
00000000
00010000
00000000
00000000
00000000
00000000
00000000
;

//---------------dance-double - LinkDubs11----------------
#NOTEDATA:;
#CHARTNAME:LinkDubs11;
#STEPSTYPE:dance-double;
#DESCRIPTION:LinkDubs11;
#CHARTSTYLE:;
#DIFFICULTY:Hard;
#METER:7;
#RADARVALUES:0.600851,0.555906,0.250882,0.236124,0.147578,285.000000,268.000000,17.000000,16.000000,22.000000,0.000000,0.000000,0.000000,0.000000,0.600851,0.555906,0.250882,0.236124,0.147578,285.000000,268.000000,17.000000,16.000000,22.000000,0.000000,0.000000,0.000000,0.000000;
#CREDIT:LinkDubs11;
#NOTES:
00000000
00000000
00000000
00000000
,
0M000000
00000000
00000000
00000000
M0000000
00000000
00000000
00000000
00M00000
00000000
00001000
00010000
M0001000
00000000
01000000
00001000
,
01000000
00100000
10000000
01000000
00100000
00010000
01000000
00100000
,
01000000
00010000
00100000
00001000
00010000
00000100
00001000
00000010
,
00000100
00000000
00000001
00000000
00001000
00000000
00000000
00000001
00001000
00000000
00000100
00000000
00000010
00000000
00000001
00000000
,
00001000
00000000
00000100
00000000
00001000
00000000
00000000
00000010
00001000
00000000
00000010
00000000
00010000
00000000
00001000
00000000
,
00100000
00010000
01000000
00100000
10000000
01000000
10000000
00100000
,
01000000
00010000
00100000
00001000
00010000
00000100
00001000
00000100
,
00000010
00000000
00000100
00000000
00001000
00000000
00000000
00000100
00001000
00000000
00000100
00000000
00001000
00000000
00000001
00000000
,
00000010
00000000
00000100
00000000
00010000
00000000
00000000
00001000
00010000
00000000
00000100
00000000
00010000
00000000
00001000
00000000
,
01000000
00000000
00100000
00000000
00010000
00000000
00000000
00100000
01000000
00000000
00001000
00000000
01000000
00000000
00100000
00000000
,
01000000
00000000
00010000
00000000
01000000
00000000
00000000
00100000
10000000
00000000
00010000
00000000
00100000
00000000
00001000
00000000
,
00000000
00000000
00010000
00000000
00001000
00000000
00010000
00000000
00022000
00033000
00001000
00000000
00010000
00000000
00001000
00000000
,
00022000
00033000
00010000
00000000
00001000
00000000
00010000
00000000
00022000
00033000
00001000
00000000
00010000
00000000
00001000
00000000
,
00022000
00000000
00003000
00030000
00000000
00000000
00010000
00000000
00000000
00000000
00000000
00000000
00001000
00000000
00000000
00000000
00000000
00000000
00000000
00000000
00000000
00100000
00000000
00000000
00001000
00000000
00000000
00000000
00000000
00000000
00010000
00000000
00000000
00000000
00000000
00000000
00001000
00000000
00000000
00000000
00000000
00000000
00100000
00000000
00000000
00000000
00000000
00000000
,
00010000
00000000
01000000
00000000
00100000
00000000
00000000
01000000
00100000
00000000
10000000
00000000
00010000
00000000
01000000
00000000
,
00100000
10000000
00010000
00100000
00010000
01000000
00100000
01000000
,
00010000
10000000
00100000
10000000
01000000
00100000
00010000
01000000
,
00001000
00000000
00100000
00000000
00000100
00000000
00000000
00010000
00001000
00000000
00010000
00000000
00000100
00000000
00001000
00000000
,
00000010
00000000
00000100
00000000
00000001
00000000
00000000
00000010
00000001
00000000
00000010
00000000
00000100
00000000
00001000
00000000
,
00000100
00010000
00001000
00100000
00001000
01000000
00010000
10000000
,
00010000
01000000
00001000
00100000
00001000
00010000
00000100
00001000
,
00000100
00000010
0000M11M
00000000
0000MM11
00000000
00001MM1
00000000
,
000011MM
0000M11M
0001M1M0
0001MM10
,
000M1M10
00000000
00000000
00000000
000M11M0
00000000
00000000
00001000
00000100
00000000
00010000
00000000
00000010
00000000
00001000
00000000
,
00000100
00000000
00010000
00000000
00000010
00000000
00000000
00001000
00000010
00000000
00010000
00000000
00000100
00000000
00001000
00000000
,
00000010
00010000
00000100
00001000
00000010
00010000
00001000
00010000
,
00001000
01000000
00100000
01000000
00010000
10000000
00010000
00100000
,
00001000
00000000
00100000
00000000
00010000
00000000
00000000
01000000
00010000
00000000
01000000
00000000
00100000
00000000
01000000
00000000
,
00010000
00000000
00100000
00000000
00001000
00000000
00000000
00010000
00001000
00000000
00010000
00000000
00000100
00000000
00001000
00000000
,
00000010
00000000
00000100
00000000
00000001
00000000
00000000
00000100
00000001
00000000
00000100
00000000
00000010
00000000
00001000
00000000
,
00000010
00000000
00010000
00000000
00001000
00000000
00000000
00100000
00001000
00000000
00100000
00000000
00010000
00000000
01000000
00000000
,
00010000
00000000
00100000
00000000
01000000
00000000
00100000
00000000
20020000
30030000
01000000
00000000
00100000
00000000
01000000
00000000
,
20020000
30030000
00100000
00000000
01000000
00000000
00100000
00000000
20020000
30030000
01000000
00000000
00100000
00000000
01000000
00000000
,
20020000
00000000
30030000
00000000
00000000
00000000
00100000
00000000
00000000
00000000
00000000
00000000
00010000
00000000
00000000
00000000
00000000
00000000
00000000
00000000
00000000
00100000
00000000
00000000
01000000
00000000
00000000
00000000
00000000
00000000
10000000
00000000
00000000
00000000
00000000
00000000
01000000
00000000
00000000
00000000
00000000
00000000
00100000
00000000
00000000
00000000
00000000
00000000
,
00010000
00000000
01000000
00000000
00010000
00000000
00000000
01000000
00001000
00000000
00010000
00000000
00001000
00000000
01000000
00000000
;

//---------------dance-double - LinkDubs13----------------
#NOTEDATA:;
#CHARTNAME:LinkDubs13;
#STEPSTYPE:dance-double;
#DESCRIPTION:LinkDubs13;
#CHARTSTYLE:;
#DIFFICULTY:Challenge;
#METER:9;
#RADARVALUES:0.685181,0.661793,0.427975,0.236124,0.154956,325.000000,296.000000,29.000000,16.000000,20.000000,0.000000,0.000000,0.000000,0.000000,0.685181,0.661793,0.427975,0.236124,0.154956,325.000000,296.000000,29.000000,16.000000,20.000000,0.000000,0.000000,0.000000,0.000000;
#CREDIT:LinkDubs13;
#NOTES:
00000000
00000000
00000000
00000000
,
0M000000
00000000
00000000
00000000
M0000000
00000000
00000000
00000000
00M00000
00000000
00000001
00000010
M0000001
00000100
00000010
00001000
,
00000100
00001000
00000100
00010000
00001000
00100000
00010000
01000000
,
00100000
10000000
01000000
00100000
00010000
00100000
01000000
10000000
,
00100000
00000000
10000000
00000000
00010000
00000000
01000000
00100000
01000000
00000000
00100000
00000000
01000000
00000000
00010000
00000000
,
00100000
00000000
00001000
00000000
00010000
00000000
00000100
00001000
00000100
00000000
00001000
00000000
00000010
00000000
00000100
00000000
,
00000001
00000010
00000001
00000100
00000010
00001000
00000100
00010000
,
00001000
00100000
00010000
01000000
00100000
10000000
01000000
10000000
,
00100000
00000000
01000000
00000000
00010000
00000000
10000000
00100000
10000000
00000000
01000000
00000000
10000000
00000000
00010000
00000000
,
00100000
00000000
01000000
00000000
10000000
00000000
00100000
01000000
00100000
00000000
01000000
00000000
00100000
00000000
10000000
00000000
,
00010000
00000000
01000000
00000000
00100000
00000000
01000000
00010000
01000000
00000000
00100000
00000000
10000000
00000000
01000000
00000000
,
00100000
00000000
00010000
00000000
00100000
00000000
00010000
01000000
00010000
00000000
00100000
00000000
00001000
00000000
00100000
00000000
,
00001000
00000000
01000000
00000000
00010000
00000000
01000000
00000000
00202000
00303000
00010000
00000000
01000000
00000000
00010000
00000000
,
00202000
00303000
01000000
00000000
00010000
00000000
01000000
00000000
00202000
00303000
00010000
00000000
01000000
00000000
00010000
00000000
,
00202000
00303000
01000000
00000000
00010000
00000000
01000000
00100000
01000000
00000000
00100000
00000000
01000000
00000000
00010000
00000000
,
00100000
00000000
00001000
00000000
00010000
00000000
00001000
00010000
00001000
00000000
00010000
00000000
00001000
00000000
00010000
00000000
,
00000100
00001000
00001100
00000100
00000110
00000010
00000011
00000001
,
00001001
00001000
00001010
00000010
00000110
00000100
00000101
00000001
,
00001001
00000000
00001000
00000000
00000100
00000000
00000010
00000001
00000010
00000000
00000001
00000000
00000010
00000000
00000100
00000000
,
00010000
00000000
00001000
00000000
00100000
00000000
01000000
10000000
01000000
00000000
10000000
00000000
01000000
00000000
10000000
00000000
,
00010000
00100000
01001000
00010000
00101000
01000000
00011000
00100000
,
01001000
00010000
00101000
01000000
00001000
00100000
00001000
00010000
,
00000100
00010000
0001M1M0
00010000
0001MM10
00000010
000M1M10
00001000
,
000M11M0
00010000
0001MM10
00000010
000MM110
00000100
000M11M0
00001000
,
00011MM0
00000000
00010000
00000000
00000100
00000000
00010000
00000100
00010000
00000000
00000010
00000000
00000100
00000000
00000001
00000000
,
00000010
00000000
00000001
00000000
00000010
00000000
00000100
00010000
00000100
00000000
00010000
00000000
00000100
00000000
00001000
00000000
,
00000100
00000001
00000100
00001000
00000001
00000010
00001000
00000001
,
00000100
00001000
00000001
00000010
00001000
00000001
00000100
00001000
,
00000001
00000000
00001000
00000000
00000001
00000000
00000100
00000001
00000100
00000000
00000001
00000000
00001000
00000000
00000010
00000000
,
00000001
00000000
00001000
00000000
00000100
00000000
00000001
00000100
00000001
00000000
00000100
00000000
00000010
00000000
00001000
00000000
,
00000100
00000000
00010000
00000000
00001000
00000000
00100000
00001000
00100000
00000000
00010000
00000000
01000000
00000000
00100000
00000000
,
10000000
00000000
01000000
00000000
10000000
00000000
00100000
10000000
00100000
00000000
01000000
00000000
00010000
00000000
00100000
00000000
,
00001000
00000000
00010000
00000000
00000100
00000000
00001000
00000000
00002200
00003300
00001000
00000000
00000100
00000000
00010000
00000000
,
00022000
00033000
00010000
00000000
00001000
00000000
00100000
00000000
00220000
00330000
00100000
00000000
00010000
00000000
01000000
00000000
,
02200000
03300000
01000000
00000000
00100000
00000000
10000000
01000000
10000000
00000000
00010000
00000000
00100000
00000000
00001000
00000000
,
00010000
00000000
00000010
00000000
00001000
00000000
00000001
00000100
00000001
00000000
00000010
00000000
00000100
00000000
00001000
00000000
;

//---------------dance-double - LinkDubs16----------------
#NOTEDATA:;
#CHARTNAME:LinkDubs16;
#STEPSTYPE:dance-double;
#DESCRIPTION:LinkDubs16;
#CHARTSTYLE:;
#DIFFICULTY:Edit;
#METER:11;
#RADARVALUES:1.081532,0.873567,0.531279,0.265640,1.490533,513.000000,477.000000,36.000000,18.000000,12.000000,0.000000,0.000000,0.000000,0.000000,1.081532,0.873567,0.531279,0.265640,1.490533,513.000000,477.000000,36.000000,18.000000,12.000000,0.000000,0.000000,0.000000,0.000000;
#CREDIT:LinkDubs16;
#NOTES:
00000000
00000000
00000000
00000000
,
0M000000
00000000
00000000
00000000
M0000000
00000000
00000000
00000000
00M00000
00000000
00010000
00100000
M0001000
00010000
00000100
00001000
,
00000010
00000100
00000001
00000000
00000101
00000000
00000100
00000000
00000110
00000000
00000010
00000000
00010010
00000000
00010000
00000000
,
00011000
00001000
00101000
00100000
01100000
01000000
11000000
10000000
,
10010000
00000000
00010000
00000000
01010000
00000000
00010000
01000000
00001000
01000000
00001000
00010000
00001000
00010000
00000100
00001000
,
00000100
00010000
00001000
00100000
00001000
00100000
00010000
01000000
00001000
00010000
00000100
00001000
00000010
00000100
00000001
00000100
,
00000010
00001000
00000100
00000010
00000001
00000010
00000100
00001000
00000001
00000100
00000010
00001000
00000001
00000100
00000010
00001000
,
00000100
00010000
00001000
01000000
00010000
01000000
00010000
00100000
01000000
10000000
00100000
01000000
00010000
00100000
01000000
10000000
,
00010000
00100000
01000000
10000000
01000000
00100000
00001000
00010000
00001000
00100000
01000000
10000000
01000000
00100000
00010000
10000000
,
01000000
00100000
00001000
01000000
00010000
10000000
00100000
01000000
00001000
01000000
00010000
10000000
00100000
10000000
01000000
00100000
,
00010000
01000000
00001000
00010000
00001000
00010000
00000100
00000010
00000100
00001000
00000010
00001000
00000100
00000010
00000001
00000010
,
00000100
00010000
00000010
00001000
00000001
00000100
00000010
00001000
00000100
00010000
00001000
00100000
00010000
01000000
00100000
10000000
,
01000000
10000000
02000000
03000000
11000000
00000000
00200000
00300000
01100000
00000000
00020000
00030000
00110000
00000000
00002000
00003000
,
00011000
00000000
00000200
00000300
00001100
00000000
00000020
00000030
00000110
00000000
00000002
00000003
00000011
00000000
00000200
00000300
,
00001100
00000000
00020000
00030000
00110000
00000000
00010000
00100000
01000000
10000000
00100000
01000000
00001000
00100000
00010000
10000000
,
00100000
10000000
01000000
00100000
00010000
10000000
00100000
01000000
00100000
10000000
01000000
10000000
00100000
01000000
00010000
10000000
,
01000000
00100000
00001000
01000000
00001000
00100000
01000000
10000000
00100000
10000000
01000000
00100000
00010000
01000000
00001000
01000000
,
00010000
10000000
00010000
00100000
01000000
10000000
00100000
01000000
00010000
00100000
00001000
00100000
00010000
01000000
00100000
10000000
,
01000000
00100000
00001000
00100000
01000000
10000000
01000000
00100000
00010000
00100000
00001000
00010000
00001000
00010000
00000100
00001000
,
00000100
00000010
00000001
00001000
00000100
00010000
00000010
00000100
00000010
00010000
00000100
00000010
00000001
00000100
00000001
00001000
,
00000100
00010000
00000010
00000100
00000001
00001000
00000100
00000010
00000100
00010000
00000010
00010000
00000100
00000010
00000001
00001000
,
00000010
00000100
00000001
00000010
00000001
00000100
00000010
00010000
00000100
00010000
00000010
00000100
00000001
00000010
00000100
00000010
,
00000001
00001000
00000001
00000000
00001001
00000000
0000010M
00000000
00000110
00000000
000100M0
00000000
00011000
00000000
0100M000
00000000
,
01100000
10M00000
10010000
M0100000
01100000
0M001000
00011000
000M0010
,
00000110
00000000
00000M01
00000000
00001001
00000000
00001000
00000100
00010000
00000010
00001000
00000001
00000100
00000001
00000010
00000100
,
00010000
00000010
00001000
00000010
00000100
00000001
00000010
00000100
00000010
00000001
00000100
00000001
00000010
00000100
00010000
00000100
,
00000010
00000001
00000100
00000010
00001000
00000100
00010000
00001000
00100000
00010000
01000000
00100000
10000000
01000000
00100000
00001000
,
00100000
00010000
00100000
00001000
00100000
01000000
10000000
00100000
01000000
00001000
00100000
01000000
10000000
00100000
01000000
00010000
,
10000000
00100000
01000000
00001000
01000000
00100000
10000000
01000000
10000000
00100000
01000000
00001000
01000000
00100000
10000000
00010000
,
01000000
00100000
10000000
01000000
00100000
00001000
01000000
00100000
10000000
01000000
10000000
00010000
00100000
00001000
01000000
00100000
,
10000000
01000000
00100000
01000000
00100000
00001000
01000000
00100000
01000000
00001000
00100000
00001000
01000000
00100000
10000000
00100000
,
01000000
00010000
00100000
00001000
00010000
00000100
00001000
00000001
00001000
00000010
00000100
00000001
00001000
00000010
00000100
00000001
,
00001000
00000010
00000200
00000300
00000101
00000000
00002000
00003000
00001010
00000000
00020000
00030000
00010100
00000000
00200000
00300000
,
00101000
00000000
02000000
03000000
01010000
00000000
20000000
30000000
10100000
00000000
02000000
03000000
01010000
00000000
00200000
00300000
,
00101000
00000000
00020000
00030000
00010100
00000000
00010000
00000010
00000100
00000001
00000010
00000100
00010000
00000010
00001000
00000001
,
00000010
00000001
00000100
00000010
00001000
00000001
00000010
00000100
00000010
00000001
00000100
00000010
00010000
00000100
00000010
00000000
;
