#TITLE:Out Tonight;
#SUBTITLE:;
#ARTIST:RENT Movie Cast;
#TITLETRANSLIT:;
#SUBTITLETRANSLIT:;
#ARTISTTRANSLIT:;
#GENRE:;
#CREDIT:;
#MUSIC:Out Tonight.ogg;
#BANNER:Out Tonight.png;
#BACKGROUND:RENT-jacket.png;
#CDTITLE:RENT.png;
#SAMPLESTART:75.250;
#SAMPLELENGTH:20.850;
#SELECTABLE:YES;
#OFFSET:1.593;
#BPMS:0.000=139.000;
#STOPS:;
#BGCHANGES:15=Out Tonight.mp4;
#FGCHANGES:;

//--------------- dance-single - LinkDude03 ----------------
#NOTES:
     dance-single:
     LinkDude03:
     Beginner:
     2:
     0,0,0,0,0:
0000
0000
0000
0000
,
0000
0000
0000
0000
,
0000
0000
0000
0000
,
0000
0000
0000
0000
,
0000
0000
0000
0000
,
0000
0001
0000
0001
,
0000
0000
0000
0000
,
0000
1000
0000
1000
,
0000
0000
0000
0000
,
0000
0010
0000
0010
,
0000
0000
0000
0000
,
0000
0100
0000
0100
,
0000
0000
0000
0000
,
0000
0001
0000
0001
,
0000
0000
0000
0000
,
0000
1000
0000
0010
,
0000
1000
0000
0000
,
0000
0001
0000
0010
,
0000
0001
0000
0000
,
0000
1000
1000
0000
,
0000
0000
0000
0000
,
0000
0001
0000
0100
,
0000
0001
0000
0000
,
0000
1000
0000
0100
,
0000
1000
0000
0000
,
0000
0001
0000
0010
,
0000
0001
0000
0000
,
0000
1000
1000
0000
,
0000
0000
0000
0000
,
0000
0001
0000
0100
,
0000
0001
0000
1000
,
0000
0100
0000
1000
,
0000
0001
0000
0010
,
0000
0001
0000
1000
,
0000
0010
0000
1000
,
0000
0001
0000
0100
,
0000
0002
0000
0003
,
0000
1000
0000
0100
,
0000
2000
0000
3000
,
0000
0001
0000
0010
,
0000
0002
0000
0003
,
0000
1000
0000
0010
,
0000
1000
0000
0001
,
0000
0100
0000
0001
,
0000
1000
0000
0100
,
0000
1000
0000
0001
,
0000
2000
0000
0000
3000
0000
0000
0000
,
0010
0000
0000
0000
,
0000
0000
0000
0000
,
1001
0000
0000
1000
,
0000
0002
0000
0000
0003
0000
0000
0000
,
0010
0000
0000
0000
,
0000
0000
0000
0000
,
0000
0000
0001
0000
,
1000
0000
0010
0000
,
0100
0000
0010
0000
,
0100
0000
0001
0000
,
1000
0000
0000
0001
,
0000
2000
0000
0000
3000
0000
0000
0000
,
0010
0000
0000
0000
,
0000
0000
0110
0000
,
0000
0001
0000
0001
,
0000
0000
0000
0000
,
0000
1000
0000
1000
,
0000
0000
0000
0000
,
0000
0001
0000
0010
,
0000
0100
0000
1000
,
0000
0100
0000
0010
,
0000
0001
0000
0000
,
0000
1000
0000
0010
,
0000
0100
0000
0001
,
0000
0100
0000
0010
,
0000
1000
0000
0000
,
1001
0000
0000
0001
,
0000
2000
0000
0000
3000
0000
0000
0000
,
0010
0000
0000
0000
,
0000
0000
0000
0000
,
1001
0000
0000
1000
,
0000
0002
0000
0000
0003
0000
0000
0000
,
0010
0000
0000
0000
,
0000
0000
0000
0000
,
0000
0001
0000
0100
,
0000
0001
0000
1000
,
0000
0001
0000
0010
,
0000
0001
0000
1000
,
0000
0002
0000
0000
0000
0003
0000
0000
,
0000
2000
0000
0000
3000
0000
0000
0000
,
0010
0000
0000
0000
,
0000
0000
0000
0000
,
0000
1000
0000
0100
,
0000
1000
0000
0001
,
0000
1000
0000
0010
,
0000
2000
0000
3000
,
0000
0001
0000
1000
,
0000
0100
0000
1000
,
0000
0001
0000
1000
,
0000
0200
0000
0300
,
0000
0010
0000
0001
,
0000
0010
0000
0100
,
0000
1000
0000
0100
,
0000
0020
0000
0030
,
0000
0001
0000
0100
,
0000
0010
0000
1000
,
0000
0010
0000
0200
,
0000
0000
0300
0000
,
1001
0000
0000
0001
,
0000
2000
0000
0000
3000
0000
0000
0000
,
0010
0000
0000
0000
,
1001
0000
0000
0000
,
0110
0000
0000
0000
,
1000
0000
0000
0002
0003
0000
0000
0000
,
0010
0000
0000
0000
0000
0000
0000
0011
,
0000
0000
0000
0000
0000
0000
0000
1100
,
0000
0000
0001
0000
,
0010
0000
0100
0000
,
0010
0000
0001
0000
,
0010
0000
0100
0000
,
1000
0000
0000
0001
,
0000
2000
0000
0000
3000
0000
0000
0000
,
0010
0000
0000
0000
,
0000
0000
0000
0000
,
1001
0000
0000
1000
,
0000
0002
0000
0000
0003
0000
0000
0000
,
0010
0000
0000
0000
,
0000
0000
0000
0000
,
1001
0000
0000
0001
,
0000
2000
0000
0000
3000
0000
0000
0000
,
0010
0000
0000
0000
,
0000
0000
0000
0000
,
1001
0000
0000
0001
,
0000
2000
0000
0000
3000
0000
0000
0000
,
0002
0000
0003
0000
,
0200
0000
0000
0300
0000
0000
0000
0000
,
0200
0000
0000
0300
0000
0000
0000
0000
,
1001
0000
0000
0000
;

//--------------- dance-single - LinkDude05 ----------------
#NOTES:
     dance-single:
     LinkDude05:
     Easy:
     3:
     0,0,0,0,0:
0000
0000
0000
0000
,
0000
0000
0000
0000
,
0000
0000
0000
0000
,
0000
0000
0000
0000
,
0000
0000
0000
0000
,
0000
0001
0000
0010
,
0000
0001
0000
0000
0000
0000
0000
1000
,
0000
0100
0000
1000
,
0000
0010
0000
0000
0000
0000
0000
0100
,
0000
0001
0000
0010
,
0000
0001
0000
0000
0000
0000
0000
1000
,
0000
0100
0000
1000
,
0000
0010
0000
0000
0000
0000
0000
0100
,
0000
0001
0000
0010
,
0000
0001
0000
0000
0000
0000
0000
1000
,
0000
0100
0000
1000
,
0000
0010
0000
0000
0000
0000
0000
0100
,
0000
0001
0000
0010
,
0000
0001
0000
0000
0000
0000
0000
1000
,
0000
0100
0000
1000
,
0000
0010
0000
0000
0000
0000
0000
0100
,
0000
0001
0000
0010
,
0000
0001
0000
0000
0000
0000
0000
1000
,
0000
0100
0000
1000
,
0000
0010
0000
0000
0000
0000
0000
0100
,
0000
0001
0000
0010
,
0000
0001
0000
0000
0000
0000
0000
1000
,
0000
0100
0000
1000
,
0000
0010
0000
0000
0000
0000
0000
1000
,
0000
0010
0100
0010
,
0000
1000
0000
0001
0000
1000
0000
0000
,
0000
0010
0100
0010
,
0000
1000
0000
0001
0000
1000
0000
0000
,
0000
0010
0100
0010
,
0000
1000
0000
0001
0000
1000
0000
0000
,
0000
0001
0000
0010
,
0000
0002
0000
0000
0000
0000
0000
0000
,
0003
1000
0000
0010
,
0000
1000
0000
0000
0000
0000
0000
0001
,
0000
0100
0000
0001
,
0000
0010
0000
0000
0000
0000
0000
0100
,
0000
1000
0000
0010
,
0000
1000
0000
0000
0000
0000
0000
0001
,
0000
0100
0000
0001
,
0000
0010
0000
0000
0000
0000
0001
0000
,
0001
0000
0000
0100
,
0000
0020
0000
0000
0000
0000
0030
0000
,
0100
0000
0000
0001
0000
0000
0000
0000
,
0000
0000
0000
1000
,
1000
0000
0000
0100
,
0000
0020
0000
0000
0000
0000
0030
0000
,
0100
0000
0000
1000
0000
0000
0000
0000
,
0000
0000
0000
0000
,
0000
0000
0001
0010
,
0001
0000
0000
1000
0000
0010
0000
1000
,
0000
0000
0001
0010
,
0100
1000
0100
0010
,
0001
0000
0000
1000
,
0000
0020
0000
0000
0000
0000
0030
0000
,
0100
0000
0000
0001
0000
0000
0000
0000
,
0000
0000
0000
1001
0MM0
0000
0000
0000
,
0000
0001
0000
0010
,
0000
0001
0000
0000
0000
0000
0000
1000
,
0000
0100
0000
1000
,
0000
0010
0000
0000
0000
0000
0000
0100
,
0000
0000
0000
0001
0000
0100
0000
0001
,
0000
1000
0000
0001
0000
0020
0000
0000
,
0000
0030
0000
0001
0000
0010
0000
1000
,
0000
0010
0000
0000
0000
0000
0000
0000
,
0000
0001
0000
0010
0000
0100
0000
0000
,
1000
0100
0010
0000
,
0100
0000
0000
1000
0000
0000
0002
0000
,
0000
0000
0003
1000
,
1000
0000
0000
0010
,
0000
0200
0000
0000
0000
0000
0300
0000
,
0010
0000
0000
0001
0000
0000
0000
0000
,
0000
0000
0000
0010
,
0010
0000
0000
0100
,
0000
0020
0000
0000
0000
0000
0030
0000
,
0100
0000
0000
1000
0000
0000
0000
0000
,
0000
0000
0000
0000
,
0000
0000
0010
0100
,
0000
0000
0001
0000
0000
0010
0000
0100
,
0000
0000
0000
1000
0000
0100
0000
1000
,
0000
0001
0000
0000
0000
0000
0010
0000
,
0000
0200
0000
0000
0000
0000
0000
0300
,
0000
0020
0000
0000
0000
0000
0030
0000
,
0100
0000
0000
1000
0000
0000
0000
0000
,
0000
0000
0000
0000
,
0000
0000
0000
0001
0000
0000
0200
0000
,
0000
0300
0000
1000
0000
0000
0200
0300
,
0000
0001
0000
0200
0300
0000
1000
0000
,
0000
0200
0000
0000
0000
0000
0000
0000
,
0000
0300
0000
0001
0000
0000
1000
0000
,
0000
0010
0000
0000
0000
0000
0100
0000
,
0000
0010
0000
0000
2000
0000
0000
0000
,
3000
0000
0100
0000
0000
0010
0000
0000
,
0002
0000
0003
0100
,
0010
0000
0000
0000
2000
0000
0000
0000
0000
0000
0000
3000
0000
0000
0000
0000
,
0100
0000
0000
0010
0000
0000
0001
0000
,
1000
0002
0000
0000
,
0003
0100
0010
1000
,
0100
0000
0010
0000
0000
0001
0000
0000
,
0200
0000
0300
0020
,
0000
0000
0030
1000
,
1000
0000
0000
0100
,
0000
0020
0000
0000
0000
0000
0030
0000
,
0001
0000
0000
1000
0000
0000
0000
0110
,
M00M
0000
0000
0001
,
0001
0000
0000
0000
,
0100
0000
0000
0020
0000
0000
0030
0000
,
0100
0000
0000
0001
0000
0000
0000
1000
,
0000
0100
0000
0001
0000
0100
0000
1000
,
0000
0000
0100
0010
,
0001
0000
0000
0100
0000
0010
0000
0000
,
1000
0000
0100
0000
0010
0000
0000
0001
,
0000
0100
0000
0010
0000
1000
0000
0000
,
0001
0100
0100
0000
,
0000
0020
0000
0000
0000
0000
0030
0000
,
0100
0000
0000
0001
0000
0000
0000
0000
,
0000
0000
1000
0100
,
0100
0000
0000
0010
,
0000
0200
0000
0000
0000
0000
0300
0000
,
0010
0000
0000
0001
0000
0000
0000
0000
,
0000
0000
0000
0110
0000
0000
0001
0000
,
0001
0000
0000
1000
,
0000
0020
0000
0000
0000
0000
0030
0000
,
0100
0000
0000
0001
0000
0000
0000
0000
,
0000
0000
1000
0000
0000
0010
0000
0000
,
0100
0000
0000
0000
0000
0000
0000
0010
,
0000
2000
0000
0000
0000
0000
3000
0000
,
0002
0000
0000
0003
,
2000
0000
0000
3000
,
0002
0000
0000
0003
,
0110
M00M
0000
0000
0000
0000
0000
0000
;

//--------------- dance-single - LinkDude07 ----------------
#NOTES:
     dance-single:
     LinkDude07:
     Medium:
     5:
     0,0,0,0,0:
0000
0000
0000
0000
,
0000
0000
0000
0000
,
0000
0000
0000
0000
,
0000
0000
0000
0000
,
0000
0000
0000
0000
,
0000
0001
0000
0010
,
0001
0010
0000
0000
0000
0000
0000
0000
,
1000
0100
0000
1000
,
0010
1000
0000
0000
0000
0000
0000
0000
,
0001
0100
0000
0001
,
0010
0001
0000
0000
0000
0000
0000
0000
,
1000
0100
0000
1000
,
0010
1000
0000
0000
0000
0000
0000
0000
,
0000
0000
0000
0001
0000
0100
0001
0000
,
0000
0000
0000
0000
,
0001
0000
0010
0001
0000
1000
0000
0100
,
1000
0100
0000
0000
,
0000
0000
1000
0010
0000
1000
0000
0010
,
0000
1000
0000
0000
0001
0100
0000
0001
,
0000
0100
0001
0000
0100
0000
0000
0000
,
0000
0000
0000
0000
0000
0000
0000
0001
,
0010
0000
0001
0000
0010
0000
0000
0001
,
0000
0000
0000
0000
0000
0000
0000
1000
,
0000
0100
0000
1000
0000
0100
0000
2000
,
0000
3100
0000
0000
,
1000
0000
0010
1000
0000
0010
0000
1000
,
0000
0010
0000
0000
0000
0100
0001
0000
,
0000
0100
0001
0000
0100
0000
0000
0000
,
0000
0000
0000
0000
,
0000
0000
0000
0001
0010
0000
0001
0000
,
0000
1000
0000
0100
0000
1000
0000
0000
,
0000
0000
0010
1000
0000
0010
0000
1000
,
0000
0000
0010
0000
0000
1000
0000
0000
,
0001
0000
0000
0100
0000
0000
0001
0000
,
0100
0000
0000
0001
0010
0000
0001
0000
,
0010
0001
0000
1000
0000
0100
0000
1000
,
0000
0200
0000
0000
0000
0000
0000
0000
,
0000
0300
0000
1000
0000
0010
0000
1000
,
0000
0010
0000
0000
2000
0000
0000
0000
,
0000
3000
0000
0001
0000
0100
0000
0001
,
0000
0100
0000
0002
0000
0000
0000
0003
,
0000
0010
0000
0100
0000
1000
0000
0100
,
0000
0010
0000
0000
0001
0000
0000
0010
,
0000
0100
0000
1000
0000
0001
0000
0000
,
0000
0000
0000
1001
,
0001
0000
0000
0010
,
0000
0002
0000
0000
0000
0000
0000
0000
,
0100
0103
0000
0000
0000
0000
0000
0000
,
0000
0000
0000
1001
,
1000
0000
0000
0010
,
0000
2000
0000
0000
0000
0000
0000
0000
,
0100
3100
0000
0000
0000
0000
0000
0000
,
0000
0000
0000
0000
,
0000
0000
0000
1000
0010
0000
1000
0000
,
0010
0000
0000
1000
0000
0001
0000
0000
,
0100
0001
0000
0100
0000
0001
0100
0000
,
0001
0010
0001
0010
,
0001
0000
0000
0010
,
0000
0002
0000
0000
0000
0000
0000
0000
,
0100
0103
0000
0000
0000
0000
0000
0000
,
0000
0000
0000
0220
M33M
0000
0000
0000
,
0000
0001
0000
0010
,
0100
1000
0000
0000
0000
0000
0000
0000
,
0000
0001
0000
0010
,
0100
1000
0000
0000
0000
0000
0000
0000
,
0000
0000
0000
0001
0000
0100
0000
1000
,
0000
0100
0000
0001
0000
0200
0000
0000
,
0000
0300
0000
0001
0000
0010
0000
0001
,
0000
1000
0000
0000
0000
0000
0000
0000
,
0100
1000
0000
0100
0000
1000
0000
0000
,
0010
1000
0010
0000
,
0100
0001
0000
0100
0000
0001
0200
0000
,
0000
0000
0300
0101
,
0100
0000
0000
0010
,
0000
2000
0000
0000
0000
0000
0000
0000
,
0100
3100
0000
0000
0000
0000
0000
0000
,
0000
0000
0000
0011
,
0001
0000
0000
0010
,
0000
0002
0000
0000
0000
0000
0000
0000
,
0100
0103
0000
0000
0000
0000
0000
0000
,
0000
0000
0000
0000
,
0000
0000
0000
0001
0010
0000
0001
0000
,
0000
0000
0100
0001
0000
0100
0000
0001
,
0000
0000
0000
1000
0000
0100
0000
1000
,
0000
0100
0000
0000
0000
0000
0010
0000
,
0000
0002
0000
0000
0000
0000
0000
0000
,
0000
2003
0000
0000
0000
0000
0000
0000
,
0100
3100
0000
0000
0000
0000
0000
0000
,
0000
0000
0000
0000
,
0000
0000
0000
1000
0000
0100
1000
0000
,
0100
0000
0000
0000
0000
0000
1000
0000
0000
0010
0000
0000
1000
0000
0010
0000
,
0000
1000
0000
0001
0100
0000
0001
0000
,
0100
0002
0000
0000
0000
0000
0000
0000
,
0000
0000
0003
0000
0000
0000
1000
0000
0000
0100
0000
0000
1000
0000
0000
0100
,
0000
1000
0200
0000
0300
0000
0010
0000
,
0001
0000
0010
0000
0000
0001
0000
0000
0020
0000
0000
0000
0000
0000
0000
0000
,
0030
0000
0000
0000
0001
0000
0000
0100
0000
0000
0001
0000
0100
0000
0000
0000
,
0002
0000
0000
0000
0000
0000
0003
0000
0000
0000
1000
0000
0010
0000
0000
1000
,
0000
0000
0010
0000
2000
0000
0000
0000
0000
0000
0000
3000
0000
0000
0000
0001
,
0000
0000
0010
0000
0000
0000
0001
0000
0000
0010
0000
0000
0100
0000
0000
0010
,
0000
0100
0020
0000
0000
0000
0000
0030
,
0000
0001
0100
0000
0010
0000
1000
0000
,
0001
0000
0000
0000
1000
0000
0000
0001
0000
0000
1000
0000
0001
0000
0000
0000
,
0200
0000
0300
0002
,
0000
0000
0003
0101
,
0001
0000
0000
0010
,
0000
0002
0000
0000
0000
0000
0000
0000
,
0100
0103
0000
0000
0000
0000
0000
0001
,
0001
0000
0000
1001
,
0001
0000
0000
0000
,
0010
0000
0000
0002
0000
0000
0000
0000
,
0100
0103
0000
0000
0000
0000
0000
0001
,
0000
0010
0000
1000
0000
0010
0000
0001
,
0000
0000
1000
0100
,
1000
0100
0000
1000
0000
0010
0000
0000
,
1000
0000
0010
0000
1000
0010
0000
0100
,
0000
0001
0000
0100
0000
0001
0000
0000
,
0010
0001
0010
0000
,
0000
0002
0000
0000
0000
0000
0000
0000
,
0100
0103
0000
0000
0000
0000
0000
0000
,
0000
0000
0000
1010
,
1000
0000
0000
0010
,
0000
2000
0000
0000
0000
0000
0000
0000
,
0100
3100
0000
0000
0000
0000
0000
0000
,
0000
0000
0000
1000
0000
0000
1100
0000
,
1000
0000
0000
0010
,
0000
2000
0000
0000
0000
0000
0000
0000
,
0100
3100
0000
0000
0000
0000
0000
0000
,
0000
0000
0000
0000
1000
0000
0000
0100
0000
0000
1000
0000
0100
0000
0000
0000
,
1000
0000
0000
0000
0000
0000
0000
0010
,
0000
2000
0000
0000
0000
0000
0000
0000
,
0100
3200
0000
0000
0000
0000
0000
0000
,
0010
0320
0000
0000
0000
0000
0000
0000
,
0001
0032
0000
0000
0000
0000
0000
0000
,
0100
0103
0000
0000
0000
0000
0000
0000
;

//--------------- dance-single - LinkDude09 ----------------
#NOTES:
     dance-single:
     LinkDude09:
     Hard:
     6:
     0,0,0,0,0:
0000
0000
0000
0000
,
0000
0000
0000
0000
,
0000
0000
0000
0000
,
0000
0000
0000
0000
,
0000
0000
0000
0000
,
0000
0001
0020
0000
0030
0000
0001
0000
,
0010
0001
0000
0000
0000
0000
0000
1000
,
0100
1000
0200
0000
0300
0000
1000
0000
,
0010
1000
0000
0000
0000
0000
0000
0001
,
0100
0001
0200
0000
0300
0000
0001
0000
,
0010
0001
0000
0000
0000
0000
0000
1000
,
0100
1000
0200
0000
0300
0000
1000
0000
,
0010
1000
0000
0000
0000
0000
0000
0001
,
0100
0001
0000
0100
0000
0001
0200
0000
,
0000
0000
0300
0000
,
0001
0010
0001
0010
0001
0010
0000
0001
,
0010
0001
0000
0000
,
0000
1000
0100
1000
0000
0100
0000
1000
,
0100
1000
0000
0000
0010
1000
0000
0010
,
0000
1000
0010
0000
2000
0000
0000
0000
,
3000
0000
0000
0000
0000
0000
0000
0001
,
0100
0001
0100
0001
0100
0001
0100
0001
,
0000
0000
0000
0000
0000
0000
0000
0001
,
0010
0001
0000
0010
0000
0001
0000
0010
,
0000
0001
0000
0000
0010
0000
0000
0000
0000
0000
0000
0000
0000
0000
0100
0000
,
1000
0100
1000
0100
0000
1000
0000
0100
,
0000
1000
0000
0000
0000
0010
1000
0000
,
0000
0000
0010
1000
0010
0000
0000
0000
2000
0000
0000
0000
0000
0000
0000
0000
,
3000
0000
0000
0000
,
0000
0000
0000
0001
0100
0001
0100
0000
,
0000
0001
0000
0010
0000
0001
0000
0000
,
0000
1000
0100
1000
0100
1000
0000
0010
,
0000
1000
0000
0000
0010
0000
0000
0000
1000
0000
0010
0000
0000
0000
0000
0000
,
0100
0000
0001
0000
0000
0000
0100
0000
0000
0001
0000
0000
0100
0000
0000
0000
,
0001
0010
0000
0001
0010
0000
0001
0000
,
1000
0100
0000
1000
0100
1000
0000
0010
,
1000
0020
0000
0000
0000
0000
0000
0000
,
0000
0030
0000
0100
0001
0100
0000
0001
,
0010
0001
0000
0000
2000
0000
0000
0000
,
0000
3000
0000
0010
1000
0010
0000
1000
,
0100
1000
0000
0002
0000
0000
0000
0003
,
0000
1000
0000
0100
0000
0001
0000
0010
,
0000
1000
0000
0000
1000
1000
0000
0010
,
0000
0001
0000
0100
0000
2000
0000
0000
,
0000
0000
3000
0001
,
2000
0000
3000
0100
,
0000
0020
0000
0000
0000
0000
0030
0000
,
0100
0010
0000
0001
0000
0000
0000
0000
,
0000
0000
0000
0000
0000
1000
0001
1000
,
0002
0000
0003
0100
,
0000
0020
0000
0000
0000
0000
0030
0000
,
0100
0010
0000
1000
0000
0000
0000
0000
,
0000
0000
0000
0000
,
0000
0000
0000
0001
0010
0001
0010
0000
,
0001
0000
0000
1000
0100
1000
0000
0000
,
0100
1000
0000
0010
1000
0010
1000
0000
,
0010
0000
0100
0001
0100
0000
0001
0000
,
0100
0000
0000
0001
,
0100
0020
0000
0000
0000
0000
0030
0000
,
0100
0010
0000
0000
0000
0000
0000
0000
,
0000
0000
0000
1000
0MM1
0000
0000
0000
,
0000
1010
0000
0010
,
1000
0010
0000
0000
0000
0000
0000
0000
,
0000
0101
0000
0001
,
0100
0001
0000
0000
0000
0000
0000
0000
,
0000
0000
0000
0010
0001
0010
0000
0001
,
0000
0010
0000
0100
1000
0100
0000
1000
,
0000
0000
0000
0000
0000
0000
0001
0100
0001
0000
0100
0000
0000
0000
0001
0000
,
0010
0001
0010
0000
0000
0000
0000
0000
,
0100
1000
0000
0100
0000
1000
0000
0000
,
0010
1000
0010
0000
1000
0000
0000
0000
,
0001
0100
0000
0001
0000
0100
0002
0000
,
0000
0000
0003
1000
,
0002
0000
0003
0100
,
0000
0020
0000
0000
0000
0000
0030
0000
,
0100
0010
0000
1000
0000
0000
0000
0000
,
0000
0000
0000
0000
0000
0001
1000
0001
,
2000
0000
3000
0100
,
0000
0020
0000
0000
0000
0000
0030
0000
,
0100
0010
0000
0001
0000
0000
0000
0000
,
0000
0000
0000
0000
,
0000
0000
0000
1000
0010
1000
0010
0000
,
0000
0000
0100
0001
0000
0100
0000
0001
,
0000
0000
0000
0010
0001
0010
0100
0010
,
0001
0010
0000
0000
0000
0000
0100
0000
,
0000
0020
0000
0000
0000
0000
0000
0030
,
0000
0020
0000
0000
0000
0000
0030
0000
,
0100
0010
0000
0001
0000
0000
0000
0000
,
0000
0000
0000
0000
0000
1010
0000
0010
,
1000
0000
0000
0001
0000
0100
0001
0000
,
0100
0000
0000
0000
0000
0000
0001
0000
0000
0010
0000
0000
0001
0000
0010
0000
,
0000
0000
0100
0000
0000
0000
1000
0000
0100
0000
1000
0000
0010
1000
0000
0000
,
0010
1000
0010
0000
1000
0020
0000
0000
,
0000
0000
0030
0000
0000
0000
1000
0000
0000
0100
0000
0000
1000
0000
0000
0010
,
0000
1000
0200
0000
0300
0000
0010
0001
,
0100
0000
0001
0000
0000
0010
0000
0000
0002
0000
0000
0000
0000
0000
0000
0000
,
0003
0000
0000
0000
1000
0000
0000
0100
0000
0000
1000
0000
0010
0000
0000
0000
,
2000
0000
0000
0000
0000
0000
3000
0000
0000
0000
0001
0000
0100
0000
0000
0001
,
0000
0000
0010
0000
0001
0000
0000
0000
0200
0000
0000
0300
0000
0000
0000
0010
,
0000
0000
1000
0000
0000
0000
0100
0000
0000
1000
0000
0000
0010
0000
0000
1000
,
0000
0100
2000
0000
3000
0000
0010
0000
,
0000
0100
0001
0000
0010
0000
0001
0000
,
0100
0000
0001
0000
0010
0000
0000
0001
0000
0000
0100
0000
0001
0000
0000
0000
,
0020
0000
0030
0200
,
0000
0000
0300
1000
,
0002
0000
0003
0100
,
0000
0020
0000
0000
0000
0000
0030
0000
,
0100
0010
0000
2000
0000
3000
0000
0001
,
0100
0001
0000
0000
0000
0010
0001
0010
,
0002
0000
0000
0000
0000
0003
0000
0010
,
0100
0010
0100
0020
0000
0000
0030
0000
,
0100
0010
0000
0002
0000
0003
0000
1000
,
0000
0100
0000
0001
0000
0010
0000
1000
,
0000
0000
0010
1000
,
0010
1000
0000
0001
0100
0001
0000
0000
,
0010
0001
0010
0001
0010
0001
0000
1000
,
0100
1000
0000
0010
0000
1000
0000
0000
,
0001
0000
1000
0000
0200
0000
0000
0300
,
0000
0020
0000
0000
0000
0000
0030
0000
,
0100
0010
0000
0002
0000
0000
0000
0000
,
0000
0003
0100
0010
,
2000
0000
3000
0100
,
0000
0020
0000
0000
0000
0000
0030
0000
,
0100
0010
0000
0002
0000
0000
0000
0000
,
0000
0003
0000
1000
0000
0100
0010
0000
,
0002
0000
0003
0100
,
0000
0020
0000
0000
0000
0000
0030
0000
,
0100
0010
0000
2000
0000
0000
0000
0000
,
3000
0000
0000
0000
0001
0000
0000
0100
0000
0000
1000
0000
0100
0000
0000
0000
,
0002
0000
0000
0000
0000
0003
0000
0100
,
0000
0020
0000
0000
0000
0000
0030
0000
,
0100
0010
0000
2000
0000
0000
3000
0000
,
0100
0010
0000
0002
0000
0000
0003
0000
,
0100
0010
0000
2000
0000
0000
3000
0000
,
0100
0010
0000
0000
0000
0000
0000
0000
;

//--------------- dance-single - LinkDude12 ----------------
#NOTES:
     dance-single:
     LinkDude12:
     Challenge:
     8:
     0,0,0,0,0:
0000
0000
0000
0000
,
0000
0000
0000
0000
,
0000
0000
0000
0000
,
0000
0000
0000
0000
,
0000
0000
0000
0000
,
0000
0001
1000
0000
0000
0000
0001
0000
,
1000
0000
0010
0000
0000
0000
0000
0000
0000
0000
0000
0000
0000
0000
0100
0010
,
0100
0001
0100
0000
0000
0000
0010
0000
,
1000
0000
0001
0000
0000
0000
0000
0000
0000
0000
0000
0000
0000
0000
0010
0001
,
1000
0010
1000
0000
0000
0000
0001
0000
,
0010
0000
0001
0000
0000
0000
0000
0000
0000
0000
0000
0000
0000
0000
0010
0100
,
0010
0100
1000
0000
0000
0000
0001
0000
,
0100
0010
0000
1000
0001
0000
1000
0001
,
0010
0100
0000
0010
0000
0001
0010
0000
,
0001
1000
0000
0000
0010
0000
0100
0000
,
0010
1000
0001
1000
0010
0100
0000
0001
,
0100
0000
0001
0000
0100
0000
0000
0010
,
1000
0001
0010
0001
0000
1000
0000
0010
,
1000
0010
0000
0000
0100
0001
0000
0100
,
0000
0010
0100
0000
0001
0000
1000
0000
,
0001
0100
0000
0000
0010
0000
1000
0001
,
1000
0001
0010
0100
0010
0100
0010
0001
,
1000
0010
0000
0000
0100
0000
0000
0001
,
1000
0001
0000
1000
0000
0100
0000
0010
,
0000
0001
0000
0000
0010
0000
0000
0000
0001
0000
0000
0000
0000
0000
0010
0000
,
0100
1000
0100
0010
0000
0001
0000
1000
,
0000
0010
0000
0000
1000
0001
0010
0000
,
0000
0000
0001
0010
0100
0000
0000
0000
0010
0000
0000
0000
0001
0000
0000
0000
,
1000
0000
0000
0001
0010
0000
0100
1000
,
0100
1000
0100
1000
0000
0000
0100
0000
0010
0000
0001
0000
0010
0000
0000
0000
,
0001
1000
0000
0010
0000
0100
0000
0000
,
0001
0100
0001
0100
0001
1000
0000
0100
,
0000
1000
0000
0000
0100
0000
0000
0000
0010
0000
0100
0000
0000
0000
0000
0000
,
1000
0000
0001
0000
0000
0000
0100
0000
0000
0010
0000
0000
0100
0000
0000
0000
,
0001
1000
0000
0001
0100
0000
0010
0000
,
0100
0010
0000
1000
0010
1000
0000
0001
,
0010
0000
0100
0000
0000
0000
1000
0100
1000
0100
0000
0000
0010
0000
0000
0000
,
0001
0000
0000
1000
0010
0100
0000
0010
,
0100
0001
0000
0000
1000
0000
0000
0000
,
0100
0000
0000
1000
0001
0100
0000
0001
,
1000
0100
0000
0010
0000
0000
0000
0000
,
0000
0011
0000
0110
0000
1100
0000
1001
,
0000
0001
0000
0000
0100
0010
0000
0100
,
0000
0000
0001
0000
0000
0000
1000
0000
0000
0000
0001
0000
0000
0000
1000
0100
,
1000
0000
0000
1100
,
0011
0000
0000
0001
,
0000
2000
0000
0000
3001
0000
0010
0000
,
0001
0010
0000
0100
1000
0100
1000
0100
,
0000
0000
0010
0001
1000
0010
0100
0001
,
0100
0001
1000
0100
,
0000
0020
0000
0000
0130
0000
0010
0000
,
0100
1000
0000
0001
1000
0100
0010
0001
,
0000
1000
0001
0010
0100
0010
0100
1000
,
0000
0000
0100
0010
0001
0010
0100
0000
,
1000
0000
0000
0001
1000
0001
0000
0000
,
0100
0010
0000
1000
0010
0100
0010
0000
,
0100
0000
0001
1000
0100
0000
1000
0000
,
0100
0010
0100
0010
0000
0000
0000
0000
0001
0000
0000
0000
1000
0000
0000
0000
,
0001
2000
0000
0000
3010
0000
1000
0000
,
0001
0010
0000
0100
1000
0100
0010
0001
,
0010
0000
0000
0000
0100
0000
1000
0000
01MM
0000
0000
0000
0000
0000
1000
0001
,
1000
0001
0000
0100
,
0010
1000
0000
0000
0000
0000
0000
0001
,
0010
0100
0010
0000
0000
0000
0100
0000
,
1000
0001
0000
1000
0100
0000
0000
0000
,
1000
0000
0100
0010
0001
1000
0000
0001
,
0000
0010
0000
0100
0010
0001
0000
1000
,
0000
0000
0000
0000
0000
0000
0010
1000
0010
0000
1000
0000
0000
0000
0001
0000
,
0010
0100
1000
0000
0100
0000
0010
0000
,
0001
0010
0000
0001
0000
1000
0000
0000
,
0010
1000
0001
0000
1000
0000
0000
0000
,
0010
0100
0000
0010
0000
1000
0001
0000
,
0000
0000
0000
1010
,
0101
0000
0000
0010
,
0000
0200
0000
0000
0000
0000
0000
0000
,
1300
0001
0000
1000
0001
0100
0010
1000
,
0000
0001
0010
0100
1000
0001
1000
0100
,
0010
0000
0000
0001
,
0000
2000
0000
0000
0000
0000
0000
0000
,
3010
1000
0000
0010
0001
0010
1000
0001
,
0000
0100
0001
0100
1000
0100
0001
1000
,
0000
0000
0000
0100
1000
0001
0100
0000
,
0000
0000
0001
0100
0000
0001
0000
1000
,
0000
0000
0000
0100
1000
0001
0100
0010
,
1000
0010
0000
0000
0000
0000
0010
0000
,
0000
0002
0000
0000
0000
0000
0000
0000
,
0000
0023
0000
0000
0000
0000
0000
0000
,
0031
1000
0000
0001
0010
0100
1000
0001
,
0100
0010
1000
0000
0000
1010
0000
0010
,
0100
0000
0000
0001
0000
1000
0100
0000
,
1000
0000
0000
0000
0000
0000
0100
0000
0000
0010
0000
0000
0001
0000
1000
0000
,
0000
0000
0001
0000
0000
0000
0010
0000
0001
0000
0010
0000
0100
1000
0000
0000
,
0001
1000
0001
0000
0100
0001
0000
0000
,
0000
0000
0000
0000
0000
0000
0100
0000
0000
0010
0000
0000
1000
0000
0000
0010
,
0000
1000
0001
0000
0000
0000
1000
0010
,
0100
0000
0001
0000
0000
1000
0000
0000
0001
0000
0000
0000
0000
0000
0000
0000
,
0000
0000
0000
0000
0100
0000
0000
0010
0000
0000
0100
0000
0001
0000
0000
0000
,
1000
0000
0000
0000
0000
0000
0000
0000
0000
0000
0001
0000
1000
0000
0000
0100
,
0000
0000
1000
0000
0100
0000
1000
0100
1000
0000
0000
0000
0000
0000
0000
0001
,
0000
0000
1000
0000
0000
0000
0100
0000
0000
0010
0000
0000
0001
0000
0000
0010
,
0000
0000
0001
0000
1000
0000
0000
0000
0000
0000
0010
1000
0001
0000
0000
0000
,
0000
1000
0001
0000
0010
0000
0100
0000
,
1000
0000
0100
0000
0010
0000
0000
0001
0000
0000
0010
0000
0100
0000
0000
0000
,
1000
0000
0000
0000
0000
0000
0001
0100
,
0010
0000
0100
0000
0001
0000
0100
0000
0010
0000
0100
0000
0001
1000
0001
1000
,
0001
0000
0000
0100
,
0000
0020
0000
0000
0000
0000
0000
0000
,
0130
0001
0000
1000
0001
0100
0001
1000
,
0100
0010
0000
0000
0000
0100
0010
0001
,
2000
0000
0000
0000
0000
0000
0000
3001
,
0010
0001
1000
0200
0000
0000
0000
0000
,
1300
0001
0000
0100
0001
0100
0010
1000
,
0000
1010
0000
0110
0000
0101
0000
1001
,
0000
0000
0100
0001
,
0100
0001
0000
1000
0100
0010
0000
0000
,
0001
1000
0010
1000
0010
0100
0000
0001
,
1000
0001
0000
1000
0000
0001
0000
0000
,
0100
0010
0100
0000
,
0000
0002
0000
0000
0000
0000
0000
0000
,
1003
0100
0000
0010
0001
0010
0100
0010
,
1000
0010
0001
0000
0010
0000
0001
0000
,
1000
1001
0000
0001
,
0000
2000
0000
0000
0000
0000
0000
0000
,
3010
1000
0000
0001
0010
0100
1000
0100
,
0010
0001
1000
0010
0000
1000
0001
0000
,
0010
0011
0000
0010
,
0000
0200
0000
0000
0000
0000
0000
0000
,
0310
0001
0000
1000
0010
0100
0001
1000
,
0100
0000
0010
0000
0001
0000
0000
1000
0000
0000
0001
0000
0010
0000
0000
0000
,
0001
0000
0010
0000
0100
0000
0000
1000
,
0000
0002
0000
0000
0000
0000
0000
0000
,
1003
0001
0000
2000
0000
0000
0000
0000
,
3001
0100
0000
0020
0000
0000
0000
0000
,
0130
0010
0000
2000
0000
0000
0000
0000
,
3010
0100
0000
0000
0000
0000
0000
0000
;

//--------------- dance-double - LinkDubs03 ----------------
#NOTES:
     dance-double:
     LinkDubs03:
     Beginner:
     2:
     0,0,0,0,0:
00000000
00000000
00000000
00000000
,
00000000
00000000
00000000
00000000
,
00000000
00000000
00000000
00000000
,
00000000
00000000
00000000
00000000
,
00000000
00000000
00000000
00000000
,
00000000
00000001
00000000
00001000
,
00000000
00000000
00000000
00000000
,
00000000
00000001
00000000
00001000
,
00000000
00000000
00000000
00000000
,
00000000
00000010
00000000
00000100
,
00000000
00000000
00000000
00000000
,
00000000
00000010
00000000
00001000
,
00000000
00000000
00000000
00000000
,
00000000
00000010
00000000
00001000
,
00000000
00000000
00000000
00000000
,
00000000
00000100
00000000
00001000
,
00000000
00000010
00000000
00000000
,
00000000
00001000
00000000
00000010
,
00000000
00010000
00000000
00000000
,
00000000
00001000
01000000
00000000
,
00000000
00000000
00000000
00000000
,
00000000
00010000
00000000
00100000
,
00000000
00010000
00000000
00000000
,
00000000
01000000
00000000
00010000
,
00000000
10000000
00000000
00000000
,
00000000
01000000
00000000
10000000
,
00000000
00010000
00000000
00000000
,
00000000
01000000
00010000
00000000
,
00000000
00000000
00000000
00000000
,
00000000
01000000
00000000
00001000
,
00000000
00100000
00000000
00010000
,
00000000
00100000
00000000
00010000
,
00000000
00100000
00000000
00001000
,
00000000
00010000
00000000
00000100
,
00000000
00010000
00000000
00000010
,
00000000
00001000
00000000
00000010
,
00000000
00002000
00000000
00003000
,
00000000
00000001
00000000
00001000
,
00000000
00000200
00000000
00000300
,
00000000
00001000
00000000
00000100
,
00000000
00000020
00000000
00000030
,
00000000
00000001
00000000
00001000
,
00000000
00000010
00000000
00000100
,
00000000
00000001
00000000
00000010
,
00000000
00000001
00000000
00000100
,
00000000
00000001
00000000
00001000
,
00000000
00000200
00000000
00000000
00000300
00000000
00000000
00000000
,
00001000
00000000
00000000
00000000
,
00000000
00000000
00000000
00000000
,
00001100
00000000
00000000
00000010
,
00000000
00000002
00000000
00000000
00000003
00000000
00000000
00000000
,
00001000
00000000
00000000
00000000
,
00000000
00000000
00000000
00000000
,
00000000
00000000
00000010
00000000
,
00001000
00000000
00000010
00000000
,
00010000
00000000
00000010
00000000
,
00001000
00000000
00000010
00000000
,
00010000
00000000
00000000
00000100
,
00000000
00002000
00000000
00000000
00003000
00000000
00000000
00000000
,
00000100
00000000
00000000
00000000
,
00000000
00000000
00001100
00000000
,
00000000
00000010
00000000
00001000
,
00000000
00000000
00000000
00000000
,
00000000
00000100
00000000
00010000
,
00000000
00000000
00000000
00000000
,
00000000
00001000
00000000
01000000
,
00000000
00001000
00000000
00100000
,
00000000
00001000
00000000
01000000
,
00000000
00010000
00000000
00000000
,
00000000
01000000
00000000
00010000
,
00000000
01000000
00000000
00010000
,
00000000
01000000
00000000
00100000
,
00000000
10000000
00000000
00000000
,
10010000
00000000
00000000
00100000
,
00000000
00020000
00000000
00000000
00030000
00000000
00000000
00000000
,
00100000
00000000
00000000
00000000
,
00000000
00000000
00000000
00000000
,
00110000
00000000
00000000
00100000
,
00000000
02000000
00000000
00000000
03000000
00000000
00000000
00000000
,
10000000
00000000
00000000
00000000
,
00000000
00000000
00000000
00000000
,
00000000
00100000
00000000
10000000
,
00000000
00010000
00000000
00100000
,
00000000
01000000
00000000
10000000
,
00000000
00010000
00000000
01000000
,
00000000
00002000
00000000
00000000
00000000
00003000
00000000
00000000
,
00000000
02000000
00000000
00000000
03000000
00000000
00000000
00000000
,
00001000
00000000
00000000
00000000
,
00000000
00000000
00000000
00000000
,
00000000
00100000
00000000
00010000
,
00000000
01000000
00000000
00010000
,
00000000
00100000
00000000
00001000
,
00000000
00200000
00000000
00300000
,
00000000
00010000
00000000
00100000
,
00000000
00001000
00000000
00010000
,
00000000
00000010
00000000
00010000
,
00000000
00000020
00000000
00000030
,
00000000
00001000
00000000
00000100
,
00000000
00010000
00000000
00000100
,
00000000
00010000
00000000
00000010
,
00000000
00002000
00000000
00003000
,
00000000
00000010
00000000
00000100
,
00000000
00000001
00000000
00001000
,
00000000
00000100
00000000
00002000
,
00000000
00000000
00003000
00000000
,
00001100
00000000
00000000
00001000
,
00000000
00000020
00000000
00000000
00000030
00000000
00000000
00000000
,
00001000
00000000
00000000
00000000
,
00001010
00000000
00000000
00000000
,
00010010
00000000
00000000
00000000
,
00001000
00000000
00000000
00200000
00300000
00000000
00000000
00000000
,
00010000
00000000
00000000
00000000
00000000
00000000
00000000
01010000
,
00000000
00000000
00000000
00000000
00000000
00000000
00000000
01001000
,
00000000
00000000
00100000
00000000
,
00010000
00000000
00100000
00000000
,
00010000
00000000
00100000
00000000
,
00010000
00000000
10000000
00000000
,
00100000
00000000
00000000
10000000
,
00000000
00020000
00000000
00000000
00030000
00000000
00000000
00000000
,
00100000
00000000
00000000
00000000
,
00000000
00000000
00000000
00000000
,
01100000
00000000
00000000
10000000
,
00000000
00200000
00000000
00000000
00300000
00000000
00000000
00000000
,
01000000
00000000
00000000
00000000
,
00000000
00000000
00000000
00000000
,
01100000
00000000
00000000
01000000
,
00000000
00020000
00000000
00000000
00030000
00000000
00000000
00000000
,
01000000
00000000
00000000
00000000
,
00000000
00000000
00000000
00000000
,
01010000
00000000
00000000
01000000
,
00000000
00020000
00000000
00000000
00030000
00000000
00000000
00000000
,
02000000
00000000
03000000
00000000
,
00002000
00000000
00003000
00000000
,
00200000
00000000
00300000
00000000
,
00101000
00000000
00000000
00000000
;

//--------------- dance-double - LinkDubs05 ----------------
#NOTES:
     dance-double:
     LinkDubs05:
     Easy:
     3:
     0,0,0,0,0:
00000000
00000000
00000000
00000000
,
00000000
00000000
00000000
00000000
,
00000000
00000000
00000000
00000000
,
00000000
00000000
00000000
00000000
,
00000000
00000000
00000000
00000000
,
00000000
00000001
00000000
00001000
,
00000000
00000001
00000000
00000000
00000000
00000000
00000000
00000100
,
00000000
00000010
00000000
00000100
,
00000000
00000001
00000000
00000000
00000000
00000000
00000000
00000010
,
00000000
00000100
00000000
00001000
,
00000000
00000100
00000000
00000000
00000000
00000000
00000000
00001000
,
00000000
00000100
00000000
00000010
,
00000000
00000001
00000000
00000000
00000000
00000000
00000000
00001000
,
00000000
00000010
00000000
00001000
,
00000000
00000100
00000000
00000000
00000000
00000000
00000000
00001000
,
00000000
00000010
00000000
00001000
,
00000000
00000010
00000000
00000000
00000000
00000000
00000000
00010000
,
00000000
00001000
00000000
01000000
,
00000000
00010000
00000000
00000000
00000000
00000000
00000000
00100000
,
00000000
00001000
00000000
01000000
,
00000000
00010000
00000000
00000000
00000000
00000000
00000000
00100000
,
00000000
00010000
00000000
00100000
,
00000000
00010000
00000000
00000000
00000000
00000000
00000000
00100000
,
00000000
00001000
00000000
01000000
,
00000000
00010000
00000000
00000000
00000000
00000000
00000000
10000000
,
00000000
01000000
00000000
00100000
,
00000000
00010000
00000000
00000000
00000000
00000000
00000000
00100000
,
00000000
00001000
00000000
01000000
,
00000000
00001000
00000000
00000000
00000000
00000000
00000000
01000000
,
00000000
00010000
01000000
00001000
,
00000000
00010000
00000000
00000010
00000000
00010000
00000000
00000000
,
00000000
00000010
00001000
00000010
,
00000000
00010000
00000000
00000100
00000000
00001000
00000000
00000000
,
00000000
00000100
00001000
00000010
,
00000000
00001000
00000000
00000100
00000000
00001000
00000000
00000000
,
00000000
00000001
00000000
00001000
,
00000000
00000002
00000000
00000000
00000000
00000000
00000000
00000000
,
00000003
00000010
00000000
00000100
,
00000000
00001000
00000000
00000000
00000000
00000000
00000000
00000100
,
00000000
00001000
00000000
00000010
,
00000000
00001000
00000000
00000000
00000000
00000000
00000000
00000010
,
00000000
00001000
00000000
00000010
,
00000000
00010000
00000000
00000000
00000000
00000000
00000000
00001000
,
00000000
00100000
00000000
00001000
,
00000000
01000000
00000000
00000000
00000000
00000000
00010000
00000000
,
00100000
00000000
00000000
00010000
,
00000000
00200000
00000000
00000000
00000000
00000000
00300000
00000000
,
00010000
00000000
00000000
00100000
00000000
00000000
00000000
00000000
,
00000000
00000000
00000000
00010000
,
00100000
00000000
00000000
01000000
,
00000000
20000000
00000000
00000000
00000000
00000000
30000000
00000000
,
00010000
00000000
00000000
01000000
00000000
00000000
00000000
00000000
,
00000000
00000000
00000000
00000000
,
00000000
00000000
00010000
00100000
,
00010000
00000000
00000000
01000000
00000000
00010000
00000000
00100000
,
00000000
00000000
00001000
00100000
,
00001000
00100000
00010000
01000000
,
00001000
00000000
00000000
00010000
,
00000000
00000020
00000000
00000000
00000000
00000000
00000030
00000000
,
00001000
00000000
00000000
00000010
00000000
00000000
00000000
00000000
,
00000000
00000000
00000000
00010010
0000MM00
00000000
00000000
00000000
,
00000000
00000100
00000000
00001000
,
00000000
00000010
00000000
00000000
00000000
00000000
00000000
00001000
,
00000000
00000100
00000000
00001000
,
00000000
00000100
00000000
00000000
00000000
00000000
00000000
00010000
,
00000000
00000000
00000000
00000100
00000000
00010000
00000000
00000010
,
00000000
00001000
00000000
00000010
00000000
00002000
00000000
00000000
,
00000000
00003000
00000000
00000010
00000000
00000100
00000000
00000001
,
00000000
00001000
00000000
00000000
00000000
00000000
00000000
00000000
,
00000000
00000100
00000000
00000010
00000000
00000100
00000000
00000000
,
00000010
00000001
00001000
00000000
,
00000010
00000000
00000000
00001000
00000000
00000000
00000200
00000000
,
00000000
00000000
00000300
00010000
,
00001000
00000000
00000000
01000000
,
00000000
00020000
00000000
00000000
00000000
00000000
00030000
00000000
,
01000000
00000000
00000000
00010000
00000000
00000000
00000000
00000000
,
00000000
00000000
00000000
00100000
,
00010000
00000000
00000000
00100000
,
00000000
00002000
00000000
00000000
00000000
00000000
00003000
00000000
,
01000000
00000000
00000000
00010000
00000000
00000000
00000000
00000000
,
00000000
00000000
00000000
00000000
,
00000000
00000000
01000000
00100000
,
00000000
00000000
01000000
00000000
00000000
00010000
00000000
01000000
,
00000000
00000000
00000000
00100000
00000000
10000000
00000000
01000000
,
00000000
00100000
00000000
00000000
00000000
00000000
01000000
00000000
,
00000000
20000000
00000000
00000000
00000000
00000000
00000000
30000000
,
00000000
00020000
00000000
00000000
00000000
00000000
00030000
00000000
,
01000000
00000000
00000000
00001000
00000000
00000000
00000000
00000000
,
00000000
00000000
00000000
00000000
,
00000000
00000000
00000000
10000000
00000000
00000000
00020000
00000000
,
00000000
00030000
00000000
01000000
00000000
00000000
00020000
00030000
,
00000000
00001000
00000000
00020000
00030000
00000000
01000000
00000000
,
00000000
00020000
00000000
00000000
00000000
00000000
00000000
00000000
,
00000000
00030000
00000000
00100000
00000000
00000000
00010000
00000000
,
00000000
00100000
00000000
00000000
00000000
00000000
00001000
00000000
,
00000000
00100000
00000000
00000000
00002000
00000000
00000000
00000000
,
00003000
00000000
00010000
00000000
00000000
00000100
00000000
00000000
,
00002000
00000000
00003000
00000010
,
00001000
00000020
00000000
00000030
,
00001000
00000000
00000000
00000010
00000000
00000000
00001000
00000000
,
00000010
00000200
00000000
00000000
,
00000300
00000001
00000010
00000001
,
00001000
00000000
00000010
00000000
00000000
00000100
00000000
00000000
,
00000002
00000000
00000003
00000020
,
00000000
00000000
00000030
00000100
,
00000010
00000000
00000000
00000100
,
00000000
00002000
00000000
00000000
00000000
00000000
00003000
00000000
,
00000100
00000000
00000000
00000010
00000000
00000000
00000000
00000011
,
0000MM00
00000000
00000000
00001000
,
00000010
00000000
00000000
00000000
,
00010000
00000000
00000000
00000200
00000000
00000000
00000300
00000000
,
00010000
00000000
00000000
00000010
00000000
00000000
00000000
00001000
,
00000000
00000100
00000000
00001000
00000000
00000100
00000000
00010000
,
00000000
00000000
00000100
00001000
,
00000010
00000000
00000000
00001000
00000000
00000010
00000000
00000000
,
00001000
00000000
00000100
00000000
00010000
00000000
00000000
00001000
,
00000000
00100000
00000000
00010000
00000000
01000000
00000000
00000000
,
00010000
01000000
00010000
00000000
,
00000000
02000000
00000000
00000000
00000000
00000000
03000000
00000000
,
00010000
00000000
00000000
01000000
00000000
00000000
00000000
00000000
,
00000000
00000000
00010000
01000000
,
00100000
00000000
00000000
10000000
,
00000000
00020000
00000000
00000000
00000000
00000000
00030000
00000000
,
00100000
00000000
00000000
01000000
00000000
00000000
00000000
00000000
,
00000000
00000000
00000000
01100000
00000000
00000000
01000000
00000000
,
00100000
00000000
00000000
01000000
,
00000000
20000000
00000000
00000000
00000000
00000000
30000000
00000000
,
00010000
00000000
00000000
01000000
00000000
00000000
00000000
00000000
,
00000000
00000000
00010000
00000000
00000000
01000000
00000000
00000000
,
00010000
00000000
00000000
00000000
00000000
00000000
00000000
01000000
,
00000000
00002000
00000000
00000000
00000000
00000000
00003000
00000000
,
02000000
00000000
00000000
03000000
,
00020000
00000000
00000000
00030000
,
00200000
00000000
00000000
00300000
,
00101000
0M0M0000
00000000
00000000
00000000
00000000
00000000
00000000
;

//--------------- dance-double - LinkDubs07 ----------------
#NOTES:
     dance-double:
     LinkDubs07:
     Medium:
     5:
     0,0,0,0,0:
00000000
00000000
00000000
00000000
,
00000000
00000000
00000000
00000000
,
00000000
00000000
00000000
00000000
,
00000000
00000000
00000000
00000000
,
00000000
00000000
00000000
00000000
,
00000000
00000001
00000000
00000100
,
00000010
00001000
00000000
00000000
00000000
00000000
00000000
00000000
,
00000010
00001000
00000000
00000010
,
00001000
00000100
00000000
00000000
00000000
00000000
00000000
00000000
,
00001000
00000010
00000000
00010000
,
00000100
00001000
00000000
00000000
00000000
00000000
00000000
00000000
,
00000100
00010000
00000000
00000100
,
00010000
00001000
00000000
00000000
00000000
00000000
00000000
00000000
,
00000000
00000000
00000000
01000000
00000000
00001000
00100000
00000000
,
00000000
00000000
00000000
00000000
,
00010000
00000000
00100000
00001000
00000000
01000000
00000000
00010000
,
00100000
00001000
00000000
00000000
,
00000000
00000000
01000000
00010000
00000000
01000000
00000000
00010000
,
00000000
00100000
00000000
00000000
00001000
00100000
00000000
00010000
,
00000000
01000000
00010000
00000000
01000000
00000000
00000000
00000000
,
00000000
00000000
00000000
00000000
00000000
00000000
00000000
00010000
,
10000000
00000000
00010000
00000000
10000000
00000000
00000000
00100000
,
00000000
00000000
00000000
00000000
00000000
00000000
00000000
10000000
,
00000000
01000000
00000000
00100000
00000000
00010000
00000000
00200000
,
00000000
01300000
00000000
00000000
,
10000000
00000000
00100000
01000000
00000000
00100000
00000000
10000000
,
00000000
00010000
00000000
00000000
00000000
00100000
00010000
00000000
,
00000000
00100000
00001000
00000000
01000000
00000000
00000000
00000000
,
00000000
00000000
00000000
00000000
,
00000000
00000000
00000000
00001000
01000000
00000000
00001000
00000000
,
00000000
00010000
00000000
00000010
00000000
00001000
00000000
00000000
,
00000000
00000000
00000010
00010000
00000000
00000100
00000000
00001000
,
00000000
00000000
00000100
00000000
00000000
00001000
00000000
00000000
,
00000100
00000000
00000000
00000010
00000000
00000000
00000100
00000000
,
00000010
00000000
00000000
00000001
00001000
00000000
00000010
00000000
,
00000100
00000001
00000000
00001000
00000000
00000100
00000000
00010000
,
00000000
00000200
00000000
00000000
00000000
00000000
00000000
00000000
,
00000000
00000300
00000000
00010000
00000000
00000010
00000000
00001000
,
00000000
00000010
00000000
00000000
00002000
00000000
00000000
00000000
,
00000000
00003000
00000000
00000100
00000000
00010000
00000000
00000010
,
00000000
00001000
00000000
00000020
00000000
00000000
00000000
00000030
,
00000000
00010000
00000000
00000010
00000000
00010000
00000000
00001000
,
00000000
00100000
00000000
00000000
00010000
00000000
00000000
01000000
,
00000000
00001000
00000000
01000000
00000000
00001000
00000000
00000000
,
00000000
00000000
00000000
00110000
,
00010000
00000000
00000000
00100000
,
00000000
02000000
00000000
00000000
00000000
00000000
00000000
00000000
,
13000000
00100000
00000000
00000000
00000000
00000000
00000000
00000000
,
00000000
00000000
00000000
10010000
,
00010000
00000000
00000000
00100000
,
00000000
00020000
00000000
00000000
00000000
00000000
00000000
00000000
,
01030000
00010000
00000000
00000000
00000000
00000000
00000000
00000000
,
00000000
00000000
00000000
00000000
,
00000000
00000000
00000000
01000000
00010000
00000000
00100000
00000000
,
00001000
00000000
00000000
01000000
00000000
00010000
00000000
00000000
,
00100000
00001000
00000000
00010000
00000000
00000100
00010000
00000000
,
00000100
00001000
00000010
00001000
,
00000010
00000000
00000000
00010000
,
00000000
00000200
00000000
00000000
00000000
00000000
00000000
00000000
,
00001300
00000010
00000000
00000000
00000000
00000000
00000000
00000000
,
00000000
00000000
00000000
00020020
0003MM30
00000000
00000000
00000000
,
00000000
00000010
00000000
00010000
,
00000010
00010000
00000000
00000000
00000000
00000000
00000000
00000000
,
00000000
00000100
00000000
00001000
,
00000010
00001000
00000000
00000000
00000000
00000000
00000000
00000000
,
00000000
00000000
00000000
00000010
00000000
00001000
00000000
00000001
,
00000000
00000100
00000000
00000001
00000000
00002000
00000000
00000000
,
00000000
00003000
00000000
00000100
00000000
00001000
00000000
00000100
,
00000000
00001000
00000000
00000000
00000000
00000000
00000000
00000000
,
00000100
00001000
00000000
00000010
00000000
00001000
00000000
00000000
,
00000010
00010000
00000010
00000000
,
00001000
00000100
00000000
00010000
00000000
00000010
00020000
00000000
,
00000000
00000000
00030000
00101000
,
00100000
00000000
00000000
00001000
,
00000000
02000000
00000000
00000000
00000000
00000000
00000000
00000000
,
03001000
01000000
00000000
00000000
00000000
00000000
00000000
00000000
,
00000000
00000000
00000000
00110000
,
00100000
00000000
00000000
00010000
,
00000000
02000000
00000000
00000000
00000000
00000000
00000000
00000000
,
03001000
00100000
00000000
00000000
00000000
00000000
00000000
00000000
,
00000000
00000000
00000000
00000000
,
00000000
00000000
00000000
00010000
00100000
00000000
00010000
00000000
,
00000000
00000000
10000000
00100000
00000000
01000000
00000000
00010000
,
00000000
00000000
00000000
01000000
00000000
00100000
00000000
10000000
,
00000000
00010000
00000000
00000000
00000000
00000000
00100000
00000000
,
00000000
02000000
00000000
00000000
00000000
00000000
00000000
00000000
,
00000000
03200000
00000000
00000000
00000000
00000000
00000000
00000000
,
00310000
00100000
00000000
00000000
00000000
00000000
00000000
00000000
,
00000000
00000000
00000000
00000000
,
00000000
00000000
00000000
00010000
00000000
00100000
00010000
00000000
,
01000000
00000000
00000000
00000000
00000000
00000000
00001000
00000000
00000000
00010000
00000000
00000000
00000010
00000000
00010000
00000000
,
00000000
00000100
00000000
00001000
00000010
00000000
00001000
00000000
,
00000100
00002000
00000000
00000000
00000000
00000000
00000000
00000000
,
00000000
00000000
00003000
00000000
00000000
00000000
00000001
00000000
00000000
00000100
00000000
00000000
00000010
00000000
00000000
00000100
,
00000000
00000001
00000020
00000000
00000030
00000000
00000100
00000000
,
00001000
00000000
00000100
00000000
00000000
00001000
00000000
00000000
00000020
00000000
00000000
00000000
00000000
00000000
00000000
00000000
,
00000030
00000000
00000000
00000000
00010000
00000000
00000000
00001000
00000000
00000000
00100000
00000000
00001000
00000000
00000000
00000000
,
02000000
00000000
00000000
00000000
00000000
00000000
03000000
00000000
00000000
00000000
00010000
00000000
01000000
00000000
00000000
00001000
,
00000000
00000000
00100000
00000000
00020000
00000000
00000000
00000000
00000000
00000000
00000000
00030000
00000000
00000000
00000000
01000000
,
00000000
00000000
00001000
00000000
00000000
00000000
01000000
00000000
00000000
00010000
00000000
00000000
01000000
00000000
00000000
00001000
,
00000000
00100000
00020000
00000000
00000000
00000000
00000000
00030000
,
00000000
00100000
01000000
00000000
10000000
00000000
00010000
00000000
,
01000000
00000000
00000000
00000000
00010000
00000000
00000000
00100000
00000000
00000000
00001000
00000000
00100000
00000000
00000000
00000000
,
00020000
00000000
00030000
02000000
,
00000000
00000000
03000000
00101000
,
00100000
00000000
00000000
00001000
,
00000000
00200000
00000000
00000000
00000000
00000000
00000000
00000000
,
00310000
00100000
00000000
00000000
00000000
00000000
00000000
00001000
,
00010000
00000000
00000000
00001100
,
00001000
00000000
00000000
00000000
,
00000010
00000000
00000000
00002000
00000000
00000000
00000000
00000000
,
00003010
00001000
00000000
00000000
00000000
00000000
00000000
00000001
,
00000000
00000100
00000000
00010000
00000000
00000100
00000000
00000001
,
00000000
00000000
00001000
00000010
,
00001000
00000100
00000000
00001000
00000000
00000010
00000000
00000000
,
00001000
00000000
00000100
00000000
00010000
00001000
00000000
00100000
,
00000000
00001000
00000000
01000000
00000000
00010000
00000000
00000000
,
01000000
00010000
01000000
00000000
,
00000000
00200000
00000000
00000000
00000000
00000000
00000000
00000000
,
01300000
00010000
00000000
00000000
00000000
00000000
00000000
00000000
,
00000000
00000000
00000000
11000000
,
01000000
00000000
00000000
00100000
,
00000000
00020000
00000000
00000000
00000000
00000000
00000000
00000000
,
00130000
00010000
00000000
00000000
00000000
00000000
00000000
00000000
,
00000000
00000000
00000000
00100000
00000000
00000000
11000000
00000000
,
10000000
00000000
00000000
00010000
,
00000000
02000000
00000000
00000000
00000000
00000000
00000000
00000000
,
03100000
10000000
00000000
00000000
00000000
00000000
00000000
00000000
,
00000000
00000000
00000000
00000000
00010000
00000000
00000000
00100000
00000000
00000000
00010000
00000000
01000000
00000000
00000000
00000000
,
00001000
00000000
00000000
00000000
00000000
00000000
00000000
01000000
,
00000000
00002000
00000000
00000000
00000000
00000000
00000000
00000000
,
00013000
00000020
00000000
00000000
00000000
00000000
00000000
00000000
,
00001030
00000200
00000000
00000000
00000000
00000000
00000000
00000000
,
00001300
00000020
00000000
00000000
00000000
00000000
00000000
00000000
,
00001030
00000010
00000000
00000000
00000000
00000000
00000000
00000000
;

//--------------- dance-double - LinkDubs09 ----------------
#NOTES:
     dance-double:
     LinkDubs09:
     Hard:
     6:
     0,0,0,0,0:
00000000
00000000
00000000
00000000
,
00000000
00000000
00000000
00000000
,
00000000
00000000
00000000
00000000
,
00000000
00000000
00000000
00000000
,
00000000
00000000
00000000
00000000
,
00000000
00000001
00002000
00000000
00003000
00000000
00000010
00000000
,
00000100
00000001
00000000
00000000
00000000
00000000
00000000
00001000
,
00000100
00001000
00000200
00000000
00000300
00000000
00010000
00000000
,
00000010
00001000
00000000
00000000
00000000
00000000
00000000
00000010
,
00010000
00001000
02000000
00000000
03000000
00000000
00010000
00000000
,
00100000
00010000
00000000
00000000
00000000
00000000
00000000
01000000
,
00010000
01000000
00020000
00000000
00030000
00000000
10000000
00000000
,
00100000
01000000
00000000
00000000
00000000
00000000
00000000
00010000
,
01000000
00001000
00000000
00100000
00000000
00010000
02000000
00000000
,
00000000
00000000
03000000
00000000
,
00010000
00100000
00001000
00100000
00010000
01000000
00000000
00010000
,
00100000
00010000
00000000
00000000
,
00000000
01000000
00001000
00100000
00000000
00010000
00000000
01000000
,
00001000
00100000
00000000
00000000
00001000
00100000
00000000
00010000
,
00000000
01000000
00010000
00000000
00200000
00000000
00000000
00000000
,
00300000
00000000
00000000
00000000
00000000
00000000
00000000
00001000
,
00010000
00000100
00001000
00000100
00010000
00000100
00001000
00000010
,
00000000
00000000
00000000
00000000
00000000
00000000
00000000
00001000
,
00000100
00001000
00000000
00000001
00000000
00000010
00000000
00000001
,
00000000
00001000
00000000
00000000
00000010
00000000
00000000
00000000
00000000
00000000
00000000
00000000
00000000
00000000
00000100
00000000
,
00000010
00001000
00000010
00001000
00000000
00000100
00000000
00001000
,
00000000
00000100
00000000
00000000
00000000
00010000
00000100
00000000
,
00000000
00000000
00010000
00000010
00010000
00000000
00000000
00000000
00000200
00000000
00000000
00000000
00000000
00000000
00000000
00000000
,
00000300
00000000
00000000
00000000
,
00000000
00000000
00000000
00001000
00000010
00010000
00001000
00000000
,
00000000
00100000
00000000
00010000
00000000
00100000
00000000
00000000
,
00000000
00010000
01000000
00010000
01000000
00100000
00000000
10000000
,
00000000
01000000
00000000
00000000
00100000
00000000
00000000
00000000
01000000
00000000
10000000
00000000
00000000
00000000
00000000
00000000
,
00010000
00000000
00100000
00000000
00000000
00000000
00010000
00000000
00000000
00100000
00000000
00000000
00001000
00000000
00000000
00000000
,
01000000
00001000
00000000
00100000
00010000
00000000
01000000
00000000
,
00010000
00100000
00000000
00001000
00010000
00000100
00000000
00001000
,
00000100
00002000
00000000
00000000
00000000
00000000
00000000
00000000
,
00000000
00003000
00000000
00000100
00010000
00000010
00000000
00001000
,
00000100
00001000
00000000
00000000
00000002
00000000
00000000
00000000
,
00000000
00000003
00000000
00000010
00000001
00001000
00000000
00000010
,
00000100
00000010
00000000
00000200
00000000
00000000
00000000
00000300
,
00000000
00000001
00000000
00001000
00000000
00000010
00000000
00001000
,
00000000
00000010
00000000
00000000
00010000
00000010
00000000
00001000
,
00000000
00000100
00000000
00010000
00000000
00000020
00000000
00000000
,
00000000
00000000
00000030
00001000
,
00000200
00000000
00000300
00010000
,
00000000
00000020
00000000
00000000
00000000
00000000
00000030
00000000
,
00001000
00000100
00000000
00010000
00000000
00000000
00000000
00000000
,
00000000
00000000
00000000
00000000
00000000
00000010
00010000
00001000
,
02000000
00000000
03000000
00010000
,
00000000
00200000
00000000
00000000
00000000
00000000
00300000
00000000
,
00010000
10000000
00000000
00100000
00000000
00000000
00000000
00000000
,
00000000
00000000
00000000
00000000
,
00000000
00000000
00000000
10000000
01000000
00100000
00010000
00000000
,
00100000
00000000
00000000
00010000
01000000
00001000
00000000
00000000
,
01000000
00010000
00000000
00100000
00001000
00010000
00000010
00000000
,
00001000
00000000
00000010
00010000
00000100
00000000
00001000
00000000
,
00000100
00000000
00000000
00001000
,
00000001
00000200
00000000
00000000
00000000
00000000
00000300
00000000
,
00000010
00001000
00000000
00000000
00000000
00000000
00000000
00000000
,
00000000
00000000
00000000
00000010
00001M0M
00000000
00000000
00000000
,
00000000
00001100
00000000
00001000
,
00000100
00010000
00000000
00000000
00000000
00000000
00000000
00000000
,
00000000
01001000
00000000
01000000
,
00010000
00100000
00000000
00000000
00000000
00000000
00000000
00000000
,
00000000
00000000
00000000
00010000
10000000
01000000
00000000
10000000
,
00000000
00010000
00000000
10000000
01000000
00100000
00000000
01000000
,
00000000
00000000
00000000
00000000
00000000
00000000
10000000
00010000
10000000
00000000
00010000
00000000
00000000
00000000
00100000
00000000
,
00001000
01000000
00010000
00000000
00000000
00000000
00000000
00000000
,
01000000
00001000
00000000
00100000
00000000
00010000
00000000
00000000
,
01000000
00010000
01000000
00000000
00001000
00000000
00000000
00000000
,
00010000
00000100
00000000
00001000
00000000
00000010
00002000
00000000
,
00000000
00000000
00003000
00000010
,
00000200
00000000
00000300
00000001
,
00000000
00000020
00000000
00000000
00000000
00000000
00000030
00000000
,
00000100
00001000
00000000
00000010
00000000
00000000
00000000
00000000
,
00000000
00000000
00000000
00000000
00000000
00010000
00000100
00001000
,
00000020
00000000
00000030
00010000
,
00000000
00002000
00000000
00000000
00000000
00000000
00003000
00000000
,
00100000
00010000
00000000
00100000
00000000
00000000
00000000
00000000
,
00000000
00000000
00000000
00000000
,
00000000
00000000
00000000
00001000
01000000
00010000
00100000
00000000
,
00000000
00000000
00010000
01000000
00000000
00010000
00000000
00100000
,
00000000
00000000
00000000
01000000
10000000
00010000
01000000
00010000
,
00100000
00001000
00000000
00000000
00000000
00000000
00010000
00000000
,
00000000
00000200
00000000
00000000
00000000
00000000
00000000
00000300
,
00000000
00020000
00000000
00000000
00000000
00000000
00030000
00000000
,
00000100
00010000
00000000
00000010
00000000
00000000
00000000
00000000
,
00000000
00000000
00000000
00000000
00000000
00001100
00000000
00000100
,
00001000
00000000
00000000
00000001
00000000
00000010
00000100
00000000
,
00000010
00000000
00000000
00000000
00000000
00000000
00000001
00000000
00000000
00001000
00000000
00000000
00000100
00000000
00010000
00000000
,
00000000
00000000
00000100
00000000
00000000
00000000
00001000
00000000
00000010
00000000
00010000
00000000
00000100
00010000
00000000
00000000
,
00001000
01000000
00010000
00000000
00100000
00020000
00000000
00000000
,
00000000
00000000
00030000
00000000
00000000
00000000
10000000
00000000
00000000
01000000
00000000
00000000
00100000
00000000
00000000
00010000
,
00000000
00100000
00020000
00000000
00030000
00000000
01000000
00001000
,
00010000
00000000
00000100
00000000
00000000
00001000
00000000
00000000
00000020
00000000
00000000
00000000
00000000
00000000
00000000
00000000
,
00000030
00000000
00000000
00000000
00001000
00000000
00000000
00000001
00000000
00000000
00000100
00000000
00000001
00000000
00000000
00000000
,
00002000
00000000
00000000
00000000
00000000
00000000
00003000
00000000
00000000
00000000
00000001
00000000
00001000
00000000
00000000
00000010
,
00000000
00000000
00000100
00000000
00000001
00000000
00000000
00000000
00002000
00000000
00000000
00003000
00000000
00000000
00000000
00000010
,
00000000
00000000
00001000
00000000
00000000
00000000
00000010
00000000
00000000
00010000
00000000
00000000
00000100
00000000
00000000
00001000
,
00000000
00000100
00020000
00000000
00030000
00000000
00000010
00000000
,
00000000
00010000
00001000
00000000
01000000
00000000
00001000
00000000
,
00100000
00000000
00001000
00000000
01000000
00000000
00000000
00010000
00000000
00000000
00100000
00000000
00010000
00000000
00000000
00000000
,
00200000
00000000
00300000
02000000
,
00000000
00000000
03000000
10000000
,
00200000
00000000
00300000
10000000
,
00000000
00020000
00000000
00000000
00000000
00000000
00030000
00000000
,
01000000
00001000
00000000
00200000
00000000
00300000
00000000
00010000
,
01000000
00001000
00000000
00000000
00000000
00010000
00000100
00001000
,
00000200
00000000
00000000
00000000
00000000
00000300
00000000
00010000
,
00000010
00001000
00000001
00000200
00000000
00000000
00000300
00000000
,
00000010
00001000
00000000
00000200
00000000
00000300
00000000
00001000
,
00000000
00000010
00000000
00010000
00000000
00001000
00000000
00100000
,
00000000
00000000
00010000
01000000
,
00010000
10000000
00000000
00010000
00100000
00010000
00000000
00000000
,
10000000
00100000
01000000
00010000
01000000
00010000
00000000
00100000
,
00010000
01000000
00000000
00001000
00000000
00001000
00000000
00000000
,
00000001
00000000
00000010
00000000
00000200
00000000
00000000
00000300
,
00000000
00002000
00000000
00000000
00000000
00000000
00003000
00000000
,
00000100
00001000
00000000
00000200
00000000
00000000
00000000
00000000
,
00000000
00000300
00010000
00000100
,
00002000
00000000
00003000
00000010
,
00000000
00020000
00000000
00000000
00000000
00000000
00030000
00000000
,
00001000
00100000
00000000
00020000
00000000
00000000
00000000
00000000
,
00000000
00030000
00000000
01000000
00000000
00010000
00100000
00000000
,
00020000
00000000
00030000
00100000
,
00000000
00020000
00000000
00000000
00000000
00000000
00030000
00000000
,
10000000
00100000
00000000
02000000
00000000
00000000
00000000
00000000
,
03000000
00000000
00000000
00000000
00010000
00000000
00000000
01000000
00000000
00000000
00001000
00000000
01000000
00000000
00000000
00000000
,
00002000
00000000
00000000
00000000
00000000
00003000
00000000
00100000
,
00000000
00020000
00000000
00000000
00000000
00000000
00030000
00000000
,
01000000
00001000
00000000
00200000
00000000
00000000
00300000
00000000
,
00010000
01000000
00000000
00020000
00000000
00000000
00030000
00000000
,
00100000
00001000
00000000
00020000
00000000
00000000
00030000
00000000
,
00000010
00010000
00000000
00000000
00000000
00000000
00000000
00000000
;

//--------------- dance-double - LinkDubs12 ----------------
#NOTES:
     dance-double:
     LinkDubs12:
     Challenge:
     8:
     0,0,0,0,0:
00000000
00000000
00000000
00000000
,
00000000
00000000
00000000
00000000
,
00000000
00000000
00000000
00000000
,
00000000
00000000
00000000
00000000
,
00000000
00000000
00000000
00000000
,
00000000
00000001
00001000
00000000
00000000
00000000
00000010
00000000
,
00010000
00000000
00000100
00000000
00000000
00000000
00000000
00000000
00000000
00000000
00000000
00000000
00000000
00000000
00001000
00000010
,
00001000
00000100
00001000
00000000
00000000
00000000
00000010
00000000
,
00010000
00000000
00001000
00000000
00000000
00000000
00000000
00000000
00000000
00000000
00000000
00000000
00000000
00000000
00100000
00001000
,
00100000
00010000
01000000
00000000
00000000
00000000
00010000
00000000
,
00100000
00000000
00010000
00000000
00000000
00000000
00000000
00000000
00000000
00000000
00000000
00000000
00000000
00000000
01000000
00100000
,
01000000
00100000
10000000
00000000
00000000
00000000
00010000
00000000
,
01000000
00100000
00000000
10000000
00010000
00000000
01000000
00001000
,
00100000
00010000
00000000
01000000
00000000
00001000
00100000
00000000
,
00001000
00010000
00000000
00000000
00000010
00000000
00001000
00000000
,
00000100
00010000
00000010
00001000
00000100
00000010
00000000
00000001
,
00000100
00000000
00000001
00000000
00000010
00000000
00000000
00000100
,
00001000
00000010
00001000
00000100
00000000
00010000
00000000
00000010
,
00010000
00000100
00000000
00000000
00001000
00000010
00000000
00001000
,
00000000
00000100
00001000
00000000
00000010
00000000
00010000
00000000
,
00001000
01000000
00000000
00000000
00010000
00000000
00100000
00001000
,
01000000
00010000
00100000
01000000
00100000
01000000
00100000
00010000
,
01000000
00010000
00000000
00000000
00100000
00000000
00000000
00001000
,
00010000
00000100
00000000
00001000
00000000
00000010
00000000
00000100
,
00000000
00000001
00000000
00000000
00000010
00000000
00000000
00000000
00000001
00000000
00000000
00000000
00000000
00000000
00000100
00000000
,
00000010
00001000
00000100
00000010
00000000
00000001
00000000
00001000
,
00000000
00000100
00000000
00000000
00001000
00000010
00001000
00000000
,
00000000
00000000
00000100
00001000
00000100
00000000
00000000
00000000
00001000
00000000
00000000
00000000
00000010
00000000
00000000
00000000
,
00010000
00000000
00000000
00001000
00100000
00000000
00010000
01000000
,
00010000
00100000
00010000
00100000
00000000
00000000
00010000
00000000
01000000
00000000
00001000
00000000
00100000
00000000
00000000
00000000
,
00001000
01000000
00000000
00010000
00000000
00100000
00000000
00000000
,
00010000
01000000
00010000
00100000
00010000
01000000
00000000
00010000
,
00000000
00100000
00000000
00000000
00010000
00000000
00000000
00000000
01000000
00000000
00010000
00000000
00000000
00000000
00000000
00000000
,
00100000
00000000
00001000
00000000
00000000
00000000
01000000
00000000
00000000
00010000
00000000
00000000
00100000
00000000
00000000
00000000
,
00001000
00010000
00000000
00000010
00001000
00000000
00000100
00000000
,
00001000
00000010
00000000
00010000
00000100
00001000
00000000
00000001
,
00000010
00000000
00000100
00000000
00000000
00000000
00001000
00000010
00001000
00000010
00000000
00000000
00000100
00000000
00000000
00000000
,
00000001
00000000
00000000
00001000
00000010
00000100
00000000
00000010
,
00000100
00000010
00000000
00000000
00010000
00000000
00000000
00000000
,
00000100
00000000
00000000
00010000
00001000
00100000
00000000
00001000
,
01000000
00010000
00000000
00100000
00000000
00000000
00000000
00000000
,
00000000
00011000
00000000
00110000
00000000
01100000
00000000
01001000
,
00000000
00001000
00000000
00000000
01000000
00010000
00000000
00100000
,
00000000
00000000
00001000
00000000
00000000
00000000
01000000
00000000
00000000
00000000
00010000
00000000
00000000
00000000
10000000
00100000
,
10000000
00000000
00000000
11000000
,
00110000
00000000
00000000
00010000
,
00000000
20000000
00000000
00000000
30010000
00000000
01000000
00000000
,
00010000
00100000
00000000
01000000
10000000
00010000
00100000
00010000
,
00000000
00000000
01000000
00001000
00100000
00010000
01000000
00001000
,
00100000
00001000
00010000
00000010
,
00000000
00000200
00000000
00000000
00001300
00000000
00010000
00000000
,
00000100
00010000
00000000
00000010
00001000
00000100
00000010
00000001
,
00000000
00001000
00000100
00001000
00000010
00001000
00000100
00010000
,
00000000
00000000
00000010
00001000
00000100
00001000
00000010
00000000
,
00010000
00000000
00000000
00001000
01000000
00010000
00000000
00000000
,
00100000
01000000
00000000
10000000
00100000
01000000
00100000
00000000
,
01000000
00000000
00010000
00100000
00010000
00000000
01000000
00000000
,
00010000
00100000
00010000
00100000
00000000
00000000
00000000
00000000
00001000
00000000
00000000
00000000
00010000
00000000
00000000
00000000
,
00000010
00002000
00000000
00000000
00003100
00000000
00001000
00000000
,
00000001
00000100
00000000
00000010
00001000
00000100
00000010
00000001
,
00000100
00000000
00000000
00000000
00000010
00000000
00001000
00000000
00000M1M
00000000
00000000
00000000
00000000
00000000
00010000
00000010
,
00010000
00000100
00000000
00001000
,
00000010
00010000
00000000
00000000
00000000
00000000
00000000
00001000
,
01000000
00010000
00100000
00000000
00000000
00000000
00010000
00000000
,
01000000
00010000
00000000
10000000
00100000
00000000
00000000
00000000
,
10000000
00000000
01000000
00100000
00010000
01000000
00000000
00001000
,
00000000
00100000
00000000
00010000
01000000
00001000
00000000
00010000
,
00000000
00000000
00000000
00000000
00000000
00000000
00000100
00010000
00000100
00000000
00010000
00000000
00000000
00000000
00000010
00000000
,
00001000
00000100
00010000
00000000
00000010
00000000
00001000
00000000
,
00000100
00001000
00000000
00000010
00000000
00001000
00000000
00000000
,
00000100
00001000
00000010
00000000
00010000
00000000
00000000
00000000
,
00000100
00001000
00000000
00000010
00000000
00010000
00001000
00000000
,
00000000
00000000
00000000
00101000
,
01001000
00000000
00000000
01000000
,
00000000
00200000
00000000
00000000
00000000
00000000
00000000
00000000
,
01300000
00001000
00000000
00100000
00010000
01000000
00100000
10000000
,
00000000
00010000
01000000
00001000
00100000
00010000
01000000
00001000
,
00100000
00000000
00000000
00010000
,
00000000
02000000
00000000
00000000
00000000
00000000
00000000
00000000
,
03010000
10000000
00000000
00010000
01000000
00001000
00010000
00000100
,
00000000
00001000
00000001
00000010
00000001
00001000
00000010
00010000
,
00000000
00000000
00000000
00001000
00100000
00010000
10000000
00000000
,
00000000
00000000
00001000
01000000
00000000
00001000
00000000
00100000
,
00000000
00000000
00000000
00010000
01000000
00001000
00010000
00000100
,
00001000
00000010
00000000
00000000
00000000
00000000
00000100
00000000
,
00000000
00000002
00000000
00000000
00000000
00000000
00000000
00000000
,
00000000
00000203
00000000
00000000
00000000
00000000
00000000
00000000
,
00000301
00001000
00000000
00000010
00001000
00000100
00010000
00001000
,
00100000
00010000
01000000
00000000
00000000
01100000
00000000
00010000
,
00100000
00000000
00000000
00001000
00000000
01000000
00010000
00000000
,
00100000
00000000
00000000
00000000
00000000
00000000
00010000
00000000
00000000
01000000
00000000
00000000
00001000
00000000
00100000
00000000
,
00000000
00000000
00010000
00000000
00000000
00000000
01000000
00000000
00010000
00000000
00100000
00000000
01000000
10000000
00000000
00000000
,
00010000
00100000
00001000
00000000
01000000
00001000
00000000
00000000
,
00000000
00000000
00000000
00000000
00000000
00000000
00100000
00000000
00000000
00010000
00000000
00000000
01000000
00000000
00000000
00010000
,
00000000
00100000
00001000
00000000
00000000
00000000
00010000
00000010
,
00001000
00000000
00000100
00000000
00000000
00001000
00000000
00000000
00000001
00000000
00000000
00000000
00000000
00000000
00000000
00000000
,
00000000
00000000
00000000
00000000
00000010
00000000
00000000
00000100
00000000
00000000
00000010
00000000
00000001
00000000
00000000
00000000
,
00001000
00000000
00000000
00000000
00000000
00000000
00000000
00000000
00000000
00000000
00000100
00000000
00010000
00000000
00000000
00000010
,
00000000
00000000
00010000
00000000
00000100
00000000
00010000
00000100
00010000
00000000
00000000
00000000
00000000
00000000
00000000
00001000
,
00000000
00000000
00100000
00000000
00000000
00000000
00010000
00000000
00000000
01000000
00000000
00000000
00001000
00000000
00000000
00100000
,
00000000
00000000
00001000
00000000
01000000
00000000
00000000
00000000
00000000
00000000
00010000
00100000
00010000
00000000
00000000
00000000
,
00000000
10000000
00010000
00000000
01000000
00000000
00100000
00000000
,
10000000
00000000
01000000
00000000
00100000
00000000
00000000
00010000
00000000
00000000
01000000
00000000
00010000
00000000
00000000
00000000
,
00100000
00000000
00000000
00000000
00000000
00000000
00001000
01000000
,
00010000
00000000
00100000
00000000
00001000
00000000
01000000
00000000
00010000
00000000
00100000
00000000
00001000
00010000
00001000
00010000
,
00000010
00000000
00000000
00010000
,
00000000
00000200
00000000
00000000
00000000
00000000
00000000
00000000
,
00000310
00000001
00000000
00001000
00000100
00001000
00000010
00010000
,
00000100
00001000
00000000
00000000
00000000
00000010
00001000
00000100
,
00020000
00000000
00000000
00000000
00000000
00000000
00000000
00030010
,
00001000
00000010
00010000
00000200
00000000
00000000
00000000
00000000
,
00010300
00001000
00000000
00100000
00001000
01000000
00010000
10000000
,
00000000
11000000
00000000
01100000
00000000
00110000
00000000
10010000
,
00000000
00000000
00100000
00010000
,
01000000
00010000
00000000
00100000
00010000
01000000
00000000
00000000
,
00001000
00010000
00000100
00010000
00000010
00001000
00000000
00000100
,
00001000
00000001
00000000
00001000
00000000
00000001
00000000
00000000
,
00000010
00000100
00000010
00000000
,
00000000
00000002
00000000
00000000
00000000
00000000
00000000
00000000
,
00000103
00000010
00000000
00001000
00000100
00010000
00001000
00100000
,
00010000
01000000
00001000
00000000
00100000
00000000
00010000
00000000
,
01000000
01001000
00000000
00001000
,
00000000
00200000
00000000
00000000
00000000
00000000
00000000
00000000
,
01300000
00100000
00000000
00010000
01000000
00100000
10000000
01000000
,
00100000
00010000
01000000
00010000
00000000
00100000
00001000
00000000
,
01000000
00101000
00000000
00100000
,
00000000
00020000
00000000
00000000
00000000
00000000
00000000
00000000
,
00130000
00001000
00000000
00010000
00000100
00001000
00000010
00001000
,
00000100
00000000
00000010
00000000
00000001
00000000
00000000
00001000
00000000
00000000
00000100
00000000
00010000
00000000
00000000
00000000
,
00001000
00000000
00100000
00000000
00001000
00000000
00000000
01000000
,
00000000
00200000
00000000
00000000
00000000
00000000
00000000
00000000
,
10300000
01000000
00000000
00200000
00000000
00000000
00000000
00000000
,
00301000
01000000
00000000
00200000
00000000
00000000
00000000
00000000
,
10300000
01000000
00000000
00200000
00000000
00000000
00000000
00000000
,
00301000
01000000
00000000
00000000
00000000
00000000
00000000
00000000
;
