#VERSION:0.83;
#TITLE:One Song Glory;
#SUBTITLE:;
#ARTIST:RENT Movie Cast;
#TITLETRANSLIT:;
#SUBTITLETRANSLIT:;
#ARTISTTRANSLIT:;
#GENRE:;
#CREDIT:;
#MUSIC:One Song Glory.ogg;
#BANNER:RENT-banner.png;
#BACKGROUND:RENT-bg.png;
#CDTITLE:RENT-bg.png;
#SAMPLESTART:52.730;
#SAMPLELENGTH:15.000;
#SELECTABLE:YES;
#OFFSET:3.098;
#BPMS:0.000=144.016;
#STOPS:;
#BGCHANGES:6.000=One Song Glory.mp4=1.025=0=0=0=StretchNoLoop====,
99999.000=-nosongbg-=1.000=0=0=0=StretchNoLoop====
;
#FGCHANGES:;

//--------------- dance-single - LinkDude03 ----------------
#NOTEDATA:;
#STEPSTYPE:dance-single;
#DESCRIPTION:LinkDude03;
#DIFFICULTY:Beginner;
#METER:2;
#RADARVALUES:0.131,0.181,0,0,0;
#NOTES:
0000
0000
0000
0000
,
0000
0000
0000
0000
,
0000
0000
0000
0000
,
0000
0000
0000
0000
,
0001
0000
1000
0000
,
0000
0000
0000
0000
,
0001
0000
1000
0000
,
0100
0000
1000
0000
,
0100
0000
0000
0010
,
0000
0000
0000
0000
,
0000
0000
0001
0100
,
0000
0000
0001
0010
,
0000
0000
0100
1000
,
0000
0000
0010
1000
,
0001
0000
1000
0001
,
0000
0000
0010
0100
,
0010
0000
0100
0010
,
0000
0000
0000
0001
,
0000
0000
1000
0001
,
0000
0000
1000
0010
,
0000
0000
1000
0010
,
0000
0000
0100
0001
,
0100
0000
0000
0000
,
0000
0000
0000
0000
,
0001
0100
0000
0000
,
0010
1000
0000
0100
,
0000
0000
1000
0001
,
0000
0000
1000
0001
,
0100
0000
0010
0100
,
0000
0000
0010
0000
,
0100
0000
0001
0000
,
0000
0000
0000
0000
,
1000
0000
0001
0000
,
0000
0000
0000
1000
,
0000
0000
0010
1000
,
0000
0000
0010
0100
,
0010
0000
0100
0001
,
0000
1000
0001
1000
,
0000
0000
0001
0010
,
0000
0100
0010
0100
,
0000
1000
0000
0010
,
0000
1000
0000
0001
,
0000
0000
0100
0000
,
0001
0000
0000
0000
,
0000
0000
0100
0000
,
0000
0001
0000
0000
,
0000
0000
0000
0000
,
0000
0000
0000
1000
,
0000
0000
0000
0100
0000
0000
0000
0000
,
0000
0000
0000
0000
,
0000
0000
0000
0000
,
0000
1000
0010
0100
,
0000
0010
0000
0000
,
0000
0000
0000
0000
,
0100
0000
0000
0000
,
0000
0001
1000
0001
,
0000
1000
0000
0000
,
0000
0000
0000
0000
,
0001
0000
0000
0000
,
0000
0010
0000
0000
,
0100
0000
0000
0000
,
0000
0000
0000
0000
,
0000
0000
0000
0000
,
0000
0000
0000
0010
,
0000
0000
0100
1000
,
0000
0000
0100
1000
,
0001
0000
0100
0001
,
0000
0000
0100
0001
,
0000
0000
0000
1000
,
0001
0000
1000
0100
,
0000
0000
0000
0000
,
0000
0000
0000
0100
,
0000
0000
0010
0100
,
0000
0000
0001
0010
,
0001
0000
1000
0010
,
0000
0000
1000
0000
,
0010
0000
1000
0000
,
0000
0000
0000
0000
,
0001
0000
0010
0000
,
0000
0000
0000
0001
,
0000
0000
0010
0100
,
0000
0010
0100
0000
,
0000
0000
1000
0001
,
0000
0000
1000
0001
,
0000
0000
1000
0100
,
0000
0010
0100
0010
,
0000
0001
0000
0100
,
0000
0001
0000
1000
,
0000
0000
0100
0000
,
1000
0000
0000
0000
,
0000
0000
0100
1000
,
0001
0000
0010
0000
,
0000
0000
0000
0001
,
0000
0010
0000
0000
;

//--------------- dance-single - LinkDude04 ----------------
#NOTEDATA:;
#STEPSTYPE:dance-single;
#DESCRIPTION:LinkDude04;
#DIFFICULTY:Easy;
#METER:3;
#RADARVALUES:0.153,0.211,0,0,0;
#NOTES:
0000
0000
0000
0000
,
0000
0000
0000
0000
,
0000
0000
0000
0000
,
0000
0000
0000
0000
,
0001
1000
0001
0000
,
0000
0000
0000
0000
,
1000
0100
1000
0000
,
0001
0100
0010
0000
,
0100
0000
0000
0010
,
0000
0000
0000
0000
,
0000
0000
1000
0001
,
0000
0000
0010
0001
,
0000
0000
0010
0100
,
0000
1000
0001
1000
,
0010
0000
1000
0010
,
0000
0100
0001
0010
,
0001
0000
0000
1000
0000
0000
0010
0000
,
0000
0000
0000
0100
,
0000
0000
0001
0010
,
0000
0100
1000
0010
,
0000
0000
1000
0001
,
0000
1000
0001
0100
,
0010
0100
0000
0000
,
0000
0000
0000
0001
,
1000
0100
0010
0100
,
0010
0001
0000
1000
,
0000
0000
0001
1000
,
0000
0100
1000
0001
,
0100
0000
0010
0100
,
0000
0010
1000
0001
,
0100
0000
0001
0000
,
0000
0000
0000
0000
,
0010
0000
0100
0000
,
0000
0000
0000
1000
,
0000
0000
0001
1000
,
0000
0010
1000
0010
,
0100
0000
0001
0010
,
0000
0001
1000
0010
,
0000
0000
0100
0001
,
0000
0010
0100
1000
,
0000
0010
0000
1000
,
0000
0001
0000
1000
,
0000
0000
0001
0000
,
0100
0000
0000
0000
,
0000
0000
0010
0000
,
0000
0100
0000
0000
,
0000
0000
0000
0000
,
0000
0000
0000
0001
,
0000
0000
0000
1000
0000
0000
0000
0000
,
0000
0000
0000
0000
,
0000
0000
0000
0000
,
0000
0010
0100
0010
,
0000
0100
0000
0000
,
0000
0000
0000
0000
,
0001
0000
0000
0000
,
0000
1000
0001
1000
,
0000
0010
0000
0000
,
0000
0000
0000
0000
,
1000
0000
0000
0000
,
0000
0010
0000
0000
,
0100
0000
0000
0000
,
0000
0000
0000
0000
,
0000
0000
0000
0000
,
0000
0000
0000
0010
,
0000
0000
1000
0001
,
0000
0000
0100
0001
,
0100
0000
0010
1000
,
0001
1000
0001
0100
,
0000
0000
0000
0010
,
1000
0100
0010
0100
,
0000
0000
0000
0000
,
0000
0000
0000
0010
,
0000
0000
0001
1000
,
0000
0000
0001
1000
,
0010
0000
0100
0001
,
0000
1000
0001
0010
,
0100
0000
0010
0000
,
0000
0000
0000
0000
,
0100
0000
1000
0000
,
0000
0000
0000
0010
,
0000
0000
1000
0001
,
0000
0000
0100
0000
0001
0000
0000
1000
,
0000
0100
0000
0000
0010
0000
0001
0000
,
0000
0100
0000
0000
0001
0000
1000
0000
,
0000
0000
0100
1000
,
0000
0100
0010
0100
,
0000
1000
0000
0001
,
0000
0100
0000
0001
,
0000
0000
0100
0000
,
0010
0000
0000
0000
,
0000
0000
1000
0001
,
1000
0001
0010
0000
,
0000
0000
0000
0100
,
0000
1000
0000
0000
;

//--------------- dance-single - LinkDude06 ----------------
#NOTEDATA:;
#STEPSTYPE:dance-single;
#DESCRIPTION:LinkDude06;
#DIFFICULTY:Medium;
#METER:4;
#RADARVALUES:0.188,0.301,0,0,0.003;
#NOTES:
0000
0000
0000
0000
,
0000
0000
0000
0000
,
0000
0000
0000
0000
,
0000
0000
0000
0000
,
0001
0000
1000
0000
0001
1000
0100
0000
,
0000
0000
0000
0000
,
0010
0000
0001
0000
0100
0010
1000
0000
,
0100
0000
0010
0000
0001
0100
0010
0000
,
1000
0000
0000
0000
0000
0000
0001
1000
,
0000
0000
0000
0000
,
0000
0000
0001
0100
,
0000
0000
0010
1000
,
0000
0000
0001
1000
,
0000
0010
0100
0010
,
0100
0000
0001
1000
,
0000
0010
0100
0001
,
0010
0000
0000
0001
0000
0000
1000
0000
,
0000
0000
0000
0010
,
0000
0000
1000
0001
,
0000
0000
0010
0000
0100
0000
1000
0010
,
0000
0000
1000
0001
,
0000
0000
0100
0010
0100
0001
1000
0000
,
0001
0100
0000
0000
,
0000
0000
0000
0010
,
0100
0001
1000
0100
,
1000
0100
0000
0010
,
0000
0000
0001
1000
,
0000
0100
1000
0001
0100
0000
0001
0100
,
0010
0000
1000
0001
,
0000
0000
0100
0010
0100
0000
0000
0010
,
1000
0000
0001
0000
,
0000
0000
0000
0000
0000
0000
0000
1000
,
0010
0000
0100
0000
,
0000
0000
0000
0001
,
0000
0000
1000
0001
,
0000
1000
0010
0100
0001
0000
0010
0100
,
1000
0000
0010
0100
,
0000
0001
0010
0100
1000
0000
0001
0000
,
0000
0000
1000
0001
,
0000
0010
0100
1000
,
0000
0001
0000
1000
,
0000
0100
0000
0010
,
0000
0000
0100
0000
,
0010
0000
0000
0000
,
0000
0000
0001
0000
,
0000
1000
0000
0000
,
0000
0000
0000
0000
,
0000
0000
0000
0100
,
0000
0000
0000
0010
0000
0000
0000
0000
,
0000
0000
0000
0000
,
0000
0000
0000
0000
,
0000
0001
0010
0001
,
0000
1000
0000
0000
,
0000
0000
0000
0000
,
0010
0000
0000
0000
,
0000
1000
0001
0010
,
0000
0100
0000
0000
,
0000
0000
0000
0000
,
1000
0000
0000
0000
,
0000
0010
0000
0000
,
1000
0000
0000
0000
,
0000
0000
0000
0000
,
0000
0000
0000
0000
,
0000
0000
0000
0001
,
0000
0000
0100
0010
,
0000
0000
0000
0100
0001
0000
1000
0001
,
0000
0100
0000
0000
0010
0000
0100
0001
,
1000
0100
1000
0100
,
0000
0000
0000
0010
,
0001
1000
0100
1000
,
0000
0000
0000
0000
,
0000
0000
0000
0001
,
0000
0000
0010
0001
,
0000
0000
0000
0010
0100
0000
1000
0001
,
0010
0000
0100
0010
,
0000
0000
0100
1000
0001
0000
0000
1000
,
0010
0000
0100
0000
,
0000
0000
0000
0000
0000
0000
0000
0001
,
1000
0000
0001
0000
,
0000
0000
0000
1000
,
0010
0000
0000
1000
0010
0000
0100
0000
,
0000
0000
0001
0000
1000
0000
0001
0000
0100
0000
0000
0010
0000
0000
0100
0000
,
0000
0001
0000
0000
1000
0000
0001
0000
,
0000
0100
0000
0010
1000
0000
0100
0000
,
0000
0000
1000
0001
,
0000
0100
0010
1000
,
0000
0100
0000
0010
,
0000
0001
0000
0100
,
0000
0000
0001
0000
,
1000
0000
0000
0000
,
0000
0000
0000
0100
0010
0000
0001
0000
,
1000
0001
1000
0010
0000
0100
0010
1000
,
0000
0000
0000
0001
,
0000
0010
0000
0000
;

//--------------- dance-single - LinkDude07 ----------------
#NOTEDATA:;
#STEPSTYPE:dance-single;
#DESCRIPTION:LinkDude07;
#DIFFICULTY:Hard;
#METER:5;
#RADARVALUES:0.237,0.306,0,0,0.013;
#NOTES:
0000
0000
0000
0000
,
0000
0000
0000
0000
,
0000
0000
0000
0000
,
0000
0000
0000
0000
,
0001
0000
1000
0000
0100
0010
0100
0000
,
0000
0000
0000
0000
,
1000
0000
0001
0000
0100
0010
0100
0000
,
0001
0000
1000
0000
0010
0100
0010
0000
,
1000
0000
0000
0000
0000
0000
0010
0100
,
0000
0000
0000
0000
,
0001
0100
0010
1000
,
0000
0000
0001
0010
,
0000
0000
0001
0100
,
0000
0010
1000
0010
,
0100
0000
0001
0010
,
0000
0100
1000
0100
,
0010
0000
0000
0001
0000
0000
0010
0000
,
0000
0000
0000
0100
,
0000
0000
1000
0010
,
0000
0000
1000
0000
0001
0000
0010
0001
,
0000
0000
1000
0001
,
0000
0000
0100
0001
0100
0001
0100
0000
,
0001
0010
0000
0000
,
0000
0000
0000
0001
,
0010
0100
1000
0100
,
0010
0001
0000
0100
,
0000
0000
0001
1000
,
0000
0100
1000
0100
1000
0000
0001
1000
,
0001
0000
0100
0010
,
0000
0000
0000
0000
1000
0000
0001
0000
1000
0000
0000
0000
0000
0000
0001
0100
,
0001
0000
0010
0000
,
0000
0000
0000
0000
0000
0000
0000
0001
,
1000
0000
0010
0000
,
0000
0000
0000
1000
,
0000
0000
0001
0100
,
0000
0001
1000
0010
1000
0000
0100
1000
,
0100
0000
1000
0010
,
0000
1000
0010
0100
0010
0000
1000
0000
,
0000
0000
0001
0010
,
0000
0001
0010
0200
,
0300
2000
3000
0002
,
0003
0200
0300
0020
,
0000
0030
0200
0300
,
0002
0000
0000
0100
,
1003
0000
2000
0000
,
0000
3010
0000
0000
,
1000
0000
0100
1000
0000
0000
0000
0000
,
0001
0000
0100
0001
0000
0000
1000
0000
,
0000
0000
0010
1000
0000
0000
0000
0000
,
0001
0000
0010
0001
0000
1000
0001
1000
,
0000
0000
0100
0010
0000
0000
0000
0000
,
0001
0010
0100
1000
,
0000
0001
0100
0010
,
1000
0000
0001
0000
0000
0010
0001
0010
,
0001
0000
1000
0001
0000
0000
0000
0000
,
1000
0010
0100
0010
,
0000
1000
0100
0010
,
0100
0000
1000
0000
0000
0001
0010
0001
,
0010
0000
0001
1000
0000
0000
0000
0000
,
0001
0010
0000
0001
,
2000
0200
0000
0000
0000
0000
0000
0000
,
0000
0000
0000
0000
,
0000
0000
0000
0000
,
3300
0000
0000
1000
,
0000
0000
0010
1000
,
0000
0000
0000
0000
0000
0000
0001
0100
0001
0000
0000
0000
0100
0000
0001
0000
,
0000
1000
0000
0000
0001
0000
0010
0001
,
0010
0001
1000
0100
,
0000
0000
0000
1000
,
0010
0100
0001
0100
,
0000
0000
0000
0000
,
0000
0000
0000
0110
,
0000
0000
1000
0001
,
0000
0000
0000
1000
0010
0000
1000
0010
,
1000
0000
0001
1000
,
0000
0000
0000
0000
0001
0000
0100
0000
0001
0000
0000
0000
0000
0000
0100
0001
,
0100
0000
0010
0000
,
0000
0000
0000
0000
0000
0000
0000
1000
,
0010
0000
0100
0000
,
0000
0000
0000
0001
,
0010
0000
0000
0001
0010
0000
0100
0000
,
0000
0000
1000
0000
0100
0000
1000
0000
0100
0000
0000
1000
0000
0000
0001
0000
,
0000
0010
0000
0000
0001
0000
0100
0000
,
0000
0010
0000
1000
0010
0000
0100
0000
,
0000
0000
0001
0010
,
0000
0001
1000
0200
,
0300
0020
0030
0200
,
0300
0020
0030
0002
,
0000
0003
2000
3000
,
0200
0000
0000
1000
,
1300
0000
0000
1000
0010
0000
0100
0000
,
0001
0100
0001
0100
0000
0001
1000
0001
,
0000
0000
0000
2000
,
3000
0002
0000
0010
,
0013
0000
0000
1000
0000
0000
0200
0000
,
0000
0000
0000
0000
,
0300
0000
0000
0000
;

//--------------- dance-single - LinkDude12 ----------------
#NOTEDATA:;
#STEPSTYPE:dance-single;
#DESCRIPTION:LinkDude12;
#DIFFICULTY:Challenge;
#METER:8;
#RADARVALUES:0.426,0.49,0,0,0.013;
#NOTES:
0000
0000
0000
0000
,
0000
0000
0000
0000
,
0000
0000
0000
0000
,
0000
0000
0000
0000
,
0001
1000
0010
1000
0001
1000
0100
1000
,
0000
0000
0000
0000
,
0001
0100
0001
0100
0001
1000
0001
1000
,
0010
1000
0010
1000
0100
1000
0100
0010
,
0001
0010
0001
0000
0000
0000
1000
0010
,
0000
0000
0000
0000
,
1000
0010
1000
0001
1000
0100
1000
0001
,
0000
0000
1000
0100
,
1000
0001
0010
0001
1000
0001
0100
0001
,
0000
1000
0001
0010
,
0001
0010
0100
1000
0001
0010
0100
1000
,
0000
0001
0100
0001
,
1000
0010
0100
0001
1000
0010
0100
0001
,
0000
0000
0000
1000
,
0001
0010
0100
1000
0100
0010
0001
0010
,
0000
0000
0001
0000
0100
0000
0001
0100
,
0010
1000
0010
0100
0001
0100
0010
1000
,
0000
0000
0001
0010
0001
0100
0010
0000
,
1000
0010
1000
0010
0100
0001
0100
0001
,
0000
0000
0000
1000
,
0100
1000
0100
0010
,
0001
1000
0000
0100
,
1000
0001
1000
0100
0010
0100
0010
0001
,
0000
1000
0100
0010
0001
0000
1000
0010
,
0100
0010
0100
0001
0100
0001
1000
0001
,
0000
0000
0000
0000
1000
0000
0100
0000
0010
0000
0000
0000
0000
0000
0001
0010
,
0001
0010
0001
1000
0001
0100
0001
0010
,
0000
0000
0000
0000
0000
0000
0000
0001
,
0100
0010
1000
0001
0100
0010
1000
0001
,
0000
0000
0000
1000
,
0100
0010
0100
1000
0001
0010
0100
1000
,
0000
0001
0010
0100
1000
0000
0001
0100
,
0001
0100
0010
0100
0010
1000
0010
1000
,
0000
0001
0100
0010
1000
0000
0001
0000
,
1000
0100
1000
0100
0010
0001
0010
0001
,
0000
1000
0010
0200
,
0000
0300
0002
0000
0000
0003
2000
0000
,
0000
3000
0020
0000
0000
0030
0100
0000
,
0000
0000
0000
0000
0002
0000
0000
0003
,
2000
0000
0000
0000
3000
0001
1000
0010
,
1000
0000
0002
0000
,
0003
M22M
0000
0330
,
0001
0000
0100
0001
0000
0000
1000
0100
,
1000
0000
0001
1000
0000
0000
0001
0100
,
0001
0000
1000
0001
0000
0000
1000
0010
,
1000
0000
0001
1000
0000
0000
0001
0010
,
0001
0000
1000
0001
0000
0000
1000
0010
,
0100
0000
0010
0100
0001
0000
1000
0010
,
0100
0000
0010
0100
0000
0000
0001
0010
,
0100
0000
0010
0100
0000
1000
0100
1000
,
0100
0010
0001
0010
0000
0000
0001
0100
,
0010
0000
0100
0010
1000
0000
0100
0010
,
0100
0000
0010
0001
0000
0000
1000
0010
,
1000
0000
0001
0100
0000
0010
1000
0001
,
1000
0000
0001
0100
0000
0000
0001
0000
,
0100
0010
0100
0010
,
1000
0010
1000
0100
1000
0100
0010
0100
,
0010
0001
0010
0001
0100
0001
0100
0010
,
0100
0010
1000
0010
1000
0100
1000
0100
,
0010
0000
0001
1000
,
0001
0010
0001
1000
0100
1000
0001
0010
,
0000
0000
0000
0000
0000
0000
0001
0010
0001
0000
0000
0000
0010
0000
0001
0000
,
0100
0010
1000
0100
0010
0001
0100
0010
,
1000
0001
1000
0100
,
1000
0100
1000
0100
0010
0001
0010
0001
,
1000
0010
1000
0010
,
0100
0001
0100
0001
1000
0010
1000
0010
,
0000
0000
1000
0010
,
0100
0001
1000
0001
0010
0100
1000
0100
,
0000
0000
0000
1000
0001
0000
0100
0001
,
1000
0001
0100
0010
1000
0010
0100
0010
,
0000
0000
0000
0000
1000
0000
0100
0000
0010
0000
0000
0000
0000
0000
0001
0010
,
0001
0010
0001
1000
0100
1000
0100
0010
,
0000
0000
0000
0000
0000
0000
0000
0001
,
1000
0100
1000
0001
0010
0100
0010
0001
,
0000
0000
0000
1000
,
0100
0010
0100
1000
0001
0010
0100
1000
,
0000
0000
0001
0000
0100
0000
0001
0000
1000
0000
0000
0100
0000
0000
0010
0000
,
0001
1000
0001
1000
0100
0010
0100
1000
,
0000
0001
0000
0100
0010
0000
0100
0000
,
0001
1000
0100
0010
0100
1000
0001
0100
,
0000
0010
1000
0002
,
0000
0003
0200
0000
0000
0300
0002
0000
,
0000
0003
0020
0000
0000
0030
0200
0000
,
0000
0000
0000
0300
2000
0000
0000
3000
,
0020
0000
0000
0000
0030
1000
0010
0100
,
0000
0000
0000
0001
0100
0000
0010
0000
,
0100
0001
1000
0010
0000
1000
0001
1000
,
0010
1000
0000
0000
0000
0000
0002
0000
,
0000
0003
2000
0000
3000
0010
1000
0100
,
1000
0000
0000
0001
0000
0000
0020
0000
,
0000
0000
0000
0000
,
0030
0000
0000
0000
;

//--------------- dance-double - LinkDubs03 ----------------
#NOTEDATA:;
#STEPSTYPE:dance-double;
#DESCRIPTION:LinkDubs03;
#DIFFICULTY:Beginner;
#METER:2;
#RADARVALUES:0.131,0.181,0,0,0;
#NOTES:
00000000
00000000
00000000
00000000
,
00000000
00000000
00000000
00000000
,
00000000
00000000
00000000
00000000
,
00000000
00000000
00000000
00000000
,
00000001
00000000
00001000
00000000
,
00000000
00000000
00000000
00000000
,
00000001
00000000
00001000
00000000
,
00000100
00000000
00001000
00000000
,
00000100
00000000
00000000
00000010
,
00000000
00000000
00000000
00000000
,
00000000
00000000
00000001
00000100
,
00000000
00000000
00000001
00000010
,
00000000
00000000
00000100
00001000
,
00000000
00000000
00000010
00001000
,
00000010
00000000
00010000
00000010
,
00000000
00000000
00001000
00000010
,
00001000
00000000
00000010
00001000
,
00000000
00000000
00000000
00000010
,
00000000
00000000
00010000
00001000
,
00000000
00000000
00100000
00010000
,
00000000
00000000
00100000
00010000
,
00000000
00000000
01000000
00001000
,
01000000
00000000
00000000
00000000
,
00000000
00000000
00000000
00000000
,
00001000
01000000
00000000
00000000
,
00010000
01000000
00000000
00010000
,
00000000
00000000
01000000
00010000
,
00000000
00000000
10000000
00010000
,
01000000
00000000
00100000
01000000
,
00000000
00000000
00100000
00000000
,
01000000
00000000
00010000
00000000
,
00000000
00000000
00000000
00000000
,
00100000
00000000
00001000
00000000
,
00000000
00000000
00000000
00100000
,
00000000
00000000
00010000
00100000
,
00000000
00000000
00010000
00100000
,
00010000
00000000
00100000
00001000
,
00000000
00010000
00000010
00010000
,
00000000
00000000
00000010
00001000
,
00000000
00000010
00001000
00000010
,
00000000
00010000
00000000
00000010
,
00000000
00010000
00000000
00000100
,
00000000
00000000
00001000
00000000
,
00000100
00000000
00000000
00000000
,
00000000
00000000
00001000
00000000
,
00000000
00000100
00000000
00000000
,
00000000
00000000
00000000
00000000
,
00000000
00000000
00000000
00001000
,
00000000
00000000
00000000
00000100
00000000
00000000
00000000
00000000
,
00000000
00000000
00000000
00000000
,
00000000
00000000
00000000
00000000
,
00000000
00001000
00000010
00000100
,
00000000
00000010
00000000
00000000
,
00000000
00000000
00000000
00000000
,
00000100
00000000
00000000
00000000
,
00000000
00000001
00001000
00000010
,
00000000
00010000
00000000
00000000
,
00000000
00000000
00000000
00000000
,
00000010
00000000
00000000
00000000
,
00000000
00001000
00000000
00000000
,
00000010
00000000
00000000
00000000
,
00000000
00000000
00000000
00000000
,
00000000
00000000
00000000
00000000
,
00000000
00000000
00000000
00001000
,
00000000
00000000
00000100
00010000
,
00000000
00000000
00000100
00010000
,
00001000
00000000
01000000
00001000
,
00000000
00000000
01000000
00001000
,
00000000
00000000
00000000
01000000
,
00001000
00000000
01000000
00010000
,
00000000
00000000
00000000
00000000
,
00000000
00000000
00000000
00100000
,
00000000
00000000
00010000
00100000
,
00000000
00000000
00001000
00100000
,
00001000
00000000
00100000
00010000
,
00000000
00000000
00100000
00000000
,
00010000
00000000
00100000
00000000
,
00000000
00000000
00000000
00000000
,
00010000
00000000
00100000
00000000
,
00000000
00000000
00000000
00010000
,
00000000
00000000
00100000
01000000
,
00000000
00100000
01000000
00000000
,
00000000
00000000
10000000
00010000
,
00000000
00000000
01000000
00001000
,
00000000
00000000
01000000
00010000
,
00000000
01000000
00010000
01000000
,
00000000
00001000
00000000
01000000
,
00000000
00001000
00000000
00010000
,
00000000
00000000
00000100
00000000
,
00010000
00000000
00000000
00000000
,
00000000
00000000
00000100
00010000
,
00000100
00000000
00001000
00000000
,
00000000
00000000
00000000
00000010
,
00000000
00001000
00000000
00000000
;

//--------------- dance-double - LinkDubs04 ----------------
#NOTEDATA:;
#STEPSTYPE:dance-double;
#DESCRIPTION:LinkDubs04;
#DIFFICULTY:Easy;
#METER:3;
#RADARVALUES:0.153,0.211,0,0,0;
#NOTES:
00000000
00000000
00000000
00000000
,
00000000
00000000
00000000
00000000
,
00000000
00000000
00000000
00000000
,
00000000
00000000
00000000
00000000
,
00000001
00001000
00000001
00000000
,
00000000
00000000
00000000
00000000
,
00001000
00000100
00001000
00000000
,
00000001
00000100
00000010
00000000
,
00000100
00000000
00000000
00000010
,
00000000
00000000
00000000
00000000
,
00000000
00000000
00001000
00000100
,
00000000
00000000
00001000
00000010
,
00000000
00000000
00001000
00000010
,
00000000
00010000
00001000
00100000
,
00010000
00000000
00100000
00010000
,
00000000
00100000
00001000
00100000
,
00001000
00000000
00000000
00100000
00000000
00000000
00010000
00000000
,
00000000
00000000
00000000
00100000
,
00000000
00000000
00001000
00100000
,
00000000
00010000
00100000
00010000
,
00000000
00000000
00100000
00010000
,
00000000
10000000
00010000
01000000
,
00100000
01000000
00000000
00000000
,
00000000
00000000
00000000
00010000
,
01000000
00010000
01000000
00010000
,
01000000
00001000
00000000
00010000
,
00000000
00000000
00000100
00010000
,
00000000
00000100
00010000
00000100
,
00001000
00000000
00000100
00001000
,
00000000
00000100
00010000
00000100
,
00001000
00000000
00000100
00000000
,
00000000
00000000
00000000
00000000
,
00001000
00000000
00000010
00000000
,
00000000
00000000
00000000
00010000
,
00000000
00000000
00000010
00001000
,
00000000
00000010
00001000
00000010
,
00000100
00000000
00000001
00000010
,
00000000
00000001
00001000
00000010
,
00000000
00000000
00000100
00000001
,
00000000
00000010
00000100
00001000
,
00000000
00000010
00000000
00001000
,
00000000
00000100
00000000
00010000
,
00000000
00000000
00000100
00000000
,
00001000
00000000
00000000
00000000
,
00000000
00000000
00000100
00000000
,
00000000
00001000
00000000
00000000
,
00000000
00000000
00000000
00000000
,
00000000
00000000
00000000
00000100
,
00000000
00000000
00000000
00010000
00000000
00000000
00000000
00000000
,
00000000
00000000
00000000
00000000
,
00000000
00000000
00000000
00000000
,
00000000
00000010
00001000
00000010
,
00000000
00001000
00000000
00000000
,
00000000
00000000
00000000
00000000
,
00000010
00000000
00000000
00000000
,
00000000
00010000
00001000
00100000
,
00000000
00010000
00000000
00000000
,
00000000
00000000
00000000
00000000
,
00100000
00000000
00000000
00000000
,
00000000
00010000
00000000
00000000
,
00100000
00000000
00000000
00000000
,
00000000
00000000
00000000
00000000
,
00000000
00000000
00000000
00000000
,
00000000
00000000
00000000
00010000
,
00000000
00000000
01000000
00010000
,
00000000
00000000
01000000
00010000
,
01000000
00000000
00100000
10000000
,
00010000
01000000
00001000
01000000
,
00000000
00000000
00000000
00010000
,
01000000
00010000
01000000
00010000
,
00000000
00000000
00000000
00000000
,
00000000
00000000
00000000
00100000
,
00000000
00000000
00001000
00010000
,
00000000
00000000
00000010
00010000
,
00000010
00000000
00001000
00000010
,
00000000
00001000
00000001
00000010
,
00000100
00000000
00000010
00000000
,
00000000
00000000
00000000
00000000
,
00000100
00000000
00001000
00000000
,
00000000
00000000
00000000
00000010
,
00000000
00000000
00001000
00000010
,
00000000
00000000
00001000
00000000
00000100
00000000
00000000
00010000
,
00000000
00000100
00000000
00000000
00001000
00000000
00000100
00000000
,
00000000
00001000
00000000
00000000
00000100
00000000
00010000
00000000
,
00000000
00000000
00000100
00010000
,
00000000
00000100
00001000
00000100
,
00000000
00010000
00000000
00001000
,
00000000
01000000
00000000
00001000
,
00000000
00000000
01000000
00000000
,
00010000
00000000
00000000
00000000
,
00000000
00000000
01000000
00010000
,
10000000
00010000
00100000
00000000
,
00000000
00000000
00000000
01000000
,
00000000
10000000
00000000
00000000
;

//--------------- dance-double - LinkDubs06 ----------------
#NOTEDATA:;
#STEPSTYPE:dance-double;
#DESCRIPTION:LinkDubs06;
#DIFFICULTY:Medium;
#METER:4;
#RADARVALUES:0.188,0.301,0,0,0.003;
#NOTES:
00000000
00000000
00000000
00000000
,
00000000
00000000
00000000
00000000
,
00000000
00000000
00000000
00000000
,
00000000
00000000
00000000
00000000
,
00000001
00000000
00001000
00000000
00000001
00001000
00000100
00000000
,
00000000
00000000
00000000
00000000
,
00000010
00000000
00000001
00000000
00000100
00000010
00001000
00000000
,
00000100
00000000
00000010
00000000
00000001
00000100
00000010
00000000
,
00001000
00000000
00000000
00000000
00000000
00000000
00000100
00010000
,
00000000
00000000
00000000
00000000
,
00000000
00000000
00000100
00001000
,
00000000
00000000
00000010
00010000
,
00000000
00000000
00001000
00100000
,
00000000
00010000
00100000
00010000
,
00100000
00000000
00001000
00100000
,
00000000
00010000
00100000
00001000
,
00100000
00000000
00000000
00001000
00000000
00000000
00100000
00000000
,
00000000
00000000
00000000
00010000
,
00000000
00000000
00100000
00010000
,
00000000
00000000
00100000
00000000
01000000
00000000
10000000
00100000
,
00000000
00000000
10000000
00010000
,
00000000
00000000
01000000
00100000
01000000
00010000
01000000
00000000
,
00001000
01000000
00000000
00000000
,
00000000
00000000
00000000
00010000
,
01000000
00001000
00010000
00000100
,
00010000
00000100
00000000
00001000
,
00000000
00000000
00000100
00001000
,
00000000
00000100
00001000
00000001
00000100
00000000
00000001
00000100
,
00000010
00000000
00001000
00000100
,
00000000
00000000
00001000
00000100
00001000
00000000
00000000
00000100
,
00010000
00000000
00001000
00000000
,
00000000
00000000
00000000
00000000
00000000
00000000
00000000
00100000
,
00010000
00000000
00100000
00000000
,
00000000
00000000
00000000
00001000
,
00000000
00000000
00100000
00010000
,
00000000
10000000
00100000
01000000
00010000
00000000
00100000
01000000
,
10000000
00000000
00100000
01000000
,
00000000
00010000
00100000
01000000
10000000
00000000
00010000
00000000
,
00000000
00000000
00100000
00001000
,
00000000
00100000
00010000
00100000
,
00000000
00001000
00000000
00010000
,
00000000
00000100
00000000
00001000
,
00000000
00000000
00000100
00000000
,
00001000
00000000
00000000
00000000
,
00000000
00000000
00000100
00000000
,
00000000
00001000
00000000
00000000
,
00000000
00000000
00000000
00000000
,
00000000
00000000
00000000
00000100
,
00000000
00000000
00000000
00000010
00000000
00000000
00000000
00000000
,
00000000
00000000
00000000
00000000
,
00000000
00000000
00000000
00000000
,
00000000
00000001
00000010
00000001
,
00000000
00001000
00000000
00000000
,
00000000
00000000
00000000
00000000
,
00000010
00000000
00000000
00000000
,
00000000
00001000
00000010
00001000
,
00000000
00000010
00000000
00000000
,
00000000
00000000
00000000
00000000
,
00010000
00000000
00000000
00000000
,
00000000
00000010
00000000
00000000
,
00010000
00000000
00000000
00000000
,
00000000
00000000
00000000
00000000
,
00000000
00000000
00000000
00000000
,
00000000
00000000
00000000
00001000
,
00000000
00000000
01000000
00010000
,
00000000
00000000
00000000
01000000
00001000
00000000
01000000
00010000
,
00000000
01000000
00000000
00000000
00100000
00000000
01000000
00010000
,
10000000
01000000
10000000
01000000
,
00000000
00000000
00000000
00100000
,
00010000
01000000
00010000
01000000
,
00000000
00000000
00000000
00000000
,
00000000
00000000
00000000
00001000
,
00000000
00000000
00100000
00001000
,
00000000
00000000
00000000
00100000
00010000
00000000
00100000
00001000
,
00100000
00000000
00010000
00100000
,
00000000
00000000
00010000
00100000
00001000
00000000
00000000
00010000
,
00000010
00000000
00001000
00000000
,
00000000
00000000
00000000
00000000
00000000
00000000
00000000
00000010
,
00001000
00000000
00000001
00000000
,
00000000
00000000
00000000
00001000
,
00000010
00000000
00000000
00001000
00000010
00000000
00000100
00000000
,
00000000
00000000
00000001
00000000
00001000
00000000
00000100
00000000
00001000
00000000
00000000
00000100
00000000
00000000
00001000
00000000
,
00000000
00000100
00000000
00000000
00010000
00000000
00001000
00000000
,
00000000
01000000
00000000
00010000
01000000
00000000
00010000
00000000
,
00000000
00000000
01000000
00010000
,
00000000
01000000
00100000
10000000
,
00000000
01000000
00000000
00100000
,
00000000
00010000
00000000
01000000
,
00000000
00000000
00010000
00000000
,
01000000
00000000
00000000
00000000
,
00000000
00000000
00000000
00010000
01000000
00000000
00001000
00000000
,
00010000
00000010
00010000
00000010
00000000
00001000
00000010
00010000
,
00000000
00000000
00000000
00000010
,
00000000
00001000
00000000
00000000
;

//--------------- dance-double - LinkDubs07 ----------------
#NOTEDATA:;
#STEPSTYPE:dance-double;
#DESCRIPTION:LinkDubs07;
#DIFFICULTY:Hard;
#METER:5;
#RADARVALUES:0.237,0.306,0,0,0.013;
#NOTES:
00000000
00000000
00000000
00000000
,
00000000
00000000
00000000
00000000
,
00000000
00000000
00000000
00000000
,
00000000
00000000
00000000
00000000
,
00000001
00000000
00001000
00000000
00000001
00001000
00000100
00000000
,
00000000
00000000
00000000
00000000
,
00000010
00000000
00000001
00000000
00000100
00000010
00001000
00000000
,
00000100
00000000
00010000
00000000
00000100
00001000
00000100
00000000
,
00010000
00000000
00000000
00000000
00000000
00000000
00001000
01000000
,
00000000
00000000
00000000
00000000
,
00010000
01000000
00001000
01000000
,
00000000
00000000
00010000
00100000
,
00000000
00000000
01000000
10000000
,
00000000
00010000
00100000
00010000
,
00100000
00000000
00001000
00100000
,
00000000
00010000
00100000
00010000
,
00100000
00000000
00000000
00001000
00000000
00000000
00100000
00000000
,
00000000
00000000
00000000
00010000
,
00000000
00000000
00100000
00001000
,
00000000
00000000
00100000
00000000
00001000
00000000
00100000
00010000
,
00000000
00000000
00100000
00001000
,
00000000
00000000
01000000
00010000
01000000
00001000
00010000
00000000
,
00000100
00001000
00000000
00000000
,
00000000
00000000
00000000
00000100
,
00001000
00000100
00001000
00000100
,
00001000
00000001
00000000
00000100
,
00000000
00000000
00000001
00001000
,
00000000
00000100
00000010
00000001
00000100
00000000
00000010
00001000
,
00000100
00000000
00001000
00000100
,
00000000
00000000
00000000
00000000
00010000
00000000
00000100
00000000
00010000
00000000
00000000
00000000
00000000
00000000
00001000
01000000
,
00010000
00000000
01000000
00000000
,
00000000
00000000
00000000
00000000
00000000
00000000
00000000
00001000
,
00100000
00000000
00010000
00000000
,
00000000
00000000
00000000
10000000
,
00000000
00000000
00100000
01000000
,
00000000
00010000
00100000
00010000
00100000
00000000
00001000
00100000
,
00010000
00000000
00100000
00010000
,
00000000
00100000
00001000
00010000
00000010
00000000
00010000
00000000
,
00000000
00000000
00000010
00001000
,
00000000
00000010
00001000
00000010
,
00000000
00010000
00000000
00000010
,
00000000
00001000
00000000
00000100
,
00000000
00000000
00000010
00000000
,
00000002
00000000
00000000
00000100
,
00000103
00000000
00000100
00000000
,
00000000
00000001
00000000
00000000
,
00001000
00000000
00000100
00000010
00000000
00000000
00000000
00000000
,
00000001
00000000
00001000
00000100
00000000
00000000
00010000
00000000
,
00000000
00000000
00000100
00001000
00000000
00000000
00000000
00000000
,
00000100
00000000
00001000
00000100
00000000
00010000
00001000
01000000
,
00000000
00000000
00010000
01000000
00000000
00000000
00000000
00000000
,
00010000
00100000
00010000
00100000
,
00000000
01000000
00100000
00010000
,
10000000
00000000
00010000
00000000
00000000
00100000
01000000
10000000
,
00010000
00000000
00100000
00010000
00000000
00000000
00000000
00000000
,
00100000
00001000
00100000
00010000
,
00000000
00100000
00010000
00100000
,
00001000
00000000
00100000
00000000
00000000
00010000
00100000
00001000
,
00100000
00000000
00001000
00100000
00000000
00000000
00000000
00000000
,
00010000
00100000
00000000
00001000
,
00100000
00010000
00000000
00000000
00000000
00000000
00000000
00000000
,
00000000
00000000
00000000
00000000
,
00000000
00000000
00000000
00000000
,
00000000
00000000
00000000
01000000
,
00000000
00000000
00001000
00010000
,
00000000
00000000
00000000
00000000
00000000
00000000
00000100
00001000
00000100
00000000
00000000
00000000
00001000
00000000
00000100
00000000
,
00000000
00001000
00000000
00000000
00000100
00000000
00001000
00000001
,
00000100
00000001
00001000
00000100
,
00000000
00000000
00000000
00000010
,
00000001
00000100
00000010
00001000
,
00000000
00000000
00000000
00000000
,
00000000
00000000
00000000
00000110
,
00000000
00000000
00001000
00000010
,
00000000
00000000
00000000
00010000
00000010
00000000
00010000
00001000
,
00100000
00000000
00010000
00100000
,
00000000
00000000
00000000
00000000
00001000
00000000
00100000
00000000
00010000
00000000
00000000
00000000
00000000
00000000
10000000
00100000
,
01000000
00000000
00010000
00000000
,
00000000
00000000
00000000
00000000
00000000
00000000
00000000
00100000
,
00010000
00000000
00100000
00000000
,
00000000
00000000
00000000
00001000
,
00100000
00000000
00000000
00010000
00100000
00000000
00010000
00000000
,
00000000
00000000
01000000
00000000
00001000
00000000
00010000
00000000
00000100
00000000
00000000
00010000
00000000
00000000
00000100
00000000
,
00000000
00001000
00000000
00000000
00000100
00000000
00001000
00000000
,
00000000
00000100
00000000
00010000
00000100
00000000
00001000
00000000
,
00000000
00000000
00000100
00000010
,
00000000
00000001
00001000
00000100
,
00000000
00000010
00000000
00000100
,
00000000
00000010
00000000
00000001
,
00000000
00000000
00000100
00000000
,
00000002
00000000
00000000
00001000
,
00001003
00000000
00000000
00001000
00000100
00000000
00010000
00000000
,
00000100
00010000
00000100
00010000
00000000
00001000
00010000
00001000
,
00000000
00000000
00000000
00010000
,
00000000
00002000
00000000
00100000
,
00103000
00000000
00000000
00100000
00000000
00000000
00010000
00000000
;

//--------------- dance-double - LinkDubs12 ----------------
#NOTEDATA:;
#STEPSTYPE:dance-double;
#DESCRIPTION:LinkDubs12;
#DIFFICULTY:Challenge;
#METER:8;
#RADARVALUES:0.426,0.49,0,0,0.013;
#NOTES:
00000000
00000000
00000000
00000000
,
00000000
00000000
00000000
00000000
,
00000000
00000000
00000000
00000000
,
00000000
00000000
00000000
00000000
,
00000001
00001000
00000001
00001000
00000100
00000010
00000001
00001000
,
00000000
00000000
00000000
00000000
,
00000100
00000010
00000100
00000010
00000001
00001000
00000100
00000010
,
00000001
00000100
00000010
00001000
00000100
00010000
00000100
00001000
,
00000100
00010000
00001000
00000000
00000000
00000000
01000000
00010000
,
00000000
00000000
00000000
00000000
,
01000000
00010000
10000000
01000000
00100000
01000000
10000000
00010000
,
00000000
00000000
00100000
01000000
,
00100000
00010000
00100000
00010000
00100000
00001000
00100000
00010000
,
00000000
00100000
00001000
00010000
,
00000010
00001000
00000010
00010000
00000010
00001000
00000010
00010000
,
00000000
00000010
00010000
00000010
,
00001000
00000010
00010000
00000010
00001000
00000010
00001000
00000010
,
00000000
00000000
00000000
00001000
,
00000010
00000100
00000001
00000010
00000001
00001000
00000010
00001000
,
00000000
00000000
00000010
00000000
00001000
00000000
00000010
00010000
,
00000010
00001000
00000010
00010000
00000010
00010000
00001000
00100000
,
00000000
00000000
00010000
01000000
00010000
01000000
00100000
00000000
,
01000000
00010000
10000000
00010000
01000000
00100000
01000000
00010000
,
00000000
00000000
00000000
01000000
,
00010000
01000000
00010000
01000000
,
00001000
00010000
00000000
00000100
,
00001000
00000100
00001000
00000100
00001000
00000001
00000100
00000010
,
00000000
00001000
00000100
00001000
00000100
00000000
00001000
00000100
,
00010000
00001000
01000000
00010000
01000000
00010000
01000000
00010000
,
00000000
00000000
00000000
00000000
10000000
00000000
01000000
00000000
00100000
00000000
00000000
00000000
00000000
00000000
00010000
01000000
,
00010000
01000000
00001000
00010000
00000100
00010000
00000100
00001000
,
00000000
00000000
00000000
00000000
00000000
00000000
00000000
00000010
,
00001000
00000010
00000100
00000001
00000010
00000100
00001000
00000010
,
00000000
00000000
00000000
00000100
,
00000001
00000010
00000100
00001000
00000010
00010000
00000010
00001000
,
00000000
00000010
00010000
00000010
00001000
00000000
00000010
00010000
,
00001000
00100000
00010000
00100000
00001000
00100000
00010000
00100000
,
00000000
00010000
00100000
00001000
00100000
00000000
00010000
00000000
,
00100000
00001000
00100000
00010000
00100000
00010000
10000000
00100000
,
00000000
01000000
00010000
00100000
,
00000000
00001000
00000000
00100000
,
00000000
00010000
00000000
01000000
,
00000000
00000000
00001000
00000000
,
00010000
00000000
00000000
00000000
00000000
00000100
00001000
00000100
,
00010000
00000000
00000100
00000000
,
00000000
00001100
00000000
00000000
,
00000100
00000000
00001000
00000100
00000000
00000000
00001000
00000100
,
00000010
00000000
00000001
00000100
00000000
00000000
00000010
00001000
,
00000100
00000000
00010000
00000100
00000000
00000000
00001000
00000100
,
00010000
00000000
00001000
01000000
00000000
00000000
00010000
01000000
,
00010000
00000000
01000000
00010000
00000000
00000000
01000000
00100000
,
10000000
00000000
00010000
00100000
01000000
00000000
00100000
00010000
,
00100000
00000000
00010000
00100000
00000000
00000000
00001000
00100000
,
00001000
00000000
00010000
00000010
00000000
00010000
00000010
00001000
,
00000010
00010000
00000010
00001000
00000000
00000000
00000010
00001000
,
00000010
00000000
00001000
00000001
00000010
00000000
00000100
00001000
,
00000010
00000000
00001000
00000010
00000000
00000000
00001000
00000010
,
00010000
00000000
00001000
00100000
00000000
00010000
00100000
00001000
,
00100000
00000000
00010000
00100000
00000000
00000000
00010000
00000000
,
00100000
00001000
00100000
00010000
,
00100000
00001000
00100000
00010000
00100000
00010000
00100000
01000000
,
10000000
00010000
01000000
00010000
01000000
00100000
10000000
00010000
,
01000000
00100000
01000000
00100000
10000000
00010000
01000000
00010000
,
01000000
00000000
00001000
00010000
,
00000100
00001000
00000100
00001000
00000100
00001000
00000001
00000100
,
00000000
00000000
00000000
00000000
00000000
00000000
00000001
00001000
00000100
00000000
00000000
00000000
00000010
00000000
00000001
00000000
,
00000100
00000010
00001000
00000100
00000010
00000001
00000100
00000010
,
00001000
00000100
00010000
00000100
,
00001000
00000100
00010000
00000100
00001000
00000100
00010000
00001000
,
01000000
00010000
01000000
00010000
,
01000000
00001000
01000000
00010000
01000000
00001000
01000000
00001000
,
00000000
00000000
00100000
00010000
,
00100000
00001000
00100000
00010000
00100000
01000000
10000000
00100000
,
00000000
00000000
00000000
01000000
00010000
00000000
00100000
00010000
,
00100000
00001000
00100000
00010000
00100000
00010000
00100000
00001000
,
00000000
00000000
00000000
00000000
00100000
00000000
00010000
00000000
00100000
00000000
00000000
00000000
00000000
00000000
00001000
00100000
,
00001000
00010000
00000010
00001000
00000010
00001000
00000001
00000010
,
00000000
00000000
00000000
00000000
00000000
00000000
00000000
00000100
,
00001000
00000010
00001000
00000010
00001000
00000010
00010000
00001000
,
00000000
00000000
00000000
00100000
,
00010000
00100000
00010000
00100000
00010000
00100000
01000000
10000000
,
00000000
00000000
00010000
00000000
01000000
00000000
00010000
00000000
01000000
00000000
00000000
00010000
00000000
00000000
01000000
00000000
,
00001000
00010000
00000100
00010000
00000100
00001000
00000100
00010000
,
00000000
00000100
00000000
00001000
00000100
00000000
00001000
00000000
,
00000100
00001000
00000100
00000010
00000100
00001000
00000100
00001000
,
00000000
00000100
00010000
00001000
,
00000000
01000000
00000000
00001000
,
00000000
01000000
00000000
00010000
,
00000000
00000000
01000000
00000000
,
00010000
00000000
00000000
00000000
00000000
01000000
00010000
10000000
,
00000000
00000000
00000000
01000000
00100000
00000000
01000000
00000000
,
00100000
00010000
00100000
00010000
00000000
00100000
00001000
00010000
,
00000010
00001000
00000000
00000000
00000000
00000000
00000010
00000000
,
00000000
00000000
00010000
00000000
00000000
00000010
00001000
00000010
,
00010000
00000000
00000000
00000010
00000000
00000000
00001000
00000000
;
