#VERSION:0.83;
#TITLE:Intro;
#SUBTITLE:Oracle of Ages-Seasons;
#ARTIST:8BitDanoOct1;
#TITLETRANSLIT:Oracle of Ages-Seasons - Intro;
#SUBTITLETRANSLIT:;
#ARTISTTRANSLIT:;
#GENRE:;
#ORIGIN:;
#CREDIT:Link AKA Dude;
#BANNER:Oracle of Ages-Seasons - Intro.png;
#BACKGROUND:Oracle of Ages-Seasons - Intro-bg.png;
#PREVIEWVID:;
#JACKET:;
#CDIMAGE:;
#DISCIMAGE:;
#LYRICSPATH:;
#CDTITLE:;
#MUSIC:Oracle of Ages Seasons - Intro.ogg;
#OFFSET:2.245000;
#SAMPLESTART:39.180000;
#SAMPLELENGTH:12.500000;
#SELECTABLE:YES;
#BPMS:0.000=130.004,
39.000=147.395,
41.000=130.004,
78.000=175.050;
#STOPS:77.500=0.014;
#DELAYS:;
#WARPS:;
#TIMESIGNATURES:0.000=4=4;
#TICKCOUNTS:0.000=4;
#COMBOS:0.000=1;
#SPEEDS:0.000=1.000=0.000=0;
#SCROLLS:0.000=1.000;
#FAKES:;
#LABELS:0.000=Song Start;
#BGCHANGES:0.000=IntroOAS.bg.png=1.000=0=0=0=StretchNoLoop====,
5.313=IntroOAS.mpg=1.000=0=0=0=StretchNoLoop====,
223.500=IntroOAS.bg.png=1.000=0=0=0=StretchNoLoop====,
99999=-nosongbg-=1.000=0=0=0 // don't automatically add -songbackground-
;
#KEYSOUNDS:;
#ATTACKS:
;

//---------------dance-single - LinkDude03----------------
#NOTEDATA:;
#CHARTNAME:LinkDude03;
#STEPSTYPE:dance-single;
#DESCRIPTION:LinkDude03;
#CHARTSTYLE:;
#DIFFICULTY:Beginner;
#METER:2;
#RADARVALUES:0.145356,0.193921,0.000000,0.000000,0.000000,85.000000,85.000000,0.000000,0.000000,0.000000,0.000000,0.000000,0.000000,0.000000,0.145356,0.193921,0.000000,0.000000,0.000000,85.000000,85.000000,0.000000,0.000000,0.000000,0.000000,0.000000,0.000000,0.000000;
#CREDIT:LinkDude03;
#NOTES:
// measure 0
0000
0000
0000
0000
,  // measure 1
0000
0000
0000
0000
,  // measure 2
0001
0000
0001
0000
,  // measure 3
0000
0000
1000
0000
,  // measure 4
1000
0000
1000
0000
,  // measure 5
0000
0000
0001
0000
,  // measure 6
0001
0000
0001
0000
,  // measure 7
0000
0000
1000
0000
,  // measure 8
1000
0000
1000
0000
,  // measure 9
0000
0000
0001
0001
,  // measure 10
0000
0010
0010
0000
,  // measure 11
0001
0001
0000
1000
,  // measure 12
1000
0000
0010
0010
,  // measure 13
0000
1000
1000
0000
,  // measure 14
0001
0001
0000
0100
,  // measure 15
0100
0000
0001
0001
,  // measure 16
0000
1000
1000
0000
,  // measure 17
0100
0100
0000
1000
,  // measure 18
1000
0000
0001
0001
,  // measure 19
0000
1000
1000
0000
,  // measure 20
0000
0000
0000
0000
,  // measure 21
0001
0000
0001
0000
,  // measure 22
0000
0000
1000
0000
,  // measure 23
0001
0000
1000
0000
,  // measure 24
0100
0000
1000
0000
,  // measure 25
0001
0000
1000
0000
,  // measure 26
0010
0000
0000
0000
,  // measure 27
0000
1000
1000
0000
,  // measure 28
0000
0000
0000
0000
,  // measure 29
0000
0000
0100
0000
,  // measure 30
0100
0000
0000
0000
,  // measure 31
1000
0000
0010
0000
,  // measure 32
1000
0000
0001
0000
,  // measure 33
1000
0000
0010
0000
,  // measure 34
1000
0000
0000
0000
,  // measure 35
0000
0001
0001
0000
,  // measure 36
0000
0000
0000
0000
,  // measure 37
0000
0000
0000
0000
,  // measure 38
0000
0000
0000
0000
,  // measure 39
0000
0000
1000
0000
,  // measure 40
1000
0000
0000
0000
,  // measure 41
0001
0000
1000
0000
,  // measure 42
0001
0000
0100
0000
,  // measure 43
0001
0000
1000
0000
,  // measure 44
0001
0000
0010
0000
,  // measure 45
0000
0000
0000
0001
,  // measure 46
0001
0000
0000
0000
,  // measure 47
0000
0000
0000
0000
,  // measure 48
0100
0000
0100
0000
,  // measure 49
0000
0000
0001
0000
,  // measure 50
0010
0000
0001
0000
,  // measure 51
1000
0000
0001
0000
,  // measure 52
0010
0000
0001
0000
,  // measure 53
0000
0000
0000
1000
,  // measure 54
1000
0000
0000
0000
;

//---------------dance-single - LinkDude04----------------
#NOTEDATA:;
#CHARTNAME:LinkDude04;
#STEPSTYPE:dance-single;
#DESCRIPTION:LinkDude04;
#CHARTSTYLE:;
#DIFFICULTY:Easy;
#METER:3;
#RADARVALUES:0.194947,0.326195,0.143645,0.215468,0.000000,114.000000,102.000000,12.000000,18.000000,0.000000,0.000000,0.000000,0.000000,0.000000,0.194947,0.326195,0.143645,0.215468,0.000000,114.000000,102.000000,12.000000,18.000000,0.000000,0.000000,0.000000,0.000000,0.000000;
#CREDIT:LinkDude04;
#NOTES:
0000
0000
0000
0000
,
0000
0000
0000
0000
,
0001
0000
0100
0000
,
0000
0000
0001
0100
,
0001
1000
0010
0000
,
0000
0000
1000
0100
,
1000
0001
0010
0000
,
0000
0000
0001
0100
,
0010
1000
0001
0000
,
0000
1000
0010
0100
,
0000
0010
1000
1000
,
0001
0001
0010
0100
,
0100
1000
0010
0010
,
0100
0001
0001
0010
,
0100
0100
1000
0010
,
0010
0100
0001
0001
,
0010
0100
0100
1000
,
0010
0010
0100
0001
,
0001
0010
0100
0100
,
1001
0000
0000
0000
,
0000
0000
0000
0000
,
0011
0000
2200
0000
,
3300
0000
1000
0000
,
0100
0000
0010
0000
,
0001
0000
1000
0000
,
0100
0000
0010
0000
,
0002
0000
0003
0000
,
0000
0010
2002
0000
,
3003
0000
0000
0000
,
0000
0000
1010
0000
,
0202
0000
0303
0000
,
0001
0000
0010
0000
,
0100
0000
1000
0000
,
0001
0000
0010
0000
,
0200
0000
0300
0000
,
0000
0010
0202
0000
,
0303
0000
0000
0000
,
0000
0000
0000
0000
,
0000
0000
0000
0000
,
0000
0000
1000
0000
,
2200
0000
3300
0000
,
0001
0000
0010
0000
,
1000
0000
0010
0000
,
0001
0000
0010
0000
,
0100
0000
1000
0000
,
0000
0000
0000
1000
,
0220
0000
0330
0000
,
0000
0000
0000
0000
,
1001
0000
0220
0000
,
0330
0000
1000
0000
,
0100
0000
0001
0000
,
0010
0000
1000
0000
,
0100
0000
0001
0000
,
0000
0000
0000
0010
,
2020
0000
3030
0000
;

//---------------dance-single - LinkDude07----------------
#NOTEDATA:;
#CHARTNAME:LinkDude07;
#STEPSTYPE:dance-single;
#DESCRIPTION:LinkDude07;
#CHARTSTYLE:;
#DIFFICULTY:Medium;
#METER:5;
#RADARVALUES:0.318072,0.358814,0.323202,0.095764,0.000000,186.000000,159.000000,27.000000,8.000000,8.000000,0.000000,0.000000,0.000000,0.000000,0.318072,0.358814,0.323202,0.095764,0.000000,186.000000,159.000000,27.000000,8.000000,8.000000,0.000000,0.000000,0.000000,0.000000;
#CREDIT:LinkDude07;
#NOTES:
0000
0000
0000
0000
,
0000
0000
0000
0000
,
0001
0000
0010
0000
0200
0000
0000
0300
,
0M00
0000
1000
0100
,
0010
0000
0001
0000
0200
0000
0000
0300
,
0M00
0000
0010
1000
,
0010
0000
0100
0000
0002
0000
0000
0003
,
000M
0000
0010
0100
,
1000
0000
0100
0000
0020
0000
0000
0030
,
00M0
0001
0100
0101
,
0000
1000
0010
0100
,
0001
0010
0100
1000
,
0100
0010
0001
0100
,
0010
1000
0010
0100
,
0001
0010
0100
1000
,
0100
1000
0010
0001
,
0010
1000
0100
1000
,
0100
0001
0100
1000
,
0001
0010
0100
1000
,
1100
0000
0001
0000
,
0001
0000
1000
0000
,
1010
0000
0101
0000
,
0001
0000
1010
0000
,
1100
0000
0011
0000
,
0101
0000
1010
0000
,
1100
0000
0011
0000
,
0101
0000
1000
0000
,
1000
0010
0101
0000
,
0001
0000
1000
0000
,
1000
0000
0011
0000
,
0101
0000
1000
0000
,
1010
0000
0101
0000
,
0011
0000
1100
0000
,
1010
0000
0101
0000
,
0011
0000
1000
0000
,
1000
0000
0100
0000
0022
0000
0000
0033
,
00MM
0000
0000
0000
,
0000
0000
0001
0010
,
0001
1000
0010
1000
,
0001
0100
0001
1000
,
0100
1000
0001
0010
,
0100
1000
0100
0010
,
0001
0100
0010
1000
,
0010
0100
0001
0010
,
0001
0010
1000
0010
,
0001
0100
0010
0110
,
0110
1000
0001
0100
,
0010
1000
0001
0100
,
0010
1000
0010
1000
,
0100
0001
0100
1000
,
0100
1000
0001
1000
,
0010
1000
0010
0001
,
0010
1000
0100
0001
,
0100
1000
0010
1001
,
2002
0000
0000
3003
M00M
0000
0000
0000
;

//---------------dance-single - LinkDude12----------------
#NOTEDATA:;
#CHARTNAME:LinkDude12;
#STEPSTYPE:dance-single;
#DESCRIPTION:LinkDude12;
#CHARTSTYLE:;
#DIFFICULTY:Hard;
#METER:8;
#RADARVALUES:0.523280,0.652390,0.371084,0.131675,0.035911,306.000000,275.000000,31.000000,11.000000,14.000000,0.000000,0.000000,0.000000,0.000000,0.523280,0.652390,0.371084,0.131675,0.035911,306.000000,275.000000,31.000000,11.000000,14.000000,0.000000,0.000000,0.000000,0.000000;
#CREDIT:LinkDude12;
#NOTES:
0000
0000
0000
0000
,
0M00
M000
00M0
M000
,
0001
0002
0000
0003
0100
0200
0000
0300
,
0M00
0000
1000
0100
,
1000
0010
1000
0000
0100
0200
0000
0300
,
0M00
1000
0001
0100
,
0010
1000
0010
0000
0100
0200
0000
0300
,
0M00
0001
1000
0100
,
0010
0001
0010
0000
0100
0200
0000
0300
,
0M00
1000
0100
1100
,
0000
0000
1000
0000
0010
0100
0010
0000
,
1000
0000
0010
0000
0000
0000
0100
0000
0001
0100
0001
0000
0010
0000
0001
0000
,
1000
0000
1000
0000
0010
0000
0000
0000
0000
0000
0000
0000
0010
1000
0010
1000
,
0000
0000
0100
0000
0110
0000
0000
0001
,
0010
0000
0001
0010
0001
0010
0001
0000
1000
0000
0100
0000
0010
0000
0001
0000
,
0000
0000
1000
0000
0010
1000
0010
0000
1000
0000
0100
0000
0010
0000
0001
0000
,
1000
0000
0100
1000
0000
0010
1000
0000
,
0000
0000
0000
0000
0010
0000
1000
0010
,
0000
0100
0010
0000
0100
0000
0001
0000
,
0101
0000
0001
0001
,
1000
1000
0001
0001
,
1010
1000
0101
0001
,
1000
1000
0011
0001
,
1100
1000
0011
0001
,
1100
1000
0101
0001
,
1010
1000
0101
0001
,
1010
1000
0001
0001
,
1000
0000
1000
0010
0110
0000
0100
0000
,
0001
0001
0010
0010
,
0100
0100
0110
0010
,
0011
0001
1001
1000
,
1010
0010
0110
0100
,
0101
0001
1001
1000
,
1100
0100
0110
0010
,
0011
0001
1001
1000
,
1000
0000
0100
1000
2200
0000
0000
3300
,
MM00
0000
0000
0000
,
0000
0000
0000
0000
0001
1000
0001
1000
,
0100
1000
0100
1000
0100
0010
0100
0010
,
0001
0010
0001
0010
0001
0100
0001
0100
,
0010
0100
0010
0100
0010
1000
0010
1000
,
0100
1000
0100
1000
0001
0010
0001
0010
,
0100
1000
0100
1000
0010
1000
0010
0100
,
0010
0001
0010
0100
0010
1000
0010
0100
,
0001
0100
0001
0100
0010
0100
1000
0100
,
0010
0100
0001
0100
0010
0000
0110
0010
,
2020
0000
0000
3030
M0M0
0000
0000
0000
,
0001
1000
0010
0100
0001
1000
0100
0010
,
0001
1000
0010
0100
0001
1000
0100
0010
,
0001
0010
0001
1000
0001
1000
0010
0100
,
0010
0100
0010
1000
0100
1000
0100
0010
,
0100
0010
0001
1000
0001
1000
0001
0100
,
0010
0100
0010
1000
0010
1000
0100
0010
,
0100
1000
0010
0100
0001
0010
0011
0011
,
0022
0000
0000
0033
00MM
0000
0000
0000
;

//---------------dance-single - LinkDude14----------------
#NOTEDATA:;
#CHARTNAME:LinkDude14;
#STEPSTYPE:dance-single;
#DESCRIPTION:LinkDude14;
#CHARTSTYLE:;
#DIFFICULTY:Challenge;
#METER:9;
#RADARVALUES:0.707967,0.667353,0.071823,0.071823,0.233424,414.000000,408.000000,6.000000,6.000000,54.000000,0.000000,0.000000,0.000000,0.000000,0.707967,0.667353,0.071823,0.071823,0.233424,414.000000,408.000000,6.000000,6.000000,54.000000,0.000000,0.000000,0.000000,0.000000;
#CREDIT:LinkDude14;
#NOTES:
0000
0000
0000
0000
,
0M00
M000
00M0
M000
,
0001
0010
0001
0000
0000
0000
0000
0000
1000
0010
1000
0000
0000
0000
0001
0010
,
0100
0000
0000
0000
1000
0100
0010
0001
,
1000
0000
0010
0000
1000
0000
0000
0000
0100
1000
0100
0000
0000
0000
0010
0001
,
1000
0100
0010
0000
0001
0000
0010
0000
0100
0000
1000
0000
0010
0000
1000
0000
,
0001
0000
0100
0000
0001
0000
0010
0000
0100
0010
0100
0000
0000
0000
1000
0001
,
0100
0001
1000
0010
0100
0001
0010
0001
,
1000
0000
0100
0000
0010
0000
0000
0000
0100
1000
0100
0000
0000
0000
1000
0001
,
0100
0001
1000
0010
1000
0100
1100
0000
,
0000
0000
1000
0000
0010
0100
0001
0000
,
1000
0000
0010
0000
0000
0000
0100
0000
0001
0100
0010
0000
1000
0000
0001
0000
,
0010
0000
1000
0000
0010
0000
0000
0000
0000
0000
0000
0000
0100
1000
0010
1000
,
0000
0000
0100
0000
1001
0000
0000
0001
,
1000
0000
0001
0010
0100
0010
0001
0000
1000
0000
0100
0000
0010
0000
0001
0000
,
0000
0000
1000
0000
0010
0100
0010
0000
1000
0000
0100
0000
0010
0000
0001
0000
,
1000
0000
0100
1000
0000
0010
1000
0000
,
0000
0000
0000
0000
0010
0000
1000
0010
,
0000
0001
0010
0000
0100
0000
0010
0000
,
0110
0000
0000
0000
0001
1000
0001
1000
,
0010
1000
0010
0100
0001
1000
0001
0100
,
M0M1
0100
0010
1000
0M1M
1000
0100
1000
,
0001
1000
0001
1000
01MM
1000
0001
0010
,
MM01
0010
0100
1000
01MM
1000
0001
0010
,
MM01
0010
1000
0010
1M0M
0010
0001
0100
,
M0M1
0100
0010
1000
0M1M
1000
0001
0100
,
M0M1
0100
1000
0100
0001
0100
0001
1000
,
0010
0100
0010
1000
0MM1
1000
0100
0010
,
0001
0010
0001
1000
0010
0100
0010
0100
,
0001
1000
0100
1000
0MM1
1000
0010
1000
,
01MM
1000
0001
0100
M01M
0100
0001
0100
,
M0M1
0100
0010
1000
0MM1
1000
0100
1000
,
0M1M
1000
0001
0100
M01M
0100
0001
0010
,
MM01
0010
0100
1000
0MM1
1000
0010
0100
,
10MM
0100
0001
0100
M01M
0100
1000
0100
,
0001
0010
0100
1000
2200
0000
0000
3300
,
MM00
0000
0000
0000
0000
0000
0000
0000
0001
1000
0001
0000
0100
0000
0001
0000
,
1000
0000
0010
0000
1000
0000
0100
0000
1000
0100
1000
0000
0001
0000
0010
0000
,
0100
0000
1000
0000
0100
0000
0010
0000
0100
1000
0100
0000
1000
0000
0010
0000
,
0100
0000
0010
0000
0001
0000
0010
0000
0100
0010
0100
0000
0001
0000
1000
0000
,
0001
0000
0010
0000
0100
0000
1000
0000
0010
1000
0010
0000
1000
0000
0100
0000
,
0010
0000
0100
0000
0001
0000
0100
0000
0010
0100
0010
0000
0001
0000
1000
0000
,
0100
0000
0010
0000
0100
0000
1000
0000
0001
1000
0001
0000
0010
0000
0100
0000
,
0010
0000
0001
0000
0010
0000
0100
0000
0010
0100
0010
0000
0001
0000
0100
0000
,
0010
0000
0100
0000
1000
0000
0100
0000
0010
0100
0010
0000
0100
0000
0001
0000
,
0010
0000
0100
0000
1000
0000
0010
0000
0100
0001
0100
0000
0010
0000
1000
0000
,
2020
0000
0000
3030
M0M0
0000
0000
0000
,
0001
0000
0010
0000
0100
0000
1000
0000
0010
0100
0001
0000
0010
0000
0100
0000
,
1000
0000
0010
0000
0100
0000
0001
0000
0010
0100
1000
0000
0100
0000
0010
0000
,
0001
0000
0010
0000
0001
0000
1000
0000
0001
1000
0100
0000
0010
0000
0100
0000
,
0010
0000
0001
0000
0010
0000
0001
0000
0100
0010
1000
0000
0100
0000
0010
0000
,
0100
0000
0010
0000
0001
0000
1000
0000
0010
0100
0001
0000
1000
0000
0001
0000
,
0010
0000
0100
0000
0010
0000
1000
0000
0010
0100
0010
0000
0001
0000
0010
0000
,
0100
0000
1000
0000
0100
0000
0001
0000
0100
1000
0100
0000
0010
0000
0100
0000
,
0220
0000
0000
0330
0MM0
0000
0000
0000
,
0001
0010
0100
1000
0100
0010
0001
0010
0100
1000
0100
0010
0001
0000
0000
0000
;

//---------------dance-double - LinkDubs03----------------
#NOTEDATA:;
#CHARTNAME:LinkDubs03;
#STEPSTYPE:dance-double;
#DESCRIPTION:LinkDubs03;
#CHARTSTYLE:;
#DIFFICULTY:Beginner;
#METER:2;
#RADARVALUES:0.145356,0.193921,0.000000,0.000000,0.000000,85.000000,85.000000,0.000000,0.000000,0.000000,0.000000,0.000000,0.000000,0.000000,0.145356,0.193921,0.000000,0.000000,0.000000,85.000000,85.000000,0.000000,0.000000,0.000000,0.000000,0.000000,0.000000,0.000000;
#CREDIT:LinkDubs03;
#NOTES:
00000000
00000000
00000000
00000000
,
00000000
00000000
00000000
00000000
,
00001000
00000000
00001000
00000000
,
00000000
00000000
00010000
00000000
,
00010000
00000000
00010000
00000000
,
00000000
00000000
00000100
00000000
,
00000100
00000000
00000100
00000000
,
00000000
00000000
00010000
00000000
,
00010000
00000000
00010000
00000000
,
00000000
00000000
00001000
00001000
,
00000000
00100000
00100000
00000000
,
00010000
00010000
00000000
01000000
,
01000000
00000000
00001000
00001000
,
00000000
00010000
00010000
00000000
,
00000010
00000010
00000000
00001000
,
00001000
00000000
00000100
00000100
,
00000000
00010000
00010000
00000000
,
00001000
00001000
00000000
01000000
,
01000000
00000000
00100000
00100000
,
00000000
01000000
01000000
00000000
,
00000000
00000000
00000000
00000000
,
00001000
00000000
00001000
00000000
,
00000000
00000000
00010000
00000000
,
00001000
00000000
00010000
00000000
,
00000100
00000000
00010000
00000000
,
00000010
00000000
00010000
00000000
,
00001000
00000000
00000000
00000000
,
00000000
00100000
00100000
00000000
,
00000000
00000000
00000000
00000000
,
00000000
00000000
00001000
00000000
,
00001000
00000000
00000000
00000000
,
00010000
00000000
00001000
00000000
,
01000000
00000000
00001000
00000000
,
00100000
00000000
00001000
00000000
,
00010000
00000000
00000000
00000000
,
00000000
00000010
00000010
00000000
,
00000000
00000000
00000000
00000000
,
00000000
00000000
00000000
00000000
,
00000000
00000000
00000000
00000000
,
00000000
00000000
00010000
00000000
,
00010000
00000000
00000000
00000000
,
00001000
00000000
00010000
00000000
,
00001000
00000000
00100000
00000000
,
00001000
00000000
01000000
00000000
,
00001000
00000000
00010000
00000000
,
00000000
00000000
00000000
00000100
,
00000100
00000000
00000000
00000000
,
00000000
00000000
00000000
00000000
,
00010000
00000000
00010000
00000000
,
00000000
00000000
00001000
00000000
,
01000000
00000000
00001000
00000000
,
00100000
00000000
00001000
00000000
,
00010000
00000000
00001000
00000000
,
00000000
00000000
00000000
00010000
,
00001000
00000000
00000000
00000000
;

//---------------dance-double - LinkDubs04----------------
#NOTEDATA:;
#CHARTNAME:LinkDubs04;
#STEPSTYPE:dance-double;
#DESCRIPTION:LinkDubs04;
#CHARTSTYLE:;
#DIFFICULTY:Easy;
#METER:3;
#RADARVALUES:0.194947,0.326195,0.143645,0.215468,0.000000,114.000000,102.000000,12.000000,18.000000,0.000000,0.000000,0.000000,0.000000,0.000000,0.194947,0.326195,0.143645,0.215468,0.000000,114.000000,102.000000,12.000000,18.000000,0.000000,0.000000,0.000000,0.000000,0.000000;
#CREDIT:LinkDubs04;
#NOTES:
00000000
00000000
00000000
00000000
,
00000000
00000000
00000000
00000000
,
00000100
00000000
00001000
00000000
,
00000000
00000000
00000100
00001000
,
00000100
00010000
00000100
00000000
,
00000000
00000000
00010000
00000100
,
00010000
00001000
00010000
00000000
,
00000000
00000000
00001000
00100000
,
00001000
00010000
00001000
00000000
,
00000000
00100000
00001000
00100000
,
00000000
00001000
00001000
00100000
,
00010000
00010000
01000000
00100000
,
00100000
10000000
00010000
00010000
,
00100000
00001000
00001000
00010000
,
00000100
00000100
00001000
00000010
,
00000010
00000100
00000001
00000001
,
00000010
00000001
00000001
00000100
,
00000010
00000010
00001000
00000100
,
00000100
00010000
00001000
00001000
,
00011000
00000000
00000000
00000000
,
00000000
00000000
00000000
00000000
,
00001100
00000000
00220000
00000000
,
00330000
00000000
00100000
00000000
,
00001000
00000000
00010000
00000000
,
00000100
00000000
00001000
00000000
,
00000100
00000000
00000010
00000000
,
00000002
00000000
00000003
00000000
,
00000000
00001000
00020020
00000000
,
00030030
00000000
00000000
00000000
,
00000000
00000000
00010100
00000000
,
00022000
00000000
00033000
00000000
,
00001000
00000000
00010000
00000000
,
00001000
00000000
00100000
00000000
,
00010000
00000000
10000000
00000000
,
02000000
00000000
03000000
00000000
,
00000000
00010000
00202000
00000000
,
00303000
00000000
00000000
00000000
,
00000000
00000000
00000000
00000000
,
00000000
00000000
00000000
00000000
,
00000000
00000000
00010000
00000000
,
00020200
00000000
00030300
00000000
,
00000100
00000000
00001000
00000000
,
00000001
00000000
00000010
00000000
,
00001000
00000000
00000010
00000000
,
00000100
00000000
00010000
00000000
,
00000000
00000000
00000000
00010000
,
00000220
00000000
00000330
00000000
,
00000000
00000000
00000000
00000000
,
00011000
00000000
02200000
00000000
,
03300000
00000000
10000000
00000000
,
01000000
00000000
00010000
00000000
,
00100000
00000000
10000000
00000000
,
01000000
00000000
00010000
00000000
,
00000000
00000000
00000000
00001000
,
00022000
00000000
00033000
00000000
;

//---------------dance-double - LinkDubs07----------------
#NOTEDATA:;
#CHARTNAME:LinkDubs07;
#STEPSTYPE:dance-double;
#DESCRIPTION:LinkDubs07;
#CHARTSTYLE:;
#DIFFICULTY:Medium;
#METER:5;
#RADARVALUES:0.318072,0.358814,0.323202,0.095764,0.000000,186.000000,159.000000,27.000000,8.000000,8.000000,0.000000,0.000000,0.000000,0.000000,0.318072,0.358814,0.323202,0.095764,0.000000,186.000000,159.000000,27.000000,8.000000,8.000000,0.000000,0.000000,0.000000,0.000000;
#CREDIT:LinkDubs07;
#NOTES:
00000000
00000000
00000000
00000000
,
00000000
00000000
00000000
00000000
,
00000001
00000000
00000010
00000000
00000200
00000000
00000000
00000300
,
00000M00
00000000
00010000
00000010
,
00001000
00000000
00000010
00000000
00020000
00000000
00000000
00030000
,
000M0000
00000000
00001000
00010000
,
00000010
00000000
00010000
00000000
00002000
00000000
00000000
00003000
,
0000M000
00000000
00100000
00001000
,
00010000
00000000
00001000
00000000
00200000
00000000
00000000
00300000
,
00M00000
00010000
01000000
01010000
,
00000000
10000000
00010000
01000000
,
00001000
00010000
00000100
00001000
,
00000001
00000010
00000001
00001000
,
00000010
00010000
00001000
00100000
,
00010000
10000000
01000000
10000000
,
01000000
10000000
00100000
00001000
,
00100000
10000000
01000000
10000000
,
01000000
00001000
01000000
10000000
,
00010000
00100000
00001000
00010000
,
00011000
00000000
00000010
00000000
,
00000010
00000000
00010000
00000000
,
00010100
00000000
00001010
00000000
,
00000010
00000000
00001010
00000000
,
00011000
00000000
00000110
00000000
,
00001010
00000000
00010100
00000000
,
00011000
00000000
00000110
00000000
,
00001010
00000000
00010000
00000000
,
00010000
00001000
00011000
00000000
,
00001000
00000000
01000000
00000000
,
01000000
00000000
00011000
00000000
,
00101000
00000000
01000000
00000000
,
01010000
00000000
00101000
00000000
,
00011000
00000000
01100000
00000000
,
01010000
00000000
00101000
00000000
,
00011000
00000000
01000000
00000000
,
01000000
00000000
00100000
00000000
00022000
00000000
00000000
00033000
,
000MM000
00000000
00000000
00000000
,
00000000
00000000
00000100
00010000
,
00000100
00010000
00001000
00010000
,
00000010
00000100
00000010
00010000
,
00001000
00010000
00000100
00000010
,
00000100
00010000
00000100
00001000
,
00000001
00000100
00010000
00000100
,
00000010
00000100
00000001
00001000
,
00000010
00010000
00001000
00100000
,
01000000
00100000
00001000
11000000
,
11000000
00001000
00100000
01000000
,
10000000
00010000
00100000
01000000
,
10000000
00010000
00100000
00001000
,
00010000
00001000
01000000
00001000
,
00100000
00010000
10000000
00010000
,
01000000
00010000
00100000
00001000
,
00010000
00001000
01000000
10000000
,
01000000
00010000
10000000
00110000
,
00220000
00000000
00000000
00330000
00MM0000
00000000
00000000
00000000
;

//---------------dance-double - LinkDubs12----------------
#NOTEDATA:;
#CHARTNAME:LinkDubs12;
#STEPSTYPE:dance-double;
#DESCRIPTION:LinkDubs12;
#CHARTSTYLE:;
#DIFFICULTY:Hard;
#METER:8;
#RADARVALUES:0.523280,0.652390,0.371084,0.131675,0.035911,306.000000,275.000000,31.000000,11.000000,14.000000,0.000000,0.000000,0.000000,0.000000,0.523280,0.652390,0.371084,0.131675,0.035911,306.000000,275.000000,31.000000,11.000000,14.000000,0.000000,0.000000,0.000000,0.000000;
#CREDIT:LinkDubs12;
#NOTES:
00000000
00000000
00000000
00000000
,
0M000000
M0000000
00M00000
M0000000
,
00001000
00002000
00000000
00003000
00100000
00200000
00000000
00300000
,
00M00000
00000000
00001000
00010000
,
00001000
01000000
00001000
00000000
00010000
00020000
00000000
00030000
,
000M0000
00001000
01000000
00010000
,
00100000
00001000
00100000
00000000
00001000
00002000
00000000
00003000
,
0000M000
01000000
00010000
10000000
,
00010000
01000000
00010000
00000000
00100000
00200000
00000000
00300000
,
00M00000
00001000
00010000
00011000
,
00000000
00000000
00000010
00000000
00001000
00000100
00001000
00000000
,
00000001
00000000
00001000
00000000
00000000
00000000
00000100
00000000
00010000
00000100
00010000
00000000
00001000
00000000
00010000
00000000
,
00000010
00000000
00000010
00000000
00001000
00000000
00000000
00000000
00000000
00000000
00000000
00000000
00000001
00000010
00000001
00000010
,
00000000
00000000
00000100
00000000
00001100
00000000
00000000
00010000
,
00001000
00000000
00010000
00001000
00010000
00001000
00010000
00000000
00000010
00000000
00000100
00000000
00000001
00000000
00001000
00000000
,
00000000
00000000
00000001
00000000
00001000
00000010
00001000
00000000
00000010
00000000
00000100
00000000
00000001
00000000
00001000
00000000
,
00000010
00000000
00000100
00000010
00000000
00010000
00000010
00000000
,
00000000
00000000
00000000
00000000
00010000
00000000
00000010
00010000
,
00000000
00000100
00010000
00000000
00001000
00000000
00010000
00000000
,
00011000
00000000
00010000
00010000
,
00000100
00000100
00010000
00010000
,
00010010
00000010
00010010
00010000
,
00001000
00001000
01001000
01000000
,
01001000
00001000
00101000
00100000
,
00101000
00001000
00011000
00010000
,
00010100
00000100
00010100
00010000
,
00010010
00000010
00010000
00010000
,
00001000
00000000
00001000
00010000
00011000
00000000
00001000
00000000
,
00100000
00100000
00010000
00010000
,
00100000
00100000
01100000
01000000
,
11000000
10000000
10010000
00010000
,
01010000
01000000
01001000
00001000
,
00011000
00010000
00010100
00000100
,
00000110
00000010
00000011
00000001
,
00001001
00001000
00001100
00000100
,
00000100
00000000
00010000
00001000
00022000
00000000
00000000
00033000
,
000MM000
00000000
00000000
00000000
,
00000000
00000000
00000000
00000000
00010000
00001000
00010000
00001000
,
00100000
00001000
00100000
00001000
00100000
00010000
00100000
00010000
,
10000000
00010000
10000000
00010000
10000000
00100000
10000000
00100000
,
01000000
00100000
01000000
00100000
01000000
00001000
01000000
00001000
,
00100000
00001000
00100000
00001000
10000000
00010000
10000000
00010000
,
00100000
00001000
00100000
00001000
01000000
00001000
01000000
00100000
,
01000000
10000000
01000000
00100000
01000000
00001000
01000000
00100000
,
10000000
00100000
10000000
00100000
01000000
00100000
00001000
00100000
,
01000000
00100000
10000000
00100000
01000000
00000000
01100000
01000000
,
02002000
00000000
00000000
03003000
0M00M000
00000000
00000000
00000000
,
01000000
00001000
01000000
00001000
00010000
00000100
00001000
00000100
,
00010000
00000010
00001000
00000010
00010000
00000100
00001000
00000100
,
00010000
00000010
00001000
00000010
00010000
00000100
00001000
00000100
,
00010000
00000010
00001000
00000010
00010000
00000100
00001000
00000100
,
00001000
00000100
00010000
00001000
00010000
00001000
00100000
00010000
,
00100000
00010000
01000000
00100000
01000000
00100000
10000000
01000000
,
10000000
01000000
00100000
00001000
00100000
00001000
00011000
00011000
,
00022000
00000000
00000000
00033000
000MM000
00000000
00000000
00000000
;

//---------------dance-double - LinkDubs14----------------
#NOTEDATA:;
#CHARTNAME:LinkDubs14;
#STEPSTYPE:dance-double;
#DESCRIPTION:LinkDubs14;
#CHARTSTYLE:;
#DIFFICULTY:Challenge;
#METER:9;
#RADARVALUES:0.707967,0.667353,0.071823,0.071823,0.233424,414.000000,408.000000,6.000000,6.000000,54.000000,0.000000,0.000000,0.000000,0.000000,0.707967,0.667353,0.071823,0.071823,0.233424,414.000000,408.000000,6.000000,6.000000,54.000000,0.000000,0.000000,0.000000,0.000000;
#CREDIT:LinkDubs14;
#NOTES:
00000000
00000000
00000000
00000000
,
0M000000
M0000000
00M00000
M0000000
,
00000010
00001000
00000001
00000000
00000000
00000000
00000000
00000000
00001000
00000010
00010000
00000000
00000000
00000000
00000010
00010000
,
00000100
00000000
00000000
00000000
00010000
00000100
00001000
00000010
,
00010000
00000000
00001000
00000000
00010000
00000000
00000000
00000000
00001000
00010000
00000100
00000000
00000000
00000000
00010000
00000100
,
00010000
00001000
00010000
00000000
00001000
00000000
00100000
00000000
01000000
00000000
10000000
00000000
00100000
00000000
10000000
00000000
,
00010000
00000000
01000000
00000000
00010000
00000000
00100000
00000000
00010000
00100000
00001000
00000000
00000000
00000000
00100000
00001000
,
00010000
00000100
00001000
00000010
00000100
00000001
00000010
00000100
,
00001000
00000000
00000100
00000000
00010000
00000000
00000000
00000000
00000100
00010000
00001000
00000000
00000000
00000000
00010000
00001000
,
00100000
00001000
10000000
00100000
10000000
01000000
11000000
00000000
,
00000000
00000000
00100000
00000000
00001000
00010000
00000010
00000000
,
00010000
00000000
00000010
00000000
00000000
00000000
00001000
00000000
00000010
00001000
00000100
00000000
00010000
00000000
00001000
00000000
,
01000000
00000000
00010000
00000000
00100000
00000000
00000000
00000000
00000000
00000000
00000000
00000000
00010000
00100000
01000000
00100000
,
00000000
00000000
01000000
00000000
11000000
00000000
00000000
00010000
,
10000000
00000000
00010000
00100000
01000000
00100000
00010000
00000000
00100000
00000000
00001000
00000000
00010000
00000000
00000100
00000000
,
00000000
00000000
00010000
00000000
00000010
00000100
00000010
00000000
00010000
00000000
00000100
00000000
00000010
00000000
00000001
00000000
,
00001000
00000000
00000010
00001000
00000000
00000100
00001000
00000000
,
00000000
00000000
00000000
00000000
00000100
00000000
00010000
00000100
,
00000000
00000001
00000100
00000000
00001000
00000000
00000100
00000000
,
00010100
00000000
00000000
00000000
00000100
00010000
00000100
00010000
,
00000010
00010000
00000010
00001000
00000001
00001000
00000001
00000100
,
0000M0M1
00000100
00000010
00010000
00000M1M
00010000
00000100
00001000
,
00000001
00001000
00000001
00001000
000001MM
00001000
00000001
00000010
,
0000MM01
00000010
00000100
00010000
000001MM
00001000
00000001
00000010
,
0000MM01
00000010
00001000
00000010
00001M0M
00000010
00000001
00000100
,
0000M0M1
00000100
00000010
00010000
00000M1M
00001000
00000001
00000100
,
0000M0M1
00000100
00001000
00000100
00000010
00010000
00001000
00010000
,
00001000
00100000
00010000
10000000
0MM10000
10000000
01000000
00100000
,
00001000
00100000
00010000
10000000
00100000
01000000
00100000
01000000
,
00010000
10000000
01000000
10000000
0MM10000
10000000
00100000
10000000
,
01MM0000
10000000
00010000
01000000
M01M0000
01000000
00001000
01000000
,
M0M01000
01000000
00100000
10000000
0MM10000
10000000
01000000
10000000
,
0M1M0000
10000000
00010000
01000000
M01M0000
01000000
00001000
00100000
,
MM001000
00100000
01000000
10000000
0MM10000
10000000
00100000
01000000
,
10MM0000
01000000
00001000
01000000
M01M0000
01000000
10000000
01000000
,
00001000
00100000
01000000
10000000
22000000
00000000
00000000
33000000
,
MM000000
00000000
00000000
00000000
00000000
00000000
00000000
00000000
00001000
00100000
00001000
00000000
00010000
00000000
00001000
00000000
,
01000000
00000000
00001000
00000000
00010000
00000000
00001000
00000000
00010000
00001000
00010000
00000000
00000100
00000000
00010000
00000000
,
00000100
00000000
00001000
00000000
00000100
00000000
00000010
00000000
00000100
00001000
00000100
00000000
00010000
00000000
00000010
00000000
,
00000100
00000000
00000010
00000000
00000001
00000000
00000010
00000000
00000100
00000010
00000100
00000000
00000001
00000000
00001000
00000000
,
00000001
00000000
00000010
00000000
00000100
00000000
00010000
00000000
00000010
00001000
00000010
00000000
00010000
00000000
00000100
00000000
,
00000010
00000000
00000100
00000000
00000001
00000000
00000100
00000000
00000010
00000100
00000010
00000000
00000001
00000000
00001000
00000000
,
00000100
00000000
00010000
00000000
00000100
00000000
00001000
00000000
00000001
00001000
00000001
00000000
00000010
00000000
00000100
00000000
,
00000010
00000000
00000001
00000000
00000010
00000000
00000100
00000000
00000010
00000100
00000010
00000000
00000001
00000000
00000100
00000000
,
00000010
00000000
00000100
00000000
00010000
00000000
00000100
00000000
00000010
00000100
00000010
00000000
00000100
00000000
00000001
00000000
,
00000010
00000000
00000100
00000000
00010000
00000000
00001000
00000000
00010000
00000010
00010000
00000000
00001000
00000000
00010000
00000000
,
00022000
00000000
00000000
00033000
000MM000
00000000
00000000
00000000
,
00001000
00000000
00100000
00000000
01000000
00000000
10000000
00000000
00100000
01000000
00001000
00000000
00100000
00000000
01000000
00000000
,
10000000
00000000
00100000
00000000
01000000
00000000
00001000
00000000
00100000
01000000
10000000
00000000
01000000
00000000
00100000
00000000
,
00001000
00000000
00100000
00000000
00010000
00000000
10000000
00000000
00010000
10000000
01000000
00000000
00100000
00000000
01000000
00000000
,
00100000
00000000
00010000
00000000
00100000
00000000
00001000
00000000
00100000
00001000
00010000
00000000
00001000
00000000
00010000
00000000
,
00000100
00000000
00001000
00000000
00000001
00000000
00001000
00000000
00000010
00000100
00000001
00000000
00001000
00000000
00000001
00000000
,
00000010
00000000
00000100
00000000
00000010
00000000
00010000
00000000
00000010
00000100
00000010
00000000
00000001
00000000
00000010
00000000
,
00000100
00000000
00010000
00000000
00000100
00000000
00000001
00000000
00000100
00001000
00000100
00000000
00000010
00000000
00000100
00000000
,
00000220
00000000
00000000
00000330
00000MM0
00000000
00000000
00000000
,
00001000
01000000
00010000
00100000
00010000
01000000
00001000
01000000
00010000
00100000
00010000
01000000
00001000
00000000
00000000
00000000
;

//---------------dance-single - LinkDump18----------------
#NOTEDATA:;
#CHARTNAME:LinkDump18;
#STEPSTYPE:dance-single;
#DESCRIPTION:LinkDump18;
#CHARTSTYLE:;
#DIFFICULTY:Edit;
#METER:12;
#RADARVALUES:0.942246,1.103601,0.000000,0.011970,0.730198,551.000000,551.000000,0.000000,1.000000,8.000000,0.000000,0.000000,0.000000,0.000000,0.942246,1.103601,0.000000,0.011970,0.730198,551.000000,551.000000,0.000000,1.000000,8.000000,0.000000,0.000000,0.000000,0.000000;
#CREDIT:LinkDump18;
#NOTES:
0000
0000
0000
0000
,
0M00
M000
00M0
M000
,
0001
1000
0010
1000
0001
0100
0001
0010
0100
1000
0001
0010
0001
0100
0010
1000
,
0001
1000
0001
0100
0010
1000
0001
1000
,
0001
0000
1000
0000
0001
0000
1000
0000
0100
0010
0001
0100
0001
1000
0010
0100
,
0001
0010
0001
1000
0100
0000
1000
0000
0001
0000
0010
0000
0001
0000
1000
0000
,
0001
0000
1000
0000
0100
0000
1000
0000
0001
1000
0001
0010
0100
0010
0001
1000
,
0001
0100
0010
0100
0001
1000
0001
1000
,
0010
0000
0100
0000
0001
0000
1000
0000
0001
1000
0001
1000
0001
0010
0001
1000
,
0100
0000
1000
0000
0010
0000
0100
0000
0001
0000
1000
0000
0002
0000
0000
0003
,
MMMM
0000
0001
1000
0001
1000
0100
0010
,
0001
0000
1000
0000
0001
0000
1000
0000
0001
1000
0001
0100
0010
1000
0100
1000
,
0001
0010
0100
1000
0010
0000
1000
0000
0001
0000
0100
0000
0001
1000
0010
1000
,
0001
1000
0001
0100
0001
0000
1000
0000
0001
0000
1000
0000
0010
0000
0100
0000
,
0010
0000
1000
0001
1000
0100
0010
0100
1000
0001
1000
0001
0010
0100
1000
0000
,
0001
0000
1000
0000
0001
1000
0001
0010
0100
0010
0001
1000
0001
1000
0100
0000
,
0010
0001
1000
0001
1000
0100
0010
0001
,
0100
0001
1000
0010
0100
0001
1000
0001
,
0010
0001
0100
0010
1000
0001
1000
0001
,
0100
0010
1000
0001
1000
0001
0100
0010
,
0100
0001
1000
0001
0010
0001
1000
0100
,
0010
0001
0100
0001
1000
0010
1000
0001
,
0100
0001
1000
0010
1000
0001
0100
0001
,
0010
0100
1000
0001
0010
0001
1000
0001
,
1000
0100
0010
0100
1000
0001
1000
0001
,
0010
0100
1000
0001
1000
0001
0010
0100
,
1000
0010
1000
0001
0100
0010
1000
0001
,
1000
0000
0100
0000
1000
0000
0010
0000
0100
0001
1000
0001
1000
0010
0100
0001
,
1000
0001
1000
0010
0100
0010
1000
0001
1000
0100
1000
0001
0010
0100
1000
0010
,
1000
0001
0100
0001
1000
0010
1000
0001
0100
0000
0001
0000
1000
0000
0010
0000
,
1000
0100
0010
0001
1000
0100
1000
0001
,
1000
0010
1000
0001
1000
0100
0010
0100
,
0010
0001
1000
0100
0010
0100
0010
0001
,
1000
0100
1000
0010
0100
0001
1000
0001
,
1000
0010
1000
0100
1000
0001
0010
0100
,
0010
0000
0100
0000
1000
0000
0001
0000
0010
0100
0010
0100
1000
0001
1000
0010
,
0100
0010
1000
0001
1000
0001
1000
0100
1000
0010
0100
0001
0010
0100
1000
0010
,
0100
0001
0010
0100
1000
0010
1000
0001
0100
0010
1000
0001
1000
0001
0100
0001
,
1000
0001
0010
0100
0010
0100
1000
0001
0010
0100
0010
0100
1000
0001
0010
0001
,
0100
0010
1000
0001
1000
0001
0100
0001
0010
0000
0001
0000
1000
0000
0100
0000
,
0010
0100
0010
0001
1000
0100
0010
0100
,
0010
0001
1000
0001
0100
0010
0100
0001
,
1000
0001
1000
0001
0010
0001
0100
0010
,
1000
0100
0010
0001
0100
0010
1000
0100
,
0010
0001
0100
0001
1000
0010
0100
0001
,
1000
0001
1000
0010
0100
0001
0010
0100
,
1000
0010
1000
0001
0100
0010
1000
0100
1000
0001
0010
0100
0010
0100
1000
0001
,
0010
0001
1000
0100
0010
0100
0010
0001
1000
0100
1000
0010
0100
0001
1000
0010
,
1000
0100
0010
0001
0100
0010
1000
0100
,
0010
0001
1000
0001
0100
0010
0100
0010
,
1000
0001
1000
0100
0010
0100
1000
0001
,
1000
0010
0100
0010
0100
0001
1000
0010
,
0100
0001
1000
0001
0010
0100
1000
0010
,
0100
0001
0010
0001
1000
0100
0010
0001
,
0100
0001
1000
0010
0100
0010
0100
0001
1000
0010
1000
0001
0100
0010
0100
0010
,
1000
0001
0100
0001
0010
0100
1000
0001
0010
0001
0100
0010
1000
0100
0010
0000
;

//---------------dance-double - LinkDump18----------------
#NOTEDATA:;
#CHARTNAME:LinkDump18;
#STEPSTYPE:dance-double;
#DESCRIPTION:LinkDump18;
#CHARTSTYLE:;
#DIFFICULTY:Edit;
#METER:12;
#RADARVALUES:0.942246,1.103601,0.000000,0.011970,0.730198,551.000000,551.000000,0.000000,1.000000,8.000000,0.000000,0.000000,0.000000,0.000000,0.942246,1.103601,0.000000,0.011970,0.730198,551.000000,551.000000,0.000000,1.000000,8.000000,0.000000,0.000000,0.000000,0.000000;
#CREDIT:LinkDump18;
#NOTES:
00000000
00000000
00000000
00000000
,
0M000000
M0000000
00M00000
M0000000
,
00001000
01000000
00010000
01000000
00001000
00100000
00001000
00100000
00010000
01000000
00001000
00100000
00001000
00100000
00010000
01000000
,
00001000
01000000
00001000
00100000
00010000
01000000
00001000
00010000
,
00000010
00000000
00010000
00000000
00000010
00000000
00010000
00000000
00000100
00001000
00000001
00001000
00000010
00010000
00000100
00001000
,
00000001
00001000
00000010
00010000
00000100
00000000
00010000
00000000
00000010
00000000
00001000
00000000
00000010
00000000
00010000
00000000
,
00000010
00000000
00001000
00000000
00000010
00000000
00001000
00000000
00000001
00001000
00000001
00000100
00000010
00000100
00000001
00001000
,
00000001
00000010
00000100
00000010
00000001
00001000
00000001
00001000
,
00000100
00000000
00000010
00000000
00000001
00000000
00001000
00000000
00000001
00001000
00000010
00010000
00000010
00001000
00000010
00010000
,
00000100
00000000
00010000
00000000
00000100
00000000
00001000
00000000
00000010
00000000
00010000
00000000
00000200
00000000
00000000
00000300
,
000MMMM0
00000000
00000010
00010000
00000010
00010000
00000100
00001000
,
00000010
00000000
00010000
00000000
00001000
00000000
01000000
00000000
00001000
01000000
00001000
00100000
00010000
10000000
00010000
01000000
,
00001000
00100000
00010000
10000000
00010000
00000000
01000000
00000000
00001000
00000000
00100000
00000000
00001000
01000000
00010000
01000000
,
00001000
01000000
00010000
01000000
00010000
00000000
10000000
00000000
00010000
00000000
10000000
00000000
00100000
00000000
01000000
00000000
,
00100000
00000000
10000000
00010000
10000000
01000000
00100000
01000000
10000000
00010000
10000000
00010000
00100000
01000000
10000000
00000000
,
00010000
00000000
10000000
00000000
00010000
01000000
00001000
00100000
00010000
00100000
00001000
01000000
00001000
01000000
00010000
00000000
,
00100000
00001000
01000000
00001000
01000000
00010000
00100000
00001000
,
00100000
00001000
01000000
00010000
00100000
00001000
00010000
00000010
,
00001000
00000001
00001000
00000100
00010000
00000010
00010000
00000010
,
00001000
00000100
00010000
00000010
00010000
00000010
00001000
00000001
,
00001000
00000010
00010000
00000010
00001000
00000010
00001000
00000010
,
00000100
00000001
00000010
00000001
00001000
00000100
00001000
00000001
,
00000010
00000001
00001000
00000100
00001000
00000001
00000010
00000001
,
00000100
00000010
00001000
00000001
00000100
00000001
00001000
00000010
,
00010000
00000100
00001000
00000100
00010000
00000010
00010000
00000010
,
00001000
00000100
00010000
00000010
00010000
00000010
00001000
00000100
,
00010000
00000100
00010000
00000010
00001000
00000100
00010000
00001000
,
01000000
00000000
00010000
00000000
10000000
00000000
00010000
00000000
00100000
00001000
01000000
00001000
01000000
00010000
00100000
00001000
,
01000000
00001000
01000000
00010000
10000000
00010000
01000000
00001000
01000000
00010000
01000000
00010000
00100000
01000000
10000000
00100000
,
10000000
00010000
01000000
00010000
10000000
00100000
10000000
00010000
01000000
00000000
00010000
00000000
10000000
00000000
00100000
00000000
,
10000000
01000000
00100000
00010000
10000000
01000000
10000000
00010000
,
01000000
00010000
01000000
00001000
01000000
00010000
10000000
00010000
,
00100000
00001000
01000000
00010000
10000000
00010000
00100000
00001000
,
01000000
00010000
10000000
00010000
00100000
00001000
01000000
00001000
,
00010000
00000100
00010000
00000100
00010000
00000010
00001000
00000001
,
00001000
00000000
00000100
00000000
00010000
00000000
00000010
00000000
00001000
00000001
00001000
00000100
00010000
00000010
00010000
00000100
,
00001000
00000100
00010000
00000010
00001000
00000001
00001000
00000010
00010000
00000100
00000010
00000001
00000100
00000010
00010000
00000100
,
00000010
00000001
00000100
00000010
00010000
00000100
00001000
00000001
00000010
00000100
00010000
00000001
00001000
00000010
00001000
00000010
,
00010000
00000010
00001000
00000001
00001000
00000100
00010000
00000010
00001000
00000001
00001000
00000100
00010000
00000010
00001000
00000001
,
00001000
00000100
00010000
00000010
00010000
00001000
00100000
00001000
00100000
00000000
00001000
00000000
01000000
00000000
00010000
00000000
,
10000000
00010000
00100000
00001000
01000000
00010000
10000000
00010000
,
00100000
00001000
01000000
00001000
00100000
00010000
00100000
00001000
,
01000000
00010000
10000000
00010000
00100000
00001000
01000000
00100000
,
10000000
01000000
00100000
00001000
01000000
00100000
10000000
01000000
,
00100000
00001000
01000000
00010000
10000000
00100000
01000000
00010000
,
10000000
00010000
01000000
00010000
00100000
00001000
00100000
00010000
,
10000000
00010000
01000000
00001000
00100000
00010000
10000000
00010000
01000000
00001000
00100000
00010000
10000000
00010000
01000000
00001000
,
00100000
00001000
00010000
00000100
00001000
00000001
00001000
00000010
00010000
00000100
00010000
00000100
00001000
00000010
00010000
00000100
,
00010000
00000100
00001000
00000001
00001000
00000100
00010000
00000100
,
00001000
00000010
00001000
00000001
00000010
00000100
00000010
00000100
,
00001000
00000001
00001000
00000010
00000100
00000010
00001000
00000001
,
00001000
00000100
00000010
00000100
00000010
00000001
00001000
00000100
,
00000010
00000001
00001000
00000010
00001000
00000100
00010000
00000100
,
00001000
00000001
00001000
00000010
00010000
00000100
00001000
00000001
,
00001000
00000010
00010000
00000100
00001000
00000001
00001000
00000010
00010000
00000100
00010000
00001000
00100000
00010000
10000000
00010000
,
00000010
00010000
00000100
00010000
00000100
00001000
00000010
00010000
00000100
00010000
00000100
00001000
00000001
00001000
00000001
00000000
;
