#TITLE:Mr. Saxobeat;
#SUBTITLE:Sensibility Validation;
#ARTIST:Alexandra Stan;
#TITLETRANSLIT:;
#SUBTITLETRANSLIT:;
#ARTISTTRANSLIT:;
#GENRE:Dance;
#CREDIT:;
#MUSIC:song.ogg;
#BANNER:saxobeat bn.png;
#BACKGROUND:saxobeat bg.png;
#CDTITLE:;
#SAMPLESTART:32.140;
#SAMPLELENGTH:16.420;
#SELECTABLE:YES;
#OFFSET:0.009;
#BPMS:0.000=127.000;
#STOPS:;
#BGCHANGES:;
#FGCHANGES:;

//--------------- dance-single - LinkDude03 ----------------
#NOTES:
     dance-single:
     LinkDude03:
     Beginner:
     2:
     0,0,0,0,0:
0000
0000
0000
0000
,
0000
0000
0000
0000
,
0000
0000
0000
0000
,
0000
0000
0000
0000
,
0001
0000
1000
0000
,
0100
0000
0010
0000
,
0100
0000
1000
0000
,
0001
0000
0001
0000
,
0010
0000
0010
0000
,
0001
0000
1000
0000
,
0010
0000
0100
0000
,
0001
0000
0010
0000
,
M20M
0300
0000
0000
0010
0000
0000
0000
,
0001
0000
1000
0000
,
0010
0000
0100
0000
,
1000
0000
0010
0000
,
M20M
0300
0000
0000
0010
0000
0000
0000
,
1000
0000
0001
0000
,
0010
0000
0100
0000
,
1000
0000
0010
0000
,
M20M
0300
0000
0000
0010
0000
0000
0000
,
1000
0000
0001
0000
,
0010
0000
0100
0000
,
1000
0000
0010
0000
,
M20M
0300
0000
0000
0010
0000
0000
0000
,
M22M
0000
0000
0000
0000
0330
000M
0000
,
1000
0M00
0010
0M00
,
0001
0M00
0010
0M00
,
1000
000M
0010
000M
,
1000
000M
0100
000M
,
1000
00M0
0100
00M0
,
0001
00M0
0100
00M0
,
1000
000M
0010
000M
,
1000
000M
0100
000M
,
1000
1000
0000
0000
,
0001
0001
0000
0000
,
0010
0010
0000
0000
,
0100
0100
0000
0000
,
1000
1000
0000
0000
,
0010
0010
0000
0000
,
0100
0100
0000
0000
,
0001
0001
0000
0000
,
1000
0000
0010
0000
,
0100
0000
0001
0000
,
0010
0000
0100
0000
,
1000
0000
0010
0000
,
0100
0000
0001
0000
,
0100
0000
0010
0000
,
1000
0000
0100
0000
,
0010
0000
0001
0000
,
0200
0000
0000
0000
0000
0300
0000
0000
,
0001
0000
1000
0000
,
0010
0000
0100
0000
,
0001
0000
0010
0000
,
M20M
0300
0000
0000
0010
0000
0000
0000
,
0001
0000
1000
0000
,
0010
0000
0100
0000
,
1000
0000
0010
0000
,
M20M
0000
0000
0000
0000
0300
0000
0000
,
0001
0000
1000
0000
,
0010
0000
0400
0000
,
0000
0300
0000
0000
,
0000
0000
0010
0000
,
1000
0000
0001
0000
,
0010
0000
0400
0000
,
0000
0300
0000
0000
,
0000
0000
0010
0000
,
M20M
0300
0000
0000
0000
0000
0000
0000
;

//--------------- dance-single - LinkDude06 ----------------
#NOTES:
     dance-single:
     LinkDude06:
     Easy:
     4:
     0,0,0,0,0:
0000
0000
0000
0000
,
0000
0000
0000
0000
,
0000
0000
0000
0000
,
0000
0000
0000
0000
,
0001
0001
0100
0100
,
0010
0010
1000
1000
,
0010
0010
0100
0100
,
0001
0001
0100
0100
,
0010
0010
1000
1000
,
0001
1000
0001
1000
,
0010
1000
0100
1000
,
0001
1000
0001
0010
,
M20M
0300
0010
0100
,
1000
0001
1000
0001
,
0010
0001
0100
0001
,
1000
0001
1000
0010
,
M20M
0300
0010
0100
,
0001
1000
0001
1000
,
0010
1000
0100
1000
,
0001
1000
0001
0010
,
M20M
0300
0010
0100
,
1000
0001
1000
0001
,
0010
0001
0100
0001
,
1000
0001
1000
0010
,
M20M
0300
0010
0100
,
M22M
0000
0330
0001
,
0001
0000
0000
0000
0200
0300
0000
0000
0010
0000
0000
0000
0200
0300
0000
0000
,
1000
0000
0000
0000
0200
0300
0000
0000
0010
0000
0000
0000
0200
0300
0000
0000
,
0001
0000
0000
0000
2000
3000
0000
0000
0010
0000
0000
0000
2000
3000
0000
0000
,
0001
0000
0000
0000
2000
3000
0000
0000
0100
0000
0000
0000
2000
3000
0000
0000
,
0001
0000
0000
0000
0020
0030
0000
0000
0100
0000
0000
0000
0020
0030
0000
0000
,
1000
0000
0000
0000
0020
0030
0000
0000
0100
0000
0000
0000
0020
0030
0000
0000
,
0001
0000
0000
0000
2000
3000
0000
0000
0010
0000
0000
0000
2000
3000
0000
0000
,
0001
0000
0000
0000
2000
3000
0000
0000
0100
0000
0000
0000
2000
3000
0000
0000
,
0001
0001
0010
0000
,
0001
0001
0100
0000
,
0010
0010
1000
0000
,
0100
0100
0010
0000
,
0001
0001
1000
0000
,
0100
0100
1000
0000
,
0010
0010
0100
0000
,
0001
0001
1000
0000
,
0001
0010
0100
1000
,
0001
0100
0010
1000
,
0001
0010
0100
1000
,
0010
0100
0001
1000
,
0100
0010
0100
1000
,
0001
0010
0100
0010
,
0001
1000
0010
0100
,
0010
1000
0001
0100
,
0020
0000
0000
0030
,
1000
0001
1000
0001
,
0010
0001
0100
0001
,
1000
0001
1000
0010
,
M20M
0300
0010
0100
,
0001
1000
0001
1000
,
0010
1000
0100
1000
,
0001
1000
0001
0010
,
M20M
0000
0000
0300
,
1000
0001
1000
0001
,
0010
0001
0100
0100
,
0100
0200
0000
0000
,
0000
0300
0010
0100
,
0001
1000
0001
1000
,
0010
1000
0100
0100
,
0100
0200
0000
0000
,
0000
0300
0010
0100
,
M22M
0330
0000
0000
0000
0000
0000
0000
;

//--------------- dance-single - LinkDude10 ----------------
#NOTES:
     dance-single:
     LinkDude10:
     Medium:
     7:
     0,0,0,0,0:
0000
0000
0000
0000
,
0000
0000
0000
0000
,
0000
0000
0000
0000
,
0000
0000
0000
0000
,
0001
0100
0001
0000
0100
0010
0100
0000
,
0010
1000
0010
0000
1000
0010
1000
0000
,
0010
0100
0010
0000
0100
0001
0100
0000
,
0001
0001
1000
1000
0010
0010
0100
0100
,
0010
0100
0000
0000
0010
0000
0000
0000
0100
0010
0000
0000
0100
0000
0000
0000
,
0001
0000
0000
1000
0000
1000
0000
0000
0100
0000
0000
1000
0000
1000
0000
0000
,
0010
0000
0000
1000
0000
1000
0000
0000
0100
0000
0000
0000
0010
0000
0001
0000
,
0010
0000
0000
0000
0000
0000
0001
0000
0000
0000
0001
0000
0000
0000
0000
0000
1000
0000
0000
0000
0000
0000
0001
0000
0000
0000
0001
0000
0000
0000
0000
0200
,
M0M0
0000
0300
0000
0001
0001
0100
0010
,
1000
0000
0000
0001
0000
0001
0000
0000
0100
0000
0000
0001
0000
0001
0000
0000
,
0010
0000
0000
0001
0000
0001
0000
0000
0100
0000
0000
0000
0010
0000
1000
0000
,
0010
0000
0000
0000
0000
0000
1000
0000
0000
0000
1000
0000
0000
0000
0000
0000
0001
0000
0000
0000
0000
0000
1000
0000
0000
0000
1000
0000
0000
0000
0000
0200
,
00MM
0000
0300
0000
1000
1000
0100
0010
,
0001
0000
0000
1000
0000
1000
0000
0000
0100
0000
0000
1000
0000
1000
0000
0000
,
0010
0000
0000
1000
0000
1000
0000
0000
0100
0000
0000
0000
0010
0000
0001
0000
,
0010
0000
0000
0000
0000
0000
0001
0000
0000
0000
0001
0000
0000
0000
0000
0000
1000
0000
0000
0000
0000
0000
0001
0000
0000
0000
0001
0000
0000
0000
0000
0200
,
M0M0
0000
0300
0000
0001
0001
0100
0010
,
1000
0000
0000
0001
0000
0001
0000
0000
0100
0000
0000
0001
0000
0001
0000
0000
,
0010
0000
0000
0001
0000
0001
0000
0000
0100
0000
0000
0000
0010
0000
1000
0000
,
0010
0000
0000
0000
0000
0000
1000
0000
0000
0000
1000
0000
0000
0000
0000
0000
0001
0000
0000
0000
0000
0000
1000
0000
0000
0000
1000
0000
0000
0000
0000
0200
,
00MM
0000
0300
0000
1000
1000
0100
0010
,
M22M
0000
0000
0330
0000
1000
1000
0001
,
0001
0000
0200
0000
0010
0300
0200
0000
,
1000
0300
0200
0000
0010
0300
0200
0301
,
0001
0000
2000
0000
0010
3000
2000
0000
,
0001
3000
2000
0000
0100
3000
2000
3000
,
0001
0000
0020
0000
0100
0030
0020
0000
,
1000
0030
0020
0000
0100
0030
0020
0031
,
0001
0000
2000
0000
0010
3000
2000
0000
,
0001
3000
2000
0000
0100
3000
2000
3000
,
0001
0100
0001
0100
0010
0100
0010
0000
,
0100
0001
0100
0001
1000
0001
1000
0000
,
0001
0010
0001
0010
0100
0010
0100
0000
,
0010
0001
0010
0001
1000
0001
1000
0000
,
0001
0100
0001
0100
0010
0100
0010
0000
,
0100
0001
0100
0001
1000
0001
1000
0000
,
0001
0010
0001
0010
0100
0010
0100
0000
,
0010
0001
0010
0001
1000
0001
1000
0000
,
0000
0000
0001
0000
0001
0000
1000
0000
1000
0000
0000
0100
0000
0010
0000
0100
,
0000
0000
1000
0000
1000
0000
0001
0000
0001
0000
0000
0010
0000
0100
0000
0010
,
0000
0000
0001
0000
0001
0000
1000
0000
1000
0000
0000
0010
0000
0100
0000
0010
,
0000
0000
1000
0000
1000
0000
0001
0000
0001
0000
0000
0100
0000
0010
0000
0100
,
0000
0000
0001
0000
0001
0000
0100
0000
0100
0000
0000
0010
0000
1000
0000
0010
,
0000
0000
1000
0000
1000
0000
0010
0000
0010
0000
0000
0100
0000
0001
0000
0100
,
0000
0000
0001
0000
0001
0000
0010
0000
0010
0000
0000
0100
0000
1000
0000
0100
,
0000
1000
0100
1000
0001
1000
0001
0010
,
0001
0010
0100
0010
0100
1000
0100
1000
,
0001
0000
0000
1000
0000
1000
0000
0000
0100
0000
0000
1000
0000
1000
0000
0000
,
0010
0000
0000
1000
0000
1000
0000
0000
0100
0000
0000
0000
0010
0000
0001
0000
,
0010
0000
0000
0000
0000
0000
0001
0000
0000
0000
0001
0000
0000
0000
0000
0000
1000
0000
0000
0000
0000
0000
0001
0000
0000
0000
0001
0000
0000
0000
0000
0200
,
M0M0
0000
0300
0000
0001
0001
0100
0010
,
1000
0000
0000
0001
0000
0001
0000
0000
0100
0000
0000
0001
0000
0001
0000
0000
,
0010
0000
0000
0001
0000
0001
0000
0000
0100
0000
0000
0000
0010
0000
1000
0000
,
0010
0000
0000
0000
0000
0000
1000
0000
0000
0000
1000
0000
0000
0000
0000
0000
0001
0000
0000
0000
0000
0000
1000
0000
0000
0000
1000
0000
0000
0000
0000
0200
,
00MM
0000
0000
0300
,
1000
0000
0000
0001
0000
0001
0000
0000
0100
0000
0000
0001
0000
0001
0000
0000
,
0010
0000
0000
0001
0000
0001
0000
0000
0200
0000
0000
0300
0200
0000
0000
0300
,
0200
0000
0000
0300
0200
0000
0000
0000
0000
0000
0000
0000
0000
0000
0000
0000
,
0000
0000
0300
0000
0001
0001
0100
0010
,
1000
0000
0000
0001
0000
0001
0000
0000
0100
0000
0000
0001
0000
0001
0000
0000
,
0010
0000
0000
0001
0000
0001
0000
0000
0200
0000
0000
0300
0200
0000
0000
0300
,
0200
0000
0000
0300
0200
0000
0000
0300
0000
0000
0001
0100
0001
0000
1000
0000
,
2MM2
0000
3003
0000
0001
0001
0100
0010
,
M22M
0330
0000
0000
0000
0000
0000
0000
;

//--------------- dance-single - J.Berkowitz ----------------
#NOTES:
     dance-single:
     J.Berkowitz:
     Hard:
     9:
     0.584,0.618,0.038,0.461,0.654,467,5,60,40,0,0,0.584,0.618,0.038,0.461,0.654,467,5,60,40,0,0:
0000
0000
0000
0000
,
0000
0000
0000
0000
,
0000
0000
0000
0000
,
0000
0000
0000
0000
,
1000
1000
0001
0001
1000
1000
0001
0001
,
0010
0010
0100
0100
0010
0010
0100
0100
,
1000
1000
0010
0010
0100
0100
0001
0001
,
1000
0000
0000
0000
0000
0000
0001
0000
0000
0000
0000
0000
1000
0000
0000
0000
0000
0000
0001
0000
0000
0000
0000
0000
1000
0000
0000
0000
0000
0000
0001
0000
0000
0000
0000
0000
1000
0000
0000
0001
0000
0000
1000
0000
0001
0000
1000
0000
,
0001
0020
0000
0000
0130
0000
0000
0000
1000
0001
0100
0000
0001
1000
0100
0000
,
0010
0000
00M0
1000
0000
0200
0000
0000
0310
0000
00M0
1000
0000
0200
0000
0000
,
0310
0000
00M0
1000
0000
0200
0000
0000
0310
0000
0000
0000
0001
0000
0100
0000
,
0010
0000
00M0
0001
0000
0200
0000
0000
0310
0000
00M0
0001
0000
0100
0000
0010
,
0000
0000
0101
0000
1000
1000
0001
0001
,
0100
0000
0M00
1000
0000
0002
0000
0000
0103
0000
0M00
1000
0000
0002
0000
0000
,
0103
0000
0M00
1000
0000
0002
0000
0000
0103
0000
0000
0000
0010
0000
1000
0000
,
0100
0000
0M00
0001
0000
2000
0000
0000
3100
0000
0M00
0001
0000
1000
0000
0100
,
0010
0000
0010
0000
0001
0000
0001
0000
1000
0001
0100
0010
1000
0001
1000
0000
,
0010
0000
00M0
0001
0000
2000
0000
0000
3010
0000
00M0
0001
0000
2000
0000
0000
,
3010
0000
00M0
0001
0000
2000
0000
0000
3010
0000
0000
0000
1000
0000
0001
0000
,
0010
0000
00M0
1000
0000
0002
0000
0000
0013
0000
00M0
1000
0000
0001
0000
0100
,
0000
0000
0110
0000
0001
0001
0010
0010
,
0100
0000
0M00
0001
0000
0020
0000
0000
0130
0000
0M00
0001
0000
0020
0000
0000
,
0130
0000
0M00
0001
0000
0020
0000
0000
0130
0000
0000
0000
1000
0000
0010
0000
,
0100
0000
0M00
1000
0000
0020
0000
0000
0130
0000
0M00
1000
0000
0010
0000
0100
,
0000
0000
0101
0000
1000
1000
0100
0100
,
0010
0000
0000
0000
0000
0000
0000
0000
0001
1000
0100
0000
1000
0010
0100
0000
,
0001
0000
0010
0000
0002
0100
0013
0000
,
0002
0000
0100
0000
0013
0000
0000
0001
0002
0000
0100
0000
0013
0000
1000
0000
,
1000
0000
0100
0000
2000
0100
3010
0000
,
2000
0000
0100
0000
3010
0000
0000
1000
2000
0000
0100
0000
3010
0000
0000
0000
,
0100
0000
1000
0000
0200
0001
1300
0000
,
0200
0000
0001
0000
1300
0000
0000
0100
0200
0000
0001
0000
1300
0000
0010
0000
,
0010
0000
0100
0000
0020
0001
1030
0000
,
0020
0000
0001
0000
1030
0000
0000
0001
1000
0001
1000
0100
0010
0001
1000
0000
,
0010
0000
0000
0000
0000
0000
0000
0000
0100
0000
0000
0000
0000
0001
0000
0000
0100
0000
0000
0000
0000
0000
0000
0000
0010
0000
0000
0000
0000
1000
0000
0000
0000
0000
0000
0000
0000
1000
0000
0000
0000
0000
0000
0000
0000
0001
0000
0000
0000
0000
0000
0000
0000
0001
0000
0000
0010
0000
0000
0000
0000
0000
0000
0000
,
0100
0000
0000
0000
0000
0000
0000
0000
1000
0000
0000
0000
0000
0001
0000
0000
1000
0000
0000
0000
0000
0000
0000
0000
0010
0000
0000
0000
0000
0100
0000
0000
0000
0000
0000
0000
0000
0000
0000
0000
0001
0000
0000
0000
0010
0000
0000
0000
0100
0000
0000
0000
0000
0000
0000
0000
0010
0000
0000
0000
0001
0000
0000
0000
,
1000
0000
0000
0000
0000
0000
0000
0000
0010
0000
0000
0000
0000
0100
0000
0000
0010
0000
0000
0000
0000
0000
0000
0000
1000
0000
0000
0000
0000
0000
0000
0000
0100
0000
0000
0000
0000
0000
0000
0000
0010
0000
0000
0000
0000
0001
0000
0000
0000
0000
0000
0000
0000
1000
0000
0000
0001
0000
0000
0000
0000
0100
0000
0000
,
0010
0000
0000
0000
0000
0000
0000
0000
0000
0000
0000
0000
0000
0000
0000
0000
1000
0000
0000
0000
0000
0000
0000
0000
0100
0000
0000
0000
0000
0000
0000
0000
1000
0000
0000
0000
0000
0000
0000
0000
0000
0000
0000
0000
0000
0010
0000
0000
0000
0000
0000
0000
0000
0100
0000
0000
0001
0000
0000
0000
0000
1000
0000
0000
,
0100
0000
0000
0000
0000
0000
0000
0000
0010
0000
0000
0000
0000
0001
0000
0000
0010
0000
0000
0000
0000
0000
0000
0000
0100
0000
0000
0000
0000
1000
0000
0000
0000
0000
0000
0000
0000
1000
0000
0000
0000
0000
0000
0000
0000
0001
0000
0000
0000
0000
0000
0000
0000
0001
0000
0000
0100
0000
0000
0000
0000
0000
0000
0000
,
0001
0000
0000
0000
0000
0000
0000
0000
1000
0000
0000
0000
0000
0100
0000
0000
0010
0000
0000
0000
0000
0000
0000
0000
0001
0000
0000
0000
0000
0100
0000
0000
0000
0000
0000
0000
0000
0000
0000
0000
0010
0000
0000
0000
1000
0000
0000
0000
0001
0000
0000
0000
0000
0000
0000
0000
0010
0000
0000
0000
0100
0000
0000
0000
,
1000
0000
0000
0000
0000
0000
0000
0000
0001
0000
0000
0000
0000
0100
0000
0000
0001
0000
0000
0000
0000
0000
0000
0000
0010
0000
0000
0000
0000
0000
0000
0000
0100
0000
0000
0000
0000
0000
0000
0000
0000
0000
0000
0000
0000
1000
0000
0000
0000
0000
0000
0000
0000
0010
0000
0000
0100
0000
0000
0000
0000
0001
0000
0000
,
1000
0000
0000
0000
0001
0000
0010
0000
0001
0100
0010
1000
0100
0010
0001
0000
,
1000
0000
0001
0000
0100
0000
0010
0000
2000
0000
0000
3100
0000
0001
0000
0100
,
0000
0000
1000
0000
0001
0000
0010
0000
0200
0000
0000
0310
0000
1000
0000
0010
,
0000
0000
0001
0000
0100
0000
0010
0000
2000
0000
0000
3100
0000
0010
0000
1000
,
0000
0000
0010
0000
0001
0000
0100
0000
2000
0000
0000
3100
0000
0001
0000
1000
,
0100
0000
0010
0000
0001
0000
1000
0000
0020
0000
0000
0130
0000
1000
0000
0100
,
0001
0000
1000
0000
0100
0000
0010
0000
0002
0000
0000
0103
0000
1000
0000
0100
,
0001
0000
1000
0000
0100
0000
0010
0000
0002
0000
0000
1003
0000
0010
0000
0001
,
0010
0200
0302
2003
3200
0320
0230
2300
,
0000
0000
0000
0000
0000
0000
0000
0000
3001
1000
0100
0000
1000
0010
0100
0000
,
0001
0000
000M
0010
0000
2000
0000
0000
3001
0000
000M
0010
0000
2000
0000
0000
,
3001
0000
000M
0010
0000
2000
0000
0000
3001
0000
0000
0000
0010
0000
0001
0000
,
1000
0000
M000
0100
0000
0002
0000
0000
1003
0000
M000
0100
0000
0001
0000
1000
,
0000
0000
1100
0000
1000
1000
0001
0001
,
1000
0000
M000
0010
0000
0002
0000
0000
1003
0000
M000
0010
0000
0002
0000
0000
,
1003
0000
M000
0010
0000
0002
0000
0000
1003
0000
0000
0000
0001
0000
1000
0000
,
0001
0000
000M
0100
0000
2000
0000
0000
3001
0000
000M
0100
0000
1000
0000
0010
,
0000
0000
0000
0000
1001
0000
0000
0000
0001
0010
0100
1000
0010
0100
0010
0000
,
0100
0000
0M00
1000
0000
0020
0000
0000
0130
0000
0M00
1000
0000
0020
0000
0000
,
0130
0000
0M00
1000
0000
0020
0000
0000
0130
0000
0M00
1000
0000
0002
0000
0000
,
0013
0000
00M0
1000
0000
0002
0000
0000
0013
0000
0001
0010
0100
0000
1000
0010
,
0100
0000
0000
0000
0000
0000
0000
0000
0000
0000
0000
0000
0000
0000
0000
0000
0000
0000
0000
0000
0000
0000
0000
0000
0001
0000
0000
0000
0000
0000
0000
0000
1000
0000
0000
0000
0100
0000
0000
0000
0000
0000
0000
0000
0000
0010
0000
0000
0001
0000
0000
0000
0000
0000
0000
0000
0000
0000
0000
0000
0001
0000
0000
0000
0000
0000
0000
0000
0000
0000
0000
0000
0100
0000
0000
0000
0000
0000
0000
0000
0000
0000
0000
0000
0100
0000
0000
0000
0000
0000
0000
0000
0000
0000
0000
0000
,
0010
0000
00M0
0001
0000
0200
0000
0000
0310
0000
00M0
0001
0000
0200
0000
0000
,
0310
0000
00M0
0001
0000
0200
0000
0000
0310
0000
00M0
0001
0000
2000
0000
0000
,
3100
0000
0M00
0001
0000
2000
0000
0000
3100
0000
0010
0100
1000
0000
0001
0100
,
0010
0000
0000
0000
0000
0000
0000
0000
0000
0000
0000
0000
0000
0000
0000
0000
0000
0000
0000
0000
0000
0000
0000
0000
1000
0000
0000
0000
0000
0000
0000
0000
0100
0000
0000
0000
0010
0000
0000
0000
0000
0000
0000
0000
0000
0001
0000
0000
1000
0000
0000
0000
0000
0000
0000
0000
0000
0000
0000
0000
1000
0000
0000
0000
0000
0000
0000
0000
0000
0000
0000
0000
0100
0000
0000
0000
0000
0000
0000
0000
0000
0000
0000
0000
0100
0000
0000
0000
0000
0000
0000
0000
0000
0000
0000
0000
,
0010
0000
0000
0000
;

//--------------- dance-single - J-Berk & T-Mo ----------------
#NOTES:
     dance-single:
     J-Berk & T-Mo:
     Challenge:
     13:
     0.772,0.876,0.046,0.108,1,683,6,14,0,0,0,0.772,0.876,0.046,0.108,1,683,6,14,0,0,0:
0000
0000
0000
0000
,
0000
0000
0000
0000
,
0000
0000
0000
0000
,
0000
0000
0000
0000
,
1000
1000
0001
0001
1000
1000
0001
0001
,
0010
0010
0100
0100
0010
0010
0100
0100
,
1000
1000
0010
0010
0100
0100
0001
0001
,
1000
0000
0000
0000
0001
0000
0000
0000
1000
0000
0000
0000
0001
0000
0000
0000
1000
0000
0000
0000
0001
0000
0000
0000
1000
0000
0001
0000
1000
0001
1000
0001
,
0010
0000
0001
1000
0001
0100
0010
1000
0100
0000
0000
0000
0000
0000
0000
0000
1000
0000
0001
0100
0001
0010
0100
1000
0001
0000
0100
0000
0010
0000
0000
0000
,
1000
0000
0000
0000
0000
0000
0100
0000
0000
0000
0010
0001
0010
0100
1000
0001
0100
0000
0000
0000
0000
0000
0010
0000
0000
0000
0100
0001
1000
0100
0010
0001
,
1000
0000
0000
0000
0000
0000
0010
0000
0000
0000
1000
0001
0010
0100
1000
0010
0100
0000
0000
0000
0000
0000
0000
0000
0001
0000
0000
0000
1000
0000
0000
0000
,
0100
0000
0000
0000
0000
0000
0010
0000
0000
0000
0001
1000
0010
0100
0001
0010
0100
0000
0000
0000
0000
0000
1000
0000
0000
0000
0001
0000
0000
0000
0100
0000
,
0000
0000
0101
0000
1000
1000
0010
0010
,
0100
0000
0000
0000
0000
0000
0001
0000
0000
0000
1000
0100
1000
0010
0100
0001
1000
0000
0000
0000
0000
0000
0100
0000
0000
0000
0010
0001
0100
0001
0010
0100
,
1000
0000
0000
0000
0000
0000
0001
0000
0000
0000
0100
0010
1000
0001
0010
0100
1000
0000
0000
0000
0000
0000
0000
0000
0001
0000
0000
0000
0100
0000
0000
0000
,
0010
0000
0000
0000
0000
0000
1000
0000
0000
0000
0100
0010
0100
1000
0001
0100
0010
0000
0000
0000
0000
0000
1000
0000
0000
0000
0100
0000
0000
0000
0010
0000
,
0001
0000
0000
0001
0000
0000
0100
0000
0000
0100
0000
0000
0001
0000
1000
0010
0000
0100
0001
0000
1000
0100
0000
0000
,
0010
0000
0000
0000
0000
0000
0100
0000
0000
0000
1000
0001
0100
0001
0010
0100
1000
0000
0000
0000
0000
0000
0010
0000
0000
0000
0100
0001
1000
0100
0010
0001
,
1000
0000
0000
0000
0000
0000
0010
0000
0000
0000
1000
0001
0010
0100
1000
0010
0100
0000
0000
0000
0000
0000
0000
0000
0010
0000
0000
0000
1000
0000
0000
0000
,
0001
0000
0000
0000
0000
0000
0010
0000
0000
0000
0100
1000
0010
0100
0001
0010
0100
0000
0000
0000
0000
0000
1000
0000
0000
0000
0001
0000
0000
0000
0100
0000
,
0000
0000
0110
0000
1000
1000
0100
0100
,
0010
0000
0000
0000
0000
0000
0001
0000
0000
0000
1000
0010
1000
0001
0010
0100
1000
0000
0000
0000
0000
0000
0010
0000
0000
0000
0100
0001
1000
0100
0010
0001
,
0100
0000
0000
0000
0000
0000
0010
0000
0000
0000
0100
0001
0010
0100
1000
0001
0100
0000
0000
0000
0000
0000
0000
0000
0010
0000
0000
0000
1000
0000
0000
0000
,
0001
0000
0000
0000
0000
0000
0010
0000
0000
0000
0100
1000
0001
0100
0010
1000
0001
0000
0000
0000
0000
0000
0010
0000
0000
0000
0100
0000
0000
0000
1000
0000
,
0000
0000
1001
0000
0001
0001
0100
0100
,
0010
0000
0000
0000
0000
0000
0000
0000
0000
0000
0000
0000
1000
0000
0001
0010
0000
0000
0001
0000
0100
0010
0000
0000
,
1000
0000
0000
0000
0000
0000
0000
0000
0100
0000
0000
0000
0000
0000
0000
0000
0010
0000
0000
0000
0001
0100
0010
1000
0100
0000
0000
0000
0000
0000
0000
0000
,
0010
0000
0000
0000
0001
0100
0010
1000
0100
0000
0000
0000
0000
0000
0010
0000
0010
0000
0000
0000
0001
0100
0010
1000
0100
0000
0000
0000
0010
0000
0000
0000
,
0010
0000
0000
0000
0000
0000
0000
0000
0001
0000
0000
0000
0000
0000
0000
0000
1000
0000
0000
0000
0010
0100
0010
1000
0100
0000
0000
0000
0000
0000
0000
0000
,
1000
0000
0000
0000
0010
0100
0010
1000
0100
0000
0000
0000
0000
0000
1000
0000
1000
0000
0000
0000
0010
0100
0010
1000
0100
0000
0000
0000
0000
0000
0000
0000
,
0010
0000
0000
0000
0000
0000
0000
0000
0001
0000
0000
0000
0000
0000
0000
0000
0100
0000
0000
0000
0010
1000
0100
0010
0001
0000
0000
0000
0000
0000
0000
0000
,
0100
0000
0000
0000
0010
1000
0100
0010
0001
0000
0000
0000
0000
0000
0100
0000
0100
0000
0000
0000
0010
1000
0100
0010
0001
0000
0000
0000
0100
0000
0000
0000
,
0100
0000
0000
0000
0000
0000
0000
0000
0010
0000
0000
0000
0000
0000
0000
0000
1000
0000
0000
0000
0100
0010
0001
0100
0010
0000
0000
0000
0000
0000
0000
0000
,
1000
0000
0000
0000
0100
0010
0001
0100
0010
0000
0000
0000
0000
0000
1000
0000
1000
0000
0100
0000
0010
0000
0000
0000
0001
0000
0100
0000
0010
0000
0000
0000
,
1000
0000
0000
0000
0000
0000
0000
0000
0010
0000
0000
0000
0000
1000
0000
0000
0010
0000
0000
0000
0000
0000
0000
0000
0100
0000
0000
0000
0000
0001
0000
0000
0000
0000
0000
0000
0000
0001
0000
0000
0000
0000
0000
0000
0000
1000
0000
0000
0000
0000
0000
0000
0000
1000
0000
0000
0100
0000
0000
0000
0000
0000
0000
0000
,
0010
0000
0000
0000
0000
0000
0000
0000
0001
0000
0000
0000
0000
1000
0000
0000
0001
0000
0000
0000
0000
0000
0000
0000
0100
0000
0000
0000
0000
0010
0000
0000
0000
0000
0000
0000
0000
0000
0000
0000
1000
0000
0000
0000
0000
0100
0000
0000
0010
0000
0000
0000
0000
0000
0000
0000
0100
0000
0000
0000
0000
1000
0000
0000
,
0001
0000
0000
0000
0000
0000
0000
0000
0100
0000
0000
0000
0000
0010
0000
0000
0100
0000
0000
0000
0000
0000
0000
0000
0001
0000
0000
0000
0000
0000
0000
0000
0010
0000
0000
0000
0000
0000
0000
0000
0100
0000
0000
0000
0000
1000
0000
0000
0000
0000
0000
0000
0000
0001
0000
0000
1000
0000
0000
0000
0000
0010
0000
0000
,
0100
0000
0000
0000
0000
0001
0000
0000
0010
0000
0000
0000
0000
0000
0000
0000
0100
0000
0000
0000
0000
0000
0000
0000
1000
0000
0000
0000
0000
0000
0000
0000
0001
0000
0000
0000
0000
0000
0000
0000
0000
0000
0000
0000
0000
0100
0000
0000
0000
0000
0000
0000
0000
0010
0000
0000
1000
0000
0000
0000
0000
0001
0000
0000
,
0010
0000
0000
0000
0000
0000
0000
0000
0100
0000
0000
0000
0000
1000
0000
0000
0100
0000
0000
0000
0000
0000
0000
0000
0010
0000
0000
0000
0000
0001
0000
0000
0000
0000
0000
0000
0000
0001
0000
0000
0000
0000
0000
0000
0000
1000
0000
0000
0000
0000
0000
0000
0000
1000
0000
0000
0010
0000
0000
0000
0000
0000
0000
0000
,
1000
0000
0000
0000
0000
0000
0000
0000
0001
0000
0000
0000
0000
0010
0000
0000
0100
0000
0000
0000
0000
0000
0000
0000
1000
0000
0000
0000
0000
0010
0000
0000
0000
0000
0000
0000
0000
0000
0000
0000
0100
0000
0000
0000
0000
0001
0000
0000
1000
0000
0000
0000
0000
0000
0000
0000
0100
0000
0000
0000
0000
0010
0000
0000
,
0001
0000
0000
0000
0000
0000
0000
0000
1000
0000
0000
0000
0000
0010
0000
0000
1000
0000
0000
0000
0000
0000
0000
0000
0100
0000
0000
0000
0000
0000
0000
0000
0010
0000
0000
0000
0000
0000
0000
0000
0000
0000
0000
0000
0000
0001
0000
0000
0000
0000
0000
0000
0000
0100
0000
0000
0010
0000
0000
0000
0000
1000
0000
0000
,
0001
0000
0000
0000
0000
0000
0000
0000
0000
0000
0000
0000
0000
0000
0000
0010
0000
0000
0000
0000
0000
0000
0000
0000
0001
0000
0000
0000
0000
0000
0000
0000
0000
0000
0000
0000
0000
0000
0000
0000
0000
0000
0000
0000
0000
0000
0000
0000
1000
0000
0000
0000
0000
0000
0000
0000
0000
0000
0000
0000
0000
0000
0000
0000
0000
0000
0000
0000
0000
0000
0000
0000
0100
0000
0000
0000
0000
0000
0000
0000
0000
0000
0000
0000
0000
0000
0000
0000
0000
0000
0000
0000
0000
0000
0000
0000
1000
0000
0000
0000
0000
0000
0000
0000
0000
0000
0000
0000
0010
0000
0000
0000
0000
0000
0000
0000
0000
0000
0000
0000
0100
0000
0000
0000
0000
0000
0000
0000
0000
0000
0000
0000
0000
0000
0000
0000
0001
0000
0000
0000
0000
0000
0000
0000
0010
0000
0000
0000
0000
0000
0000
0000
0000
0000
0000
0000
0100
0000
0000
0000
0000
0000
0000
0000
0000
0000
0000
0000
1000
0000
0000
0000
0000
0000
0000
0000
0000
0000
0000
0000
0000
0000
0000
0000
0000
0000
0000
0000
0000
0000
0000
0000
,
1001
0000
1000
0000
0010
0000
0100
0000
0002
0000
0000
0013
0000
1000
0000
0010
,
0000
0000
0001
0000
1000
0000
0100
0000
0020
0000
0000
0130
0000
0001
0000
0100
,
0000
0000
1000
0000
0010
0000
0100
0000
0002
0000
0000
0013
0000
0100
0000
0001
,
0000
0000
0100
0000
1000
0000
0010
0000
0002
0000
0000
0013
0000
1000
0000
0001
,
0010
0000
0100
0000
1000
0000
0001
0000
0200
0000
0000
0310
0000
0001
0000
0010
,
1000
0000
0001
0000
0010
0000
0100
0000
2000
0000
0000
3010
0000
0001
0000
0010
,
1000
0000
0001
0000
0010
0000
0100
0000
2000
0000
0000
3001
0000
0100
0000
1000
,
0100
0020
2030
3002
0023
0230
0320
0032
,
0000
0000
0000
0000
0000
0000
0000
0000
1003
0001
0010
0000
0001
0100
0010
0000
,
1000
0000
0000
0000
0000
0000
0100
0000
0000
0000
0010
0001
0100
0001
0010
0100
1000
0000
0000
0000
0000
0000
0010
0000
0000
0000
0100
0001
0010
0100
1000
0001
,
0100
0000
0000
0000
0000
0000
0010
0000
0000
0000
1000
0001
0010
0001
1000
0010
0100
0000
0000
0000
0000
0000
0000
0000
0001
0000
0000
0000
0010
0000
0000
0000
,
0100
0000
0000
0000
0000
0000
1000
0000
0000
0000
0001
0100
0010
0100
0001
0010
0100
0000
0000
0000
0000
0000
1000
0000
0000
0000
0001
0000
0000
0000
0100
0000
,
0000
0000
1010
0000
0001
0001
0010
0010
,
0100
0000
0000
0000
0000
0000
1000
0000
0000
0000
0010
0100
0001
1000
0100
0010
0001
0000
0000
0000
0000
0000
0100
0000
0000
0000
0010
1000
0100
0010
0100
1000
,
0001
0000
0000
0000
0000
0000
0100
0000
0000
0000
0010
1000
0100
1000
0010
0100
0001
0000
0000
0000
0000
0000
0000
0000
0010
0000
0000
0000
0100
0000
0000
0000
,
1000
0000
0000
0000
0000
0000
0010
0000
0000
0000
0100
0001
1000
0100
1000
0010
0100
0000
0000
0000
0000
0000
0001
0000
0000
0000
0010
0000
0000
0000
0100
0000
,
0000
0000
0000
0000
0000
0000
1001
0000
0000
0000
0000
0000
0001
0000
0100
0010
0000
1000
0100
0000
0010
0100
0000
0000
,
1000
0000
0000
0000
0000
0000
0100
0000
0000
0000
0010
0001
0100
0001
0010
0100
1000
0000
0000
0000
0000
0000
0010
0000
0000
0000
0100
0001
0010
0001
0100
0010
,
1000
0000
0000
0000
0000
0000
0100
0000
0000
0000
0010
0001
0100
0010
1000
0100
0010
0000
0000
0000
0000
0000
0001
0000
0000
0000
1000
0010
0100
0001
0010
0001
,
0100
0000
0000
0000
0000
0000
0000
0000
0000
0000
0000
0000
0010
0000
0000
0000
0000
0000
0000
0000
1000
0000
0001
0000
1000
0000
0010
0000
0100
0000
0001
0000
0010
0000
0000
0000
0000
0000
0000
0000
0001
0000
0000
0000
0000
0010
0000
0000
0100
0000
0000
0000
0000
0000
0000
0000
1000
0000
0000
0000
0000
0010
0000
0000
,
0100
0000
0000
0000
0000
0000
0000
0000
0000
0000
0000
0000
0000
0000
0000
0000
0000
0000
0000
0000
0000
0000
0000
0000
0001
0000
0000
0000
0000
0000
0000
0000
1000
0000
0000
0000
0100
0000
0000
0000
0000
0000
0000
0000
0000
0010
0000
0000
0001
0000
0000
0000
0000
0000
0000
0000
0000
0000
0000
0000
0001
0000
0000
0000
0000
0000
0000
0000
0000
0000
0000
0000
0100
0000
0000
0000
0000
0000
0000
0000
0000
0000
0000
0000
0100
0000
0000
0000
0000
0000
0000
0000
0000
0000
0000
0000
,
0010
0000
0000
0000
0000
0000
0100
0000
0000
0000
0001
0010
0001
0100
0010
1000
0100
0000
0000
0000
0000
0000
0010
0000
0000
0000
0100
1000
0010
0100
0001
0010
,
0100
0000
0000
0000
0000
0000
1000
0000
0000
0000
0010
0100
0001
1000
0100
0010
0001
0000
0000
0000
0000
0000
1000
0000
0000
0000
0010
0100
0001
1000
0100
0010
,
0001
0000
0000
0000
0000
0000
0000
0000
0000
0000
0000
0000
1000
0000
0000
0000
0000
0000
0000
0000
0010
0000
0100
0000
0001
0000
0010
0000
0001
0000
1000
0000
0010
0000
0000
0000
0000
0000
0000
0000
0100
0000
0000
0000
0000
0001
0000
0000
1000
0000
0000
0000
0000
0000
0000
0000
0001
0000
0000
0000
0000
0100
0000
0000
,
0010
0000
0000
0000
0000
0000
0000
0000
0000
0000
0000
0000
0000
0000
0000
0000
0000
0000
0000
0000
0000
0000
0000
0000
1000
0000
0000
0000
0000
0000
0000
0000
0100
0000
0000
0000
0010
0000
0000
0000
0000
0000
0000
0000
0000
0001
0000
0000
1000
0000
0000
0000
0000
0000
0000
0000
0000
0000
0000
0000
1000
0000
0000
0000
0000
0000
0000
0000
0000
0000
0000
0000
0100
0000
0000
0000
0000
0000
0000
0000
0000
0000
0000
0000
0100
0000
0000
0000
0000
0000
0000
0000
0000
0000
0000
0000
,
0010
0000
0000
0000
;

//--------------- dance-double - 6Buttons03 ----------------
#NOTES:
     dance-double:
     6Buttons03:
     Beginner:
     2:
     0,0,0,0,0:
00000000
00000000
00000000
00000000
,
00000000
00000000
00000000
00000000
,
00000000
00000000
00000000
00000000
,
00000000
00000000
00000000
00000000
,
00001000
00000000
00010000
00000000
,
00001000
00000000
00100000
00000000
,
01000000
00000000
00100000
00000000
,
00001000
00000000
00001000
00000000
,
00010000
00000000
00010000
00000000
,
00001000
00000000
01000000
00000000
,
00100000
00000000
01000000
00000000
,
00001000
00000000
00010000
00000000
,
0MM00200
00000300
00000000
00000000
00010000
00000000
00000000
00000000
,
00001000
00000000
00010000
00000000
,
00000010
00000000
00000100
00000000
,
00010000
00000000
00001000
00000000
,
02000MM0
03000000
00000000
00000000
00001000
00000000
00000000
00000000
,
00010000
00000000
00001000
00000000
,
00100000
00000000
01000000
00000000
,
00001000
00000000
00010000
00000000
,
0MM00200
00000300
00000000
00000000
00010000
00000000
00000000
00000000
,
00001000
00000000
00010000
00000000
,
00000010
00000000
00000100
00000000
,
00010000
00000000
00001000
00000000
,
02000MM0
03000000
00000000
00000000
00001000
00000000
00000000
00000000
,
0MM22000
00000000
00000000
00000000
00000000
00033000
00000M00
00000000
,
00010000
00000M00
00001000
00000M00
,
00000010
00000M00
00001000
00000M00
,
00010000
000000M0
00001000
000000M0
,
00000100
000000M0
00001000
000000M0
,
00010000
0M000000
00100000
0M000000
,
00010000
0M000000
00001000
0M000000
,
00010000
00M00000
01000000
00M00000
,
00010000
00M00000
00001000
00M00000
,
00010000
00010000
00000000
00000000
,
00000100
00000100
00000000
00000000
,
00000010
00000010
00000000
00000000
,
00000100
00000100
00000000
00000000
,
00010000
00010000
00000000
00000000
,
00001000
00001000
00000000
00000000
,
01000000
01000000
00000000
00000000
,
00100000
00100000
00000000
00000000
,
01000000
00000000
00001000
00000000
,
00010000
00000000
00000010
00000000
,
00000100
00000000
00000010
00000000
,
00010000
00000000
00001000
00000000
,
00100000
00000000
01000000
00000000
,
00100000
00000000
00001000
00000000
,
00010000
00000000
00000100
00000000
,
00000010
00000000
00000100
00000000
,
00020000
00000000
00000000
00000000
00000000
00030000
00000000
00000000
,
00001000
00000000
01000000
00000000
,
00100000
00000000
01000000
00000000
,
00001000
00000000
00010000
00000000
,
0MM00200
00000300
00000000
00000000
00010000
00000000
00000000
00000000
,
00001000
00000000
01000000
00000000
,
00100000
00000000
01000000
00000000
,
00001000
00000000
00010000
00000000
,
0MM00200
00000000
00000000
00000000
00000000
00000300
00000000
00000000
,
00010000
00000000
00001000
00000000
,
00100000
00000000
04000000
00000000
,
00000000
03000000
00000000
00000000
,
00000000
00000000
00100000
00000000
,
00001000
00000000
00010000
00000000
,
00000010
00000000
00000400
00000000
,
00000000
00000300
00000000
00000000
,
00000000
00000000
00000010
00000000
,
0MM00200
00000300
00000000
00000000
00000000
00000000
00000000
00000000
;

//--------------- dance-double - LinkDude06 ----------------
#NOTES:
     dance-double:
     LinkDude06:
     Easy:
     4:
     0,0,0,0,0:
00000000
00000000
00000000
00000000
,
00000000
00000000
00000000
00000000
,
00000000
00000000
00000000
00000000
,
00000000
00000000
00000000
00000000
,
00010000
00010000
01000000
01000000
,
00100000
00100000
10000000
10000000
,
00100000
00100000
01000000
01000000
,
00010000
00010000
01000000
01000000
,
00001000
00001000
00010000
00010000
,
00001000
00010000
00000100
00010000
,
00000010
00010000
00000100
00001000
,
00000001
00001000
00000001
00000010
,
000MM200
00000300
00010000
00001000
,
00010000
00001000
01000000
00001000
,
00100000
00001000
01000000
00010000
,
10000000
00010000
10000000
00100000
,
M20M0000
03000000
00001000
00010000
,
00001000
00010000
00000100
00010000
,
00000010
00010000
00000100
00001000
,
00000001
00001000
00000001
00000010
,
000MM200
00000300
00010000
00001000
,
00010000
00001000
01000000
00001000
,
00100000
00001000
01000000
00010000
,
10000000
00010000
10000000
00100000
,
020MM000
03000000
00001000
00010000
,
0MM22000
00000000
00033000
00001000
,
00001000
00000000
00000000
00000000
02000000
03000000
00000000
00000000
00001000
00000000
00000000
00000000
02000000
03000000
00000000
00000000
,
10000000
00000000
00000000
00000000
02000000
03000000
00000000
00000000
00001000
00000000
00000000
00000000
02000000
03000000
00000000
00000000
,
00001000
00000000
00000000
00000000
00020000
00030000
00000000
00000000
00001000
00000000
00000000
00000000
00020000
00030000
00000000
00000000
,
01000000
00000000
00000000
00000000
00020000
00030000
00000000
00000000
00001000
00000000
00000000
00000000
00020000
00030000
00000000
00000000
,
00000010
00000000
00000000
00000000
00000200
00000300
00000000
00000000
00000010
00000000
00000000
00000000
00000200
00000300
00000000
00000000
,
00001000
00000000
00000000
00000000
00000200
00000300
00000000
00000000
00000001
00000000
00000000
00000000
00000200
00000300
00000000
00000000
,
00000001
00000000
00000000
00000000
00020000
00030000
00000000
00000000
00001000
00000000
00000000
00000000
00020000
00030000
00000000
00000000
,
00001000
00000000
00000000
00000000
00020000
00030000
00000000
00000000
01000000
00000000
00000000
00000000
00020000
00030000
00000000
00000000
,
00001000
00001000
00010000
00000000
,
00000010
00000010
00010000
00000000
,
00000100
00000100
00010000
00000000
,
00000010
00000010
00001000
00000000
,
00000100
00000100
00001000
00000000
,
00000001
00000001
00001000
00000000
,
00000001
00000001
00000100
00000000
,
00000001
00000001
00000010
00000000
,
00000100
00010000
00001000
00010000
,
00001000
01000000
00100000
01000000
,
00001000
00010000
00001000
00010000
,
00000100
00000010
00000100
00010000
,
00001000
00010000
00001000
00100000
,
01000000
00100000
00001000
00010000
,
00001000
00010000
00000010
00000100
,
00000010
00010000
00001000
00010000
,
00002000
00000000
00000000
00003000
,
00010000
00001000
01000000
00001000
,
00100000
00001000
01000000
00010000
,
10000000
00010000
10000000
00100000
,
020MM000
03000000
00001000
00010000
,
00001000
00010000
00000100
00010000
,
00000010
00010000
00000100
00001000
,
00000001
00001000
00000001
00000010
,
000MM200
00000000
00000000
00000300
,
00010000
00001000
01000000
00001000
,
00100000
00001000
01000000
01000000
,
01000000
02000000
00000000
00000000
,
00000000
03000000
00001000
00010000
,
00001000
00010000
00000100
00010000
,
00000010
00010000
00000100
00000100
,
00000100
00000200
00000000
00000000
,
00000000
00000300
00010000
00001000
,
00022MM0
00033000
00000000
00000000
00000000
00000000
00000000
00000000
;

//--------------- dance-double - LinkDude10 ----------------
#NOTES:
     dance-double:
     LinkDude10:
     Medium:
     7:
     0,0,0,0,0:
00000000
00000000
00000000
00000000
,
00000000
00000000
00000000
00000000
,
00000000
00000000
00000000
00000000
,
00000000
00000000
00000000
00000000
,
00010000
01000000
00010000
00000000
01000000
00100000
01000000
00000000
,
00100000
10000000
00100000
00000000
10000000
00100000
10000000
00000000
,
00100000
01000000
00100000
00000000
01000000
00010000
01000000
00000000
,
00010000
00010000
00100000
00100000
00001000
00001000
00010000
00010000
,
00001000
00010000
00000000
00000000
00001000
00000000
00000000
00000000
00010000
00001000
00000000
00000000
00010000
00000000
00000000
00000000
,
00001000
00000000
00000000
00010000
00000000
00010000
00000000
00000000
00000100
00000000
00000000
00010000
00000000
00010000
00000000
00000000
,
00000010
00000000
00000000
00010000
00000000
00010000
00000000
00000000
00000100
00000000
00000000
00000000
00000010
00000000
00000001
00000000
,
00000010
00000000
00000000
00000000
00000000
00000000
00000001
00000000
00000000
00000000
00000001
00000000
00000000
00000000
00000000
00000000
00001000
00000000
00000000
00000000
00000000
00000000
00000100
00000000
00000000
00000000
00000100
00000000
00000000
00000000
00000000
00020000
,
0000M0M0
00000000
00030000
00000000
00000100
00000100
00010000
00001000
,
00010000
00000000
00000000
00001000
00000000
00001000
00000000
00000000
01000000
00000000
00000000
00001000
00000000
00001000
00000000
00000000
,
00100000
00000000
00000000
00001000
00000000
00001000
00000000
00000000
01000000
00000000
00000000
00000000
00100000
00000000
10000000
00000000
,
00100000
00000000
00000000
00000000
00000000
00000000
10000000
00000000
00000000
00000000
10000000
00000000
00000000
00000000
00000000
00000000
00010000
00000000
00000000
00000000
00000000
00000000
01000000
00000000
00000000
00000000
01000000
00000000
00000000
00000000
00000000
00002000
,
00MM0000
00000000
00003000
00000000
01000000
01000000
00001000
00010000
,
00001000
00000000
00000000
00010000
00000000
00010000
00000000
00000000
00000100
00000000
00000000
00010000
00000000
00010000
00000000
00000000
,
00000010
00000000
00000000
00010000
00000000
00010000
00000000
00000000
00000100
00000000
00000000
00000000
00000010
00000000
00000001
00000000
,
00000010
00000000
00000000
00000000
00000000
00000000
00000001
00000000
00000000
00000000
00000001
00000000
00000000
00000000
00000000
00000000
00001000
00000000
00000000
00000000
00000000
00000000
00000100
00000000
00000000
00000000
00000100
00000000
00000000
00000000
00000000
00020000
,
0000M0M0
00000000
00030000
00000000
00000100
00000100
00010000
00001000
,
00010000
00000000
00000000
00001000
00000000
00001000
00000000
00000000
01000000
00000000
00000000
00001000
00000000
00001000
00000000
00000000
,
00100000
00000000
00000000
00001000
00000000
00001000
00000000
00000000
01000000
00000000
00000000
00000000
00100000
00000000
10000000
00000000
,
00100000
00000000
00000000
00000000
00000000
00000000
10000000
00000000
00000000
00000000
10000000
00000000
00000000
00000000
00000000
00000000
00010000
00000000
00000000
00000000
00000000
00000000
01000000
00000000
00000000
00000000
01000000
00000000
00000000
00000000
00000000
00002000
,
00MM0000
00000000
00003000
00000000
01000000
01000000
00001000
00010000
,
MM022000
00000000
00000000
00000000
00000000
00000000
00000000
00000000
00000000
00000000
00000000
00033000
00000000
00000000
00000000
00000000
00000000
00000000
00000000
00000000
00010000
00000000
00000000
00000000
00010000
00000000
00000000
00000000
00000010
00000000
00000000
00000000
,
00000010
00000000
00000200
00000000
00000001
00000300
00000200
00000000
,
00010000
00000300
00000200
00000000
00001000
00000300
00000200
00000310
,
00000010
00000000
00020000
00000000
00000100
00030000
00020000
00000000
,
00000010
00030000
00020000
00000000
00000100
00030000
00020000
00030000
,
00001000
00000000
02000000
00000000
00010000
03000000
02000000
00000000
,
10000000
03000000
02000000
00000000
00100000
03000000
02000000
03001000
,
00001000
00000000
00020000
00000000
00000010
00030000
00020000
00000000
,
00000100
00030000
00020000
00000000
00000010
00030000
00020000
00030000
,
00000010
00000100
00000010
00000100
00000001
00000100
00000001
00000000
,
00000100
00000010
00000100
00000010
00001000
00000010
00001000
00000000
,
00000010
00010000
00000010
00010000
00001000
00010000
00001000
00000000
,
00010000
00001000
00010000
00001000
00100000
00001000
00100000
00000000
,
00001000
01000000
00001000
01000000
00100000
01000000
00100000
00000000
,
01000000
00010000
01000000
00010000
10000000
00010000
10000000
00000000
,
00010000
00100000
00010000
00100000
01000000
00100000
01000000
00000000
,
00100000
00010000
00100000
00010000
10000000
00010000
10000000
00000000
,
00000000
00000000
00001000
00000000
00001000
00000000
00010000
00000000
00010000
00000000
00000000
00000100
00000000
00000010
00000000
00000100
,
00000000
00000000
00010000
00000000
00010000
00000000
00001000
00000000
00001000
00000000
00000000
00100000
00000000
01000000
00000000
00100000
,
00000000
00000000
00001000
00000000
00001000
00000000
00010000
00000000
00010000
00000000
00000000
00000010
00000000
00000100
00000000
00000010
,
00000000
00000000
00010000
00000000
00010000
00000000
00001000
00000000
00001000
00000000
00000000
01000000
00000000
00100000
00000000
01000000
,
00000000
00000000
00001000
00000000
00001000
00000000
00010000
00000000
00010000
00000000
00000000
00000010
00000000
00001000
00000000
00000010
,
00000000
00000000
00010000
00000000
00010000
00000000
00001000
00000000
00001000
00000000
00000000
01000000
00000000
00010000
00000000
01000000
,
00000000
00000000
00001000
00000000
00001000
00000000
00010000
00000000
00010000
00000000
00000000
00000100
00000000
00001000
00000000
00000100
,
00000000
00001000
00000100
00001000
00000001
00001000
00000001
00000010
,
00000001
00000010
00000100
00000010
00000100
00010000
00000100
00010000
,
00001000
00000000
00000000
00010000
00000000
00010000
00000000
00000000
00000100
00000000
00000000
00010000
00000000
00010000
00000000
00000000
,
00000010
00000000
00000000
00010000
00000000
00010000
00000000
00000000
00000100
00000000
00000000
00000000
00000010
00000000
00000001
00000000
,
00000010
00000000
00000000
00000000
00000000
00000000
00000001
00000000
00000000
00000000
00000001
00000000
00000000
00000000
00000000
00000000
00001000
00000000
00000000
00000000
00000000
00000000
00000100
00000000
00000000
00000000
00000100
00000000
00000000
00000000
00000000
00020000
,
0000M0M0
00000000
00030000
00000000
00000100
00000100
00010000
00001000
,
00010000
00000000
00000000
00001000
00000000
00001000
00000000
00000000
01000000
00000000
00000000
00001000
00000000
00001000
00000000
00000000
,
00100000
00000000
00000000
00001000
00000000
00001000
00000000
00000000
01000000
00000000
00000000
00000000
00100000
00000000
10000000
00000000
,
00100000
00000000
00000000
00000000
00000000
00000000
10000000
00000000
00000000
00000000
10000000
00000000
00000000
00000000
00000000
00000000
00010000
00000000
00000000
00000000
00000000
00000000
01000000
00000000
00000000
00000000
01000000
00000000
00000000
00000000
00000000
00002000
,
00MM0000
00000000
00000000
00003000
,
00010000
00000000
00000000
00001000
00000000
00001000
00000000
00000000
01000000
00000000
00000000
00001000
00000000
00001000
00000000
00000000
,
00100000
00000000
00000000
00001000
00000000
00001000
00000000
00000000
02000000
00000000
00000000
03000000
02000000
00000000
00000000
03000000
,
02000000
00000000
00000000
03000000
02000000
00000000
00000000
00000000
00000000
00000000
00000000
00000000
00000000
00000000
00000000
00000000
,
00000000
00000000
03000000
00000000
00001000
00001000
01000000
00001000
,
00010000
00000000
00000000
00001000
00000000
00001000
00000000
00000000
01000000
00000000
00000000
00001000
00000000
00001000
00000000
00000000
,
00100000
00000000
00000000
00001000
00000000
00001000
00000000
00000000
02000000
00000000
00000000
03000000
02000000
00000000
00000000
03000000
,
02000000
00000000
00000000
03000000
02000000
00000000
00000000
03000000
00000000
00000000
00001000
01000000
00001000
00000000
00010000
00000000
,
0MM22000
00000000
00033000
00000000
00000100
00000100
00010000
00001000
,
0M022M00
00033000
00000000
00000000
00000000
00000000
00000000
00000000
;

//--------------- dance-double - J.Berkowitz ----------------
#NOTES:
     dance-double:
     J.Berkowitz:
     Hard:
     9:
     0,0,0,0,0:
00000000
00000000
00000000
00000000
,
00000000
00000000
00000000
00000000
,
00000000
00000000
00000000
00000000
,
00000000
00000000
00000000
00000000
,
00001000
00001000
00100000
00100000
00001000
00001000
00100000
00100000
,
00010000
00010000
01000000
01000000
00010000
00010000
01000000
01000000
,
00100000
00100000
10000000
10000000
00100000
00100000
10000000
10000000
,
00010000
00000000
00000000
00000000
00000000
00000000
10000000
00000000
00000000
00000000
00000000
00000000
00010000
00000000
00000000
00000000
00000000
00000000
10000000
00000000
00000000
00000000
00000000
00000000
00010000
00000000
00000000
00000000
00000000
00000000
10000000
00000000
00000000
00000000
00000000
00000000
00010000
00000000
00000000
10000000
00000000
00000000
00010000
00000000
10000000
00000000
00010000
00000000
,
10000000
00200000
00000000
00000000
01300000
00000000
00000000
00000000
00001000
00010000
00001000
00000000
00010000
00000010
00001000
00000000
,
00000100
00000000
00000M00
00000010
00000000
00002000
00000000
00000000
00003100
00000000
00000M00
00000010
00000000
00002000
00000000
00000000
,
00003100
00000000
00000M00
00000010
00000000
00002000
00000000
00000000
00003100
00000000
00000000
00000000
00010000
00000000
00000010
00000000
,
00000100
00000000
00000M00
00010000
00000000
00000020
00000000
00000000
00000130
00000000
00000M00
00010000
00000000
00000010
00000000
00000100
,
00000000
00000000
00000110
00000000
00000010
00000010
00001000
00001000
,
00000100
00000000
00000M00
00000001
00000000
00002000
00000000
00000000
00003100
00000000
00000M00
00000001
00000000
00002000
00000000
00000000
,
00003100
00000000
00000M00
00000001
00000000
00002000
00000000
00000000
00003100
00000000
00000000
00000000
00010000
00000000
00001000
00000000
,
01000000
00000000
0M000000
00010000
00000000
00002000
00000000
00000000
01003000
00000000
0M000000
00010000
00000000
00001000
00000000
01000000
,
00001000
00000000
00001000
00000000
00100000
00000000
00100000
00000000
00010000
10000000
00010000
01000000
00001000
00100000
00001000
00000000
,
00100000
00000000
00M00000
01000000
00000000
00002000
00000000
00000000
00103000
00000000
00M00000
01000000
00000000
00002000
00000000
00000000
,
00103000
00000000
00M00000
01000000
00000000
00002000
00000000
00000000
00103000
00000000
00000000
00000000
00001000
00000000
00010000
00000000
,
00000010
00000000
000000M0
00000100
00000000
00020000
00000000
00000000
00030010
00000000
000000M0
00000100
00000000
00010000
00000000
00000010
,
00000000
00000000
00000110
00000000
00001000
00001000
00000001
00000001
,
00000100
00000000
00000M00
00001000
00000000
00000002
00000000
00000000
00000103
00000000
00000M00
00001000
00000000
00000002
00000000
00000000
,
00000103
00000000
00000M00
00001000
00000000
00000002
00000000
00000000
00000103
00000000
00000000
00000000
00000001
00000000
00001000
00000000
,
00000100
00000000
00000M00
00000001
00000000
00002000
00000000
00000000
00003100
00000000
00000M00
00000001
00000000
00001000
00000000
00000100
,
00000000
00000000
00010100
00000000
00000100
00000100
00010000
00010000
,
00001000
00000000
00000000
00000000
00000000
00000000
00000000
00000000
01000000
00001000
01000000
00000000
00010000
00100000
00010000
00000000
,
10000000
00000000
00100000
00000000
20000000
01000000
30100000
00000000
,
20000000
00000000
01000000
00000000
30100000
00000000
00000000
10000000
20000000
00000000
01000000
00000000
30100000
00000000
10000000
00000000
,
10000000
00000000
01000000
00000000
00002000
01000000
00013000
00000000
,
00002000
00000000
01000000
00000000
00103000
00000000
00000000
00001000
00002000
00000000
01000000
00000000
00013000
00000000
00000000
00000000
,
00001000
00000000
00010000
00000000
00000200
00001000
00000301
00000000
,
00000200
00000000
00001000
00000000
00000301
00000000
00000000
00000100
00000200
00000000
00001000
00000000
00010300
00000000
00001000
00000000
,
00010000
00000000
00001000
00000000
00200000
00010000
10300000
00000000
,
00200000
00000000
00010000
00000000
10300000
00000000
00000000
00010000
10000000
00010000
10000000
01000000
00100000
00010000
10000000
00000000
,
00100000
00000000
00000000
00000000
00000000
00000000
00000000
00000000
01000000
00000000
00000000
00000000
00000000
00010000
00000000
00000000
01000000
00000000
00000000
00000000
00000000
00000000
00000000
00000000
00001000
00000000
00000000
00000000
00000000
00100000
00000000
00000000
00000000
00000000
00000000
00000000
00000000
00100000
00000000
00000000
00000000
00000000
00000000
00000000
00000000
00001000
00000000
00000000
00000000
00000000
00000000
00000000
00000000
00001000
00000000
00000000
00010000
00000000
00000000
00000000
00000000
00000000
00000000
00000000
,
00001000
00000000
00000000
00000000
00000000
00000000
00000000
00000000
00010000
00000000
00000000
00000000
00000000
00000010
00000000
00000000
00010000
00000000
00000000
00000000
00000000
00000000
00000000
00000000
00000010
00000000
00000000
00000000
00000000
00000100
00000000
00000000
00000000
00000000
00000000
00000000
00000000
00000000
00000000
00000000
00000001
00000000
00000000
00000000
00000010
00000000
00000000
00000000
00000100
00000000
00000000
00000000
00000000
00000000
00000000
00000000
00000010
00000000
00000000
00000000
00000001
00000000
00000000
00000000
,
00001000
00000000
00000000
00000000
00000000
00000000
00000000
00000000
00000010
00000000
00000000
00000000
00000000
00000100
00000000
00000000
00000010
00000000
00000000
00000000
00000000
00000000
00000000
00000000
00001000
00000000
00000000
00000000
00000000
00000000
00000000
00000000
00000100
00000000
00000000
00000000
00000000
00000000
00000000
00000000
00000010
00000000
00000000
00000000
00000000
00000100
00000000
00000000
00000000
00000000
00000000
00000000
00000000
00010000
00000000
00000000
00000010
00000000
00000000
00000000
00000000
00000100
00000000
00000000
,
00000010
00000000
00000000
00000000
00000000
00000000
00000000
00000000
00000000
00000000
00000000
00000000
00000000
00000000
00000000
00000000
00010000
00000000
00000000
00000000
00000000
00000000
00000000
00000000
00001000
00000000
00000000
00000000
00000000
00000000
00000000
00000000
00010000
00000000
00000000
00000000
00000000
00000000
00000000
00000000
00000000
00000000
00000000
00000000
00000000
00001000
00000000
00000000
00000000
00000000
00000000
00000000
00000000
01000000
00000000
00000000
00010000
00000000
00000000
00000000
00000000
10000000
00000000
00000000
,
01000000
00000000
00000000
00000000
00000000
00000000
00000000
00000000
00100000
00000000
00000000
00000000
00000000
00010000
00000000
00000000
00100000
00000000
00000000
00000000
00000000
00000000
00000000
00000000
01000000
00000000
00000000
00000000
00000000
10000000
00000000
00000000
00000000
00000000
00000000
00000000
00000000
10000000
00000000
00000000
00000000
00000000
00000000
00000000
00000000
00010000
00000000
00000000
00000000
00000000
00000000
00000000
00000000
00010000
00000000
00000000
01000000
00000000
00000000
00000000
00000000
00000000
00000000
00000000
,
00010000
00000000
00000000
00000000
00000000
00000000
00000000
00000000
00100000
00000000
00000000
00000000
00000000
01000000
00000000
00000000
00100000
00000000
00000000
00000000
00000000
00000000
00000000
00000000
00001000
00000000
00000000
00000000
00000000
01000000
00000000
00000000
00000000
00000000
00000000
00000000
00000000
00000000
00000000
00000000
00100000
00000000
00000000
00000000
01000000
00000000
00000000
00000000
00001000
00000000
00000000
00000000
00000000
00000000
00000000
00000000
00100000
00000000
00000000
00000000
00010000
00000000
00000000
00000000
,
00100000
00000000
00000000
00000000
00000000
00000000
00000000
00000000
00001000
00000000
00000000
00000000
00000000
01000000
00000000
00000000
00001000
00000000
00000000
00000000
00000000
00000000
00000000
00000000
00100000
00000000
00000000
00000000
00000000
00000000
00000000
00000000
00001000
00000000
00000000
00000000
00000000
00000000
00000000
00000000
00000000
00000000
00000000
00000000
00000000
00010000
00000000
00000000
00000000
00000000
00000000
00000000
00000000
00001000
00000000
00000000
00010000
00000000
00000000
00000000
00000000
00000010
00000000
00000000
,
00001000
00000000
00000000
00000000
00000001
00000000
00000010
00000000
00000001
00000100
00000010
00001000
00000100
00000010
00000001
00000000
,
00001000
00000000
00000001
00000000
00000100
00000000
00000010
00000000
00020000
00000000
00000000
00030100
00000000
00001000
00000000
00000100
,
00000000
00000000
00010000
00000000
00001000
00000000
00010000
00000000
00002000
00000000
00000000
00103000
00000000
10000000
00000000
00100000
,
00000000
00000000
00010000
00000000
01000000
00000000
00100000
00000000
20000000
00000000
00000000
31000000
00000000
00100000
00000000
10000000
,
00000000
00000000
00100000
00000000
00010000
00000000
01000000
00000000
20000000
00000000
00000000
31000000
00000000
00010000
00000000
10000000
,
01000000
00000000
00100000
00000000
00001000
00000000
00010000
00000000
00000020
00000000
00000000
00000130
00000000
00000001
00000000
00000100
,
00001000
00000000
00000001
00000000
00000100
00000000
00000010
00000000
00020000
00000000
00000000
00030100
00000000
00000001
00000000
00000100
,
00001000
00000000
00000001
00000000
00000100
00000000
00000010
00000000
00002000
00000000
00000000
00003001
00000000
00000100
00000000
00010000
,
00000100
00000020
00002030
00023000
00030200
00002300
00003200
00020300
,
00000000
00000000
00000000
00000000
00000000
00000000
00000000
00000000
10030000
00010000
01000000
00000000
00010000
10000000
00010000
00000000
,
10000000
00000000
M0000000
00100000
00000000
00020000
00000000
00000000
10030000
00000000
M0000000
00100000
00000000
00020000
00000000
00000000
,
10030000
00000000
M0000000
00100000
00000000
00020000
00000000
00000000
10030000
00000000
00000000
00000000
00010000
00000000
00100000
00000000
,
00001000
00000000
0000M000
00010000
00000000
00200000
00000000
00000000
00301000
00000000
0000M000
00010000
00000000
00100000
00000000
00001000
,
00000000
00000000
00011000
00000000
00000010
00000010
00010000
00010000
,
00000100
00000000
00000M00
00001000
00000000
00020000
00000000
00000000
00030100
00000000
00000M00
00001000
00000000
00020000
00000000
00000000
,
00030100
00000000
00000M00
00001000
00000000
00020000
00000000
00000000
00030100
00000000
00000000
00000000
00000010
00000000
00000001
00000000
,
00001000
00000000
0000M000
00000010
00000000
00000002
00000000
00000000
00001003
00000000
0000M000
00000010
00000000
00000001
00000000
00001000
,
00000000
00000000
00000000
00000000
00001001
00000000
00000000
00000000
00001000
00000010
00000100
00000001
00000010
00000100
00000010
00000000
,
00000100
00000000
00000M00
00000001
00000000
00000020
00000000
00000000
00000130
00000000
00000M00
00000001
00000000
00000020
00000000
00000000
,
00000130
00000000
00000M00
00000001
00000000
00000020
00000000
00000000
00000130
00000000
00000M00
00000001
00000000
00002000
00000000
00000000
,
00003010
00000000
000000M0
00000100
00000000
00002000
00000000
00000000
00003010
00000000
00010000
00000010
00010000
00000000
00001000
00010000
,
00001000
00000000
00000000
00000000
00000000
00000000
00000000
00000000
00000000
00000000
00000000
00000000
00000000
00000000
00000000
00000000
00000000
00000000
00000000
00000000
00000000
00000000
00000000
00000000
00100000
00000000
00000000
00000000
00000000
00000000
00000000
00000000
00010000
00000000
00000000
00000000
01000000
00000000
00000000
00000000
00000000
00000000
00000000
00000000
00000000
00100000
00000000
00000000
10000000
00000000
00000000
00000000
00000000
00000000
00000000
00000000
00000000
00000000
00000000
00000000
00010000
00000000
00000000
00000000
00000000
00000000
00000000
00000000
00000000
00000000
00000000
00000000
01000000
00000000
00000000
00000000
00000000
00000000
00000000
00000000
00000000
00000000
00000000
00000000
01000000
00000000
00000000
00000000
00000000
00000000
00000000
00000000
00000000
00000000
00000000
00000000
,
00100000
00000000
00M00000
10000000
00000000
02000000
00000000
00000000
03100000
00000000
00M00000
10000000
00000000
02000000
00000000
00000000
,
03100000
00000000
00M00000
10000000
00000000
02000000
00000000
00000000
03100000
00000000
00M00000
10000000
00000000
00020000
00000000
00000000
,
01030000
00000000
0M000000
10000000
00000000
00020000
00000000
00000000
01030000
00000000
00010000
01000000
00001000
00000000
00100000
00001000
,
00100000
00000000
00000000
00000000
00000000
00000000
00000000
00000000
00000000
00000000
00000000
00000000
00000000
00000000
00000000
00000000
00000000
00000000
00000000
00000000
00000000
00000000
00000000
00000000
00001000
00000000
00000000
00000000
00000000
00000000
00000000
00000000
00000100
00000000
00000000
00000000
00000010
00000000
00000000
00000000
00000000
00000000
00000000
00000000
00000000
00000001
00000000
00000000
00001000
00000000
00000000
00000000
00000000
00000000
00000000
00000000
00000000
00000000
00000000
00000000
00000010
00000000
00000000
00000000
00000000
00000000
00000000
00000000
00000000
00000000
00000000
00000000
00010000
00000000
00000000
00000000
00000000
00000000
00000000
00000000
00000000
00000000
00000000
00000000
00010000
00000000
00000000
00000000
00000000
00000000
00000000
00000000
00000000
00000000
00000000
00000000
,
00000100
00000000
00000000
00000000
;
