#TITLE:Moves Like Jagger;
#SUBTITLE:Sensibility Validation;
#ARTIST:Maroon 5 feat. Christina Aguilera;
#TITLETRANSLIT:;
#SUBTITLETRANSLIT:;
#ARTISTTRANSLIT:;
#GENRE:;
#CREDIT:;
#MUSIC:Moves Like Jagger.ogg;
#BANNER:Moves Like Jagger-bn.png;
#BACKGROUND:Moves Like Jagger-bg.png;
#CDTITLE:GazeboCD.png;
#SAMPLESTART:105.208;
#SAMPLELENGTH:29.532;
#SELECTABLE:YES;
#OFFSET:-0.198;
#BPMS:0.000=127.981;
#STOPS:;
#BGCHANGES:;
#FGCHANGES:;

//--------------- dance-single - LinkDude05 ----------------
#NOTES:
     dance-single:
     LinkDude05:
     Beginner:
     3:
     0,0,0,0,0:
0000
0000
0000
0000
,
0000
0000
0000
0000
,
0001
0000
0010
0000
,
0001
0000
0000
0020
0030
0000
0000
0000
,
0001
0000
1000
0000
,
0001
0000
0000
2000
3000
0000
0000
0000
,
0001
0000
0100
0000
,
0001
0000
0000
0200
0300
0000
0000
0002
,
0000
0000
0000
0000
0003
0000
0000
0200
,
0300
0000
0000
0000
0010
0000
0000
0200
,
0000
0300
0000
0000
0000
0001
0000
0001
,
0000
0001
0000
0000
0100
0000
0000
0002
,
0003
0000
0000
0000
1000
0000
0000
0200
,
0300
0000
0000
0000
0010
0000
0000
0200
,
0000
0000
0000
0000
0000
0000
0000
0300
,
0000
0000
0000
0000
1000
0000
0000
0200
,
0000
0300
0000
0000
0000
1000
0000
1000
,
0000
1000
0000
0000
0100
0000
0000
0020
,
0000
0030
0000
0000
0000
0100
0000
0100
,
0000
0100
0000
0000
1000
0000
0000
0002
,
0003
0000
0000
0000
0010
0000
0000
0002
,
0003
0000
0000
0000
0010
0000
0000
0200
,
0300
0000
0000
0000
,
0000
0010
0000
0010
0000
0010
0000
0010
,
0000
0000
0000
0001
0000
0000
0000
0100
,
0000
0000
0000
0002
0000
0000
0000
0003
,
0000
0000
0000
1000
0000
0000
0000
0100
,
0000
0000
0000
1000
0000
0000
0100
0000
,
0100
0100
0000
0010
,
0010
0010
0000
0001
,
0010
0100
1000
0100
,
0010
0000
0002
0000
0000
0000
0000
0003
,
0000
0000
0000
1000
0000
0000
0000
0010
,
0000
0000
0000
2000
0000
0000
0000
3000
,
0000
0000
0000
0001
0000
0000
0000
0100
,
0000
0000
0000
0002
0003
0000
0000
0000
,
1000
1000
1000
0000
,
0001
0001
0001
0000
,
1000
0010
0100
0001
,
0100
0000
0010
0000
1000
0000
0000
0020
,
0000
0030
0000
0000
0000
1000
0000
1000
,
0000
1000
0000
0000
0001
0000
0000
0200
,
0000
0300
0000
0000
0000
0001
0000
0001
,
0000
0001
0000
0000
1000
0000
0000
0200
,
0300
0000
0000
0000
0010
0000
0000
0200
,
0300
0000
0000
0000
1000
0000
0000
0200
,
0000
0000
0000
0000
0000
0300
0000
0000
,
0000
M11M
0000
0000
1000
0000
0000
0200
,
0000
0300
0000
0000
0000
1000
0000
1000
,
0000
1000
0000
0000
0001
0000
0000
0020
,
0000
0030
0000
0000
0000
0001
0000
0001
,
0000
0001
0000
0000
0100
0000
0000
0020
,
0030
0000
0000
0000
1000
0000
0000
0020
,
0030
0000
0000
0000
0100
0000
0000
0020
,
0030
0000
0000
M22M
0000
0330
0000
0000
,
0000
1000
0000
1000
0000
1000
0000
1000
,
0000
0000
0000
0001
0000
0000
0000
0010
,
0000
0000
0000
0002
0000
0000
0000
0003
,
0000
0000
0000
1000
0000
0000
0000
0100
,
0000
0000
0000
2000
3000
0000
0000
0000
,
0001
0001
0001
0000
,
1000
1000
1000
0000
,
0001
0010
0100
0010
,
0100
0000
0010
0000
0002
0000
0000
0003
,
0000
0000
0000
1000
0000
0000
0000
0010
,
0000
0000
0000
2000
0000
0000
0000
3000
,
0000
0000
0000
0001
0000
0000
0000
0100
,
0000
0000
0000
0002
0003
0000
0000
0000
,
0100
0100
0100
0000
,
0010
0010
0010
0000
,
1000
0001
0100
0001
,
0100
0001
2000
0000
,
3000
0000
0010
0010
,
0000
0000
0100
0100
,
0000
0000
0001
0001
,
0000
0000
1000
1000
,
0000
0000
0001
0010
,
0001
0000
1000
0100
,
1000
0000
0001
0100
,
0002
0000
0000
0000
,
0003
0000
1000
0100
,
0000
0000
0010
0001
,
0000
0000
0100
0001
,
0000
1000
0010
1000
,
0000
0000
0001
1000
,
0001
0000
0100
0010
,
0100
0000
0001
0010
,
0200
0000
0000
0300
0000
0000
0000
M11M
,
0000
0000
0000
0010
0000
0010
0000
0010
,
0000
0000
0000
0001
0000
0000
0000
1000
,
0000
0000
0000
0020
0000
0000
0000
0030
,
0000
0000
0000
1000
0000
0000
0000
0001
,
0000
0000
0000
0020
0030
0000
0000
0000
,
0100
0100
0100
0000
,
1000
1000
1000
0000
,
0001
0010
0001
1000
,
0001
0000
0100
0000
0002
0000
0000
0003
,
0000
0000
0000
1000
0000
0000
0000
0010
,
0000
0000
0000
0200
0000
0000
0000
0300
,
0000
0000
0000
0001
0000
0000
0000
0010
,
0000
0000
0000
0200
0300
0000
0000
0000
,
1000
1000
1000
0000
,
0010
0010
0010
0000
,
0100
0010
0100
0001
,
0100
0010
0100
0000
,
0001
0100
0001
1000
,
0001
0010
0001
0000
;

//--------------- dance-single - LinkDude08 ----------------
#NOTES:
     dance-single:
     LinkDude08:
     Easy:
     5:
     0,0,0,0,0:
0000
0000
0000
0000
,
0000
0000
0000
0000
,
0001
0010
0001
1000
,
0001
0000
0100
0002
0000
0000
0003
0000
,
0100
0001
0100
0001
0100
0010
0100
0010
,
0100
0000
0010
0200
0000
0000
0300
0000
,
0001
0100
0001
0100
0001
1000
0001
1000
,
0001
0000
1000
0002
0003
0000
0100
0020
,
0000
0000
0000
0030
0000
1000
0000
0100
,
0000
0020
0030
0000
0001
0000
1000
0002
,
0000
0000
0000
0003
0000
0100
0000
0001
,
0000
2000
3000
0000
0001
0000
0010
0200
,
0000
0000
0300
0000
1000
0000
0001
2000
,
0000
0000
3000
0000
0010
0000
1000
0010
,
1000
0010
1000
0010
0100
0010
0100
0010
,
0200
0000
0300
0000
0001
0000
0010
0002
,
0000
0000
0000
0003
0000
1000
0000
0010
,
0000
0200
0300
0000
0010
0000
0100
0002
,
0000
0000
0000
0003
0000
1000
0000
0010
,
0000
0200
0300
0000
0010
0000
0100
0002
,
0000
0000
0003
0000
1000
0000
0001
0020
,
0000
0000
0030
0000
0100
0000
0010
0002
,
0000
0000
0000
0000
0000
0000
0000
0003
,
0000
1000
0000
0010
0000
1000
0000
0200
,
0000
0300
0000
1000
0000
0001
0000
0100
,
0000
0010
0000
0100
0000
0002
0000
0000
,
0000
0003
0000
0010
0000
0001
0000
0010
,
0000
0100
0000
2000
3000
0000
0001
0000
,
0100
0010
1000
0010
,
0100
0001
0010
0001
,
0010
0001
0010
0001
0010
0100
0010
0100
,
0010
0000
0100
0020
0000
0000
0000
0000
,
0000
0030
0000
0001
0000
1000
0000
0010
,
0000
0100
0000
0010
0000
2000
0000
0000
,
0000
3000
0000
0001
0000
0010
0000
0001
,
0000
0010
0000
0200
0300
0000
1000
0000
,
0100
0010
0001
1000
,
0100
0010
0001
1000
,
0010
1000
0010
1000
0010
0100
0010
0100
,
0010
0000
0100
0020
0030
0000
1000
0002
,
0000
0000
0000
0003
0000
1000
0000
0010
,
0000
0200
0300
0000
0010
0000
1000
0002
,
0000
0000
0000
0003
0000
1000
0000
0100
,
0000
0020
0030
0000
0100
0000
1000
0002
,
0000
0000
0003
0000
0010
0000
0001
2000
,
0000
3000
0100
1000
,
0100
1000
0100
1000
0100
0010
0100
0010
,
0100
M00M
0000
0000
1000
0000
0001
0020
,
0000
0000
0000
0030
0000
0001
0000
0100
,
0000
0020
0030
0000
1000
0000
0001
0200
,
0000
0000
0000
0300
0000
0010
0000
1000
,
0000
0002
0003
0000
0100
0000
0001
0020
,
0000
0000
0030
0000
0001
0000
1000
0200
,
0000
0000
0300
0000
1000
0000
0100
0020
,
0000
0030
0000
M22M
0000
0000
0000
0330
,
0000
0001
0000
1000
0000
0010
0000
2000
,
0000
3000
0000
0001
0000
0100
0000
0010
,
0000
1000
0000
0100
0000
2000
0000
0000
,
0000
3000
0000
0001
0000
0100
0000
0010
,
0000
1000
0000
0020
0000
0000
0030
0000
,
1000
0100
0010
0100
,
1000
0001
0010
0100
,
0010
0100
0010
0100
0010
0001
0010
0001
,
0010
0000
0001
0020
0000
0000
0000
0000
,
0000
0030
0000
0001
0000
0100
0000
0010
,
0000
0100
0000
0001
0000
2000
0000
0000
,
0000
3000
0000
0001
0000
0100
0000
0010
,
0000
1000
0000
0001
0000
2000
3000
0000
,
0100
1000
0100
0010
,
0001
1000
0010
1000
,
0001
1000
0001
1000
0001
0100
0001
0100
,
0001
0000
0100
0002
0000
0000
0000
0000
,
0000
0003
1000
0020
,
0000
0030
0100
0002
,
0000
0003
0010
0002
,
0003
1000
0100
2000
,
0000
3000
0100
0010
,
0200
0300
1000
0001
,
1000
0001
1000
0001
1000
0100
1000
0100
,
1000
0000
0100
2000
0000
0000
0000
0000
,
0000
3000
0001
0020
,
0030
0001
0010
0200
,
0000
0300
0010
0200
,
0300
1000
0001
0020
,
0000
0030
0001
1000
,
0200
0300
1000
0001
,
0100
0001
0100
0001
0100
0010
0100
0010
,
0100
0000
0010
0200
0000
0300
0000
M11M
,
0000
0100
0000
0010
0000
0100
0000
0002
,
0000
0003
0000
1000
0000
0001
0000
1000
,
0000
0010
0000
0100
0000
0002
0000
0000
,
0000
0003
0000
1000
0000
0010
0000
0100
,
0000
0010
0000
1000
0000
0002
0003
0000
,
1000
0100
0010
0001
,
0100
0010
1000
0001
,
1000
0001
1000
0001
1000
0100
1000
0100
,
1000
0000
0100
2000
0000
0000
0000
0000
,
0000
3000
0000
0001
0000
0100
0000
0010
,
0000
0100
0000
0001
0000
2000
0000
0000
,
0000
3000
0000
0001
0000
0010
0000
0100
,
0000
0010
0000
0002
0003
0000
1000
0000
,
0010
1000
0010
0100
,
0001
1000
0100
0010
,
0001
0010
0001
0010
0001
1000
0001
1000
,
0001
0000
1000
0002
0000
0000
0003
0000
,
0100
1000
0100
0001
0100
1000
0100
0001
,
0100
0000
1000
0200
0300
0000
0000
0000
;

//--------------- dance-single - LinkDude11 ----------------
#NOTES:
     dance-single:
     LinkDude11:
     Medium:
     7:
     0,0,0,0,0:
0000
0000
0000
0000
,
0000
0000
0000
0000
,
0010
1000
0010
1000
0010
1000
0001
1000
,
0001
0000
1000
0001
0000
0000
0000
0000
,
0100
0001
0100
0001
0100
0001
1000
0001
,
1000
0000
0001
2000
0000
0000
3000
0000
,
0001
0100
0001
0100
0001
0100
0010
0100
,
0010
0000
0100
0001
0100
0001
0100
0020
,
0000
0000
0000
0030
0000
1000
0010
1000
,
0000
0001
0000
1000
0100
1000
0100
0020
,
0000
0000
0000
0030
0000
0001
0010
0001
,
0000
1000
0000
0001
0100
0001
0100
0020
,
0000
0000
0030
1000
0100
1000
0100
0020
,
0000
0030
0000
0001
0100
0001
0100
0010
,
0100
0010
0100
0010
0100
0010
1000
0010
,
1000
0000
0010
1000
0010
1000
0010
0200
,
0000
0000
0000
0300
0000
0001
0100
0001
,
0000
1000
0000
0001
0010
0001
0010
0200
,
0000
0000
0000
0300
0000
1000
0100
1000
,
0000
0001
0000
1000
0010
1000
0010
0200
,
0000
0300
0000
0001
0100
0001
0100
0020
,
0000
0030
0000
1000
0100
1000
0100
0020
,
0000
0000
0000
0000
0000
0000
0000
0030
,
0000
0001
0010
0001
0000
0100
0001
0200
,
0000
0300
0000
0001
0100
0001
0100
0001
,
1000
0001
0000
1000
0000
0020
0000
0000
,
0000
0030
0000
1000
0010
1000
0010
1000
,
0001
1000
0000
0001
0000
0010
0001
0010
,
0001
0000
0010
0001
0010
0001
0010
0100
,
0010
0000
0100
0010
0100
0010
0001
0010
,
0001
0010
0001
0010
0001
0010
0100
0010
,
0100
0000
0000
0000
0010
0000
0100
0000
0000
0020
0000
0000
0000
0000
0000
0000
,
0000
0030
0000
0001
1000
0001
1000
0001
,
0100
0001
0000
0100
0000
0020
0000
0000
,
0000
0030
0000
1000
0010
1000
0010
0100
,
0010
0100
0000
0001
0000
0100
0001
0100
,
0001
0000
1000
0001
1000
0001
0100
0001
,
0100
0000
0010
0100
0010
0100
0001
0100
,
0001
1000
0001
1000
0100
1000
0100
0010
,
0100
0000
0010
0100
0010
0100
0010
0002
,
0000
0000
0000
0003
0000
1000
0100
1000
,
0000
0001
0000
1000
0010
1000
0010
0200
,
0000
0000
0000
0300
0000
0001
0100
0001
,
0000
1000
0000
0001
0010
0001
0010
0200
,
0000
0300
0000
1000
0100
1000
0100
0020
,
0000
0030
0000
0001
0010
0001
0010
0200
,
0000
0000
0000
0000
0000
0000
0000
0300
,
0000
M22M
0330
1000
0100
1000
0100
0020
,
0000
0000
0000
0030
0000
0001
0010
0001
,
0000
1000
0000
0001
0100
0001
0100
0020
,
0000
0000
0000
0030
0000
1000
0010
1000
,
0000
0001
0000
1000
0100
1000
0100
0020
,
0000
0030
0000
0001
0010
0001
0010
0200
,
0000
0300
0000
1000
0100
1000
0100
0020
,
0000
0030
0000
M22M
0000
0000
0000
0330
,
0000
0001
0010
0001
0000
0100
0000
0020
,
0000
0030
0000
1000
0010
1000
0010
1000
,
0001
1000
0000
0001
0000
2000
0000
0000
,
0000
3000
0000
0001
1000
0001
1000
0001
,
0100
0001
0000
0100
0000
0001
0100
0001
,
0100
0000
0010
0100
0010
0100
0001
0100
,
0001
0000
1000
0010
1000
0010
1000
0010
,
1000
0001
1000
0001
1000
0001
1000
0100
,
1000
0000
0000
0000
0100
0000
1000
0000
0000
0200
0000
0000
0000
0000
0000
0000
,
0000
0300
0000
0010
0100
0010
0100
0010
,
0001
0010
0000
0001
0000
0200
0000
0000
,
0000
0300
0000
0010
0100
0010
0100
0010
,
1000
0010
0000
1000
0000
0010
1000
0010
,
1000
0000
0001
1000
0001
1000
0001
1000
,
0100
0000
1000
0100
1000
0000
0100
0000
,
0010
0001
0010
0001
0010
0001
0100
0001
,
0100
0000
0000
0000
0001
0000
0100
0000
0000
0002
0000
0000
0000
0000
0000
0000
,
0000
0003
0000
1000
0001
1000
0020
0000
,
0000
0030
0000
1000
0010
1000
0002
0000
,
0000
0000
0003
0000
0010
0001
0010
0000
,
0100
0000
1000
0100
1000
0100
0020
0000
,
0000
0030
0000
0001
0010
0001
0010
0000
,
0200
0300
0000
1000
0100
1000
0100
0000
,
0020
0030
0000
0001
0010
0001
0010
0000
,
0200
0000
0000
0000
,
0000
0300
0000
1000
0100
1000
0002
0000
,
0000
0003
0000
1000
0001
1000
0020
0000
,
0000
0000
0030
0000
0100
0010
0100
0000
,
0001
0000
0100
0001
0100
0001
2000
0000
,
0000
3000
0000
0100
1000
0100
1000
0000
,
0020
0030
0000
0100
0001
0100
0001
0000
,
0020
0030
0000
0100
1000
0100
1000
0000
,
0020
0000
0000
0000
0000
0030
0000
M11M
,
0000
0100
0010
0100
0000
0001
0100
0002
,
0000
0003
0000
1000
0001
1000
0001
1000
,
0010
1000
0000
0010
0000
2000
0000
0000
,
0000
3000
0000
0001
1000
0001
1000
0001
,
0100
0001
0000
0100
0000
0001
0100
0001
,
1000
0000
0010
1000
0010
1000
0010
0100
,
0010
0000
0100
0010
0100
0010
0100
0001
,
0100
0001
0100
0001
0100
0001
0010
0001
,
0010
0000
0000
0000
0001
0000
0010
0000
0000
0002
0000
0000
0000
0000
0000
0000
,
0000
0003
0000
1000
0001
1000
0001
1000
,
0010
1000
0000
0010
0000
2000
0000
0000
,
0000
3000
0000
0010
1000
0010
1000
0001
,
1000
0001
0000
1000
0000
0100
1000
0100
,
1000
0000
0001
1000
0001
1000
0010
1000
,
0010
0000
0100
0010
0100
0010
0100
0001
,
0100
0001
0100
0010
0100
0010
0100
0001
,
0100
0000
0000
0000
0001
0000
0100
0000
0000
0002
0000
0000
0003
0000
0000
0000
,
1000
0100
0010
0001
0010
0100
1000
0100
,
0010
0000
0001
0020
0030
0000
0000
0000
;

//--------------- dance-single - Cut from Gazebo ----------------
#NOTES:
     dance-single:
     Cut from Gazebo:
     Hard:
     9:
     0,0,0,0,0:
0000
0000
0000
0000
,
0000
0000
0000
0000
,
0000
0000
0000
0000
,
0000
0000
0000
0000
0000
0001
0000
0001
,
0100
0010
1000
0100
0010
0100
1000
0001
,
1002
0000
0103
0020
1000
0000
1030
0001
,
0010
0100
1000
0010
0100
0010
1000
0001
,
1002
0000
0013
0001
0001
1000
0010
0200
,
0001
0000
0010
0000
0301
1000
1000
0200
,
0010
0320
0001
0031
1000
0001
0100
0020
,
1000
0000
0100
0000
1030
0001
0001
0020
,
0100
0230
1000
1300
0010
0100
0001
2000
,
0010
0000
3010
1000
0100
0010
0001
2000
,
0100
0000
3100
1000
0010
0100
0001
1000
,
0010
0100
0001
0010
0100
0010
0001
1000
,
2001
0000
3010
1000
1000
0001
0010
0200
,
1000
0000
0010
0000
1300
0001
0001
0200
,
0010
0320
1000
1030
0001
1000
0100
0020
,
0001
0000
0100
0000
0031
1000
1000
0020
,
0100
0230
0001
0301
0010
0100
1000
0002
,
0010
0000
0013
0001
0100
0010
1000
0002
,
0100
0000
0103
0001
0010
0100
1000
0002
,
0010
0000
0013
0001
0100
0001
1000
0010
,
1000
0000
0001
0000
1000
0000
0001
0000
0100
0010
1000
0000
0001
0000
0001
0000
,
1001
0000
0001
0010
0001
0000
0100
0000
0010
0000
1000
0000
0100
0000
0010
0000
,
0010
0000
0002
0000
1000
0000
2003
0000
0010
0000
3020
0000
0100
0000
0130
0001
,
1000
0000
0001
0010
0001
0000
0100
0000
0010
0000
1000
0000
0100
0000
0010
0000
,
0010
0002
1000
2003
0010
3010
0100
0100
,
0001
1000
0001
0001
0010
0100
0100
0100
,
1000
0001
1000
1000
0010
0100
0100
0100
,
0001
1000
0100
1000
0001
0010
0100
1000
,
0002
0000
0000
0000
0013
0000
0200
0000
0000
2300
0000
0000
0000
0000
3000
0000
,
1001
0000
1000
0100
1000
0000
0010
0000
0100
0000
0001
0000
0010
0000
0100
0000
,
0100
0000
2000
0000
0001
0000
3002
0000
0100
0000
0203
0000
0010
0000
0310
1000
,
0001
0000
1000
0010
1000
0000
0100
0000
0010
0000
0001
0000
0100
0000
0010
0000
,
0010
2000
0001
3002
0010
0013
0100
0100
,
1000
0001
1000
1000
0010
0100
0100
0100
,
0001
1000
0001
0001
0010
0100
0100
0100
,
1000
0001
0100
0001
1000
0010
0100
0001
,
2000
0000
3001
0400
0301
1000
0100
0020
,
0001
0000
0100
0000
0031
1000
1000
0020
,
0100
0230
0001
0301
1000
0001
0010
0200
,
1000
0000
0010
0000
1300
0001
0001
0200
,
0010
0320
1000
1030
0100
0010
0001
2000
,
0100
0000
3100
1000
0010
0100
0001
2000
,
0010
0000
3010
1000
0100
0010
0001
1000
,
0100
0010
0001
0100
0010
0100
0001
1000
,
4001
0000
3100
1000
1000
0001
0100
0020
,
1000
0000
0100
0000
1030
0001
0001
0020
,
0100
0230
1000
1300
0001
1000
0010
0200
,
0001
0000
0010
0000
0301
2000
0100
3200
,
0010
0320
0001
0031
0100
0010
1000
1000
,
0001
0010
0001
0010
0001
1000
0001
1000
,
0010
1000
0010
1000
0010
0100
0010
0100
,
0001
1000
0010
0100
0001
1000
0010
0100
,
0004
0000
0000
0000
1003
0000
0100
0000
1000
0001
1000
0000
0010
0000
0010
0000
,
1001
0000
0001
0100
0001
0000
0010
0000
0100
0000
1000
0000
0010
0000
0100
0000
,
0100
0000
0002
0000
1000
0000
2003
0000
0100
0000
3200
0000
0010
0000
0310
0001
,
1000
0000
0001
0100
0001
0000
0010
0000
0100
0000
1000
0000
0010
0000
0100
0000
,
0100
0002
1000
2003
0100
3100
0010
0010
,
0001
1000
0001
0001
0100
0010
0010
0010
,
1000
0001
1000
1000
0100
0010
0010
0010
,
0001
1000
0010
1000
0001
0100
0010
1000
,
0002
0000
0000
0000
0103
0000
0020
0000
0000
2030
0000
0000
0000
0000
3000
0000
,
1001
0000
1000
0010
1000
0000
0100
0000
0010
0000
0001
0000
0100
0000
0010
0000
,
0010
0000
2000
0000
0001
0000
3002
0000
0010
0000
0023
0000
0100
0000
0130
1000
,
0001
0000
1000
0100
1000
0000
0010
0000
0100
0000
0001
0000
0010
0000
0100
0000
,
0100
2000
0001
3002
0100
0103
0010
0010
,
1000
0001
1000
1000
0100
0010
0010
0010
,
0001
1000
0001
0001
0100
0010
0010
0010
,
1000
0001
0010
0001
1000
0100
0010
0001
,
2000
0000
0000
0000
3001
0000
0020
0000
0000
0230
0000
0000
1300
0000
0000
0000
,
0001
0100
0001
1000
0100
1000
0002
0000
,
0103
0000
0010
0000
0100
0000
0001
1000
0100
0000
0010
0000
0200
0000
0000
0000
,
1300
0001
1000
0000
0001
0100
0002
0000
,
2003
0000
3001
0010
0001
0010
0002
0000
,
1003
0000
0001
0000
1000
0100
0010
0001
1000
0000
0010
0000
0020
0000
0000
0130
,
0001
0000
1000
0000
0001
0010
0100
1000
0001
0000
0100
0000
0200
0000
0000
0310
,
1000
0000
0001
0000
1000
0100
0010
0001
1000
0000
0010
0000
0020
0000
0000
0130
,
0001
0000
1000
0000
0001
0000
1000
0000
0100
0010
0001
0000
1000
0000
1000
0000
,
0001
0000
0100
0001
0100
0000
0010
0000
1000
0000
0100
0000
0020
0000
0001
0000
,
0031
0000
1000
0001
1000
0010
1000
0000
0100
0000
0010
0000
0020
0000
0001
0000
,
0031
0000
1000
0001
1000
0000
0010
0000
0100
0000
0001
0000
0200
0000
0010
0000
,
0320
1000
1030
0001
1000
0100
0020
0001
,
0031
0000
1000
0001
1000
0010
1000
0000
0001
0000
0100
0001
1000
0000
0001
1000
,
0100
0000
1000
0100
1000
0001
0100
0010
1000
0000
0001
0100
0001
0000
1000
0001
,
0010
0000
0001
1000
0001
0100
0010
1000
0001
0000
0100
0010
1000
0000
0001
0010
,
0100
0000
1000
0001
1000
0000
0001
0100
0001
0000
0100
0010
0100
0000
0010
1000
,
0040
0030
0000
0000
,
1001
0000
0001
0010
0001
0000
0100
0000
0010
0000
1000
0000
0100
0000
0010
0000
,
0010
0000
0002
0000
1000
0000
2003
0000
0010
0000
3020
0000
0100
0000
0130
0001
,
1000
0000
0001
0010
0001
0000
0100
0000
0010
0000
1000
0000
0100
0000
0010
0000
,
0010
0002
1000
2003
0010
3010
0100
0100
,
0001
1000
0001
0001
0010
0100
0100
0100
,
1000
0001
1000
1000
0010
0100
0100
0100
,
0001
1000
0100
1000
0001
0010
0100
1000
,
0002
0000
0000
0000
0013
0000
0200
0000
0000
2300
0000
0000
0000
0000
3000
0000
,
1001
0000
1000
0100
1000
0000
0010
0000
0100
0000
0001
0000
0010
0000
0100
0000
,
0100
0000
2000
0000
0001
0000
3002
0000
0100
0000
0203
0000
0010
0000
0310
1000
,
0001
0000
1000
0010
1000
0000
0100
0000
0010
0000
0001
0000
0100
0000
0010
0000
,
0010
2000
0001
3002
0010
0013
0100
0100
,
1000
0001
1000
1000
0010
0100
0100
0100
,
0001
1000
0001
0001
0010
0100
0100
0100
,
1000
0001
0100
0001
1000
0010
0100
0001
,
2000
0000
0000
0000
3001
0000
0200
0000
0000
0320
0000
0000
1030
0000
0000
0000
,
0010
0100
0001
0010
0100
1000
0001
0100
,
0200
0000
0310
4000
0000
0000
0000
3000
;

//--------------- dance-single - Gazebo ----------------
#NOTES:
     dance-single:
     Gazebo:
     Challenge:
     11:
     0.762,1,0.05,0.477,0.373,968,10,96,0,0,5,0.762,1,0.05,0.477,0.373,968,10,96,0,0,5:
0000
0000
0000
0000
,
0000
0000
0000
0000
,
0000
0000
0000
0000
,
0000
0000
0000
0000
0000
0001
0000
0001
,
0100
0010
1000
0100
0010
0100
1000
0001
,
1002
0000
0103
0020
1000
0000
1030
0001
,
0010
0100
1000
0010
0100
0010
1000
0001
,
1002
0000
0013
0001
0001
1000
0010
0200
,
0001
0000
0010
0000
0301
1000
1000
0200
,
0010
0320
0001
0031
1000
0001
0100
0020
,
1000
0000
0100
0000
1030
0001
0001
0020
,
0100
0230
1000
1300
0010
0100
0001
2000
,
0010
0000
3010
1000
0100
0010
0001
2000
,
0100
0000
3100
1000
0010
0100
0001
1000
,
0010
0100
0001
0010
0100
0010
0001
1000
,
2001
0000
3010
1000
1000
0001
0010
0200
,
1000
0000
0010
0000
1300
0001
0001
0200
,
0010
0320
1000
1030
0001
1000
0100
0020
,
0001
0000
0100
0000
0031
1000
1000
0020
,
0100
0230
0001
0301
0010
0100
1000
0002
,
0010
0000
0013
0001
0100
0010
1000
0002
,
0100
0000
0103
0001
0010
0100
1000
0002
,
0010
0000
0013
0001
0100
0001
1000
0010
,
1000
0000
0000
0000
0000
0000
0001
0000
0000
0000
0000
0000
1000
0000
0000
0000
0000
0000
0001
0000
0100
0000
0001
0000
0100
0000
0000
0010
0000
0000
1000
0000
0000
0000
0000
0000
0001
0000
0000
0000
0000
0000
0001
0000
0000
0000
0000
0000
,
1001
0000
0001
0010
0001
0000
0100
0000
0010
0000
1000
0000
0100
0000
0010
0000
,
0010
0000
0002
0000
1000
0000
2003
0000
0010
0000
3020
0000
0100
0000
0130
0001
,
1000
0000
0001
0010
0001
0000
0100
0000
0010
0000
1000
0000
0100
0000
0010
0000
,
0010
0002
1000
2003
0010
3010
0100
0100
,
0001
0100
0001
1000
0100
0010
0001
0000
0000
0001
0000
0000
0010
0000
0000
0100
0000
0000
0100
0000
0000
0100
0000
0000
,
1000
0100
1000
0001
0100
0010
1000
0000
0000
1000
0000
0000
0010
0000
0000
0100
0000
0000
0100
0000
0000
0100
0000
0000
,
0001
0100
0001
1000
0001
0010
0100
1000
0010
1000
0001
0100
0001
1000
0001
0010
0100
1000
0100
0010
0001
1000
0010
1000
,
0002
0000
0000
0000
0013
0000
0200
0000
0000
2300
0000
0000
0000
0000
3000
0000
,
1001
0000
1000
0100
1000
0000
0010
0000
0100
0000
0001
0000
0010
0000
0100
0000
,
0100
0000
2000
0000
0001
0000
3002
0000
0100
0000
0203
0000
0010
0000
0310
1000
,
0001
0000
1000
0010
1000
0000
0100
0000
0010
0000
0001
0000
0100
0000
0010
0000
,
0010
2000
0001
3002
0010
0013
0100
0100
,
1000
0100
1000
0001
0100
0010
1000
0000
0000
1000
0000
0000
0010
0000
0000
0100
0000
0000
0100
0000
0000
0100
0000
0000
,
0001
0100
0001
1000
0100
0010
0001
0000
0000
0001
0000
0000
0010
0000
0000
0100
0000
0000
0100
0000
0000
0100
0000
0000
,
1000
0100
1000
0001
1000
0010
0100
0001
0010
0001
1000
0100
1000
0001
1000
0010
0100
0001
0100
0010
1000
0001
0010
0001
,
2000
0000
3001
0400
0301
1000
0100
0020
,
0001
0000
0100
0000
0031
1000
1000
0020
,
0100
0230
0001
0301
1000
0001
0010
0200
,
1000
0000
0010
0000
1300
0001
0001
0200
,
0010
0320
1000
1030
0100
0010
0001
2000
,
0100
0000
3100
1000
0010
0100
0001
2000
,
0010
0000
3010
1000
0100
0010
0001
1000
,
0100
0010
0001
0100
0010
0100
0001
1000
,
4001
0000
3100
1000
1000
0001
0100
0020
,
1000
0000
0100
0000
1030
0001
0001
0020
,
0100
0230
1000
1300
0001
1000
0010
0200
,
0001
0000
0010
0000
0301
2000
0100
3200
,
0010
0320
0001
0031
0100
0010
1000
1000
,
0001
0010
0001
0010
0001
1000
0001
1000
,
0010
1000
0010
1000
0010
0100
0010
0100
,
0001
1000
0001
0100
0010
1000
0100
1000
0001
0010
0001
0100
0010
1000
0001
0100
,
0004
0000
0000
0000
0000
0000
0000
0000
0000
0000
0000
0000
1003
0000
0000
0000
0000
0000
0100
0000
1000
0000
0100
0000
1000
0000
0000
0001
0000
0000
1000
0000
0000
0000
0000
0000
0010
0000
0000
0000
0000
0000
0010
0000
0000
0000
0000
0000
,
1001
0000
0001
0100
0001
0000
0010
0000
0100
0000
1000
0000
0010
0000
0100
0000
,
0100
0000
0002
0000
1000
0000
2003
0000
0100
0000
3200
0000
0010
0000
0310
0001
,
1000
0000
0001
0100
0001
0000
0010
0000
0100
0000
1000
0000
0010
0000
0100
0000
,
0100
0002
1000
2003
0100
3100
0010
0010
,
0001
0010
0001
1000
0010
0100
0001
0000
0000
0001
0000
0000
0100
0000
0000
0010
0000
0000
0010
0000
0000
0010
0000
0000
,
1000
0010
1000
0001
0010
0100
1000
0000
0000
1000
0000
0000
0100
0000
0000
0010
0000
0000
0010
0000
0000
0010
0000
0000
,
0001
0010
0001
1000
0001
0100
0010
1000
0100
1000
0001
0010
0001
1000
0001
0100
0010
1000
0010
0100
0001
1000
0100
1000
,
0002
0000
0000
0000
0103
0000
0020
0000
0000
2030
0000
0000
0000
0000
3000
0000
,
1001
0000
1000
0010
1000
0000
0100
0000
0010
0000
0001
0000
0100
0000
0010
0000
,
0010
0000
2000
0000
0001
0000
3002
0000
0010
0000
0023
0000
0100
0000
0130
1000
,
0001
0000
1000
0100
1000
0000
0010
0000
0100
0000
0001
0000
0010
0000
0100
0000
,
0100
2000
0001
3002
0100
0103
0010
0010
,
1000
0010
1000
0001
0010
0100
1000
0000
0000
1000
0000
0000
0100
0000
0000
0010
0000
0000
0010
0000
0000
0010
0000
0000
,
0001
0010
0001
1000
0010
0100
0001
0000
0000
0001
0000
0000
0100
0000
0000
0010
0000
0000
0010
0000
0000
0010
0000
0000
,
1000
0010
1000
0001
1000
0100
0010
0001
0100
0001
1000
0010
1000
0001
1000
0100
0010
0001
0010
0100
1000
0001
0100
0001
,
2000
0000
0000
0000
3001
0000
0020
0000
0000
0230
0000
0000
1300
0000
0000
0000
,
0001
0100
0001
1000
0100
1000
0002
0000
,
0103
0000
0010
0000
0100
0000
0001
1000
0100
0000
0010
0000
0200
0000
0000
0000
,
1300
0001
1000
0000
0001
0100
0002
0000
,
2003
0000
3001
0010
0001
0010
0002
0000
,
1003
0000
0001
0000
1000
0100
0010
0001
1000
0000
0010
0000
0020
0000
0000
0130
,
0001
0000
1000
0000
0001
0010
0100
1000
0001
0000
0100
0000
0200
0000
0000
0310
,
1000
0000
0001
0000
1000
0100
0010
0001
1000
0000
0010
0000
0020
0000
0000
0130
,
0001
0000
0000
0000
0000
0000
1000
0000
0000
0000
0000
0000
0001
0000
0000
0000
0000
0000
1000
0000
0100
0000
1000
0000
0100
0000
0000
0010
0000
0000
0001
0000
0000
0000
0000
0000
1000
0000
0000
0000
0000
0000
1000
0000
0000
0000
0000
0000
,
0001
0000
0100
0001
0100
0000
0010
0000
1000
0000
0100
0000
0020
0000
0001
0000
,
0031
0000
1000
0001
1000
0010
1000
0000
0100
0000
0010
0000
0020
0000
0001
0000
,
0031
0000
1000
0001
1000
0000
0010
0000
0100
0000
0001
0000
0200
0000
0010
0000
,
0320
1000
1030
0001
1000
0100
0020
0001
,
0031
0000
1000
0001
1000
0010
1000
0000
0001
0000
0100
0001
1000
0000
0001
1000
,
0100
0000
1000
0100
1000
0001
0100
0010
1000
0000
0001
0100
0001
0000
1000
0001
,
0010
0000
0001
1000
0001
0100
0010
1000
0001
0000
0100
0010
1000
0000
0001
0010
,
0100
0000
1000
0001
1000
0000
0001
0100
0001
0000
0100
0010
0100
0000
0010
1000
,
0040
0030
0000
0000
,
1001
0000
0001
0010
0001
0000
0100
0000
0010
0000
1000
0000
0100
0000
0010
0000
,
0010
0000
0002
0000
1000
0000
2003
0000
0010
0000
3020
0000
0100
0000
0130
0001
,
1000
0000
0001
0010
0001
0000
0100
0000
0010
0000
1000
0000
0100
0000
0010
0000
,
0010
0002
1000
2003
0010
3010
0100
0100
,
0001
0100
0001
1000
0100
0010
0001
0000
0000
0001
0000
0000
0010
0000
0000
0100
0000
0000
0100
0000
0000
0100
0000
0000
,
1000
0100
1000
0001
0100
0010
1000
0000
0000
1000
0000
0000
0010
0000
0000
0100
0000
0000
0100
0000
0000
0100
0000
0000
,
0001
0100
0001
1000
0001
0010
0100
1000
0010
1000
0001
0100
0001
1000
0001
0010
0100
1000
0100
0010
0001
1000
0010
1000
,
0002
0000
0000
0000
0013
0000
0200
0000
0000
2300
0000
0000
0000
0000
3000
0000
,
1001
0000
1000
0100
1000
0000
0010
0000
0100
0000
0001
0000
0010
0000
0100
0000
,
0100
0000
2000
0000
0001
0000
3002
0000
0100
0000
0203
0000
0010
0000
0310
1000
,
0001
0000
1000
0010
1000
0000
0100
0000
0010
0000
0001
0000
0100
0000
0010
0000
,
0010
2000
0001
3002
0010
0013
0100
0100
,
1000
0100
1000
0001
0100
0010
1000
0000
0000
1000
0000
0000
0010
0000
0000
0100
0000
0000
0100
0000
0000
0100
0000
0000
,
0001
0100
0001
1000
0100
0010
0001
0000
0000
0001
0000
0000
0010
0000
0000
0100
0000
0000
0100
0000
0000
0100
0000
0000
,
1000
0100
1000
0001
1000
0010
0100
0001
0010
0001
1000
0100
1000
0001
1000
0010
0100
0001
0100
0010
1000
0001
0010
0001
,
2000
0000
0000
0000
3001
0000
0200
0000
0000
0320
0000
0000
1030
0000
0000
0000
,
0010
0100
0001
0010
0100
1000
0001
0100
,
0200
0000
0310
4000
0000
0000
0000
3000
;

//--------------- dance-double - LinkDubs05 ----------------
#NOTES:
     dance-double:
     LinkDubs05:
     Beginner:
     3:
     0,0,0,0,0:
00000000
00000000
00000000
00000000
,
00000000
00000000
00000000
00000000
,
00010000
00000000
00100000
00000000
,
00010000
00000000
00000000
00200000
00300000
00000000
00000000
00000000
,
00010000
00000000
10000000
00000000
,
00010000
00000000
00000000
20000000
30000000
00000000
00000000
00000000
,
00010000
00000000
01000000
00000000
,
00010000
00000000
00000000
02000000
03000000
00000000
00000000
00002000
,
00000000
00000000
00000000
00000000
00003000
00000000
00000000
02000000
,
03000000
00000000
00000000
00000000
00001000
00000000
00000000
00200000
,
00000000
00300000
00000000
00000000
00000000
00001000
00000000
00001000
,
00000000
00001000
00000000
00000000
00010000
00000000
00000000
00002000
,
00003000
00000000
00000000
00000000
00010000
00000000
00000000
00000200
,
00000300
00000000
00000000
00000000
00000010
00000000
00000000
00000200
,
00000000
00000000
00000000
00000000
00000000
00000000
00000000
00000300
,
00000000
00000000
00000000
00000000
00001000
00000000
00000000
00000200
,
00000000
00000300
00000000
00000000
00000000
00010000
00000000
00010000
,
00000000
00010000
00000000
00000000
00000100
00000000
00000000
00000020
,
00000000
00000030
00000000
00000000
00000000
00000001
00000000
00000001
,
00000000
00000001
00000000
00000000
00001000
00000000
00000000
00000002
,
00000003
00000000
00000000
00000000
00000010
00000000
00000000
00000002
,
00000003
00000000
00000000
00000000
00000010
00000000
00000000
00000200
,
00000300
00000000
00000000
00000000
,
00000000
00010000
00000000
00010000
00000000
00010000
00000000
00010000
,
00000000
00000000
00000000
00001000
00000000
00000000
00000000
01000000
,
00000000
00000000
00000000
00020000
00000000
00000000
00000000
00030000
,
00000000
00000000
00000000
10000000
00000000
00000000
00000000
01000000
,
00000000
00000000
00000000
10000000
00000000
00000000
01000000
00000000
,
01000000
01000000
00000000
00100000
,
00100000
00100000
00000000
00010000
,
00100000
01000000
10000000
01000000
,
00100000
00000000
00020000
00000000
00000000
00000000
00000000
00030000
,
00000000
00000000
00000000
00100000
00000000
00000000
00000000
00001000
,
00000000
00000000
00000000
00020000
00000000
00000000
00000000
00030000
,
00000000
00000000
00000000
00001000
00000000
00000000
00000000
00010000
,
00000000
00000000
00000000
00000020
00000030
00000000
00000000
00000000
,
00001000
00001000
00001000
00000000
,
00000001
00000001
00000001
00000000
,
00001000
00000010
00000100
00000001
,
00000100
00000000
00000010
00000000
00001000
00000000
00000000
00000020
,
00000000
00000030
00000000
00000000
00000000
00010000
00000000
00010000
,
00000000
00010000
00000000
00000000
00001000
00000000
00000000
02000000
,
00000000
03000000
00000000
00000000
00000000
00010000
00000000
00010000
,
00000000
00010000
00000000
00000000
00100000
00000000
00000000
02000000
,
03000000
00000000
00000000
00000000
00100000
00000000
00000000
00020000
,
00030000
00000000
00000000
00000000
00100000
00000000
00000000
00002000
,
00000000
00000000
00000000
00000000
00000000
00003000
00000000
00000000
,
00000000
00M11M00
00000000
00000000
00010000
00000000
00000000
00002000
,
00000000
00003000
00000000
00000000
00000000
00010000
00000000
00010000
,
00000000
00010000
00000000
00000000
00000100
00000000
00000000
00000020
,
00000000
00000030
00000000
00000000
00000000
00000001
00000000
00000001
,
00000000
00000001
00000000
00000000
00000100
00000000
00000000
00000020
,
00000030
00000000
00000000
00000000
00001000
00000000
00000000
00000020
,
00000030
00000000
00000000
00000000
00000100
00000000
00000000
00000020
,
00000030
00000000
00000000
0000M22M
00000000
00000330
00000000
00000000
,
00000000
00010000
00000000
00010000
00000000
00010000
00000000
00010000
,
00000000
00000000
00000000
00001000
00000000
00000000
00000000
00100000
,
00000000
00000000
00000000
02000000
00000000
00000000
00000000
03000000
,
00000000
00000000
00000000
10000000
00000000
00000000
00000000
01000000
,
00000000
00000000
00000000
00200000
00300000
00000000
00000000
00000000
,
00001000
00001000
00001000
00000000
,
00010000
00010000
00010000
00000000
,
00001000
00010000
00000100
00010000
,
00000010
00000000
00010000
00000000
00002000
00000000
00000000
00003000
,
00000000
00000000
00000000
00010000
00000000
00000000
00000000
00000010
,
00000000
00000000
00000000
00002000
00000000
00000000
00000000
00003000
,
00000000
00000000
00000000
00000001
00000000
00000000
00000000
00000100
,
00000000
00000000
00000000
00000002
00000003
00000000
00000000
00000000
,
00000100
00000100
00000100
00000000
,
00000010
00000010
00000010
00000000
,
00001000
00000010
00001000
00000010
,
00010000
00000010
00020000
00000000
,
00030000
00000000
00001000
00001000
,
00000000
00000000
01000000
01000000
,
00000000
00000000
00010000
00010000
,
00000000
00000000
10000000
10000000
,
00000000
00000000
00010000
00100000
,
00010000
00000000
10000000
01000000
,
10000000
00000000
00010000
01000000
,
00020000
00000000
00000000
00000000
,
00030000
00000000
01000000
00001000
,
00000000
00000000
00010000
00000100
,
00000000
00000000
00000010
00000001
,
00000000
00001000
00000010
00001000
,
00000000
00000000
00000001
00001000
,
00000001
00000000
00000100
00000010
,
00000100
00000000
00000001
00000010
,
00000200
00000000
00000000
00000300
00000000
00000000
00000000
0000M11M
,
00000000
00000000
00000000
00000010
00000000
00000010
00000000
00000010
,
00000000
00000000
00000000
00000100
00000000
00000000
00000000
00010000
,
00000000
00000000
00000000
00002000
00000000
00000000
00000000
00003000
,
00000000
00000000
00000000
00010000
00000000
00000000
00000000
00001000
,
00000000
00000000
00000000
00200000
00300000
00000000
00000000
00000000
,
01000000
01000000
01000000
00000000
,
10000000
10000000
10000000
00000000
,
00010000
00100000
00010000
10000000
,
00010000
00000000
01000000
00000000
00020000
00000000
00000000
00030000
,
00000000
00000000
00000000
10000000
00000000
00000000
00000000
00100000
,
00000000
00000000
00000000
02000000
00000000
00000000
00000000
03000000
,
00000000
00000000
00000000
00001000
00000000
00000000
00000000
00100000
,
00000000
00000000
00000000
02000000
03000000
00000000
00000000
00000000
,
00100000
00100000
00100000
00000000
,
00001000
00001000
00001000
00000000
,
00010000
00001000
00010000
00001000
,
00010000
00000100
00010000
00000000
,
00000100
00001000
00000100
00000010
,
00000100
00000001
00000100
00000000
;

//--------------- dance-double - LinkDubs08 ----------------
#NOTES:
     dance-double:
     LinkDubs08:
     Easy:
     5:
     0,0,0,0,0:
00000000
00000000
00000000
00000000
,
00000000
00000000
00000000
00000000
,
00010000
00100000
00010000
01000000
,
00010000
00000000
10000000
00020000
00000000
00000000
00030000
00000000
,
01000000
00010000
01000000
00010000
01000000
00001000
01000000
00001000
,
01000000
00000000
00001000
02000000
00000000
00000000
03000000
00000000
,
00001000
01000000
00001000
01000000
00001000
00010000
00001000
00010000
,
00001000
00000000
00010000
00002000
00003000
00000000
00010000
00000200
,
00000000
00000000
00000000
00000300
00000000
00001000
00000000
00000100
,
00000000
00000020
00000030
00000000
00000001
00000000
00001000
00000002
,
00000000
00000000
00000000
00000003
00000000
00000100
00000000
00000010
,
00000000
00020000
00030000
00000000
00000010
00000000
00000100
00000002
,
00000000
00000000
00000003
00000000
00000100
00000000
00000010
00020000
,
00000000
00000000
00030000
00000000
00001000
00000000
00010000
00001000
,
00010000
00001000
00010000
00001000
01000000
00001000
01000000
00001000
,
02000000
00000000
03000000
00000000
00010000
00000000
00100000
00020000
,
00000000
00000000
00000000
00030000
00000000
10000000
00000000
00100000
,
00000000
02000000
03000000
00000000
00100000
00000000
01000000
00020000
,
00000000
00000000
00000000
00030000
00000000
10000000
00000000
00100000
,
00000000
02000000
03000000
00000000
00100000
00000000
01000000
00002000
,
00000000
00000000
00003000
00000000
00010000
00000000
00001000
00020000
,
00000000
00000000
00030000
00000000
00000100
00000000
00000010
00000002
,
00000000
00000000
00000000
00000000
00000000
00000000
00000000
00000003
,
00000000
00001000
00000000
00000010
00000000
00010000
00000000
00000200
,
00000000
00000300
00000000
00001000
00000000
00000001
00000000
00000100
,
00000000
00000010
00000000
00000100
00000000
00000002
00000000
00000000
,
00000000
00000003
00000000
00000010
00000000
00000100
00000000
00001000
,
00000000
00000100
00000000
00020000
00030000
00000000
00001000
00000000
,
00010000
00001000
00100000
00010000
,
01000000
00010000
10000000
00010000
,
10000000
00010000
10000000
00010000
10000000
01000000
10000000
01000000
,
10000000
00000000
01000000
20000000
00000000
00000000
00000000
00000000
,
00000000
30000000
00000000
00100000
00000000
01000000
00000000
00010000
,
00000000
01000000
00000000
00001000
00000000
02000000
00000000
00000000
,
00000000
03000000
00000000
00001000
00000000
00100000
00000000
00001000
,
00000000
00010000
00000000
00002000
00003000
00000000
00010000
00000000
,
00000100
00000010
00000001
00001000
,
00000001
00000010
00000100
00010000
,
00001000
00010000
00001000
00010000
00001000
01000000
00001000
01000000
,
00001000
00000000
01000000
00002000
00003000
00000000
00100000
00020000
,
00000000
00000000
00000000
00030000
00000000
10000000
00000000
00100000
,
00000000
02000000
03000000
00000000
00100000
00000000
10000000
00020000
,
00000000
00000000
00000000
00030000
00000000
10000000
00000000
01000000
,
00000000
00200000
00300000
00000000
01000000
00000000
10000000
00020000
,
00000000
00000000
00030000
00000000
00100000
00000000
00010000
02000000
,
00000000
03000000
00001000
00100000
,
00001000
00100000
00001000
00100000
00001000
00010000
00001000
00010000
,
00001000
0MM00000
00000000
00000000
00010000
00000000
00001000
00020000
,
00000000
00000000
00000000
00030000
00000000
00000010
00000000
00000100
,
00000000
00000020
00000030
00000000
00001000
00000000
00000001
00000200
,
00000000
00000000
00000000
00000300
00000000
00000010
00000000
00010000
,
00000000
00000020
00000030
00000000
00000100
00000000
00000001
00002000
,
00000000
00000000
00003000
00000000
00000010
00000000
00001000
00000200
,
00000000
00000000
00000300
00000000
00010000
00000000
00001000
00020000
,
00000000
00030000
00000000
00022MM0
00000000
00000000
00000000
00033000
,
00000000
00001000
00000000
01000000
00000000
00100000
00000000
20000000
,
00000000
30000000
00000000
00010000
00000000
01000000
00000000
00100000
,
00000000
10000000
00000000
01000000
00000000
20000000
00000000
00000000
,
00000000
30000000
00000000
00010000
00000000
01000000
00000000
00001000
,
00000000
01000000
00000000
00200000
00000000
00000000
00300000
00000000
,
10000000
01000000
00100000
01000000
,
10000000
01000000
00100000
00010000
,
00100000
00010000
00100000
00010000
00100000
00001000
00100000
00001000
,
00100000
00000000
00001000
00200000
00000000
00000000
00000000
00000000
,
00000000
00300000
00000000
00001000
00000000
00010000
00000000
00000010
,
00000000
00000100
00000000
00000010
00000000
00002000
00000000
00000000
,
00000000
00003000
00000000
00000001
00000000
00000100
00000000
00000010
,
00000000
00001000
00000000
00000001
00000000
00002000
00003000
00000000
,
00000100
00010000
00000100
00000010
,
00000001
00000010
00000100
00001000
,
00000001
00001000
00000001
00001000
00000001
00000100
00000001
00000100
,
00000001
00000000
00000100
00000002
00000000
00000000
00000000
00000000
,
00000000
00000003
00001000
00000020
,
00000000
00000030
00001000
00000200
,
00000000
00000300
00010000
00002000
,
00003000
00010000
00001000
00200000
,
00000000
00300000
00010000
00100000
,
02000000
03000000
10000000
00010000
,
10000000
00010000
10000000
00010000
10000000
01000000
10000000
01000000
,
10000000
00000000
01000000
20000000
00000000
00000000
00000000
00000000
,
00000000
30000000
00010000
00200000
,
00300000
00001000
00100000
02000000
,
00000000
03000000
00100000
00002000
,
00003000
00010000
00001000
00020000
,
00000000
00030000
00000100
00010000
,
00000020
00000030
00001000
00000001
,
00000100
00000001
00000100
00000001
00000100
00000010
00000100
00000010
,
00000100
00000000
00000010
00000200
00000000
00000300
00000000
0000M11M
,
00000000
00000100
00000000
00000010
00000000
00000100
00000000
00000002
,
00000000
00000003
00000000
00001000
00000000
00000010
00000000
00010000
,
00000000
00000010
00000000
00010000
00000000
00002000
00000000
00000000
,
00000000
00003000
00000000
01000000
00000000
00001000
00000000
01000000
,
00000000
00100000
00000000
10000000
00000000
00020000
00030000
00000000
,
10000000
01000000
00100000
00001000
,
01000000
00100000
10000000
00010000
,
10000000
00010000
10000000
00010000
10000000
01000000
10000000
01000000
,
10000000
00000000
01000000
20000000
00000000
00000000
00000000
00000000
,
00000000
30000000
00000000
00010000
00000000
01000000
00000000
00001000
,
00000000
01000000
00000000
00010000
00000000
00200000
00000000
00000000
,
00000000
00300000
00000000
00001000
00000000
00010000
00000000
00001000
,
00000000
00010000
00000000
00000200
00000300
00000000
00001000
00000000
,
00000010
00010000
00000010
00000100
,
00000001
00001000
00000100
00000010
,
00000001
00000010
00000001
00000010
00000001
00000100
00000001
00000100
,
00000001
00000000
00000100
00000002
00000000
00000000
00000003
00000000
,
00000100
00000010
00000100
00001000
00000100
00010000
00000100
00001000
,
00000100
00000000
00000010
00000200
00000300
00000000
00000000
00000000
;

//--------------- dance-double - LinkDubs11 ----------------
#NOTES:
     dance-double:
     LinkDubs11:
     Medium:
     7:
     0,0,0,0,0:
00000000
00000000
00000000
00000000
,
00000000
00000000
00000000
00000000
,
00100000
10000000
00100000
10000000
00100000
10000000
00010000
10000000
,
00010000
00000000
01000000
00010000
00000000
00000000
00000000
00000000
,
01000000
00001000
01000000
00001000
01000000
00001000
00100000
00001000
,
00100000
00000000
00001000
00020000
00000000
00000000
00030000
00000000
,
00000010
00010000
00000010
00010000
00000010
00010000
00000100
00010000
,
00000100
00000000
00001000
00000001
00001000
00000001
00001000
00000020
,
00000000
00000000
00000000
00000030
00000000
00000100
00000010
00000100
,
00000000
00000001
00000000
00001000
00000100
00001000
00000100
00020000
,
00000000
00000000
00030000
00000000
00000000
00001000
00010000
00001000
,
00000000
00100000
00000000
00010000
01000000
00010000
01000000
00200000
,
00000000
00000000
00300000
10000000
01000000
10000000
01000000
00200000
,
00000000
00300000
00000000
00001000
01000000
00001000
01000000
00010000
,
01000000
00010000
01000000
00100000
01000000
00100000
10000000
00100000
,
10000000
00000000
01000000
10000000
01000000
10000000
01000000
00200000
,
00000000
00000000
00000000
00300000
00000000
00001000
00100000
00001000
,
00000000
01000000
00000000
00001000
00010000
00001000
00010000
00000200
,
00000000
00000000
00000000
00000300
00000000
00001000
00000100
00001000
,
00000000
00000001
00000000
00001000
00000010
00001000
00000010
00000200
,
00000000
00000300
00000000
00000001
00000100
00000001
00000100
00000020
,
00000000
00000030
00000000
00010000
00000100
00010000
00000100
00000020
,
00000000
00000000
00000000
00000000
00000000
00000000
00000000
00000030
,
00000000
00000100
00010000
00000100
00000000
00010000
00001000
00020000
,
00000000
00030000
00000000
00001000
00100000
00001000
00100000
00001000
,
01000000
00001000
00000000
01000000
00000000
00200000
00000000
00000000
,
00000000
00300000
00000000
10000000
01000000
10000000
01000000
10000000
,
00010000
10000000
00000000
00010000
00000000
00100000
00010000
00100000
,
00010000
00000000
00100000
00001000
00100000
00001000
00010000
00001000
,
00010000
00000000
00000100
00010000
00000100
00010000
00000100
00001000
,
00000100
00001000
00000100
00000010
00000100
00000010
00000001
00000010
,
00000001
00000000
00000000
00000000
00000010
00000000
00000100
00000000
00000000
00000020
00000000
00000000
00000000
00000000
00000000
00000000
,
00000000
00000030
00000000
00000001
00001000
00000001
00001000
00000001
,
00000100
00000001
00000000
00000100
00000000
00000020
00000000
00000000
,
00000000
00000030
00000000
00001000
00000100
00001000
00000100
00010000
,
00000100
00010000
00000000
00001000
00000000
00010000
00001000
00010000
,
00001000
00000000
00100000
00001000
00100000
00001000
01000000
00001000
,
01000000
00000000
00100000
01000000
00100000
01000000
00010000
01000000
,
00010000
10000000
00010000
10000000
01000000
10000000
01000000
00100000
,
01000000
00000000
00100000
01000000
00100000
01000000
00100000
00002000
,
00000000
00000000
00000000
00003000
00000000
00010000
00001000
00010000
,
00000000
00000100
00000000
00010000
00000010
00001000
00000010
00000200
,
00000000
00000000
00000000
00000300
00000000
00000001
00000100
00000001
,
00000000
00001000
00000000
00000001
00000010
00000001
00000010
00000200
,
00000000
00000300
00000000
00010000
00001000
00010000
00001000
00020000
,
00000000
00030000
00000000
00001000
00100000
00001000
00100000
02000000
,
00000000
00000000
00000000
00000000
00000000
00000000
00000000
03000000
,
00000000
M22M0000
03300000
10000000
01000000
10000000
01000000
00200000
,
00000000
00000000
00000000
00300000
00000000
00010000
00100000
00010000
,
00000000
10000000
00000000
00010000
10000000
00010000
10000000
00200000
,
00000000
00000000
00000000
00300000
00000000
01000000
00001000
01000000
,
00000000
00001000
00000000
00100000
00001000
00100000
00001000
00020000
,
00000000
00030000
00000000
00001000
00010000
00001000
00010000
00000200
,
00000000
00000300
00000000
00010000
00000100
00010000
00000100
00000020
,
00000000
00000030
00000000
000MM220
00000000
00000000
00000000
00000330
,
00000000
00000001
00000010
00000001
00000000
00000100
00000000
00000020
,
00000000
00000030
00000000
00010000
00000010
00010000
00000010
00010000
,
00000100
00010000
00000000
00000100
00000000
00020000
00000000
00000000
,
00000000
00030000
00000000
00001000
00010000
00001000
00010000
00001000
,
01000000
00001000
00000000
01000000
00000000
00010000
10000000
00010000
,
10000000
00000000
00100000
10000000
00100000
10000000
00010000
10000000
,
00010000
00000000
10000000
01000000
10000000
01000000
10000000
01000000
,
10000000
00010000
10000000
00010000
10000000
00010000
10000000
00100000
,
10000000
00000000
00000000
00000000
00100000
00000000
10000000
00000000
00000000
02000000
00000000
00000000
00000000
00000000
00000000
00000000
,
00000000
03000000
00000000
00100000
00010000
00100000
00010000
00100000
,
00001000
00100000
00000000
00001000
00000000
00020000
00000000
00000000
,
00000000
00030000
00000000
00000010
00010000
00000010
00010000
00000010
,
00001000
00000010
00000000
00001000
00000000
00000010
00001000
00000010
,
00001000
00000000
00000001
00000100
00000001
00000100
00000001
00000100
,
00000010
00000000
00001000
00000100
00010000
00000000
00001000
00000000
,
00100000
00001000
00100000
00001000
00100000
00001000
01000000
00001000
,
01000000
00000000
00000000
00000000
00100000
00000000
01000000
00000000
00000000
00020000
00000000
00000000
00000000
00000000
00000000
00000000
,
00000000
00030000
00000000
10000000
00010000
10000000
00200000
00000000
,
00000000
00300000
00000000
10000000
00100000
10000000
00020000
00000000
,
00000000
00000000
00030000
00000000
00100000
00010000
00100000
00000000
,
01000000
00000000
10000000
01000000
10000000
01000000
00200000
00000000
,
00000000
00300000
00000000
00001000
00100000
00001000
00100000
00000000
,
00020000
00030000
00000000
01000000
00001000
00100000
00001000
00000000
,
00020000
00030000
00000000
00001000
00010000
00001000
00010000
00000000
,
00000200
00000000
00000000
00000000
,
00000000
00000300
00000000
00010000
00000100
00010000
00000020
00000000
,
00000000
00000030
00000000
00001000
00000010
00001000
00000002
00000000
,
00000000
00000000
00000003
00000000
00000010
00000001
00000010
00000000
,
00000100
00000000
00001000
00000100
00001000
00000100
00020000
00000000
,
00000000
00030000
00000000
00001000
01000000
00001000
01000000
00000000
,
00200000
00300000
00000000
10000000
00010000
10000000
00010000
00000000
,
00200000
00300000
00000000
01000000
10000000
01000000
10000000
00000000
,
00200000
00000000
00000000
00000000
00000000
00300000
00000000
M11M0000
,
00000000
01000000
00100000
01000000
00000000
00010000
01000000
00020000
,
00000000
00030000
00000000
00100000
00010000
00100000
00010000
00100000
,
00001000
00100000
00000000
00001000
00000000
00020000
00000000
00000000
,
00000000
00030000
00000000
00000010
00010000
00000010
00010000
00000010
,
00000100
00000010
00000000
00000100
00000000
00000001
00001000
00000001
,
00000100
00000000
00000010
00001000
00000010
00001000
00000010
00000100
,
00000010
00000000
00001000
00000010
00001000
00000010
00001000
00000100
,
00001000
00000100
00001000
00000010
00001000
00000010
00010000
00000010
,
00010000
00000000
00000000
00000000
00001000
00000000
00010000
00000000
00000000
00002000
00000000
00000000
00000000
00000000
00000000
00000000
,
00000000
00003000
00000000
01000000
00010000
01000000
00010000
01000000
,
00100000
01000000
00000000
00100000
00000000
20000000
00000000
00000000
,
00000000
30000000
00000000
00100000
10000000
00100000
10000000
00010000
,
10000000
00010000
00000000
00100000
00000000
01000000
00100000
01000000
,
00100000
00000000
00010000
00100000
00010000
00100000
00001000
00100000
,
00001000
00000000
00010000
00001000
00010000
00001000
00010000
00000010
,
00010000
00000010
00010000
00000100
00010000
00000100
00010000
00000010
,
00010000
00000000
00000000
00000000
00000010
00000000
00010000
00000000
00000000
00000200
00000000
00000000
00000300
00000000
00000000
00000000
,
00001000
00000100
00000010
00000100
00000001
00000100
00000010
00000100
,
00001000
00000000
00000100
00020000
00030000
00000000
00000000
00000000
;

//--------------- dance-double - Cut from Gazebo ----------------
#NOTES:
     dance-double:
     Cut from Gazebo:
     Hard:
     9:
     0,0,0,0,0:
00000000
00000000
00000000
00000000
,
00000000
00000000
00000000
00000000
,
00000000
00000000
00000000
00000000
,
00000000
00000000
00000000
00000000
00000000
00010000
00000000
00010000
,
01000000
00100000
10000000
01000000
00100000
01000000
10000000
00010000
,
10020000
00000000
01030000
00200000
01000000
00000000
01300000
00010000
,
01000000
00001000
00010000
00001000
00010000
00000010
00001000
00000001
,
00001002
00000000
00000013
00000001
00000001
00001000
00000010
00000200
,
00000001
00000000
00000010
00000000
00000301
00001000
00001000
00000200
,
00010000
00020300
00000100
00030100
00010000
00001000
01000000
00200000
,
10000000
00000000
01000000
00000000
10300000
00010000
00010000
00200000
,
01000000
02300000
10000000
13000000
00100000
01000000
00010000
20000000
,
00100000
00000000
30100000
10000000
01000000
00100000
00010000
00200000
,
01000000
00000000
01300000
00100000
00010000
01000000
00001000
00100000
,
00001000
00010000
00001000
00010000
00000010
00000100
00000001
00001000
,
00002001
00000000
00003010
00001000
00001000
00000001
00000010
00000200
,
00001000
00000000
00000010
00000000
00010300
00001000
00001000
02000000
,
00100000
03200000
10000000
10300000
00010000
10000000
01000000
00200000
,
00010000
00000000
01000000
00000000
00310000
10000000
10000000
00200000
,
01000000
02300000
00001000
03001000
00100000
00001000
00010000
00002000
,
00010000
00000000
00013000
00000010
00000100
00000010
00001000
00000002
,
00000100
00000000
00000103
00000001
00000010
00000100
00001000
00000002
,
00000010
00000000
00000013
00000001
00000100
00000001
00001000
00000010
,
00010000
00000000
00000100
00000000
00010000
00000000
00001000
00000000
00010000
00001000
00010000
00000000
00001000
00000000
00100000
00000000
,
00110000
00000000
00010000
00100000
00010000
00000000
01000000
00000000
00100000
00000000
10000000
00000000
01000000
00000000
00100000
00000000
,
00100000
00000000
00020000
00000000
10000000
00000000
20030000
00000000
00100000
00000000
30200000
00000000
01000000
00000000
01300000
00010000
,
10000000
00000000
00010000
00100000
00010000
00000000
01000000
00000000
00001000
00000000
00010000
00000000
00001000
00000000
00010000
00000000
,
00010000
00000200
00001000
00002300
00000010
00003010
00000100
00000100
,
00000001
00001000
00000001
00000001
00000010
00000100
00000100
00000100
,
00001000
00000001
00001000
00001000
00000010
00000100
00000100
00000100
,
00000010
00010000
00001000
00010000
00001000
01000000
00001000
00100000
,
00020000
00000000
00000000
00000000
00130000
00000000
02000000
00000000
00000000
23000000
00000000
00000000
00000000
00000000
30000000
00000000
,
10010000
00000000
10000000
01000000
10000000
00000000
00100000
00000000
01000000
00000000
00010000
00000000
00100000
00000000
01000000
00000000
,
01000000
00000000
20000000
00000000
00010000
00000000
30020000
00000000
01000000
00000000
02030000
00000000
00100000
00000000
03100000
10000000
,
00010000
00000000
10000000
00100000
10000000
00000000
01000000
00000000
00100000
00000000
00001000
00000000
01000000
00000000
00001000
00000000
,
00001000
00020000
00000100
00030200
00000010
00000310
00000001
00000001
,
00001000
00000001
00001000
00001000
00000010
00000100
00000100
00000100
,
00000001
00001000
00000001
00000001
00000010
00000100
00000100
00000100
,
00001000
00000010
00001000
00000100
00010000
00001000
00010000
00001000
,
00200000
00000000
00310000
04000000
03010000
10000000
01000000
00200000
,
00010000
00000000
01000000
00000000
00310000
10000000
10000000
00200000
,
01000000
02300000
00010000
03010000
10000000
00010000
00100000
02000000
,
10000000
00000000
00100000
00000000
13000000
00010000
00010000
02000000
,
00001000
03002000
00100000
00103000
00001000
00010000
00001000
00020000
,
00000100
00000000
00030100
00010000
00000010
00000100
00000001
00020000
,
00000010
00000000
00030010
00010000
00000100
00001000
00000001
00001000
,
00000100
00000010
00000001
00000100
00000010
00000100
00000001
00001000
,
00004001
00000000
00003100
00010000
00010000
00000010
00000100
00000020
,
00010000
00000000
00001000
00000000
00010030
00001000
00001000
00200000
,
01000000
02300000
10000000
13000000
00010000
10000000
00100000
02000000
,
00010000
00000000
00100000
00000000
03010000
20000000
01000000
32000000
,
00100000
03200000
00010000
00310000
01000000
00100000
01000000
01000000
,
00001000
00100000
00001000
00100000
00010000
00100000
00010000
00100000
,
00001000
00010000
00001000
00010000
00000100
00001000
00000100
00001000
,
00000001
00001000
00000010
00000100
00000001
00001000
00000010
00000100
,
00000004
00000000
00000000
00000000
00001003
00000000
00000100
00000000
00001000
00000001
00001000
00000000
00000010
00000000
00000010
00000000
,
00001001
00000000
00000001
00000100
00000001
00000000
00000010
00000000
00000100
00000000
00010000
00000000
00000010
00000000
00000100
00000000
,
00000100
00000000
00000020
00000000
00010000
00000000
00020030
00000000
00001000
00000000
00032000
00000000
00100000
00000000
00103000
00010000
,
01000000
00000000
00010000
01000000
00010000
00000000
00100000
00000000
01000000
00000000
10000000
00000000
00100000
00000000
01000000
00000000
,
01000000
00020000
10000000
20030000
01000000
31000000
00100000
00100000
,
00010000
10000000
00010000
00010000
01000000
00100000
00100000
00100000
,
01000000
00010000
00100000
00100000
00001000
00010000
00010000
00010000
,
00000100
00010000
00000010
00001000
00000001
00000100
00000010
00001000
,
00000002
00000000
00000000
00000000
00000103
00000000
00000020
00000000
00000000
00020030
00000000
00000000
00000000
00000000
00030000
00000000
,
00010010
00000000
00010000
00001000
00010000
00000000
00001000
00000000
00100000
00000000
00001000
00000000
01000000
00000000
00100000
00000000
,
00100000
00000000
20000000
00000000
00010000
00000000
30020000
00000000
00100000
00000000
00230000
00000000
01000000
00000000
01300000
10000000
,
00010000
00000000
10000000
01000000
10000000
00000000
00100000
00000000
01000000
00000000
00010000
00000000
00100000
00000000
01000000
00000000
,
01000000
00200000
00001000
00302000
01000000
01003000
00100000
00100000
,
01000000
00001000
00010000
00010000
00000100
00000010
00000010
00000010
,
00000001
00001000
00000001
00000001
00000100
00000010
00000010
00000010
,
00001000
00000001
00000010
00000001
00001000
00000100
00000010
00000100
,
00020000
00000000
00000000
00000000
00031000
00000000
00200000
00000000
00000000
02300000
00000000
00000000
13000000
00000000
00000000
00000000
,
00010000
01000000
00010000
10000000
01000000
10000000
00020000
00000000
,
01030000
00000000
00100000
00000000
01000000
00000000
00010000
10000000
01000000
00000000
00100000
00000000
02000000
00000000
00000000
00000000
,
13000000
00010000
10000000
00000000
00010000
01000000
00020000
00000000
,
00230000
00000000
00301000
00100000
00001000
00100000
00002000
00000000
,
00013000
00000000
00000100
00000000
00010000
00000100
00000010
00000001
00001000
00000000
00000010
00000000
00000020
00000000
00000000
00000130
,
00000001
00000000
00001000
00000000
00000001
00000010
00000100
00001000
00000001
00000000
00000100
00000000
00000200
00000000
00000000
00000310
,
00010000
00000000
00000010
00000000
00010000
00000100
00001000
00000100
00010000
00000000
00001000
00000000
00002000
00000000
00000000
01003000
,
00010000
00000000
00100000
00000000
00010000
00000000
10000000
00000000
01000000
00100000
00010000
00000000
10000000
00000000
10000000
00000000
,
00010000
00000000
01000000
00010000
01000000
00000000
00100000
00000000
10000000
00000000
01000000
00000000
00200000
00000000
00010000
00000000
,
00310000
00000000
10000000
00010000
10000000
00100000
10000000
00000000
01000000
00000000
00100000
00000000
00200000
00000000
00010000
00000000
,
00310000
00000000
00100000
00001000
00100000
00000000
00001000
00000000
01000000
00000000
00001000
00000000
00020000
00000000
00001000
00000000
,
00032000
00010000
00013000
00010000
00010000
00000100
00000020
00000001
,
00000031
00000000
00001000
00000001
00001000
00000010
00001000
00000000
00000001
00000000
00000100
00000001
00001000
00000000
00000001
00001000
,
00000100
00000000
00001000
00000100
00010000
00000010
00001000
00000010
00010000
00000000
00000010
00001000
00000010
00000000
00001000
00000010
,
00010000
00000000
00001000
00010000
00001000
00010000
00001000
01000000
00001000
00000000
01000000
00100000
10000000
00000000
00010000
00100000
,
01000000
00000000
10000000
00010000
10000000
00000000
00010000
01000000
00010000
00000000
01000000
00100000
01000000
00000000
00001000
01000000
,
00004000
00003000
00000000
00000000
,
00011000
00000000
00000100
00000010
00000100
00000000
00001000
00000000
00000010
00000000
00010000
00000000
00000100
00000000
00000010
00000000
,
00000010
00000000
00000002
00000000
00001000
00000000
00002003
00000000
00000010
00000000
00003020
00000000
00000100
00000000
00000130
00000001
,
00001000
00000000
00000001
00000010
00000001
00000000
00000100
00000000
00000010
00000000
00010000
00000000
00000100
00000000
00000010
00000000
,
00000010
00000002
00001000
00002003
00000010
00003010
00000100
00000100
,
00000010
00010000
00001000
00001000
00100000
01000000
01000000
01000000
,
10000000
00010000
10000000
10000000
00100000
01000000
01000000
01000000
,
00010000
10000000
01000000
10000000
00010000
00100000
01000000
10000000
,
00020000
00000000
00000000
00000000
00130000
00000000
02000000
00000000
00000000
23000000
00000000
00000000
00000000
00000000
30000000
00000000
,
10010000
00000000
10000000
01000000
10000000
00000000
00100000
00000000
01000000
00000000
00010000
00000000
00100000
00000000
00001000
00000000
,
00001000
00000000
00200000
00000000
00001000
00000000
00302000
00000000
00010000
00000000
00023000
00000000
00000100
00000000
00030100
00001000
,
00000100
00000000
00001000
00000010
00001000
00000000
00000100
00000000
00000010
00000000
00000001
00000000
00000100
00000000
00000010
00000000
,
00000010
00002000
00000001
00003002
00000010
00000013
00000100
00000100
,
00010000
00000010
00001000
00001000
00000010
00000100
00000100
00000100
,
00000001
00001000
00000001
00000001
00000010
00000100
00000100
00000100
,
00001000
00000001
00000100
00000001
00001000
00000010
00010000
00000100
,
00020000
00000000
00000000
00000000
00031000
00000000
02000000
00000000
00000000
03200000
00000000
00000000
10300000
00000000
00000000
00000000
,
00100000
01000000
00001000
00100000
01000000
00100000
00001000
01000000
,
02000000
00000000
03100000
40000000
00000000
00000000
00000000
30000000
;
