#TITLE:Megalovania;
#SUBTITLE:;
#ARTIST:Toby Fox;
#TITLETRANSLIT:;
#SUBTITLETRANSLIT:;
#ARTISTTRANSLIT:;
#GENRE:;
#CREDIT:;
#MUSIC:Megalovania.mp3;
#BANNER:Megalovania.png;
#BACKGROUND:Megalovania-bg.png;
#CDTITLE:;
#SAMPLESTART:24.073;
#SAMPLELENGTH:16.000;
#SELECTABLE:YES;
#OFFSET:1.912;
#BPMS:0.000=120.000;
#STOPS:;
#DISPLAYBPM:120.000;
#BGCHANGES:;
#FGCHANGES:;

//--------------- dance-single - LinkDude03 ----------------
#NOTES:
     dance-single:
     LinkDude03:
     Beginner:
     2:
     0.120327,0.148829,0.057105,0,0,118,110,8,0,0,0,0.120327,0.148829,0.057105,0,0,118,110,8,0,0,0:
0000
0000
0000
0000
,
0000
0000
0000
0000
,
0000
0000
0000
0000
,
0000
0000
0000
0000
,
0000
0000
0000
0000
,
0001
0000
0000
0000
,
1000
0000
0000
0000
,
0010
0000
0000
0000
,
0100
0000
0000
0000
,
0001
0001
0000
0000
,
1000
1000
0000
0000
,
0010
0010
0000
0000
,
0100
0100
0000
0000
,
0001
0001
0000
0000
,
0010
0010
0000
0000
,
0100
0100
0000
0000
,
1000
1000
0000
0000
,
0100
0000
1000
0000
,
0100
0000
1000
0000
,
0010
0000
1000
0000
,
0010
0000
0100
0000
,
0010
0000
0100
0000
,
0001
0000
0100
0000
,
0001
0000
0010
0000
,
0001
0000
0010
0000
,
0000
0000
0001
0000
,
1000
0001
0000
0000
,
0010
0000
0100
0000
,
1000
0000
0001
0000
,
0100
0000
0010
0000
,
1000
0000
0001
0000
,
0010
0000
0100
0000
,
1000
0000
0001
0000
,
0000
0000
0100
0000
,
0010
0100
0000
0000
,
0001
0000
1000
0000
,
0010
0000
0100
0000
,
0001
0000
1000
0000
,
0100
0000
0010
0000
,
0001
0000
1000
0000
,
0010
0000
0100
0000
,
0001
0000
0000
0000
,
1000
0000
0100
0000
,
0010
0000
0000
0000
,
0000
0000
0000
0000
,
0001
0000
0000
0000
,
1000
0000
0010
0000
,
0100
0000
0000
0000
,
0000
0000
0000
0000
,
0001
0001
0000
0000
,
1000
1000
0000
0000
,
0100
0100
0000
0000
,
0010
0010
0000
0000
,
0001
1000
0000
0000
,
0010
0100
0000
0000
,
0000
1001
0000
0000
0000
0000
0000
0000
,
0000
0110
0000
0000
0000
0000
0000
0000
,
1001
0000
0000
0000
,
0110
0000
0000
0000
,
1001
0000
0000
0000
,
0110
0000
0000
0000
,
1001
0000
0000
0000
,
0110
0000
0000
0000
,
0001
1000
0000
0000
,
0100
0010
0000
0000
,
0001
0000
1000
0000
,
0100
0000
1000
0000
,
0010
0000
1000
0000
,
0001
0000
0100
0000
,
0001
0000
0010
0000
,
0001
0000
1000
0000
;

//--------------- dance-single - LinkDude06 ----------------
#NOTES:
     dance-single:
     LinkDude06:
     Easy:
     4:
     0.250852,0.29846,0.057105,0,0.292661,246,238,8,0,0,0,0.250852,0.29846,0.057105,0,0.292661,246,238,8,0,0,0:
0000
0000
0000
0000
,
0000
0000
0000
0000
,
0000
0000
0000
0000
,
0000
0000
0000
0000
,
0000
0000
0000
0000
,
0001
0000
0000
0000
0001
0000
0000
1000
0000
0000
0000
1000
0000
0000
0000
0000
,
0010
0000
0000
0000
0010
0000
0000
1000
0000
0000
0000
1000
0000
0000
0000
0000
,
0010
0000
0000
0000
0010
0000
0000
0100
0000
0000
0000
0100
0000
0000
0000
0000
,
0001
0000
0000
0000
0001
0000
0000
0100
0000
0000
0000
0100
0000
0000
0000
0000
,
0001
0000
0000
0000
0001
0000
0000
1000
0000
0000
0000
1001
0000
0000
0000
0000
,
0100
0000
0000
0000
0100
0000
0000
1000
0000
0000
0000
1100
0000
0000
0000
0000
,
0100
0000
0000
0000
0100
0000
0000
0010
0000
0000
0000
0110
0000
0000
0000
0000
,
0001
0000
0000
0000
0001
0000
0000
0010
0000
0000
0000
0011
0000
0000
0000
0000
,
0001
0000
0000
0000
0001
0000
0000
1000
0000
0000
0000
1001
0000
0000
0000
0000
,
0010
0000
0000
0000
0010
0000
0000
1000
0000
0000
0000
1010
0000
0000
0000
0000
,
0010
0000
0000
0000
0010
0000
0000
0100
0000
0000
0000
0110
0000
0000
0000
0000
,
0001
0000
0000
0000
0001
0000
0000
0100
0000
0000
0000
0101
0000
0000
0000
0000
,
0001
0000
0000
0000
1000
0000
0000
0001
0000
0000
0000
1000
0000
0000
0000
0000
,
0010
0000
0000
0000
1000
0000
0000
0010
0000
0000
0000
1000
0000
0000
0000
0000
,
0010
0000
0000
0000
0100
0000
0000
0010
0000
0000
0000
0100
0000
0000
0000
0000
,
0001
0000
0000
0000
0100
0000
0000
0001
0000
0000
0000
0000
0000
0000
0000
0000
,
1000
0000
0000
0000
0001
0000
0000
1000
0000
0000
0000
0001
0000
0000
0000
0000
,
0010
0000
0000
0000
0001
0000
0000
0010
0000
0000
0000
0001
0000
0000
0000
0000
,
0010
0100
0010
0100
,
1000
0000
0000
0000
0100
0000
0000
1000
0000
0000
0000
0000
0000
0000
0000
0000
,
0000
0000
0001
1000
,
0001
0000
1000
0000
0001
0000
0000
0000
0000
0000
0000
0000
0000
0010
0000
0000
,
0001
0010
0001
1000
,
0010
0000
0000
0000
1000
0000
0000
0010
0000
0000
0000
0000
0000
0000
0000
0000
,
1000
0100
1000
0100
,
1000
0001
0100
0001
,
0100
0000
0001
1000
,
0100
0000
0010
0000
,
0000
0000
0001
1000
,
0001
0000
1000
0000
0001
0000
0000
0000
0000
0000
0000
0000
0000
1000
0000
0000
,
0100
1000
0010
1000
,
0100
0000
0000
0000
1000
0000
0000
0010
0000
0000
0000
0000
0000
0000
0000
0000
,
0100
0001
0100
0001
,
1000
0010
1000
0010
,
1000
0000
0001
1000
,
0100
0000
0010
0000
,
0001
0000
0000
0100
,
0010
0000
1000
0000
,
0001
0000
0000
0000
,
0000
0000
0000
0000
,
0100
0000
0000
0010
,
1000
0000
0100
0000
,
1000
0000
0000
0000
,
0000
0000
0000
0000
,
0001
0000
0000
0000
1000
0000
0000
0001
0000
0000
0000
1000
0000
0000
0000
0000
,
0100
0000
0000
0000
1000
0000
0000
0100
0000
0000
0000
1000
0000
0000
0000
0000
,
0100
0000
0000
0000
0010
0000
0000
0100
0000
0000
0000
0010
0000
0000
0000
0000
,
0001
0000
0000
0000
0010
0000
0000
0001
0000
0000
0000
0010
0000
0000
0000
0000
,
0001
0000
0000
0000
0100
0000
0000
0001
0000
0000
0000
0100
0000
0000
0000
0000
,
0010
0000
0000
0000
1000
0000
0000
0010
0000
0000
0000
1000
0000
0000
0000
0000
,
0000
0000
0001
0000
0100
0000
0000
0001
0000
0100
0000
0001
0000
0000
0000
0000
,
0000
0000
1000
0000
0010
0000
0000
1000
0000
0010
0000
1000
0000
0000
0000
0000
,
0000
0001
0000
0100
0000
0001
0000
0100
,
0000
0010
0000
0100
0000
0010
0000
0100
,
0000
0010
0000
1000
0000
0010
0000
1000
,
0000
0100
0000
1000
0000
0100
0000
1000
,
0000
0100
0000
0010
0000
0100
0000
0010
,
0000
0001
0000
0010
0000
0001
0000
0010
,
0000
0000
0001
0000
1000
0000
0000
0100
0000
1000
0000
0100
0000
0000
0000
0000
,
0000
0000
1000
0000
0001
0000
0000
0100
0000
0001
0000
0100
0000
0000
0000
0000
,
0000
0000
0001
0000
1000
0000
0000
0010
0000
1000
0000
0010
0000
0000
0000
0000
,
0000
0000
1000
0000
0001
0000
0000
0010
0000
0001
0000
0010
0000
0000
0000
0000
,
0000
0000
0001
0000
1000
0000
0000
0001
0000
0010
0000
0001
0000
0000
0000
0000
,
0000
0000
1000
0000
0001
0000
0000
1000
0000
0010
0000
1000
0000
0000
0000
0000
,
0000
0000
0001
0000
1000
0000
0000
0100
0000
0010
0000
0100
0000
0000
0000
0000
,
0000
0000
1000
0000
0001
0000
0000
0100
0000
0010
0000
0100
0000
0000
0000
0000
;

//--------------- dance-single - LinkDude09 ----------------
#NOTES:
     dance-single:
     LinkDude09:
     Medium:
     6:
     0.33039,0.370733,0.071381,0,0.339058,324,314,10,0,0,0,0.33039,0.370733,0.071381,0,0.339058,324,314,10,0,0,0:
0000
0000
0000
0000
,
0000
0000
0000
0000
,
0000
0000
0000
0000
,
0000
0000
0000
0000
,
0000
0000
0000
0000
,
0001
0000
1000
0000
0001
0000
0000
1000
0000
0001
0000
1000
0000
0000
0000
0000
,
0010
0000
1000
0000
0010
0000
0000
1000
0000
0010
0000
1000
0000
0000
0000
0000
,
0010
0000
0100
0000
0010
0000
0000
0100
0000
0010
0000
0100
0000
0000
0000
0000
,
0001
0000
0100
0000
0001
0000
0000
0100
0000
0001
0000
0100
0000
0000
0000
0000
,
0001
0000
1000
0000
0001
0000
0000
1000
0000
0001
0000
1000
0000
0001
0000
0000
,
0010
0000
0001
0000
0010
0000
0000
0001
0000
0010
0000
0001
0000
0010
0000
0000
,
0100
0000
0010
0000
0100
0000
0000
0010
0000
0100
0000
0010
0000
0100
0000
0000
,
1000
0000
0100
0000
1000
0000
0000
0100
0000
1000
0000
0100
0000
1000
0000
0000
,
0001
0000
0010
0000
0001
0000
0000
1000
0000
0010
0000
1000
0000
0010
0000
0000
,
1000
0000
0100
0000
1000
0000
0000
0001
0000
0100
0000
0001
0000
0100
0000
0000
,
0010
0000
1000
0000
0010
0000
0000
1000
0000
0100
0000
1000
0000
0100
0000
0000
,
0010
0000
0001
0000
0010
0000
0000
0001
0000
0100
0000
0001
0000
0100
0000
0000
,
0001
0000
0100
0000
0001
0000
0000
0010
0000
0100
0000
1000
0000
0000
0000
0000
,
0001
0000
0010
0000
0001
0000
0000
0100
0000
0010
0000
1000
0000
0000
0000
0000
,
0001
0000
0100
0000
0001
0000
0000
1000
0000
0100
0000
1000
0000
0000
0000
0000
,
0001
0000
0100
0000
0001
0000
0000
0101
0000
0000
0000
0000
0000
0000
0000
0000
,
0001
0000
0010
0000
0001
0000
0000
1000
0000
0010
0000
1000
0000
0000
0000
0000
,
0001
0000
0010
0000
0001
0000
0000
0100
0000
0001
0000
0100
0000
0000
0000
0000
,
0001
0100
0010
0000
1000
0100
0010
0000
,
0001
0000
0100
0000
0010
0000
0000
0220
0000
0000
0000
0000
0000
0000
0000
0000
,
0330
0000
0000
0000
0001
0100
1000
0000
,
1000
0000
0100
0000
0002
0003
0000
0000
0000
0000
0000
0000
0000
0110
0000
0000
,
1000
0001
1000
0000
0001
0100
0001
0000
,
1000
0000
0010
0000
1000
0000
0000
0202
0303
0000
0000
0000
0000
0000
0000
0000
,
0100
0001
0100
0001
1000
0000
0100
0000
,
0010
0001
0100
0010
,
1000
0000
0000
0000
0001
1000
0100
1000
,
0001
0000
0020
0000
,
0030
0000
0000
0000
0100
1000
0001
0000
,
0100
0000
0001
0000
2000
3000
0000
0000
0000
0000
0000
0000
0000
1001
0000
0000
,
0010
0001
1000
0000
0010
1000
0001
0000
,
0010
0000
0001
0000
1000
0000
0000
2002
3003
0000
0000
0000
0000
0000
0000
0000
,
1000
0010
0100
0010
1000
0000
0001
0000
,
0010
0100
0010
0001
,
1000
0000
0000
0000
0010
0100
0010
0100
,
0001
0000
1000
0000
,
0200
0300
0000
0010
,
0001
0000
0100
0000
,
0020
0000
0000
0000
,
0000
0000
0030
0000
,
2000
3000
0000
0100
,
0010
0000
0001
0000
,
2000
0000
0000
0000
,
0000
0000
3000
0000
,
0010
0000
1000
0000
0010
0000
0000
0100
0000
0001
0000
0100
0000
0000
0000
0000
,
0001
0000
0010
0000
0001
0000
0000
1000
0000
0100
0000
1000
0000
0000
0000
0000
,
0001
0000
0100
0000
0001
0000
0000
1000
0000
0010
0000
1000
0000
0000
0000
0000
,
0001
0000
0100
0000
0001
0000
0000
1000
0000
0010
0000
1000
0000
0000
0000
0000
,
0100
0000
1000
0000
0001
0000
0000
0100
0000
0001
0000
1000
0000
0000
0000
0000
,
0010
0000
1000
0000
0001
0000
0000
0010
0000
0001
0000
1000
0000
0000
0000
0000
,
0000
0000
1001
0000
1001
0000
0000
0001
0000
1000
0000
0010
0000
0000
0000
0000
,
0000
0000
1001
0000
1001
0000
0000
1000
0000
0001
0000
0010
0000
0000
0000
0000
,
0000
0001
0100
0001
0000
0100
0010
0100
,
0000
0010
1000
0010
0000
1000
0001
1000
,
0000
0001
0100
0001
0000
0100
0010
0100
,
0000
0010
1000
0010
0000
1000
0001
1000
,
0000
0001
0100
0001
0000
0100
0010
0100
,
0000
0010
1000
0010
0000
1000
0001
1000
,
0010
0000
0100
0000
0010
0000
0000
1000
0000
0001
0000
1000
0000
0000
0000
0000
,
0100
0000
0010
0000
0100
0000
0000
1000
0000
0001
0000
1000
0000
0000
0000
0000
,
0001
0010
0200
0000
0300
0000
0000
0000
,
1000
0010
0200
0000
0300
0000
0000
0000
,
0001
0100
0020
0000
0030
0000
0000
0000
,
1000
0100
0020
0000
0030
0000
0000
0000
,
0100
0010
0002
0000
0003
0000
0000
0000
,
0010
0100
2000
0000
3000
0000
0000
0000
;

//--------------- dance-single - LinkDude12 ----------------
#NOTES:
     dance-single:
     LinkDude12:
     Hard:
     8:
     0.411968,0.497434,0.135623,0,0.535355,404,385,19,0,0,0,0.411968,0.497434,0.135623,0,0.535355,404,385,19,0,0,0:
0000
0000
0000
0000
,
0000
0000
0000
0000
,
0000
0000
0000
0000
,
0000
0000
0000
0000
,
0000
0000
0000
0000
,
0001
1000
0001
0000
1000
0000
0000
0010
0000
0100
0000
0020
0030
0000
0000
0000
,
1000
0010
1000
0000
0010
0000
0000
1000
0000
0100
0000
2000
3000
0000
0000
0000
,
0001
0010
0001
0000
0010
0000
0000
0001
0000
0100
0000
0002
0003
0000
0000
0000
,
1000
0100
1000
0000
0100
0000
0000
1000
0000
0010
0000
2000
3000
0000
0000
0000
,
0001
0100
0001
0000
0100
0000
0000
0010
0000
1000
0000
2020
3030
0000
0000
0000
,
0100
1000
0100
0000
1000
0000
0000
0001
0000
0010
0000
0022
0033
0000
0000
0000
,
0100
0010
0100
0000
0010
0000
0000
0001
0000
1000
0000
2002
3003
0000
0000
0000
,
0010
1000
0010
0000
1000
0000
0000
0001
0000
0100
0000
0202
0303
0000
0000
0000
,
0001
0010
0001
0000
0110
0000
0000
0100
0000
1000
0000
2200
3300
0000
0000
0000
,
0100
0010
0100
0000
0011
0000
0000
0100
0000
1000
0000
2200
3300
0000
0000
0000
,
0001
1000
0001
0000
1010
0000
0000
0001
0000
0100
0000
0202
0303
0000
0000
0000
,
0010
1000
0010
0000
1001
0000
0000
0010
0000
0100
0000
0220
0330
0000
0000
0000
,
0001
0000
1000
0001
0000
0010
0000
0001
0000
1000
0000
0200
0300
0000
0000
0000
,
1000
0000
0001
1000
0000
0010
0000
0220
0000
0000
0000
0000
0330
0000
0000
0000
,
0001
0000
1000
0001
0000
0010
0000
0001
0000
1000
0000
0001
0000
0100
0000
0000
,
0001
0000
0010
0000
0100
1000
0100
2000
0000
0000
0000
0000
3000
0000
0000
0000
,
0001
0000
1000
0001
0000
0100
0000
0001
0000
0010
0000
0002
0003
0000
0000
0000
,
1000
0000
0001
1000
0000
0100
0000
1000
0000
0010
0000
2000
3000
0000
0000
0000
,
0001
0100
1000
0100
0001
0100
0010
0100
,
0001
0000
1000
0000
0001
0010
0001
0020
0000
0000
0000
0000
0000
0000
0000
0000
,
0000
0000
0030
0000
0100
1000
0010
1000
,
0001
0100
0001
0000
2000
0000
0000
0000
0000
3000
0000
0000
0000
0001
0000
1000
,
0001
0010
1000
0010
0001
1000
0100
0001
,
0100
0000
1000
0000
0001
1000
0001
2000
0000
0000
0000
0000
3000
0000
0000
0000
,
0001
0100
0010
1000
0100
0000
0001
0000
,
0010
1000
0100
1000
,
0002
0000
0003
0000
0010
0001
1000
0001
,
0200
0300
0002
0000
,
0000
0000
0003
0000
0100
0010
1000
0001
,
0100
0001
0100
0000
0002
0000
0000
0000
0000
0003
0000
0000
0000
0010
0000
0001
,
0010
0100
1000
0010
0100
0001
0010
0100
,
1000
0000
0010
0000
0100
0001
0100
0002
0000
0000
0000
0000
0003
0000
0000
0000
,
1000
0100
0001
0100
1000
0000
0001
0000
,
0010
1000
0010
0001
,
2000
0000
3000
0000
0010
1000
0010
0100
,
0020
0030
2000
3000
,
0200
0000
0300
0010
,
0002
0003
0200
0300
,
0020
0000
0000
0000
,
0000
0000
0000
0030
,
2000
0000
3000
0100
,
0020
0030
0002
0003
,
0200
0000
0000
0000
,
0000
0000
0000
0300
,
0010
1000
0010
0000
1000
0000
0000
0001
0000
0100
0000
0002
0003
0000
0000
0000
,
0010
0001
0010
0000
0001
0000
0000
1000
0000
0100
0000
0020
0030
0000
0000
0000
,
0100
0010
0100
0000
0010
0000
0000
0001
0000
1000
0000
0200
0300
0000
0000
0000
,
0010
0100
0010
0000
0100
0000
0000
1000
0000
0010
0000
0200
0300
0000
0000
0000
,
0001
0100
0001
0000
1000
0000
0000
0100
0000
1000
0000
0020
0030
0000
0000
0000
,
1000
0010
1000
0000
0001
0000
0000
0010
0000
0001
0000
0200
0000
0000
0300
0000
,
0000
0000
0101
0000
1001
0000
0000
1000
0000
0010
0000
0200
0000
0000
0300
0000
,
0000
0000
0110
0000
1010
0000
0000
1000
0000
0010
0000
0200
0000
0300
0000
0000
,
0000
0010
1000
0001
1000
0100
1000
0010
,
0000
0100
0001
1000
0001
0010
0001
0100
,
0000
0010
1000
0100
0010
0001
0100
0010
,
1000
0100
0010
0001
0100
0001
0010
0100
,
1000
0010
0100
0001
0010
0100
1000
0100
,
0010
0100
0001
0100
0010
0100
1000
0100
,
1000
0100
1000
0000
0100
0000
0000
1000
0000
0010
0000
2020
3030
0000
0000
0000
,
0001
0100
0001
0000
0100
0000
0000
0001
0000
0010
0000
0022
0033
0000
0000
0000
,
0010
0001
0010
0000
0001
0000
0000
1000
0000
0001
0000
2000
3000
0000
0000
0000
,
0010
1000
0010
0000
1000
0000
0000
0001
0000
1000
0000
0002
0003
0000
0000
0000
,
0100
0001
0100
0000
0001
0000
0000
1000
0000
0001
0000
2000
3000
0000
0000
0000
,
0100
1000
0100
0000
1000
0000
0000
0001
0000
1000
0000
0002
0003
0000
0000
0000
,
0010
0100
0010
0000
0100
0000
0000
1000
0000
0001
0000
2000
3000
0000
0000
0000
,
0010
0100
0010
0000
0100
0000
0000
0001
0000
1000
0000
0002
0003
0000
0000
0000
;

//--------------- dance-single - LinkDude15 ----------------
#NOTES:
     dance-single:
     LinkDude15:
     Challenge:
     10:
     0.510881,0.646664,0.099933,0.142761,0.820877,501,487,14,20,0,0,0.510881,0.646664,0.099933,0.142761,0.820877,501,487,14,20,0,0:
0000
0000
0000
0000
,
0000
0000
0000
0000
,
0000
0000
0000
0000
,
0000
0000
0000
0000
,
0000
0000
0000
0000
,
0001
1000
0001
0000
1000
0000
0000
0001
0000
1000
0000
0002
0003
0000
0000
0000
,
0100
0001
0100
0000
0001
0000
0000
0010
0000
0001
0000
0020
0030
0000
0000
0000
,
0100
1000
0100
0000
1000
0000
0000
0010
0000
1000
0000
0020
0030
0000
0000
0000
,
0100
0001
0100
0000
0001
0000
0000
0100
0000
0010
0000
0200
0300
0000
0000
0000
,
0001
0010
0001
0000
0010
0000
0000
0001
0000
1000
0000
0001
0000
0100
0001
0100
,
0001
0100
0010
0000
1000
0000
0000
0010
0000
0100
0000
0010
0000
0100
0001
0100
,
0001
0100
0010
0000
1000
0000
0000
0100
0000
1000
0000
0100
0000
1000
0001
1000
,
0001
1000
0010
0000
0100
0000
0000
0001
0000
0010
0000
0100
0000
1000
0100
1000
,
0100
1000
0001
0000
1001
0000
0001
1000
0000
0001
0000
1000
0000
0001
1000
0010
,
1000
0010
1000
0000
1010
0000
1000
0010
0000
1000
0000
0010
0000
1000
0010
0100
,
0010
0100
0010
0000
0110
0000
0010
0100
0000
0010
0000
0100
0000
0010
0100
0001
,
0100
0001
0100
0000
0101
0000
0100
0001
0000
0100
0000
0001
0000
0100
0001
1000
,
0001
0000
1000
0100
0000
0010
0000
0001
0000
0100
0000
0020
0030
0000
0000
0000
,
1000
0000
0100
0010
0000
0001
0000
0100
0000
0001
0100
0001
0100
0001
0000
0000
,
1000
0000
0100
0010
0000
0001
0000
0100
0000
0010
0000
1000
0000
0100
0000
0000
,
0010
0000
0001
0000
0010
0001
0010
0002
0000
0000
0000
0000
0003
0000
0000
0000
,
1000
0000
0010
0100
0000
0001
0000
0010
0000
0100
0000
2000
3000
0000
0000
0000
,
0001
0000
0010
0100
0000
1000
0000
0010
0000
0100
0000
0001
0000
0100
0001
0000
,
0100
0010
0100
1000
0100
0001
0100
1000
,
0100
0000
0001
0000
0100
0001
0100
0002
0000
0000
0000
0000
0000
0000
0000
0000
,
0000
0000
0000
0000
0003
0000
0000
0000
1000
0100
0010
0001
0010
0100
1000
0100
,
0010
0100
0010
0000
0100
0000
0000
0000
2000
0000
0000
0000
0000
0000
0000
0000
0000
0000
3000
0000
0000
0000
0000
0000
0000
0000
0001
0000
0000
0000
0010
0000
,
0100
0000
0010
0001
0010
1000
0010
0001
0010
0000
0001
0000
0100
0000
1000
0000
,
0100
0000
0001
0000
1000
0010
1000
0020
0000
0000
0000
0000
0030
0000
0000
0000
,
1000
0010
0001
0010
1000
0000
0001
0000
,
0100
0010
1000
0100
,
0020
0000
0000
0000
0030
0000
0000
0000
0001
0010
0100
1000
0100
0010
0001
0010
,
0200
0300
2020
0000
,
0000
0000
0000
0000
3030
0000
0000
0000
0001
1000
0100
1000
0010
1000
0100
1000
,
0001
1000
0001
0000
1000
0000
0000
0000
0020
0000
0000
0000
0000
0000
0000
0000
0000
0000
0030
0000
0000
0000
0000
0000
0000
0000
0100
0000
0000
0000
0001
0000
,
0010
0000
0100
1000
0100
0010
0001
1000
0001
0000
0100
0000
1000
0000
0100
0000
,
0001
0000
1000
0000
0001
1000
0010
2000
0000
0000
0000
0000
3000
0000
0000
0000
,
0001
0010
1000
0100
0001
0000
0100
0000
,
1000
0010
0001
0010
,
0002
0000
0000
0000
0003
0000
0000
0000
1000
0001
1000
0010
0001
1000
0100
0001
,
2000
3000
0202
0303
,
2020
0000
3030
1000
,
0200
0300
0002
0003
,
0020
0000
0000
0000
,
0000
0000
0000
0030
,
2020
0000
3030
1000
,
0200
0300
0002
0003
,
0020
0000
0000
0000
,
0000
0000
0000
0030
,
1000
0010
1000
0000
0001
0000
0000
0100
0000
0001
0000
1000
0000
0010
0100
0001
,
0100
0001
0100
0000
0010
0000
0000
1000
0000
0010
0000
0100
0000
0001
1000
0010
,
1000
0100
1000
0000
0001
0000
0000
0010
0000
0001
0000
1000
0000
0100
0010
0001
,
0010
0001
0010
0000
0100
0000
0000
1000
0000
0100
0000
0010
0000
0001
1000
0100
,
1000
0010
1000
0000
0001
0000
0000
0100
0000
0001
0000
1000
0000
0010
0100
0001
,
0100
0001
0100
0000
0010
0000
0000
1000
0000
0010
0000
0100
0000
0001
1000
0100
,
1000
0000
0011
0000
1100
0000
0000
1000
0000
0010
0000
0100
0000
0001
0100
0001
,
0000
0000
1010
0000
0101
0000
0000
1000
0000
0100
0000
0010
0000
0001
0010
0001
,
0000
0000
1000
0000
0001
1000
0001
1000
0000
0001
1000
0000
0001
0000
1000
0000
,
0000
0000
0010
0000
1000
0100
1000
0100
0000
1000
0001
0000
1000
0000
0010
0000
,
0000
0000
0100
0000
0001
0010
0001
0010
0000
0001
1000
0000
0001
0000
0100
0000
,
0001
0000
0010
0000
0001
0100
0001
0100
0000
0001
1000
0000
0001
0000
0100
0000
,
0010
0000
0100
0000
0010
1000
0010
1000
0000
0001
1000
0000
0001
0000
0100
0000
,
1000
0000
0100
0000
0001
0100
0010
0100
0000
1000
0100
0000
0001
0000
0100
0000
,
0001
0010
0001
0000
1001
0000
0100
1000
0000
0010
0000
0100
0000
0001
1000
0010
,
1000
0100
1000
0000
1001
0000
0010
0001
0000
0100
0000
0010
0000
1000
0001
0100
,
0001
0010
0001
0000
1000
0000
0000
0100
0000
0010
0000
0002
0003
0000
0000
0000
,
1000
0010
1000
0000
0001
0000
0000
0100
0000
0010
0000
2000
3000
0000
0000
0000
,
0001
0100
0001
0000
1000
0000
0000
0010
0000
0100
0000
0002
0003
0000
0000
0000
,
1000
0100
1000
0000
0001
0000
0000
0010
0000
0100
0000
2000
3000
0000
0000
0000
,
0100
0010
0100
0000
1000
0000
0000
0001
0000
0100
0000
0002
0003
0000
0000
0000
,
1000
0100
1000
0000
0001
0000
0000
0100
0000
0010
0000
0200
0300
0000
0000
0000
;
