#TITLE:Medley;
#SUBTITLE:Mega Man 9;
#ARTIST:8BitDanoOct1;
#TITLETRANSLIT:;
#SUBTITLETRANSLIT:;
#ARTISTTRANSLIT:;
#GENRE:;
#CREDIT:Link AKA Dude;
#BANNER:MM9Medley.png;
#BACKGROUND:MM9Medley-bg.png;
#LYRICSPATH:;
#CDTITLE:;
#MUSIC:MM9Medley.ogg;
#OFFSET:1.517000;
#SAMPLESTART:46.000000;
#SAMPLELENGTH:12.500000;
#LASTBEATHINT:1.762541;
#SELECTABLE:YES;
#BPMS:0.000000=224.921997,60.000000=145.201004,132.000000=149.320999,158.000000=144.151001,260.000000=254.852005,280.000000=170.050995,382.000000=150.001007;
#STOPS:60.000000=0.010000,
132.000000=0.005000,
260.000000=0.051000,
380.000000=0.039000;
#BGCHANGES:;
#KEYSOUNDS:;
#ATTACKS:;

//---------------dance-single - LinkDude03----------------
#NOTES:
     dance-single:
     LinkDude03:
     Beginner:
     2:
     0.163332,0.234878,0.069594,0.154100,0.000000,230.000000,216.000000,14.000000,31.000000,0.000000,0.000000,0.163332,0.234878,0.069594,0.154100,0.000000,230.000000,216.000000,14.000000,31.000000,0.000000,0.000000:
// measure 0
0000
0000
0000
0000
,  // measure 1
0000
0000
0000
0000
,  // measure 2
0000
0000
0000
0000
,  // measure 3
0001
0000
0000
0001
,  // measure 4
0000
0000
1000
0000
,  // measure 5
0000
1000
0000
0000
,  // measure 6
0001
0000
0000
0001
,  // measure 7
0000
0000
0010
0000
,  // measure 8
0000
0010
0000
0000
,  // measure 9
0001
0000
0000
0001
,  // measure 10
0000
0000
1000
0000
,  // measure 11
0000
1000
0000
0000
,  // measure 12
0010
0000
0000
0010
,  // measure 13
0000
0000
1000
0000
,  // measure 14
0000
2000
3000
0000
,  // measure 15
0000
0000
0000
0000
,  // measure 16
0001
0000
0100
0000
,  // measure 17
0001
0000
0100
0000
,  // measure 18
0001
0000
1000
0000
,  // measure 19
0001
0000
1000
0000
,  // measure 20
0100
0000
1000
0000
,  // measure 21
0100
0000
1000
0000
,  // measure 22
0001
0000
1000
0000
,  // measure 23
0001
0000
1000
0000
,  // measure 24
0001
0000
0001
0000
,  // measure 25
1000
0000
1000
0000
,  // measure 26
0010
0000
0010
0000
,  // measure 27
0100
0000
0100
0000
,  // measure 28
0001
0000
0001
0000
,  // measure 29
0010
0000
0010
0000
,  // measure 30
0100
0000
0100
0000
,  // measure 31
1000
0000
1000
0000
,  // measure 32
0001
0000
0002
0003
,  // measure 33
0000
0000
0000
0000
,  // measure 34
0000
0000
1000
0000
,  // measure 35
0010
0000
0001
0000
,  // measure 36
0010
0000
1000
0000
,  // measure 37
0100
0000
0001
0000
,  // measure 38
0100
0000
2000
3000
,  // measure 39
0000
0000
0000
0000
,  // measure 40
0000
0000
0000
0001
,  // measure 41
0000
1000
0000
0001
,  // measure 42
0000
1001
0000
1000
,  // measure 43
0000
0001
0000
1000
,  // measure 44
0000
1001
0000
0001
,  // measure 45
0000
0100
0000
0010
,  // measure 46
0000
1001
0000
1000
,  // measure 47
0000
0010
0000
0100
,  // measure 48
0000
1001
0000
0001
,  // measure 49
0000
0010
0000
0100
,  // measure 50
0000
1001
0000
1000
,  // measure 51
0000
0100
0000
0010
,  // measure 52
0000
1001
0000
0001
,  // measure 53
0000
0010
0000
0001
,  // measure 54
0000
0011
0000
0010
,  // measure 55
0000
0100
0000
0010
,  // measure 56
0000
0110
0000
0100
,  // measure 57
0000
1000
0000
0100
,  // measure 58
0000
1100
0000
1000
,  // measure 59
0000
0010
0000
1000
,  // measure 60
0000
1010
0000
0010
,  // measure 61
0000
0100
0000
0010
,  // measure 62
0000
0110
0000
0100
,  // measure 63
0000
0001
0000
0100
,  // measure 64
0000
0202
0303
0000
,  // measure 65
0000
0000
0000
0000
,  // measure 66
0000
0000
0000
0000
,  // measure 67
0001
0000
1000
0000
,  // measure 68
0100
0000
1000
0000
,  // measure 69
0001
0000
0100
0000
,  // measure 70
0002
0003
0000
0000
,  // measure 71
1000
0000
0001
0000
,  // measure 72
2000
3000
0000
0000
,  // measure 73
0001
0000
0010
0000
,  // measure 74
0200
0300
0000
0000
,  // measure 75
1000
0000
0010
0000
,  // measure 76
0200
0300
0000
0000
,  // measure 77
0001
0000
0100
0000
,  // measure 78
0020
0030
0000
0000
,  // measure 79
1000
0000
0100
0000
,  // measure 80
0020
0030
0000
0000
,  // measure 81
0001
0000
0010
0000
,  // measure 82
2000
3000
0000
0000
,  // measure 83
1000
0000
0010
0000
,  // measure 84
0002
0003
0000
0000
,  // measure 85
1000
0000
0100
0000
,  // measure 86
0002
0003
0000
0000
,  // measure 87
0001
0000
0100
0000
,  // measure 88
2000
3000
0000
0000
,  // measure 89
0001
0000
1000
0000
,  // measure 90
0020
0030
0000
0000
,  // measure 91
0100
0000
0001
0000
,  // measure 92
2000
3000
0000
0000
,  // measure 93
0002
0003
0000
0000
,  // measure 94
0000
0000
0000
0000
,  // measure 95
0000
0000
0001
0000
,  // measure 96
0001
0000
1000
0000
,  // measure 97
1000
0000
0010
0000
,  // measure 98
0010
0000
0100
0000
,  // measure 99
0100
0000
0001
0000
,  // measure 100
1000
0000
0100
0000
,  // measure 101
0010
0000
0002
0000
,  // measure 102
0003
0000
2000
0000
,  // measure 103
3000
0000
0010
0000
,  // measure 104
0010
0000
0100
0000
,  // measure 105
0100
0000
0001
0000
,  // measure 106
1000
0000
0100
0000
,  // measure 107
0010
0000
0001
0000
,  // measure 108
0001
0000
1000
0000
,  // measure 109
1000
0000
0010
0000
,  // measure 110
0010
0000
0100
0000
,  // measure 111
0100
0000
0002
0000
,  // measure 112
0000
0003
0020
0000
,  // measure 113
0000
0030
0200
0000
,  // measure 114
0000
0300
2000
0000
,  // measure 115
0000
3000
0001
0000
,  // measure 116
0100
0000
0001
0000
,  // measure 117
1000
0000
0010
0000
,  // measure 118
1000
0000
0002
0000
,  // measure 119
0000
0003
0100
0000
,  // measure 120
0001
0000
0010
0000
,  // measure 121
0001
0000
1000
0000
,  // measure 122
0100
0000
1000
0000
,  // measure 123
0010
0000
1000
0000
,  // measure 124
0001
0000
0100
0000
,  // measure 125
0010
0000
1000
0000
,  // measure 126
0001
0000
0010
0000
,  // measure 127
0100
0000
0020
0000
,  // measure 128
0000
0030
0200
0000
,  // measure 129
0000
0300
0002
0000
,  // measure 130
0000
0003
2000
0000
,  // measure 131
0000
3000
0001
0000
,  // measure 132
0100
0000
0001
0000
,  // measure 133
0010
0000
0001
0000
,  // measure 134
0110
0000
2002
0000
,  // measure 135
3003
0000
0000
0000
;

//---------------dance-single - LinkDude06----------------
#NOTES:
     dance-single:
     LinkDude06:
     Easy:
     4:
     0.232925,0.301986,0.014913,0.178955,0.000000,328.000000,325.000000,3.000000,36.000000,0.000000,0.000000,0.232925,0.301986,0.014913,0.178955,0.000000,328.000000,325.000000,3.000000,36.000000,0.000000,0.000000:
0000
0000
0000
0000
,
0000
0000
0000
0000
,
0000
0000
0000
0000
,
0001
0000
0000
1000
0000
0000
0001
0000
,
0000
1000
0000
0000
0001
0000
0000
0100
,
0000
0000
0001
0000
0000
0100
0000
0000
,
0010
0000
0000
0100
0000
0000
0010
0000
,
0000
0100
0000
0000
0010
0000
0000
1000
,
0000
0000
0010
0000
0000
1000
0000
0000
,
0100
0000
0000
1000
0000
0000
0100
0000
,
0000
1000
0000
0000
0100
0000
0000
0010
,
0000
0000
0100
0000
0000
0010
0000
0000
,
0001
0000
0000
0010
0000
0000
0001
0000
,
0000
0010
0000
0000
0001
0000
0000
1000
,
0000
0000
0001
0000
0000
2000
0000
3000
,
0000
0000
0000
0000
,
0000
0000
0000
0000
,
0001
0001
1000
0100
,
1000
1000
0001
0100
,
0001
0001
1000
1000
,
0001
0001
2000
3000
,
0001
0001
1000
0010
,
1000
1000
0001
0010
,
0001
0001
1000
1000
,
0001
0001
2000
3000
,
0001
0100
0010
1000
,
0100
0010
0001
0100
,
0010
1000
0100
0010
,
0001
0100
0020
0030
,
0100
0010
1000
0010
,
0001
0010
1000
0001
,
1000
0100
0001
0100
,
1000
0001
2000
3000
,
0000
0000
0000
0000
,
0000
0000
0001
0010
,
0001
0010
0100
0010
,
0100
1000
0100
0010
,
0100
0010
0002
0003
,
0000
1000
0000
0001
0000
0000
0000
0000
,
0000
0000
0000
0000
,
0000
0000
0000
0001
,
1000
0001
0001
0100
,
0001
0100
0100
0010
,
0100
0010
0010
1000
,
0010
1000
1000
0100
,
1000
0001
0010
0100
,
0010
0001
1000
0020
,
0000
0000
0000
0000
,
0000
0000
0030
1000
,
0010
0001
0010
1000
,
0001
1000
0010
0200
,
0000
0000
0000
0000
,
0000
0000
0300
0001
,
0100
1000
0100
0001
,
1000
0001
0100
0010
,
0100
0001
1000
0100
,
0010
0100
1000
0001
,
0010
0100
0010
0001
,
1000
0010
0100
0020
,
0000
0000
0000
0000
,
0000
0000
0030
1000
,
0100
0010
0001
0100
,
0010
1000
0100
0020
,
0000
0000
0000
0000
,
0000
0000
0030
0000
,
0000
0000
0000
0000
,
0000
0000
0000
0000
,
0001
1000
0100
1000
,
0001
0000
1000
0001
,
0100
0001
1000
0000
,
0002
0003
0000
0000
,
1000
0000
0001
0000
,
2000
3000
0000
0000
,
0001
0000
0010
0000
,
0200
0300
0000
0000
,
1000
0000
0010
0000
,
0200
0300
0000
0000
,
0001
0000
0100
0000
,
0020
0030
0000
0000
,
1000
0000
0100
0000
,
0020
0030
0000
0000
,
0001
0000
0010
0000
,
2000
3000
0000
0000
,
1000
0000
0010
0000
,
0002
0003
0000
0000
,
1000
0000
0100
0000
,
0002
0003
0000
0000
,
0001
0000
0100
0000
,
2000
3000
0000
0000
,
0001
0000
1000
0000
,
0020
0030
0000
0000
,
0100
0000
0001
0000
,
2000
3000
0000
0000
,
0002
0003
0000
0000
,
0000
0000
0000
0000
,
0000
0000
0001
0001
,
0001
0001
1000
1000
,
1000
1000
0010
0010
,
0010
0010
0100
0100
,
0100
0100
0001
0001
,
1000
1000
0010
0010
,
0100
0100
0002
0000
,
0003
0000
2000
0000
,
3000
0000
0001
0001
,
1000
1000
0001
0000
,
1000
0000
0001
0001
,
1000
1000
0001
0000
,
1000
0000
0010
1000
,
0010
1000
0010
0000
,
1000
0000
0001
0010
,
0001
0010
0001
0000
,
0010
0000
0002
0000
,
0000
0003
0020
0000
,
0000
0030
0200
0000
,
0000
0300
2000
0000
,
0000
3000
0001
0001
,
0100
0100
0001
0001
,
1000
1000
0010
0010
,
1000
1000
0002
0000
,
0000
0003
0100
0001
,
0100
0001
0100
0000
,
0001
0000
1000
0100
,
1000
0100
1000
0000
,
0100
0000
1000
1000
,
0001
0001
0100
0000
,
0010
0000
1000
1000
,
0001
0001
0010
0000
,
0100
0000
0020
0000
,
0000
0030
0200
0000
,
0000
0300
2000
0000
,
0000
3000
0002
0000
,
0000
0003
1000
0001
,
1000
0100
1000
0001
,
1000
0000
1001
0000
,
0110
0000
2002
0000
,
3003
0000
0000
0000
;

//---------------dance-single - LinkDude09----------------
#NOTES:
     dance-single:
     LinkDude09:
     Medium:
     6:
     0.344417,0.570419,0.074565,0.223694,0.029826,485.000000,470.000000,15.000000,45.000000,0.000000,0.000000,0.344417,0.570419,0.074565,0.223694,0.029826,485.000000,470.000000,15.000000,45.000000,0.000000,0.000000:
0000
0000
0000
0000
,
0000
0000
0000
0000
,
0000
0000
0000
0000
,
0001
0000
0000
0100
0000
0000
0001
0000
,
0001
0000
0100
0100
,
0000
0001
0000
0000
0000
0100
0000
0000
,
0010
0000
0000
0100
0000
0000
0010
0000
,
0010
0000
0100
0100
,
0000
0010
0000
0000
0000
0100
0000
0000
,
0010
0000
0000
1000
0000
0000
0010
0000
,
0010
0000
1000
1000
,
0000
0010
0000
0000
0000
1000
0000
0000
,
0010
0000
0000
1000
0000
0000
0100
0000
,
0100
0000
1000
1000
,
0000
0100
0000
0000
0000
0010
0000
0000
,
0001
0000
0000
0000
,
0000
0000
0000
0000
,
0001
0010
0001
0010
0001
0010
0001
0000
,
0010
0100
0010
0100
0010
0100
0010
0000
,
0100
1000
0100
1000
0100
1000
0000
0100
,
0000
1000
0100
2000
0000
3000
0000
0000
,
0001
0100
0001
0100
0001
0100
0001
0000
,
0100
0010
0100
0010
0100
0010
0100
0000
,
0010
1000
0010
1000
0010
1000
0000
0010
,
0000
1000
0010
2000
0000
3000
0000
0000
,
0001
0010
0001
0010
0100
0010
0100
0000
,
1000
0100
1000
0100
0001
0100
0001
0000
,
0100
1000
0100
1000
0010
1000
0000
0010
,
0000
1000
0010
0002
0000
0003
0000
0000
,
0001
0010
0001
0010
1000
0010
1000
0000
,
0001
0100
0001
0100
1000
0100
1000
0000
,
0100
0001
0100
0001
0010
0001
0000
0010
,
0000
0001
0010
0200
0000
0300
0000
0000
,
0000
0000
0000
0000
,
0000
0000
0000
0000
1000
0010
1000
0010
,
1000
0000
0100
0010
0000
0001
0000
1000
,
0000
0100
0010
0001
0010
0100
0010
0001
,
0010
0100
0010
0002
0000
0003
0000
0000
,
0000
0011
0000
1100
0000
0000
0000
0000
,
0000
0000
0000
0000
,
0000
0000
0000
0000
0000
0000
0001
0010
,
0001
0000
1000
0010
1000
0000
0001
0100
,
0001
0000
1000
0100
1000
0000
0001
1000
,
0010
0000
0010
1000
0001
0000
1000
0100
,
0010
0000
0010
0100
1000
0000
0001
0000
,
1000
0002
0000
0003
0000
0000
1000
0100
,
0000
0000
1000
0000
0001
0010
0002
0000
,
0000
0000
0000
0000
,
0000
0000
0003
1000
,
0001
0020
0000
0030
0000
0000
0100
0010
,
0000
0000
0001
0000
1000
0100
2000
0000
,
0000
0000
0000
0000
,
0000
0000
0000
0000
3000
0000
0001
0010
,
0100
0000
0010
0100
1000
0000
0001
0100
,
0010
0000
0100
0010
1000
0000
0001
1000
,
0010
0000
0100
0001
1000
0000
0001
1000
,
0100
0000
0010
0001
1000
0000
0100
0000
,
1000
0020
0000
0030
0000
0000
0100
0001
,
0000
0000
0010
0000
0100
1000
0002
0000
,
0000
0000
0000
0000
,
0000
0000
0003
0010
,
0001
0200
0000
0300
0000
0000
0010
1000
,
0000
0000
0100
0000
0010
0001
2000
0000
,
0000
0000
0000
0000
,
0000
0000
3000
0000
,
0000
0000
0000
0000
,
0000
0000
0000
0000
,
0001
0010
1000
0010
,
0001
0000
1000
0010
,
0001
0010
1000
0000
,
0200
0000
0000
0300
,
1000
0000
0100
1000
,
0020
0000
0000
0030
,
1000
0000
0001
0010
,
2200
0000
0000
0000
,
0000
0000
0000
3300
,
0202
0000
0000
0000
,
0000
0000
0000
0303
,
2000
0000
0000
3000
,
0001
0000
0100
0001
,
0020
0000
0000
0030
,
0001
0000
1000
0010
,
0202
0000
0000
0000
,
0000
0000
0000
0303
,
2200
0000
0000
0000
,
0000
0000
0000
3300
,
0001
0000
0000
1000
0000
0000
0100
0000
0000
0010
0000
0000
0000
0000
0000
0000
,
0001
0000
0000
1000
0000
0000
0010
0000
0000
0100
0000
0000
0000
0000
0000
0000
,
0010
1000
0100
0000
0100
1000
0010
0000
,
0100
0001
0010
0000
0010
0001
0100
0000
,
0010
0000
0000
0100
0000
0000
0001
0000
0000
1000
0000
0000
0000
0000
0000
0000
,
0100
0000
0000
0010
0000
0000
0001
0000
0000
1000
0000
0000
0000
0000
0000
0000
,
0001
0010
0100
0000
1000
0001
0100
0000
,
0010
1000
0001
0000
0010
0100
1000
0000
,
0000
0000
0000
0000
,
0000
0000
0001
0010
,
0100
1000
0001
0100
,
0010
1000
0001
0010
,
0100
1000
0001
0100
,
0010
0000
1000
0000
0001
0010
0001
0000
,
1000
0100
1000
0000
0010
1000
0010
0000
,
0100
0001
0100
0001
0020
0000
0000
0000
,
0000
0030
2200
0000
,
0000
0000
3300
0000
0100
0000
0010
0001
,
1000
0001
0100
0001
1000
0000
0000
0001
,
0010
0000
0000
0000
0100
1000
0001
1000
,
0010
0000
1000
0100
1000
0000
0000
0001
,
0100
0000
0000
0000
0001
0000
1000
0010
,
0100
0010
0001
0010
0100
0000
0000
0010
,
1000
0000
0000
0000
0001
0100
0010
0100
,
1000
0100
0010
0100
0001
0000
0000
0100
,
0010
0000
0202
0000
,
0000
0303
0220
0000
,
0000
0330
2020
0000
,
0000
3030
2002
0000
,
0000
0000
3003
0000
0001
0000
1000
0010
,
0100
0000
0010
0000
1000
0000
0001
0010
,
0100
0000
1000
0000
0001
0100
0010
1000
,
0010
1000
0100
1000
0002
0000
0000
0000
,
0000
0000
0003
0000
0100
0000
0010
1000
,
0001
1000
0100
1000
0001
0000
0000
1000
,
0010
0000
0000
0000
0100
0001
1000
0001
,
0010
0000
0001
0100
0001
0000
0000
1000
,
0100
0000
0000
0000
1000
0000
0001
0010
,
0100
0010
1000
0010
0100
0000
0000
0010
,
0001
0000
0000
0000
1000
0100
0010
0100
,
0001
0100
0010
0100
1000
0000
0000
0100
,
0010
0000
0022
0000
,
0000
0033
0202
0000
,
0000
0303
2200
0000
,
0000
3300
2020
0000
,
0000
0000
3030
0000
0100
0000
0001
0010
,
0100
0000
1000
0000
0010
0000
0100
0001
,
0010
0000
0100
0000
1000
0010
0100
0001
,
0010
0000
0000
0100
0000
0000
1000
0000
0000
0010
0000
0000
1000
0000
0001
0000
1000
0000
0001
0000
1000
0000
0001
0000
,
1000
0000
0000
0000
;

//---------------dance-single - LinkDude14----------------
#NOTES:
     dance-single:
     LinkDude14:
     Hard:
     9:
     0.578053,0.838851,0.203810,0.173984,0.432474,814.000000,773.000000,41.000000,35.000000,16.000000,0.000000,0.578053,0.838851,0.203810,0.173984,0.432474,814.000000,773.000000,41.000000,35.000000,16.000000,0.000000:
0000
0000
0000
0000
,
0M00
0000
M000
0000
,
00M0
0000
M000
0000
,
0001
0000
0000
0100
0000
0000
0001
0000
,
1000
0000
0000
0001
0010
0000
0001
0000
,
0000
1000
0000
0000
0001
0100
0001
1000
,
0001
0000
0000
0010
0000
0000
0001
0000
,
1000
0000
0000
0001
0100
0000
0001
0000
,
0000
1000
0000
0000
0001
0010
0001
1000
,
0100
0000
0000
1000
0000
0000
0100
0000
,
0010
0000
0000
0100
0001
0000
0100
0000
,
0000
0010
0000
0000
0100
1000
0100
0010
,
0001
0000
0000
1000
0000
0000
0010
0000
,
0100
0000
0000
0010
1000
0000
0010
0000
,
0000
0100
0000
0000
0010
0001
0010
0100
,
0000
0000
0000
0000
,
0001
0100
0001
0000
0100
0001
0000
0100
0000
0001
0000
0100
0001
0000
1000
0000
,
0001
1000
0001
0000
1000
0000
0001
0000
1000
0010
0000
1000
0000
0000
0010
0000
,
1000
0010
1000
0000
0010
0000
1000
0000
0010
0100
0000
0010
0000
0000
0100
0000
,
0010
0100
0010
0000
0000
0100
0000
0001
0100
0000
0001
0000
0000
0000
0100
0000
,
0000
0001
0100
0002
0000
0003
0000
0000
,
0001
1000
0001
0000
0010
0000
0001
0000
1000
0001
0000
0100
0000
0000
0001
0000
,
1000
0001
1000
0000
0010
0000
1000
0000
0001
1000
0000
0100
0000
0000
1000
0000
,
0001
1000
0001
0000
0000
1000
0000
0010
1000
0000
0001
0000
0000
0000
1000
0000
,
0000
0010
1000
0200
0000
0300
0000
0000
,
1000
0001
1000
0000
0001
0000
1000
0000
0001
0000
0100
0001
0000
0000
0100
0000
,
0001
0100
0001
0000
0100
0000
0001
0000
0100
0000
0010
0100
0000
0000
0010
0000
,
0100
0010
0100
0000
0000
0010
0000
1000
0010
0000
1000
0000
0000
0000
0010
0000
,
0000
1000
0010
2000
0000
3000
0000
0000
,
1000
0001
1000
0000
0100
0000
1000
0000
0001
0000
1000
0010
0000
0000
1000
0000
,
0001
1000
0001
0000
0100
0000
0001
0000
1000
0000
0001
0010
0000
0000
0001
0000
,
1000
0001
1000
0000
0000
0001
0000
0100
0001
0000
1000
0000
0000
0000
0001
0000
,
0000
0100
0001
0020
0000
0030
0000
0000
,
0000
0000
0000
0000
,
0000
0000
0001
0010
0100
0000
0000
0000
1000
0000
0010
0000
0100
0000
0001
0000
,
0010
0000
0100
1000
0000
0010
0000
0100
,
0000
0001
0010
0100
0010
1000
0010
0100
,
0010
0001
0100
2000
0000
3000
0000
0000
,
0000
0101
0000
1010
0000
0000
0000
0000
,
0000
0000
0000
0000
0000
0000
0000
0000
0000
0000
0000
0000
1000
0010
1000
0010
,
0000
1000
0000
0010
0000
1000
0000
0010
1000
0010
1000
0000
0001
0000
0010
0000
,
0001
0000
0010
0001
0000
0010
0000
0001
0010
0000
0001
0000
1000
0000
0100
0000
,
1000
0000
0100
1000
0000
0100
0000
1000
0100
0000
1000
0000
0001
0000
0100
0000
,
0001
0000
0100
0001
0000
0100
0000
0001
0100
0000
0001
0000
0010
0000
0100
0000
,
0010
0000
0100
0010
0000
0100
0000
0010
0100
0000
0010
0000
0100
0000
0000
0000
,
1000
0001
2000
0000
0000
0000
3000
0000
0000
0000
0000
0000
0001
0000
1000
0001
,
0000
1000
0001
0000
0100
0001
0000
0100
0001
0000
0100
0001
0200
0000
0000
0000
,
0010
1000
0010
0001
,
0010
1000
0310
0001
,
1000
0100
2000
0000
0000
0000
3000
0000
0000
0000
0000
0000
0001
0000
1000
0001
,
0000
1000
0001
0000
0010
0001
0000
0010
0001
0000
0010
0001
0020
0000
0000
0000
,
0100
1000
0100
0001
,
0100
0000
1000
0000
0130
0000
0001
0010
,
0100
0000
1000
0100
0000
0010
0000
0001
0010
0000
0100
0000
1000
0000
0010
0000
,
0100
0000
0001
0100
0000
0010
0000
1000
0010
0000
0100
0000
0001
0000
0100
0000
,
0010
0000
1000
0010
0000
0100
0000
0001
0100
0000
0010
0000
1000
0000
0100
0000
,
0010
0000
0001
0010
0000
0100
0000
1000
0100
0000
0010
0000
0001
0000
0000
0000
,
0100
0010
0200
0000
0000
0000
0300
0000
0000
0000
0000
0000
0100
0000
0001
0100
,
0000
1000
0100
0000
0010
0100
0000
1000
0100
0000
0001
0100
0002
0000
0000
0000
,
1000
0010
1000
0100
,
1000
0010
1003
0100
,
0001
0010
0002
0000
0000
0000
0003
0000
0000
0000
0000
0000
0010
0000
0001
0010
,
0000
1000
0010
0000
0100
0010
0000
1000
0010
0000
0001
0010
0002
0000
0000
0000
,
1000
0100
1000
0010
,
1000
0100
1003
0000
,
0000
0000
0000
0000
,
0000
0000
0000
MMMM
,
1000
0010
0001
0100
,
1000
MMMM
0001
0100
,
1000
0010
0001
MMMM
,
1200
1000
1000
1300
,
2010
3010
0110
0101
,
0012
0010
0010
0013
,
2001
3001
1010
0110
,
0102
1000
0010
1000
,
0100
1000
0010
1003
,
0201
0010
1000
0010
,
0001
0010
1000
0310
,
0102
0100
0100
0103
,
0210
0310
1010
1001
,
2100
0100
0100
3100
,
0210
0310
1100
1001
,
0021
0100
1000
0100
,
0001
0100
1000
0130
,
0012
1000
0100
1000
,
0010
1000
0100
1003
,
0010
0001
0000
0010
0001
0000
0010
0001
0000
0010
0001
0000
0000
0000
0000
0000
,
0001
0100
0000
0001
0100
0000
0001
0100
0000
0001
0100
0000
0000
0000
0000
0000
,
0001
0100
0001
0010
0001
0010
0100
0010
0100
1000
0100
1000
,
0010
1000
0010
0100
0010
0100
0001
0100
0010
1000
0010
0100
,
0010
0100
0000
1000
0010
0000
0100
0010
0000
0001
0010
0000
0000
0000
0000
0000
,
0100
1000
0000
0010
1000
0000
0100
1000
0000
0010
1000
0000
0000
0000
0000
0000
,
0001
0010
0100
1000
0100
0010
0001
0100
0010
1000
0010
0100
,
0001
0010
0100
1000
0100
0010
0001
0100
0010
1000
0010
0100
,
0000
0000
0000
0000
,
0000
0000
0000
0000
0000
0000
0000
0000
0001
0010
0001
0000
0010
0100
0010
0000
,
0100
1000
0100
0000
1000
0001
1000
0000
0001
0100
0001
0000
0100
0010
0100
0000
,
0010
1000
0010
0000
1000
0001
1000
0000
0001
1000
0010
0000
1000
0001
0010
0000
,
0001
1000
0100
0000
1000
0001
0100
0000
0001
0010
0100
0000
1000
0100
0010
0000
,
0001
0010
0000
0001
0000
0010
0001
0000
1000
0000
0010
0000
1000
0000
0001
0000
,
1000
0100
1000
0001
0010
0100
0010
1000
,
0010
0100
0010
0001
2000
0010
0000
0001
,
0000
0100
3000
0001
0020
0100
0000
1000
,
0000
0100
0030
0001
0100
0000
0001
0100
,
0001
0000
1000
0000
0010
0000
1000
0000
0010
0000
0000
0000
0000
0000
0100
0010
,
0100
0000
0000
0000
0010
0100
0001
0010
,
0100
0000
0000
0000
1000
0000
0010
0000
0100
0000
0000
0000
0000
0000
0001
0010
,
0001
0000
0000
0000
1000
0000
0100
0010
,
0001
0000
0100
0000
0010
0000
1000
0000
0100
0000
0000
0000
0000
0000
0010
0001
,
0010
0000
0000
0000
0100
1000
0010
1000
,
0001
0000
0100
0000
0010
0000
0100
0000
1000
0000
0000
0000
0000
0000
0100
0001
,
0100
0000
2100
0010
,
0001
3100
1020
0100
,
0001
1030
0210
0001
,
1000
0310
0102
0010
,
1000
0000
0103
0000
0011
0000
1000
0010
,
0100
0000
1010
0000
0101
0000
1000
0100
,
0010
0000
1100
0000
0001
0100
0010
1000
,
0100
0000
0000
0010
0000
0000
0001
0000
0000
0100
0000
0000
0010
0000
1000
0000
0100
0000
0010
0000
0001
0000
0100
0000
,
0010
0000
0000
0000
1001
0000
0001
1000
,
0010
0000
0001
0000
0010
0000
1000
0000
0001
0000
0000
0000
0000
0000
0010
0100
,
1000
0000
0000
0000
0001
0100
1000
0100
,
0001
0000
0000
0000
1000
0000
0010
0000
1000
0000
0000
0000
0000
0000
0001
0010
,
0001
0000
0000
0000
1000
0000
0001
0010
,
0100
0000
0010
0000
1000
0000
0010
0000
0100
0000
0000
0000
0000
0000
0010
0001
,
0010
0000
0000
0000
0001
0100
0010
0100
,
1000
0000
0100
0000
0010
0000
0100
0000
0001
0000
0000
0000
0000
0000
0100
0010
,
0100
0000
0012
0100
,
1000
0013
0201
0010
,
1000
0301
0120
1000
,
0001
0130
2010
0100
,
0001
0000
3010
0000
1100
0000
0001
0010
,
0101
0000
1010
0000
0110
0000
0001
1000
,
0011
0000
1100
0000
0001
0100
1000
0100
,
0001
0000
0000
0010
0000
0000
1000
0000
0000
0010
0000
0000
0001
0000
0100
0000
0010
0000
1000
0000
0010
0000
0100
0000
,
0001
0000
0000
0000
;

//---------------dance-single - LinkDump18----------------
#NOTES:
     dance-single:
     LinkDump18:
     Edit:
     12:
     0.914658,1.107283,0.049710,0.000000,0.782928,1288.000000,1278.000000,10.000000,0.000000,16.000000,0.000000,0.914658,1.107283,0.049710,0.000000,0.782928,1288.000000,1278.000000,10.000000,0.000000,16.000000,0.000000:
0000
0000
0000
0000
,
0M00
0000
M000
0000
,
00M0
0000
M000
0000
,
0001
1000
0001
0010
0100
1000
0001
0010
,
0001
1000
0100
1000
0010
0100
0001
1000
,
0010
0100
0001
1000
0010
1000
0001
0100
,
0010
1000
0100
0010
0001
1000
0001
1000
,
0100
0010
0001
1000
0001
0100
0010
1000
,
0001
1000
0001
0100
0010
1000
0100
0010
,
0001
1000
0100
1000
0001
0010
0100
1000
,
0001
0010
0100
1000
0010
1000
0001
0100
,
0001
1000
0010
0100
0001
1000
0001
1000
,
0010
0100
0001
1000
0001
0010
0100
1000
,
0010
1000
0001
0100
0010
1000
0001
0100
,
0010
1000
0001
1000
0100
0010
0100
1000
,
0000
0000
0000
0000
,
0001
0010
0001
1000
0100
1000
0001
0010
0001
1000
0100
0010
0001
1000
0001
1000
,
0100
0010
0100
1000
0001
0010
0100
1000
,
0001
1000
0010
0100
0001
1000
0010
0100
,
0010
1000
0001
1000
0001
0100
0010
1000
,
0001
0100
0001
1000
0010
1000
0001
0100
,
0001
1000
0010
0100
0010
1000
0001
1000
,
0100
0010
0001
1000
0100
0010
0001
1000
,
0100
1000
0010
0100
0001
1000
0001
0010
,
0100
1000
0001
1000
0001
1000
0010
0100
,
0001
1000
0010
1000
0001
0100
0001
0010
0100
1000
0001
0010
0100
1000
0001
0010
,
0001
1000
0100
0010
0001
0100
0010
1000
0001
1000
0001
0100
0010
1000
0001
1000
,
0100
0010
0001
1000
0001
1000
0100
0010
0001
0100
0010
1000
0001
0100
0001
1000
,
0010
0100
0001
1000
0010
0100
0001
0010
0001
1000
0100
1000
0001
0010
0100
1000
,
0001
1000
0001
0010
0100
1000
0001
1000
0010
0100
0001
0010
0001
1000
0100
0010
,
0001
1000
0100
0010
0001
1000
0001
0100
0010
0100
0001
1000
0010
1000
0001
0100
,
0001
1000
0010
1000
0001
0100
0010
1000
0001
1000
0001
0100
0010
0100
0001
1000
,
0010
0100
0001
1000
0001
0010
0100
1000
0001
0010
0100
0010
0001
1000
0001
0000
,
0000
0000
0000
0000
,
0000
0000
0000
0000
1000
0100
0010
0001
,
1000
0100
1000
0001
0010
0001
1000
0100
,
1000
0001
0010
0100
0010
0001
1000
0001
,
0100
0010
1000
0001
0100
0010
1000
0001
,
0100
0001
0010
0100
0000
0000
0000
0000
,
0000
0000
0000
0000
0000
0000
0000
0000
0000
0000
0000
0000
1000
0001
1000
0010
,
0100
0001
1000
0001
1000
0010
0100
0001
1000
0010
0100
0010
1000
0000
0001
0000
,
1000
0001
0100
0010
1000
0001
0100
0010
,
1000
0001
1000
0100
0010
0001
1000
0001
,
0100
0010
1000
0100
1000
0001
0010
0100
,
1000
0010
0100
0001
1000
0010
1000
0100
,
0010
0001
1000
0001
0100
0010
1000
0001
,
1000
0000
0100
0000
0010
0000
0001
0000
1000
0000
0100
0000
0010
0001
1000
0001
,
1000
0100
0010
0100
1000
0001
0010
0100
1000
0010
1000
0001
0100
0010
1000
0100
,
0010
0001
1000
0001
1000
0100
0010
0001
1000
0100
0010
0001
1000
0000
0100
0000
,
1000
0001
0010
0001
1000
0100
0010
0100
,
1000
0000
0001
0000
1000
0000
0010
0000
0100
0000
0010
0000
1000
0001
0100
0010
,
1000
0100
1000
0001
0010
0001
1000
0100
0010
0001
1000
0100
1000
0001
0010
0100
,
1000
0001
0010
0001
1000
0100
1000
0010
0100
0001
1000
0010
0100
0000
0010
0000
,
1000
0001
1000
0100
0010
0100
1000
0001
,
0010
0001
1000
0100
1000
0001
0010
0100
,
1000
0001
0010
0100
1000
0001
1000
0001
,
0010
0100
1000
0010
0100
0001
1000
0010
,
1000
0001
0100
0010
1000
0001
0100
0010
,
0100
0000
0001
0000
1000
0000
0001
0000
1000
0000
0010
0000
0100
0001
1000
0010
,
0100
0001
1000
0001
0010
0100
1000
0001
1000
0010
0100
0001
0010
0001
1000
0100
,
0010
0001
0100
0010
1000
0001
0100
0001
0010
0100
1000
0001
1000
0000
0010
0000
,
0100
0001
1000
0001
0010
0100
1000
0001
,
0010
0000
0100
0000
1000
0000
0001
0000
1000
0000
0001
0000
0010
0100
0010
0001
,
1000
0100
0010
0001
0100
0001
1000
0010
0100
0001
0010
0100
1000
0001
1000
0001
,
0010
0100
1000
0001
0010
0100
1000
0001
0010
0001
1000
0100
0000
0000
0000
0000
,
0000
0000
0000
0000
,
0000
0000
0000
MMMM
,
0011
0101
1100
1010
,
0011
MMMM
1100
1010
,
0011
0101
1100
MMMM
,
1000
0001
0010
0100
0010
0001
1000
0001
,
0100
0010
0100
0001
1000
0010
0100
0001
,
0010
0001
1000
0100
1000
0001
0010
0100
,
1000
0001
0010
0001
1000
0100
0010
0001
,
1000
0100
1000
0001
0010
0001
0100
0010
,
1000
0001
0100
0010
0100
0001
1000
0001
,
0010
0100
0010
0001
1000
0100
1000
0001
,
0010
0001
1000
0100
0010
0001
1000
0100
,
0010
0001
1000
0001
1000
0100
0010
0001
,
0100
0010
1000
0001
0100
0001
0010
0001
,
1000
0100
0010
0001
1000
0001
0100
0010
,
0100
0010
1000
0001
0100
0010
1000
0001
,
0100
0010
0100
0001
1000
0010
0100
0010
,
1000
0001
0100
0001
0010
0100
1000
0001
,
0010
0001
1000
0100
0010
0001
0100
0001
,
1000
0010
0100
0010
1000
0001
0100
0010
,
0100
0001
1000
0010
0100
0001
1000
0010
0100
0010
0100
0001
1000
0001
0010
0100
,
1000
0001
0010
0001
0100
0010
1000
0001
0100
0001
1000
0010
0100
0010
0100
0001
,
1000
0010
0100
0001
1000
0010
0100
0001
0010
0100
1000
0010
,
0100
0001
1000
0001
0010
0100
0010
0001
1000
0001
0100
0010
,
1000
0001
0100
0001
0010
0100
1000
0010
0100
0001
1000
0010
0100
0001
0010
0100
,
1000
0001
0010
0100
1000
0010
0100
0001
0010
0001
1000
0100
0010
0001
1000
0001
,
0100
0010
0100
0001
1000
0001
0010
0100
1000
0010
0100
0001
,
0010
0100
1000
0001
0010
0100
1000
0001
0010
0100
0010
0100
,
0000
0000
0000
0000
,
0000
0000
0000
0000
0000
0000
0000
0000
1000
0001
0010
0001
1000
0100
0010
0001
,
1000
0100
1000
0001
0010
0100
1000
0001
1000
0010
0100
0010
0100
0001
1000
0010
,
0100
0001
1000
0010
0100
0010
1000
0001
0100
0010
0100
0001
1000
0010
1000
0100
,
0010
0001
1000
0100
1000
0001
0010
0100
1000
0010
1000
0001
0100
0010
0100
0001
,
1000
0010
0100
0010
1000
0001
0100
0010
1000
0000
0001
0000
0100
0000
0010
0000
,
0100
0010
1000
0001
1000
0100
0010
0001
,
1000
0100
1000
0010
0100
0001
1000
0010
,
1000
0001
0100
0010
0100
0010
1000
0001
,
0100
0010
1000
0001
0100
0010
1000
0100
,
0010
0001
0100
0010
1000
0001
1000
0100
,
0010
0100
1000
0001
1000
0010
0100
0001
,
1000
0010
1000
0100
0010
0001
0100
0010
,
1000
0001
0100
0010
1000
0100
0010
0001
,
1000
0100
0010
0001
0100
0010
1000
0100
,
1000
0001
0010
0100
1000
0001
1000
0010
,
0100
0010
1000
0001
1000
0100
0010
0001
,
0100
0000
0010
0000
1000
0000
0100
0000
0010
0001
1000
0100
0010
0001
1000
0100
,
0010
0100
0010
0001
1000
0100
1000
0001
0010
0100
1000
0001
0010
0100
1000
0001
,
0010
0100
1000
0010
0100
0001
0010
0001
1000
0100
0010
0001
1000
0100
0010
0001
,
0100
0010
1000
0001
0100
0001
1000
0010
0100
0010
0100
0001
1000
0010
0100
0010
,
1000
0001
0100
0010
0100
0010
1000
0001
0100
0000
0001
0000
1000
0000
0010
0000
,
0100
0001
0010
0100
1000
0001
0010
0100
,
1000
0001
0010
0001
0100
0010
1000
0100
,
0010
0000
0000
0001
0000
0000
1000
0000
0000
0100
0000
0000
0010
0000
0100
0000
0010
0000
0001
0000
1000
0000
0100
0000
,
0010
0100
1000
0001
0010
0001
0100
0010
1000
0000
0001
0000
0100
0000
0010
0000
,
1000
0001
0100
0010
0100
0001
1000
0001
,
0010
0100
1000
0010
0100
0001
0010
0100
,
1000
0010
0100
0001
1000
0010
0100
0010
,
0100
0001
1000
0001
0010
0100
1000
0001
,
0010
0100
0010
0001
1000
0100
0010
0001
,
1000
0001
0100
0010
0100
0010
1000
0001
,
0100
0010
1000
0100
0010
0001
0100
0010
,
1000
0000
0100
0000
0010
0000
0001
0000
1000
0001
0100
0010
0100
0001
1000
0010
,
0100
0001
1000
0010
0100
0001
0010
0001
1000
0100
0010
0100
1000
0001
0010
0100
,
1000
0010
0100
0001
1000
0010
0100
0001
0010
0100
1000
0010
1000
0001
0100
0010
,
1000
0001
0100
0010
1000
0100
0010
0001
1000
0100
1000
0001
0010
0100
0010
0100
,
1000
0001
0010
0100
0010
0001
1000
0100
0010
0000
0100
0000
0010
0000
0001
0000
,
1000
0100
1000
0001
0010
0100
1000
0010
,
0100
0001
1000
0010
0100
0001
1000
0010
,
1000
0000
0000
0100
0000
0000
0010
0000
0000
0001
0000
0000
0100
0000
0010
0000
1000
0000
0001
0000
0100
0000
0010
0000
,
0100
0000
0000
0000
;

//---------------dance-double - LinkDubs03----------------
#NOTES:
     dance-double:
     LinkDubs03:
     Beginner:
     2:
     0.163332,0.234878,0.069594,0.154100,0.000000,230.000000,216.000000,14.000000,31.000000,0.000000,0.000000,0.163332,0.234878,0.069594,0.154100,0.000000,230.000000,216.000000,14.000000,31.000000,0.000000,0.000000:
00000000
00000000
00000000
00000000
,
00000000
00000000
00000000
00000000
,
00000000
00000000
00000000
00000000
,
00000010
00000000
00000000
00000010
,
00000000
00000000
00001000
00000000
,
00000000
00001000
00000000
00000000
,
00000010
00000000
00000000
00000010
,
00000000
00000000
00010000
00000000
,
00000000
00010000
00000000
00000000
,
00000010
00000000
00000000
00000010
,
00000000
00000000
00000100
00000000
,
00000000
00000100
00000000
00000000
,
00000010
00000000
00000000
00000010
,
00000000
00000000
00010000
00000000
,
00000000
00020000
00030000
00000000
,
00000000
00000000
00000000
00000000
,
00001000
00000000
00100000
00000000
,
00001000
00000000
00100000
00000000
,
00001000
00000000
01000000
00000000
,
00001000
00000000
01000000
00000000
,
00100000
00000000
01000000
00000000
,
00100000
00000000
01000000
00000000
,
00001000
00000000
01000000
00000000
,
00001000
00000000
01000000
00000000
,
00001000
00000000
00001000
00000000
,
01000000
00000000
01000000
00000000
,
00010000
00000000
00010000
00000000
,
00100000
00000000
00100000
00000000
,
00001000
00000000
00001000
00000000
,
00100000
00000000
00100000
00000000
,
00010000
00000000
00010000
00000000
,
01000000
00000000
01000000
00000000
,
00001000
00000000
00002000
00003000
,
00000000
00000000
00000000
00000000
,
00000000
00000000
00010000
00000000
,
00000010
00000000
00001000
00000000
,
00000010
00000000
00010000
00000000
,
00000100
00000000
00001000
00000000
,
00000100
00000000
00020000
00030000
,
00000000
00000000
00000000
00000000
,
00000000
00000000
00000000
00001000
,
00000000
01000000
00000000
00010000
,
00000000
01010000
00000000
01000000
,
00000000
00010000
00000000
00100000
,
00000000
00110000
00000000
00010000
,
00000000
00100000
00000000
00001000
,
00000000
00101000
00000000
00100000
,
00000000
00001000
00000000
01000000
,
00000000
01001000
00000000
00001000
,
00000000
01000000
00000000
00010000
,
00000000
01010000
00000000
01000000
,
00000000
00010000
00000000
00100000
,
00000000
00110000
00000000
00010000
,
00000000
00100000
00000000
00001000
,
00000000
00101000
00000000
00100000
,
00000000
00001000
00000000
00010000
,
00000000
00011000
00000000
00001000
,
00000000
00010000
00000000
00000010
,
00000000
00010010
00000000
00010000
,
00000000
00000010
00000000
00001000
,
00000000
00001010
00000000
00000010
,
00000000
00001000
00000000
00000100
,
00000000
00001100
00000000
00001000
,
00000000
00000100
00000000
00000010
,
00000000
00000220
00000330
00000000
,
00000000
00000000
00000000
00000000
,
00000000
00000000
00000000
00000000
,
00010000
00000000
00001000
00000000
,
00100000
00000000
01000000
00000000
,
00100000
00000000
00001000
00000000
,
00020000
00030000
00000000
00000000
,
00001000
00000000
00010000
00000000
,
00000020
00000030
00000000
00000000
,
00010000
00000000
00001000
00000000
,
00200000
00300000
00000000
00000000
,
00001000
00000000
00010000
00000000
,
00000200
00000300
00000000
00000000
,
00010000
00000000
00001000
00000000
,
02000000
03000000
00000000
00000000
,
00001000
00000000
00100000
00000000
,
00002000
00003000
00000000
00000000
,
00010000
00000000
00000010
00000000
,
00020000
00030000
00000000
00000000
,
00001000
00000000
00100000
00000000
,
00002000
00003000
00000000
00000000
,
00010000
00000000
00000100
00000000
,
00020000
00030000
00000000
00000000
,
00001000
00000000
01000000
00000000
,
00002000
00003000
00000000
00000000
,
01000000
00000000
00010000
00000000
,
00000200
00000300
00000000
00000000
,
00000010
00000000
00001000
00000000
,
00200000
00300000
00000000
00000000
,
00002000
00003000
00000000
00000000
,
00000000
00000000
00000000
00000000
,
00000000
00000000
00010000
00000000
,
00010000
00000000
00000010
00000000
,
00000010
00000000
00001000
00000000
,
00001000
00000000
00000100
00000000
,
00000100
00000000
00010000
00000000
,
00001000
00000000
00100000
00000000
,
00010000
00000000
02000000
00000000
,
03000000
00000000
00020000
00000000
,
00030000
00000000
00100000
00000000
,
00001000
00000000
00100000
00000000
,
00001000
00000000
00010000
00000000
,
00001000
00000000
00010000
00000000
,
00001000
00000000
00010000
00000000
,
00000010
00000000
00010000
00000000
,
00000010
00000000
00010000
00000000
,
00000100
00000000
00010000
00000000
,
00000100
00000000
00020000
00000000
,
00000000
00030000
00002000
00000000
,
00000000
00003000
02000000
00000000
,
00000000
03000000
00020000
00000000
,
00000000
00030000
01000000
00000000
,
00010000
00000000
01000000
00000000
,
00001000
00000000
00100000
00000000
,
00001000
00000000
02000000
00000000
,
00000000
03000000
00001000
00000000
,
00010000
00000000
00001000
00000000
,
00010000
00000000
00000100
00000000
,
00010000
00000000
00000100
00000000
,
00010000
00000000
00000010
00000000
,
00010000
00000000
00000100
00000000
,
00001000
00000000
00000010
00000000
,
00001000
00000000
00000100
00000000
,
00010000
00000000
00002000
00000000
,
00000000
00003000
00200000
00000000
,
00000000
00300000
00020000
00000000
,
00000000
00030000
02000000
00000000
,
00000000
03000000
00001000
00000000
,
01000000
00000000
00001000
00000000
,
00100000
00000000
00001000
00000000
,
00110000
00000000
02002000
00000000
,
03003000
00000000
00000000
00000000
;

//---------------dance-double - LinkDubs06----------------
#NOTES:
     dance-double:
     LinkDubs06:
     Easy:
     4:
     0.232925,0.301986,0.014913,0.178955,0.000000,328.000000,325.000000,3.000000,36.000000,0.000000,0.000000,0.232925,0.301986,0.014913,0.178955,0.000000,328.000000,325.000000,3.000000,36.000000,0.000000,0.000000:
00000000
00000000
00000000
00000000
,
00000000
00000000
00000000
00000000
,
00000000
00000000
00000000
00000000
,
00000001
00000000
00000000
00001000
00000000
00000000
00000001
00000000
,
00000000
00001000
00000000
00000000
00000001
00000000
00000000
00000100
,
00000000
00000000
00000001
00000000
00000000
00000100
00000000
00000000
,
00000010
00000000
00000000
00000100
00000000
00000000
00000010
00000000
,
00000000
00000100
00000000
00000000
00000010
00000000
00000000
00001000
,
00000000
00000000
00000010
00000000
00000000
00001000
00000000
00000000
,
00000100
00000000
00000000
00001000
00000000
00000000
00000100
00000000
,
00000000
00001000
00000000
00000000
00000100
00000000
00000000
00000010
,
00000000
00000000
00000100
00000000
00000000
00000010
00000000
00000000
,
00000001
00000000
00000000
00000010
00000000
00000000
00000001
00000000
,
00000000
00000010
00000000
00000000
00000001
00000000
00000000
00001000
,
00000000
00000000
00000001
00000000
00000000
00002000
00000000
00003000
,
00000000
00000000
00000000
00000000
,
00000000
00000000
00000000
00000000
,
00000010
00000010
00010000
00001000
,
00010000
00010000
00000010
00001000
,
00000010
00000010
00010000
00010000
,
00000010
00000010
00020000
00030000
,
00001000
00001000
01000000
00010000
,
01000000
01000000
00001000
00010000
,
00001000
00001000
01000000
01000000
,
00001000
00001000
02000000
03000000
,
00010000
01000000
00100000
10000000
,
01000000
00100000
00010000
01000000
,
00100000
10000000
01000000
00100000
,
00010000
01000000
00200000
00300000
,
00001000
00100000
00010000
01000000
,
00100000
00010000
00001000
00100000
,
00010000
01000000
00100000
00010000
,
00001000
00100000
00020000
00030000
,
00000000
00000000
00000000
00000000
,
00000000
00000000
00000010
00000100
,
00000010
00000100
00001000
00000100
,
00001000
00010000
00001000
00000100
,
00001000
00000100
00000020
00000030
,
00000000
00001000
00000000
00000001
00000000
00000000
00000000
00000000
,
00000000
00000000
00000000
00000000
,
00000000
00000000
00000000
00000001
,
00001000
00000001
00000001
00000100
,
00000001
00000100
00000100
00000010
,
00000100
00000010
00000010
00001000
,
00000010
00001000
00001000
00000100
,
00001000
00000001
00000010
00000100
,
00000010
00000001
00001000
00000020
,
00000000
00000000
00000000
00000000
,
00000000
00000000
00000030
00010000
,
00000100
00000010
00000100
00010000
,
00000010
00010000
00000100
00002000
,
00000000
00000000
00000000
00000000
,
00000000
00000000
00003000
00001000
,
00100000
01000000
00100000
00001000
,
01000000
00001000
00100000
00010000
,
00100000
00001000
01000000
00100000
,
00010000
00100000
01000000
00001000
,
00010000
00100000
00010000
00001000
,
01000000
00010000
00100000
00020000
,
00000000
00000000
00000000
00000000
,
00000000
00000000
00030000
10000000
,
01000000
00100000
00010000
01000000
,
00100000
10000000
01000000
00200000
,
00000000
00000000
00000000
00000000
,
00000000
00000000
00300000
00000000
,
00000000
00000000
00000000
00000000
,
00000000
00000000
00000000
00000000
,
00001000
01000000
00100000
01000000
,
00001000
00000000
01000000
00001000
,
00100000
00001000
01000000
00000000
,
00002000
00003000
00000000
00000000
,
00010000
00000000
00000010
00000000
,
00020000
00030000
00000000
00000000
,
00000001
00000000
00000010
00000000
,
00000200
00000300
00000000
00000000
,
00010000
00000000
00000100
00000000
,
00002000
00003000
00000000
00000000
,
00001000
00000000
00100000
00000000
,
00020000
00030000
00000000
00000000
,
10000000
00000000
01000000
00000000
,
00200000
00300000
00000000
00000000
,
00001000
00000000
00010000
00000000
,
02000000
03000000
00000000
00000000
,
00010000
00000000
00000100
00000000
,
00000020
00000030
00000000
00000000
,
00001000
00000000
00000100
00000000
,
00000002
00000003
00000000
00000000
,
00000010
00000000
00001000
00000000
,
00020000
00030000
00000000
00000000
,
00001000
00000000
01000000
00000000
,
00020000
00030000
00000000
00000000
,
01000000
00000000
00010000
00000000
,
20000000
30000000
00000000
00000000
,
00002000
00003000
00000000
00000000
,
00000000
00000000
00000000
00000000
,
00000000
00000000
00000010
00000010
,
00000010
00000010
00010000
00010000
,
00010000
00010000
00000100
00000100
,
00000100
00000100
00001000
00001000
,
00001000
00001000
00000010
00000010
,
00010000
00010000
00000100
00000100
,
00001000
00001000
00000020
00000000
,
00000030
00000000
00002000
00000000
,
00003000
00000000
00000010
00000010
,
00010000
00010000
00000010
00000000
,
00010000
00000000
00000010
00000010
,
00010000
00010000
00000010
00000000
,
00010000
00000000
00000100
00010000
,
00000100
00010000
00000100
00000000
,
00010000
00000000
00000010
00000100
,
00000010
00000100
00000010
00000000
,
00000100
00000000
00000020
00000000
,
00000000
00000030
00020000
00000000
,
00000000
00030000
02000000
00000000
,
00000000
03000000
02000000
00000000
,
00000000
03000000
00000010
00000010
,
00001000
00001000
00000010
00000010
,
00010000
00010000
00000100
00000100
,
00010000
00010000
00000020
00000000
,
00000000
00000030
00000100
00000001
,
00000100
00000001
00000100
00000000
,
00000001
00000000
00001000
00000100
,
00001000
00000100
00001000
00000000
,
00000100
00000000
00001000
00001000
,
00000001
00000001
00000100
00000000
,
00000010
00000000
00001000
00001000
,
00000001
00000001
00000010
00000000
,
00000100
00000000
00000020
00000000
,
00000000
00000030
00002000
00000000
,
00000000
00003000
02000000
00000000
,
00000000
03000000
00020000
00000000
,
00000000
00030000
01000000
00001000
,
01000000
00100000
01000000
00001000
,
01000000
00000000
01001000
00000000
,
00110000
00000000
02002000
00000000
,
03003000
00000000
00000000
00000000
;

//---------------dance-double - LinkDubs09----------------
#NOTES:
     dance-double:
     LinkDubs09:
     Medium:
     6:
     0.344417,0.570419,0.074565,0.223694,0.029826,485.000000,470.000000,15.000000,45.000000,0.000000,0.000000,0.344417,0.570419,0.074565,0.223694,0.029826,485.000000,470.000000,15.000000,45.000000,0.000000,0.000000:
00000000
00000000
00000000
00000000
,
00000000
00000000
00000000
00000000
,
00000000
00000000
00000000
00000000
,
00000010
00000000
00000000
00001000
00000000
00000000
00000010
00000000
,
00000010
00000000
00001000
00001000
,
00000000
00000010
00000000
00000000
00000000
00001000
00000000
00000000
,
00000100
00000000
00000000
00001000
00000000
00000000
00000100
00000000
,
00000100
00000000
00001000
00001000
,
00000000
00000100
00000000
00000000
00000000
00001000
00000000
00000000
,
00000100
00000000
00000000
00010000
00000000
00000000
00000100
00000000
,
00000100
00000000
00010000
00010000
,
00000000
00000100
00000000
00000000
00000000
00010000
00000000
00000000
,
00000100
00000000
00000000
00010000
00000000
00000000
00001000
00000000
,
00001000
00000000
01000000
01000000
,
00000000
00100000
00000000
00000000
00000000
00010000
00000000
00000000
,
00001000
00000000
00000000
00000000
,
00000000
00000000
00000000
00000000
,
00001000
00010000
00001000
00010000
00001000
00010000
00001000
00000000
,
00010000
00100000
00010000
00100000
00010000
00100000
00010000
00000000
,
00100000
01000000
00100000
01000000
00100000
01000000
00000000
00100000
,
00000000
01000000
00100000
20000000
00000000
30000000
00000000
00000000
,
00010000
01000000
00010000
01000000
00010000
01000000
00010000
00000000
,
01000000
00100000
01000000
00100000
01000000
00100000
01000000
00000000
,
00100000
10000000
00100000
10000000
00100000
10000000
00000000
00100000
,
00000000
10000000
00010000
02000000
00000000
03000000
00000000
00000000
,
00001000
00010000
00001000
00010000
00100000
00010000
00100000
00000000
,
01000000
00100000
01000000
00100000
00001000
00100000
00001000
00000000
,
00100000
01000000
00100000
01000000
00010000
01000000
00000000
00010000
,
00000000
01000000
00010000
00002000
00000000
00003000
00000000
00000000
,
00000010
00000100
00000010
00000100
00010000
00000100
00010000
00000000
,
00000010
00001000
00000010
00001000
00010000
00001000
00010000
00000000
,
00001000
00000010
00001000
00000010
00000100
00000010
00000000
00000100
,
00000000
00000001
00000010
00000200
00000000
00000300
00000000
00000000
,
00000000
00000000
00000000
00000000
,
00000000
00000000
00000000
00000000
00001000
00000010
00001000
00000010
,
00001000
00000000
00000100
00000010
00000000
00000001
00000000
00001000
,
00000000
00000100
00000010
00000001
00000010
00000100
00000010
00000001
,
00000010
00000100
00000010
00000002
00000000
00000003
00000000
00000000
,
00000000
00000110
00000000
00011000
00000000
00000000
00000000
00000000
,
00000000
00000000
00000000
00000000
,
00000000
00000000
00000000
00000000
00000000
00000000
00000010
00000100
,
00000010
00000000
00010000
00000100
00010000
00000000
00000010
00001000
,
00000010
00000000
00010000
00001000
00010000
00000000
00001000
01000000
,
00010000
00000000
00010000
01000000
00001000
00000000
01000000
00100000
,
00010000
00000000
00010000
00100000
01000000
00000000
00001000
00000000
,
01000000
00002000
00000000
00003000
00000000
00000000
01000000
00100000
,
00000000
00000000
10000000
00000000
00010000
00100000
00020000
00000000
,
00000000
00000000
00000000
00000000
,
00000000
00000000
00030000
10000000
,
00010000
00200000
00000000
00300000
00000000
00000000
01000000
00100000
,
00000000
00000000
00010000
00000000
10000000
01000000
20000000
00000000
,
00000000
00000000
00000000
00000000
,
00000000
00000000
00000000
00000000
30000000
00000000
00010000
00100000
,
01000000
00000000
00010000
00100000
01000000
00000000
00001000
00100000
,
00010000
00000000
00100000
00010000
01000000
00000000
00001000
01000000
,
00010000
00000000
00100000
00001000
01000000
00000000
00001000
01000000
,
00100000
00000000
00010000
00001000
01000000
00000000
00100000
00000000
,
01000000
00002000
00000000
00003000
00000000
00000000
00010000
00000010
,
00000000
00000000
00001000
00000000
00000100
00010000
00000020
00000000
,
00000000
00000000
00000000
00000000
,
00000000
00000000
00000030
00000100
,
00000010
00002000
00000000
00003000
00000000
00000000
00000100
00010000
,
00000000
00000000
00000100
00000000
00001000
00000010
00020000
00000000
,
00000000
00000000
00000000
00000000
,
00000000
00000000
00030000
00000000
,
00000000
00000000
00000000
00000000
,
00000000
00000000
00000000
00000000
,
00000010
00000100
00010000
00000010
,
00000001
00000000
00010000
00000010
,
00000001
00000010
00010000
00000000
,
00000200
00000000
00000000
00000300
,
00001000
00000000
00000100
00001000
,
00000020
00000000
00000000
00000030
,
00001000
00000000
00000001
00000010
,
00022000
00000000
00000000
00000000
,
00000000
00000000
00000000
00033000
,
00002020
00000000
00000000
00000000
,
00000000
00000000
00000000
00003030
,
00020000
00000000
00000000
00030000
,
00000010
00000000
00001000
00000010
,
00000200
00000000
00000000
00000300
,
00000010
00000000
00010000
00000100
,
00202000
00000000
00000000
00000000
,
00000000
00000000
00000000
00303000
,
02200000
00000000
00000000
00000000
,
00000000
00000000
00000000
03300000
,
00001000
00000000
00000000
01000000
00000000
00000000
00100000
00000000
00000000
00010000
00000000
00000000
00000000
00000000
00000000
00000000
,
00001000
00000000
00000000
01000000
00000000
00000000
00010000
00000000
00000000
00100000
00000000
00000000
00000000
00000000
00000000
00000000
,
00010000
01000000
00100000
00000000
00100000
01000000
00010000
00000000
,
00100000
00001000
00010000
00000000
00010000
00001000
00100000
00000000
,
00010000
00000000
00000000
01000000
00000000
00000000
00010000
00000000
00000000
10000000
00000000
00000000
00000000
00000000
00000000
00000000
,
01000000
00000000
00000000
00100000
00000000
00000000
00010000
00000000
00000000
10000000
00000000
00000000
00000000
00000000
00000000
00000000
,
00010000
00100000
01000000
00000000
10000000
00010000
01000000
00000000
,
00100000
10000000
00010000
00000000
00100000
01000000
10000000
00000000
,
00000000
00000000
00000000
00000000
,
00000000
00000000
00001000
00100000
,
01000000
10000000
00010000
01000000
,
00100000
10000000
00010000
00100000
,
01000000
10000000
00010000
01000000
,
00100000
00000000
10000000
00000000
00010000
00100000
00010000
00000000
,
01000000
00100000
01000000
00000000
00001000
01000000
00001000
00000000
,
00100000
00001000
00100000
00001000
00020000
00000000
00000000
00000000
,
00000000
00030000
02200000
00000000
,
00000000
00000000
03300000
00000000
00010000
00000000
00100000
00001000
,
01000000
00001000
00100000
00001000
00010000
00000000
00000000
00000010
,
00000100
00000000
00000000
00000000
00001000
00010000
00000010
00010000
,
00000100
00000000
00010000
00001000
00010000
00000000
00000000
00000010
,
00001000
00000000
00000000
00000000
00000010
00000000
00010000
00000100
,
00001000
00000100
00000010
00000100
00001000
00000000
00000000
00000100
,
00010000
00000000
00000000
00000000
00000010
00000100
00000010
00000100
,
00001000
00000100
00000010
00000100
00000001
00000000
00000000
00000100
,
00000010
00000000
00000202
00000000
,
00000000
00000303
00000220
00000000
,
00000000
00000330
00002020
00000000
,
00000000
00003030
00002002
00000000
,
00000000
00000000
00003003
00000000
00000010
00000000
00010000
00000100
,
00001000
00000000
00000100
00000000
00010000
00000000
00000010
00000100
,
00001000
00000000
00010000
00000000
00000010
00001000
00000100
00010000
,
00000100
00010000
00001000
00010000
00002000
00000000
00000000
00000000
,
00000000
00000000
00003000
00000000
00100000
00000000
00010000
01000000
,
00001000
01000000
00100000
01000000
00001000
00000000
00000000
01000000
,
00010000
00000000
00000000
00000000
00100000
00001000
01000000
00001000
,
00010000
00000000
00001000
00100000
00001000
00000000
00000000
01000000
,
00100000
00000000
00000000
00000000
01000000
00000000
00010000
00100000
,
01000000
00100000
10000000
00100000
01000000
00000000
00000000
00100000
,
00010000
00000000
00000000
00000000
10000000
01000000
00100000
01000000
,
00010000
01000000
00100000
01000000
10000000
00000000
00000000
01000000
,
00100000
00000000
00220000
00000000
,
00000000
00330000
02020000
00000000
,
00000000
03030000
22000000
00000000
,
00000000
33000000
20200000
00000000
,
00000000
00000000
30300000
00000000
00100000
00000000
00001000
00010000
,
00100000
00000000
01000000
00000000
00010000
00000000
00100000
00001000
,
00010000
00000000
00100000
00000000
01000000
00010000
00100000
00001000
,
00010000
00000000
00000000
00100000
00000000
00000000
01000000
00000000
00000000
00010000
00000000
00000000
01000000
00000000
00001000
00000000
01000000
00000000
00001000
00000000
01000000
00000000
00001000
00000000
,
00010000
00000000
00000000
00000000
;

//---------------dance-double - LinkDubs14----------------
#NOTES:
     dance-double:
     LinkDubs14:
     Hard:
     9:
     0.578053,0.838851,0.203810,0.173984,0.432474,814.000000,773.000000,41.000000,35.000000,16.000000,0.000000,0.578053,0.838851,0.203810,0.173984,0.432474,814.000000,773.000000,41.000000,35.000000,16.000000,0.000000:
00000000
00000000
00000000
00000000
,
0M000000
00000000
M0000000
00000000
,
00M00000
00000000
M0000000
00000000
,
00000010
00000000
00000000
00001000
00000000
00000000
00000010
00000000
,
00010000
00000000
00000000
00000010
00000100
00000000
00000010
00000000
,
00000000
00010000
00000000
00000000
00000010
00001000
00000010
00010000
,
00000010
00000000
00000000
00000100
00000000
00000000
00000010
00000000
,
00010000
00000000
00000000
00000010
00001000
00000000
00000010
00000000
,
00000000
00010000
00000000
00000000
00000010
00000100
00000010
00010000
,
00100000
00000000
00000000
01000000
00000000
00000000
00100000
00000000
,
00010000
00000000
00000000
00100000
00001000
00000000
00100000
00000000
,
00000000
00010000
00000000
00000000
00100000
01000000
00100000
00010000
,
00001000
00000000
00000000
01000000
00000000
00000000
00010000
00000000
,
00100000
00000000
00000000
00010000
01000000
00000000
00100000
00000000
,
00000000
01000000
00000000
00000000
00100000
00010000
00100000
01000000
,
00000000
00000000
00000000
00000000
,
00010000
01000000
00010000
00000000
01000000
00010000
00000000
01000000
00000000
00010000
00000000
01000000
00010000
00000000
10000000
00000000
,
00010000
10000000
00010000
00000000
01000000
00000000
00001000
00000000
01000000
00010000
00000000
01000000
00000000
00000000
00010000
00000000
,
01000000
00010000
01000000
00000000
00010000
00000000
01000000
00000000
00010000
00100000
00000000
00010000
00000000
00000000
00100000
00000000
,
00010000
00100000
00010000
00000000
00000000
00100000
00000000
00001000
00100000
00000000
00001000
00000000
00000000
00000000
00100000
00000000
,
00000000
00001000
00100000
00002000
00000000
00003000
00000000
00000000
,
00000010
00010000
00000010
00000000
00000100
00000000
00000010
00000000
00010000
00000010
00000000
00001000
00000000
00000000
00000010
00000000
,
00010000
00000010
00010000
00000000
00000100
00000000
00010000
00000000
00000010
00010000
00000000
00001000
00000000
00000000
00010000
00000000
,
00000010
00010000
00000010
00000000
00000000
00010000
00000000
00000100
00010000
00000000
00000010
00000000
00000000
00000000
00010000
00000000
,
00000000
00000100
00010000
00002000
00000000
00003000
00000000
00000000
,
00001000
00000001
00001000
00000000
00000001
00000000
00001000
00000000
00000001
00000000
00000100
00000001
00000000
00000000
00000100
00000000
,
00000001
00000100
00000001
00000000
00000100
00000000
00000001
00000000
00000100
00000000
00000010
00000100
00000000
00000000
00000010
00000000
,
00000100
00000010
00000100
00000000
00000000
00000010
00000000
00001000
00000010
00000000
00001000
00000000
00000000
00000000
00000010
00000000
,
00000000
00001000
00000010
00002000
00000000
00003000
00000000
00000000
,
00010000
00000010
00010000
00000000
00001000
00000000
00010000
00000000
00000010
00000000
00010000
00000100
00000000
00000000
00010000
00000000
,
00000010
00010000
00000010
00000000
00001000
00000000
00000010
00000000
00010000
00000000
00000010
00000100
00000000
00000000
00000010
00000000
,
00010000
00000010
00010000
00000000
00000000
00000010
00000000
00001000
00000010
00000000
00010000
00000000
00000000
00000000
00000010
00000000
,
00000000
00001000
00000010
00000200
00000000
00000300
00000000
00000000
,
00000000
00000000
00000000
00000000
,
00000000
00000000
00001000
00010000
00100000
00000000
00000000
00000000
01000000
00000000
00010000
00000000
00100000
00000000
00001000
00000000
,
00010000
00000000
00100000
01000000
00000000
00010000
00000000
00100000
,
00000000
00001000
00010000
00100000
00010000
01000000
00010000
00100000
,
00010000
00001000
00100000
02000000
00000000
03000000
00000000
00000000
,
00000000
01010000
00000000
10100000
00000000
00000000
00000000
00000000
,
00000000
00000000
00000000
00000000
00000000
00000000
00000000
00000000
00000000
00000000
00000000
00000000
10000000
00100000
10000000
00100000
,
00000000
10000000
00000000
00100000
00000000
10000000
00000000
00100000
10000000
00100000
10000000
00000000
00010000
00000000
00100000
00000000
,
00010000
00000000
00100000
00010000
00000000
00100000
00000000
00010000
00100000
00000000
00010000
00000000
01000000
00000000
00100000
00000000
,
01000000
00000000
00100000
01000000
00000000
00100000
00000000
01000000
00100000
00000000
01000000
00000000
00001000
00000000
00100000
00000000
,
00001000
00000000
00100000
00001000
00000000
00100000
00000000
00001000
00100000
00000000
00001000
00000000
00000100
00000000
00001000
00000000
,
00000100
00000000
00001000
00000100
00000000
00001000
00000000
00000100
00001000
00000000
00000100
00000000
00001000
00000000
00000000
00000000
,
00010000
00000010
00020000
00000000
00000000
00000000
00030000
00000000
00000000
00000000
00000000
00000000
00000010
00000000
00001000
00000001
,
00000000
00001000
00000001
00000000
00000100
00000001
00000000
00000100
00000001
00000000
00000100
00000001
00000200
00000000
00000000
00000000
,
00000010
00001000
00000010
00000001
,
00000010
00001000
00000310
00000001
,
00001000
00000100
00002000
00000000
00000000
00000000
00003000
00000000
00000000
00000000
00000000
00000000
00000010
00000000
00010000
00000010
,
00000000
00010000
00000010
00000000
00000100
00000010
00000000
00000100
00000010
00000000
00000100
00000010
00000200
00000000
00000000
00000000
,
00001000
00010000
00001000
00000010
,
00001000
00000000
00010000
00000000
00001300
00000000
00000010
00000100
,
00001000
00000000
00010000
00100000
00000000
00010000
00000000
00001000
00010000
00000000
00100000
00000000
01000000
00000000
00010000
00000000
,
00100000
00000000
00001000
00100000
00000000
00010000
00000000
01000000
00010000
00000000
00100000
00000000
00001000
00000000
00100000
00000000
,
00010000
00000000
01000000
00010000
00000000
01000000
00000000
00010000
01000000
00000000
00100000
00000000
10000000
00000000
01000000
00000000
,
00100000
00000000
00010000
00100000
00000000
01000000
00000000
10000000
01000000
00000000
00100000
00000000
00010000
00000000
00000000
00000000
,
01000000
00100000
02000000
00000000
00000000
00000000
03000000
00000000
00000000
00000000
00000000
00000000
00100000
00000000
00001000
00100000
,
00000000
01000000
00100000
00000000
00010000
00100000
00000000
01000000
00100000
00000000
00001000
00100000
00002000
00000000
00000000
00000000
,
01000000
00010000
01000000
00100000
,
01000000
00010000
01003000
00100000
,
00001000
00000100
00000020
00000000
00000000
00000000
00000030
00000000
00000000
00000000
00000000
00000000
00000100
00000000
00000010
00000100
,
00000000
00010000
00000100
00000000
00001000
00000100
00000000
00010000
00000100
00000000
00000010
00000100
00000020
00000000
00000000
00000000
,
00010000
00001000
00010000
00000100
,
00010000
00001000
00010030
00000000
,
00000000
00000000
00000000
00000000
,
00000000
00000000
00000000
0000MMMM
,
00010000
00000010
00000001
00000100
,
00010000
00MMMM00
00001000
00100000
,
10000000
01000000
00001000
MMMM0000
,
12000000
10000000
10000000
13000000
,
00201000
00301000
00001100
00001010
,
00000120
00000100
00000100
00000130
,
00002001
00003001
00010100
00001100
,
00001020
00010000
00000100
00010000
,
00001000
00010000
00000100
00010030
,
00201000
00010000
01000000
00010000
,
00001000
00010000
01000000
00310000
,
01020000
01000000
01000000
01030000
,
00210000
00310000
00010100
00010010
,
00021000
00001000
00001000
00031000
,
00000210
00000310
00011000
00010010
,
00000210
00001000
00010000
00001000
,
00000010
00001000
00010000
00001300
,
00012000
01000000
00100000
01000000
,
00010000
01000000
00100000
01003000
,
00100000
00010000
00000000
00100000
00010000
00000000
00100000
00010000
00000000
00100000
00010000
00000000
00000000
00000000
00000000
00000000
,
00010000
01000000
00000000
00010000
01000000
00000000
00010000
01000000
00000000
00010000
01000000
00000000
00000000
00000000
00000000
00000000
,
00010000
01000000
00010000
00100000
00010000
00100000
01000000
00100000
01000000
10000000
01000000
10000000
,
00100000
00010000
00000100
00001000
00000100
00001000
00000010
00001000
00000010
00000100
00010000
00000010
,
00000100
00000010
00000000
00001000
00000010
00000000
00010000
00000010
00000000
00010000
00001000
00000000
00000000
00000000
00000000
00000000
,
00001000
00010000
00000000
00000100
00010000
00000000
00001000
00010000
00000000
00000100
00001000
00000000
00000000
00000000
00000000
00000000
,
00000001
00000010
00000100
00001000
00000100
00000010
00000001
00000100
00000010
00001000
00000010
00000100
,
00000001
00000010
00000100
00001000
00000100
00000010
00000001
00000100
00000010
00001000
00000010
00000100
,
00000000
00000000
00000000
00000000
,
00000000
00000000
00000000
00000000
00000000
00000000
00000000
00000000
00000001
00000010
00000001
00000000
00000010
00000100
00000010
00000000
,
00000100
00001000
00000100
00000000
00001000
00000001
00001000
00000000
00000001
00000100
00000001
00000000
00000100
00000010
00000100
00000000
,
00000010
00001000
00000010
00000000
00001000
00000001
00001000
00000000
00000001
00001000
00000010
00000000
00001000
00000001
00000010
00000000
,
00000001
00001000
00000100
00000000
00010000
00000010
00001000
00000000
00000010
00000100
00001000
00000000
00010000
00001000
00000100
00000000
,
00000010
00000100
00000000
00000010
00000000
00000100
00000010
00000000
00010000
00000000
00000100
00000000
00010000
00000000
00000010
00000000
,
00010000
00001000
00010000
00000010
00000100
00001000
00000100
00010000
,
00000100
00001000
00000100
00001000
02000000
00010000
00000000
00001000
,
00000000
00100000
03000000
00010000
00200000
01000000
00000000
10000000
,
00000000
01000000
00300000
00001000
00100000
00000000
00001000
00100000
,
00001000
00000000
01000000
00000000
00010000
00000000
01000000
00000000
00010000
00000000
00000000
00000000
00000000
00000000
00100000
00010000
,
00100000
00000000
00000000
00000000
00010000
00100000
00001000
00010000
,
00100000
00000000
00000000
00000000
01000000
00000000
00010000
00000000
00100000
00000000
00000000
00000000
00000000
00000000
00001000
00010000
,
00001000
00000000
00000000
00000000
00010000
00000000
00001000
00000100
,
00000010
00000000
00001000
00000000
00000100
00000000
00010000
00000000
00001000
00000000
00000000
00000000
00000000
00000000
00000100
00000010
,
00000100
00000000
00000000
00000000
00001000
00010000
00000100
00010000
,
00000010
00000000
00001000
00000000
00000100
00000000
00001000
00000000
00010000
00000000
00000000
00000000
00000000
00000000
00001000
00000010
,
00001000
00000000
00021000
00000100
,
00000010
00031000
00001020
00000100
,
00000001
00001030
00002100
00000010
,
00010000
00003100
00102000
00010000
,
01000000
00000000
00103000
00000000
00110000
00000000
10000000
00100000
,
01000000
00000000
10100000
00000000
01010000
00000000
10000000
01000000
,
00100000
00000000
11000000
00000000
00010000
01000000
00100000
10000000
,
01000000
00000000
00000000
00100000
00000000
00000000
00010000
00000000
00000000
01000000
00000000
00000000
00100000
00000000
10000000
00000000
01000000
00000000
00100000
00000000
00010000
00000000
01000000
00000000
,
00100000
00000000
00000000
00000000
01001000
00000000
00001000
01000000
,
00010000
00000000
00001000
00000000
00010000
00000000
01000000
00000000
00001000
00000000
00000000
00000000
00000000
00000000
00010000
00100000
,
01000000
00000000
00000000
00000000
00001000
00100000
01000000
00100000
,
00001000
00000000
00000000
00000000
01000000
00000000
00010000
00000000
01000000
00000000
00000000
00000000
00000000
00000000
00001000
00010000
,
00001000
00000000
00000000
00000000
01000000
00000000
00001000
00010000
,
00100000
00000000
00010000
00000000
01000000
00000000
00010000
00000000
00001000
00000000
00000000
00000000
00000000
00000000
00000100
00000010
,
00000100
00000000
00000000
00000000
00000010
00001000
00000100
00001000
,
00010000
00000000
00001000
00000000
00000100
00000000
00001000
00000000
00000010
00000000
00000000
00000000
00000000
00000000
00001000
00000100
,
00001000
00000000
00000120
00001000
,
00010000
00000130
00000201
00000010
,
00001000
00000301
00001200
00010000
,
00000010
00001300
02010000
00100000
,
00001000
00000000
03010000
00000000
11000000
00000000
00010000
00100000
,
01010000
00000000
10100000
00000000
01100000
00000000
00010000
10000000
,
00110000
00000000
11000000
00000000
00010000
01000000
10000000
01000000
,
00010000
00000000
00000000
00100000
00000000
00000000
10000000
00000000
00000000
00100000
00000000
00000000
00010000
00000000
01000000
00000000
00100000
00000000
10000000
00000000
00100000
00000000
01000000
00000000
,
00010000
00000000
00000000
00000000
;

//---------------dance-double - LinkDump18----------------
#NOTES:
     dance-double:
     LinkDump18:
     Edit:
     12:
     0.914658,1.107283,0.049710,0.000000,0.782928,1288.000000,1278.000000,10.000000,0.000000,28.000000,0.000000,0.914658,1.107283,0.049710,0.000000,0.782928,1288.000000,1278.000000,10.000000,0.000000,28.000000,0.000000:
00000000
00000000
00000000
00000000
,
0M000000
00000000
M0000000
00000000
,
00M00000
00000000
M0000000
00000000
,
00000010
00001000
00000001
00000010
00000100
00001000
00000001
00000010
,
00000001
00001000
00000100
00010000
00000010
00000100
00000001
00001000
,
00000010
00000100
00000001
00001000
00000010
00001000
00000001
00000100
,
00000010
00010000
00000100
00000010
00000001
00001000
00000001
00001000
,
00000100
00000010
00000001
00001000
00000001
00000100
00000010
00001000
,
00000001
00001000
00000001
00000100
00000010
00010000
00000100
00000010
,
00000001
00001000
00000100
00001000
00000001
00000010
00000100
00001000
,
00000001
00000010
00000100
00010000
00000010
00001000
00000001
00000100
,
00000001
00001000
00000010
00000100
00000001
00001000
00000001
00001000
,
00000010
00000100
00000001
00001000
00000001
00000010
00000100
00010000
,
00000010
00001000
00000001
00000100
00000010
00001000
00000001
00000100
,
00000010
00001000
00000001
00001000
00000100
00010000
00000010
00010000
,
00000000
00000000
00000000
00000000
,
00000100
00001000
00000100
00010000
00001000
00010000
00000010
00000100
00000010
00010000
00001000
00000100
00000010
00010000
00000010
00010000
,
00001000
00000100
00001000
00010000
00000010
00000100
00001000
00010000
,
00000010
00010000
00000100
00001000
00000010
00010000
00000100
00001000
,
00000100
00010000
00000010
00010000
00000010
00001000
00000100
00010000
,
00000010
00001000
00000010
00010000
00000100
00010000
00000010
00001000
,
00000010
00010000
00000100
00001000
00000100
00010000
00000010
00010000
,
00001000
00000100
00000010
00010000
00001000
00000100
00000010
00010000
,
00001000
00010000
00000100
00001000
00000010
00010000
00000010
00010000
,
00000100
00010000
00001000
00010000
00001000
01000000
00010000
00100000
,
00001000
01000000
00010000
01000000
00001000
00100000
00001000
00100000
00010000
01000000
00001000
00100000
00010000
01000000
00001000
00100000
,
00001000
01000000
00010000
00100000
00001000
00100000
00010000
01000000
00001000
01000000
00001000
00100000
00010000
01000000
00001000
01000000
,
00010000
00100000
00001000
01000000
00001000
01000000
00010000
00100000
00001000
00100000
00010000
01000000
00001000
00100000
00001000
01000000
,
00010000
00100000
00001000
01000000
00010000
00100000
00001000
00100000
00001000
01000000
00010000
01000000
00001000
00100000
00010000
01000000
,
00001000
01000000
00001000
00100000
00010000
01000000
00001000
01000000
00010000
00100000
00001000
00100000
00001000
01000000
00010000
00100000
,
00001000
01000000
00010000
00100000
00001000
01000000
00001000
00100000
00010000
00100000
00001000
01000000
00010000
01000000
00001000
00100000
,
00001000
01000000
00010000
01000000
00001000
00100000
00010000
01000000
00001000
01000000
00001000
00100000
00010000
00100000
00001000
01000000
,
00010000
00100000
00001000
01000000
00001000
00100000
00010000
01000000
00001000
00100000
00010000
00100000
00001000
01000000
00001000
00000000
,
00000000
00000000
00000000
00000000
,
00000000
00000000
00000000
00000000
01000000
00010000
00100000
00001000
,
01000000
00010000
01000000
00001000
00100000
00001000
01000000
00010000
,
01000000
00001000
00100000
00010000
00100000
00001000
01000000
00001000
,
00100000
00010000
01000000
00001000
00100000
00010000
01000000
00001000
,
00100000
00001000
00100000
00010000
00000000
00000000
00000000
00000000
,
00000000
00000000
00000000
00000000
00000000
00000000
00000000
00000000
00000000
00000000
00000000
00000000
01000000
00001000
01000000
00010000
,
00100000
00001000
01000000
00001000
00010000
00000100
00001000
00000010
00010000
00000100
00001000
00000100
00010000
00000000
00000010
00000000
,
00010000
00000010
00001000
00000100
00010000
00000010
00001000
00000100
,
00010000
00000010
00010000
00000100
00001000
00000010
00010000
00000010
,
00001000
00000100
00010000
00000100
00010000
00000010
00001000
00000100
,
00010000
00000100
00001000
00000010
00010000
00000100
00010000
00000100
,
00001000
00000010
00010000
00000010
00001000
00000100
00010000
00000010
,
00010000
00000000
00000100
00000000
00001000
00000000
00000010
00000000
00010000
00000000
00000100
00000000
00001000
00000010
00010000
00000010
,
00010000
00000100
00001000
00000100
00010000
00000010
00001000
00000100
00010000
00000100
00010000
00000010
00001000
00000100
00010000
00000100
,
00001000
00000010
00010000
00000010
00010000
00000100
00001000
00000010
00010000
00000100
00001000
00000010
00010000
00000000
00000100
00000000
,
00010000
00000010
00001000
00000010
00010000
00000100
00001000
00000100
,
00010000
00000000
00000010
00000000
00010000
00000000
00000100
00000000
00001000
00000000
00000100
00000000
00010000
00000010
00001000
00000100
,
00010000
00000100
00010000
00000010
00001000
00000010
00010000
00000100
00001000
00000010
00010000
00000100
00010000
00000010
00001000
00000100
,
00010000
00000010
00001000
00000010
00010000
00000100
00010000
00000100
00001000
00000010
00010000
00000100
00001000
00000000
00000100
00000000
,
00010000
00000010
00010000
00000100
00001000
00000100
00010000
00000010
,
00001000
00000010
00010000
00000100
00010000
00000010
00001000
00000100
,
00010000
00000010
00001000
00000100
00010000
00000010
00010000
00000010
,
00001000
00000100
00010000
00000100
00001000
00000010
00010000
00000100
,
00010000
00001000
00100000
00010000
10000000
00010000
00100000
01000000
,
00100000
00000000
00010000
00000000
10000000
00000000
00010000
00000000
10000000
00000000
01000000
00000000
00100000
00010000
10000000
01000000
,
00100000
00010000
10000000
00010000
01000000
00100000
10000000
00010000
10000000
01000000
00100000
00010000
01000000
00010000
10000000
00100000
,
01000000
00010000
00100000
01000000
10000000
00010000
00100000
00010000
01000000
00100000
10000000
00010000
10000000
00000000
01000000
00000000
,
00100000
00010000
10000000
00010000
01000000
00100000
10000000
00010000
,
01000000
00000000
00100000
00000000
10000000
00000000
00010000
00000000
10000000
00000000
00010000
00000000
01000000
00100000
01000000
00010000
,
10000000
00100000
01000000
00010000
00100000
00010000
10000000
01000000
00100000
00010000
01000000
00100000
10000000
00010000
10000000
00010000
,
01000000
00100000
10000000
00010000
01000000
00100000
10000000
00010000
01000000
00010000
10000000
00100000
00000000
00000000
00000000
00000000
,
00000000
00000000
00000000
00000000
,
00000000
00000000
00000000
MMMMMMMM
,
11000000
10100000
00101000
01001000
,
00011000
MMMMMMMM
00000101
00000011
,
00010010
00010100
00011000
MMMMMMMM
,
10000000
00010000
01000000
00100000
01000000
00010000
10000000
00010000
,
00100000
01000000
00100000
00010000
10000000
01000000
00100000
00010000
,
01000000
00010000
10000000
00100000
10000000
00010000
01000000
00100000
,
10000000
00010000
01000000
00010000
10000000
00100000
01000000
00010000
,
10000000
00100000
10000000
00010000
01000000
00010000
00100000
01000000
,
10000000
00010000
00100000
01000000
00100000
00010000
10000000
00010000
,
01000000
00100000
01000000
00010000
10000000
00100000
10000000
00010000
,
01000000
00010000
10000000
00100000
01000000
00010000
10000000
00100000
,
01000000
00010000
10000000
00010000
10000000
00100000
10000000
01000000
,
10000000
00100000
01000000
00010000
00100000
00001000
00010000
00000100
,
00001000
00000010
00000100
00000001
00000010
00000001
00000100
00000010
,
00010000
00000010
00001000
00000001
00000100
00000010
00001000
00000001
,
00000100
00000010
00000100
00000001
00001000
00000010
00010000
00000010
,
00001000
00000001
00000100
00000001
00000010
00000100
00001000
00000001
,
00000010
00000001
00001000
00000100
00000010
00000001
00000100
00000001
,
00001000
00000010
00010000
00000010
00001000
00000001
00000100
00000010
,
00000100
00000001
00001000
00000010
00000100
00000001
00001000
00000010
00000100
00000010
00000100
00000001
00001000
00000001
00000010
00000100
,
00001000
00000001
00000010
00000001
00000100
00000010
00001000
00000001
00000100
00000001
00001000
00000010
00000100
00000010
00000100
00000001
,
00001000
00000010
00000100
00000001
00001000
00000010
00000100
00000001
00000010
00000100
00001000
00000010
,
00000100
00000001
00001000
00000001
00000010
00000100
00000010
00000001
00001000
00000001
00000100
00000010
,
00001000
00000001
00000100
00000001
00000010
00000100
00001000
00000010
00000100
00000001
00001000
00000010
00000100
00000001
00000010
00000100
,
00001000
00000001
00000010
00000100
00001000
00000010
00000100
00000001
00000010
00000001
00001000
00000100
00000010
00000001
00001000
00000001
,
00000100
00000010
00000100
00000001
00001000
00000001
00000010
00000100
00001000
00000010
00000100
00000001
,
00000010
00000100
00001000
00000001
00000010
00000100
00001000
00000001
00000010
00000100
00000010
00000100
,
00000000
00000000
00000000
00000000
,
00000000
00000000
00000000
00000000
00000000
00000000
00000000
00000000
00010000
00000010
00000100
00000010
00010000
00001000
00010000
00001000
,
00100000
00010000
01000000
00001000
00100000
00010000
01000000
00001000
01000000
00010000
10000000
00010000
00100000
00001000
01000000
00010000
,
00100000
00001000
01000000
00010000
10000000
00010000
01000000
00001000
00100000
00010000
00100000
00001000
01000000
00010000
10000000
00010000
,
00100000
00001000
01000000
00010000
01000000
00001000
00100000
00010000
10000000
00010000
01000000
00001000
00100000
00010000
00100000
00001000
,
01000000
00010000
10000000
00010000
01000000
00001000
00100000
00010000
01000000
00000000
00001000
00000000
00100000
00000000
00010000
00000000
,
10000000
00010000
01000000
00001000
01000000
00010000
00100000
00001000
,
01000000
00010000
10000000
00010000
00100000
00001000
01000000
00010000
,
01000000
00001000
00100000
00010000
10000000
00010000
01000000
00001000
,
00100000
00010000
01000000
00001000
00100000
00010000
10000000
00010000
,
00100000
00001000
00100000
00010000
01000000
00001000
01000000
00010000
,
10000000
00010000
01000000
00001000
01000000
00010000
00100000
00001000
,
01000000
00010000
10000000
00010000
00100000
00001000
00100000
00010000
,
01000000
00001000
00100000
00010000
10000000
00010000
00100000
00001000
,
01000000
00010000
00100000
00001000
00100000
00010000
10000000
00010000
,
01000000
00001000
00100000
00010000
01000000
00001000
01000000
00010000
,
10000000
00010000
01000000
00001000
01000000
00010000
00100000
00001000
,
00100000
00000000
00010000
00000000
10000000
00000000
00010000
00000000
00100000
00001000
01000000
00010000
00100000
00001000
01000000
00010000
,
10000000
00010000
00100000
00001000
01000000
00010000
01000000
00001000
00100000
00001000
00010000
00001000
00010000
00000100
00010000
00000010
,
00001000
00000100
00010000
00000100
00001000
00000001
00001000
00000010
00010000
00000100
00001000
00000010
00010000
00000100
00001000
00000001
,
00001000
00000100
00010000
00000010
00001000
00000010
00010000
00000100
00001000
00000001
00001000
00000010
00010000
00000100
00001000
00000100
,
00010000
00000010
00001000
00000001
00001000
00000100
00010000
00000010
00001000
00000000
00000010
00000000
00010000
00000000
00000100
00000000
,
00001000
00000001
00001000
00000100
00010000
00000010
00001000
00000100
,
00010000
00000010
00001000
00000001
00001000
00000100
00010000
00000100
,
00001000
00000000
00000000
00000010
00000000
00000000
00010000
00000000
00000000
00000100
00000000
00000000
00001000
00000000
00000001
00000000
00001000
00000000
00000010
00000000
00010000
00000000
00000100
00000000
,
00001000
00000100
00010000
00000010
00001000
00000001
00001000
00000100
00010000
00000000
00000010
00000000
00001000
00000000
00000100
00000000
,
00010000
00000010
00001000
00000001
00001000
00000010
00010000
00000010
,
00001000
00000100
00010000
00000100
00001000
00000001
00001000
00000100
,
00010000
00000100
00001000
00000010
00010000
00000100
00001000
00000001
,
00001000
00000010
00010000
00000010
00001000
00000100
00010000
00000010
,
00001000
00000001
00001000
00000010
00010000
00000100
00001000
00000010
,
00010000
00000010
00001000
00000001
00001000
00000100
00010000
00000010
,
00001000
00000100
00010000
00000100
00001000
00000001
00001000
00000100
,
00010000
00000000
00000100
00000000
00001000
00000000
00000010
00000000
00010000
00000010
00001000
00000001
00001000
00000010
00010000
00000100
,
00001000
00000010
00010000
00000100
00001000
00000001
00001000
00000010
00010000
00001000
00010000
00001000
00100000
00010000
00100000
00010000
,
01000000
00100000
01000000
00010000
10000000
00100000
01000000
00001000
00100000
01000000
10000000
00100000
10000000
00010000
01000000
00100000
,
10000000
00010000
01000000
00100000
10000000
01000000
00100000
00010000
10000000
01000000
10000000
00010000
00100000
00001000
00100000
01000000
,
10000000
00010000
00100000
00001000
00100000
00010000
10000000
01000000
00100000
00000000
00001000
00000000
00100000
00000000
00010000
00000000
,
10000000
01000000
10000000
00010000
00100000
01000000
10000000
00100000
,
01000000
00010000
10000000
00100000
01000000
00010000
10000000
00100000
,
10000000
00000000
00000000
01000000
00000000
00000000
00100000
00000000
00000000
00001000
00000000
00000000
01000000
00000000
00100000
00000000
10000000
00000000
00010000
00000000
01000000
00000000
00001000
00000000
,
00100000
00000000
00000000
00000000
;

//---------------dance-single - LinkDude16----------------
#NOTES:
     dance-single:
     LinkDude16:
     Challenge:
     11:
     0.746356,1.107283,0.059652,0.044739,0.765529,1051.000000,1039.000000,12.000000,9.000000,16.000000,0.000000,0.746356,1.107283,0.059652,0.044739,0.765529,1051.000000,1039.000000,12.000000,9.000000,16.000000,0.000000:
0000
0000
0000
0000
,
0M00
0000
M000
0000
,
00M0
0000
M000
0000
,
0001
0000
0000
0100
0000
0000
0010
0000
,
1000
0000
0000
0001
0100
0000
0010
0000
,
0000
1000
0000
0000
0001
0100
0001
1000
,
0001
0000
0000
0010
0000
0000
0001
0000
,
1000
0000
0000
0001
0100
0000
0001
0000
,
0000
1000
0000
0000
0001
0010
0001
1000
,
0100
0000
0000
1000
0000
0000
0010
0000
,
0100
0000
0000
0010
1000
0000
0100
0000
,
0000
0010
0000
0000
0100
1000
0010
0100
,
0001
0000
0000
1000
0000
0000
0010
0000
,
0100
0000
0000
0010
1000
0000
0100
0000
,
0000
0010
0000
0000
0100
1000
0010
0100
,
0000
0000
0000
0000
,
0001
0010
0001
0100
0000
0001
0000
0010
0000
0001
0000
0100
0001
1000
0001
0000
,
1000
0001
1000
0000
0001
0000
1000
0000
0001
0010
0000
0001
0000
0000
0100
0000
,
0001
0010
0001
0000
0100
0000
0001
0000
0010
0100
0000
0010
0000
0000
0100
0000
,
0010
0100
0010
0000
0000
0100
0000
1000
0010
0000
1000
0000
0000
0000
0100
0000
,
0000
1000
0010
2000
0000
3000
0000
0000
,
0001
1000
0001
0000
0100
0000
0001
0000
1000
0001
0000
0010
0000
0000
0001
0000
,
1000
0001
1000
0000
0100
0000
1000
0000
0001
1000
0000
0010
0000
0000
1000
0000
,
0001
1000
0001
0000
0000
1000
0000
0100
1000
0000
0001
0000
0000
0000
1000
0000
,
0000
0010
1000
0002
0000
0003
0000
0000
,
1000
0001
1000
0001
1000
0000
0001
0000
0100
0010
0100
0010
0100
0000
0001
0000
,
1000
0001
1000
0001
1000
0000
0001
0000
0010
0100
0010
0100
0010
0000
0001
0000
,
1000
0100
0010
0001
1000
0100
0010
0001
1000
0100
0010
0001
1000
0000
0001
0000
,
0000
0100
0001
2000
0000
3000
0000
0000
,
0001
1000
0001
1000
0001
0010
0100
0010
0100
0010
0001
1000
0001
0000
1000
0000
,
0001
1000
0001
1000
0001
0100
0010
0100
0010
0100
0001
1000
0001
0000
1000
0000
,
0001
0010
0100
1000
0001
0010
0100
1000
0001
0010
0100
1000
0010
0100
0001
1000
,
0010
0100
0001
1000
0010
0100
0002
0000
0000
0000
0003
0000
0000
0000
0000
0000
,
0000
0000
0000
0000
,
0000
0000
1000
0010
0100
0000
0000
0000
0001
0000
0010
0000
0100
0000
1000
0000
,
0010
0000
0100
0001
0000
0010
0000
0100
,
0000
1000
0010
0100
0010
1000
0100
0010
,
0100
1000
0010
0002
0000
0003
0000
0000
,
0000
1100
0000
0011
0000
0000
0000
0000
,
0000
0000
0000
0000
0000
0000
0000
0000
0000
0000
0000
0000
1000
0100
1000
0010
,
0000
1000
0000
0100
0000
1000
0000
0010
1000
0100
1000
0000
0001
0000
0010
0000
,
0001
0000
0100
0001
0000
0010
0000
0001
0100
0000
0001
0000
1000
0000
0010
0000
,
1000
0000
0100
1000
0000
0010
0000
1000
0100
1000
0001
1000
0001
0000
0010
0000
,
0001
0000
0100
0001
0000
0010
0000
0001
0100
0000
0001
0000
0010
0000
0100
0000
,
1000
0000
0001
0010
0000
0100
0000
1000
0001
0010
0100
0010
0001
0000
0000
0000
,
1000
0001
2000
0000
0000
0000
3000
0000
0000
0000
0000
0000
0001
0000
1000
0001
,
0000
1000
0001
0000
0100
0001
0000
0010
0001
0000
0100
0001
1000
0010
0100
0001
,
1000
0010
0100
0001
1000
0001
1000
0001
0010
0100
0010
0100
1000
0001
0010
0100
,
1000
0001
0010
0100
1000
0001
1000
0001
1000
0010
0100
0010
0100
0000
0000
0000
,
0001
0010
0200
0000
0000
0000
0300
0000
0000
0000
0000
0000
0001
0000
1000
0001
,
0000
1000
0001
0000
0010
0001
0000
0100
0001
0000
0010
0001
0100
0001
1000
0001
,
0010
0001
0100
0001
1000
0001
1000
0010
1000
0100
1000
0001
1000
0010
1000
0100
,
1000
0001
1000
0001
0010
0100
0010
0100
1000
0010
0100
0010
0100
0000
0001
0000
,
1000
0000
0010
1000
0000
0001
0000
0100
0001
0000
0010
0000
0100
0000
1000
0000
,
0001
0000
0010
0001
0000
1000
0000
0100
1000
0001
1000
0010
1000
0000
0100
0000
,
0010
0000
0001
1000
0000
0001
0000
0100
0001
0000
1000
0000
0010
0000
0100
0000
,
0001
0000
0010
0001
0000
1000
0000
0100
1000
0001
1000
0010
1000
0000
0000
0000
,
0001
0100
0002
0000
0000
0000
0003
0000
0000
0000
0000
0000
0010
0000
0001
0100
,
0000
0001
0010
0000
0001
0100
0000
0001
1000
0000
0001
1000
0001
1000
0001
0010
,
0100
1000
0001
0010
0100
1000
0001
0010
0100
1000
0001
1000
0001
1000
0010
0100
,
0001
1000
0010
0100
0001
1000
0010
0100
0001
1000
0001
1000
0001
0000
0000
0000
,
1000
0010
2000
0000
0000
0000
3000
0000
0000
0000
0000
0000
0100
0000
1000
0010
,
0000
1000
0100
0000
1000
0010
0000
1000
0001
0000
1000
0001
1000
0100
1000
0010
,
1000
0001
0100
0001
0010
0001
1000
0100
1000
0010
1000
0001
0100
0001
0010
0001
,
1000
0100
1000
0010
1000
0001
0100
0001
0010
0001
1000
0001
0000
0000
0000
0000
,
0000
0000
0000
0000
,
0000
0000
0000
MMMM
,
1000
0100
0001
0010
,
1000
MMMM
0001
0100
,
1000
0010
0001
MMMM
,
1000
0100
0010
0001
0100
0010
1000
0000
,
0001
0100
0010
1000
0100
0010
0001
0000
,
1000
0100
1000
0001
0010
0001
1000
0000
,
0001
0100
0001
1000
0010
1000
0001
0000
,
1000
0100
0010
0100
0010
0001
1000
0000
,
0001
0100
0010
0100
0010
1000
0001
0000
,
0100
0010
0100
0001
0010
0100
0010
0000
,
0100
0010
0100
1000
0010
0100
0010
0000
,
1000
0100
0001
0010
1000
0100
0001
0000
,
1000
0010
0001
0100
1000
0010
0001
0000
,
1000
0100
1000
0010
0100
0001
0010
0000
,
0001
0100
0001
0010
0100
1000
0010
0000
,
1000
0100
0010
0001
0100
0010
1000
0000
,
0001
0100
0010
1000
0100
0010
0001
0000
,
1000
0100
1000
0001
1000
0010
1000
0000
,
0001
0100
0001
1000
0001
0010
0001
0000
,
0100
0001
0000
0010
0001
0000
0100
0001
0000
0010
0001
0000
1000
0001
1000
0001
,
1000
0100
0000
1000
0010
0000
1000
0100
0000
1000
0010
0000
1000
0001
1000
0001
,
1000
0100
1000
0010
1000
0100
0010
0100
0010
0001
0100
0001
,
0010
0001
0100
0010
0100
0010
1000
0100
0010
0001
0100
0010
,
1000
0100
0000
1000
0010
0000
1000
0100
0000
1000
0010
0000
1000
0001
1000
0001
,
0100
0001
0000
0010
0001
0000
0100
0001
0000
0010
0001
0000
1000
0001
1000
0001
,
1000
0100
0010
0001
0100
0010
1000
0100
0010
0001
0100
0010
,
1000
0100
0010
0001
0100
0010
1000
0100
0010
0001
0100
0010
,
0000
0000
0000
0000
,
0000
0000
0000
0000
0000
0000
0000
0000
1000
0001
1000
0001
1000
0001
1000
0000
,
0001
0100
0001
0010
0001
0100
0001
0000
1000
0010
1000
0100
1000
0010
1000
0000
,
0100
1000
0010
0100
0010
1000
0100
0000
0010
0001
0100
0010
0100
0001
0010
0000
,
0001
0100
0010
1000
0001
0100
0010
0000
1000
0100
0010
0001
1000
0100
0010
0000
,
0001
0100
0000
0001
0000
0010
0001
0000
1000
0000
0100
0000
1000
0000
0001
0000
,
1000
0010
1000
0001
0100
0001
1000
0001
,
0010
0000
0001
0000
1000
0000
0100
0000
1000
0001
1000
0001
1000
0010
1000
0100
,
1000
0001
1000
0001
0010
0001
0100
0000
0001
0010
0100
1000
0010
0100
0001
0010
,
0100
1000
0010
0100
0001
0010
0100
1000
0001
0000
0000
0000
1000
0000
0010
0000
,
1000
0000
0001
0000
0100
0000
0001
0000
0010
0000
0000
0000
0000
0000
0100
0010
,
0100
0000
0000
0000
0010
0100
1000
0010
,
0100
0000
0000
0000
0001
0000
0010
0000
0100
0000
0000
0000
0000
0000
1000
0010
,
1000
0000
0000
0000
0001
0000
0100
0010
,
1000
0000
0100
0000
0010
0000
0001
0000
0100
0000
0000
0000
0000
0000
0010
1000
,
0100
0000
0000
0000
0010
0001
0100
0001
,
1000
0000
0010
0000
0100
0000
0010
0000
0001
0000
0000
0000
0000
0000
0100
1000
,
0010
0000
0000
0000
0001
0100
0010
1000
,
0100
0010
0001
0000
1000
0100
0010
0001
,
0100
0010
1000
0000
0100
0010
0100
1000
,
0010
0100
0010
0000
0100
0010
0100
0001
,
0010
0100
0010
0000
1001
0000
0001
0100
,
0001
0000
0110
0000
1001
0000
1000
0010
,
1000
0000
0110
0000
0001
0100
0010
1000
,
0100
0000
0000
0010
0000
0000
0001
0000
0000
0100
0000
0000
0010
0000
1000
0000
0100
0000
0010
0000
0001
0000
0100
0000
,
0010
0000
1000
0001
1000
0001
1000
0001
1000
0000
0000
0000
0001
0000
0100
0000
,
1000
0000
0010
0000
0001
0000
0100
0000
0001
0000
0000
0000
0000
0000
0010
0100
,
1000
0000
0000
0000
0001
0010
1000
0100
,
0001
0000
0000
0000
1000
0000
0010
0000
1000
0000
0000
0000
0000
0000
0100
0010
,
0001
0000
0000
0000
0100
0000
0001
0010
,
0100
0000
1000
0000
0001
0000
0010
0000
0100
0000
0000
0000
0000
0000
1000
0010
,
1000
0000
0000
0000
0001
0100
0010
1000
,
0001
0000
0100
0000
0010
0000
1000
0000
0001
0000
0000
0000
0000
0000
0100
0010
,
0100
0000
0000
0000
0001
0010
1000
0100
,
0001
0010
1000
0000
0100
0001
0010
1000
,
0100
0001
0010
0000
1000
0100
0001
0010
,
1000
0000
0100
0000
0001
0000
0000
0000
0010
0100
0010
0000
0001
1000
0001
0000
,
0100
0010
0100
0000
0001
1000
0001
0000
1010
0000
0000
0000
0001
0000
0100
0000
,
1010
0000
1001
0000
1100
0000
0001
0010
,
1100
0000
0011
0000
1000
0100
0010
0001
,
1000
0000
0000
0100
0000
0000
0010
0000
0000
0001
0000
0000
1000
0000
0100
0000
0010
0000
0001
0000
0100
0000
0010
0000
,
1000
0000
0000
0000
;

//---------------dance-double - LinkDude16----------------
#NOTES:
     dance-double:
     LinkDude16:
     Challenge:
     11:
     0.746356,1.107283,0.059652,0.044739,0.765529,1051.000000,1039.000000,12.000000,9.000000,16.000000,0.000000,0.746356,1.107283,0.059652,0.044739,0.765529,1051.000000,1039.000000,12.000000,9.000000,16.000000,0.000000:
00000000
00000000
00000000
00000000
,
0M000000
00000000
M0000000
00000000
,
00M00000
00000000
M0000000
00000000
,
00000001
00000000
00000000
00000100
00000000
00000000
00000010
00000000
,
00001000
00000000
00000000
00000001
00000100
00000000
00000010
00000000
,
00000000
00001000
00000000
00000000
00000001
00000100
00000001
00001000
,
00000001
00000000
00000000
00000010
00000000
00000000
00000001
00000000
,
00001000
00000000
00000000
00000001
00000100
00000000
00000001
00000000
,
00000000
00001000
00000000
00000000
00000001
00000010
00000001
00001000
,
00000100
00000000
00000000
00001000
00000000
00000000
00000100
00000000
,
00001000
00000000
00000000
00000100
00010000
00000000
00001000
00000000
,
00000000
00000100
00000000
00000000
00001000
00010000
00000100
00001000
,
00000010
00000000
00000000
00010000
00000000
00000000
00000100
00000000
,
00001000
00000000
00000000
00000100
00010000
00000000
00001000
00000000
,
00000000
00000100
00000000
00000000
00001000
00010000
00000100
00001000
,
00000000
00000000
00000000
00000000
,
00000010
00000100
00000010
00001000
00000000
00000010
00000000
00000100
00000000
00000010
00000000
00001000
00000010
00010000
00000010
00000000
,
00010000
00000010
00010000
00000000
00000010
00000000
00010000
00000000
00000010
00000100
00000000
00000010
00000000
00000000
00001000
00000000
,
00000010
00000100
00000010
00000000
00001000
00000000
00000010
00000000
00000100
00001000
00000000
00000100
00000000
00000000
00001000
00000000
,
00000100
00001000
00000100
00000000
00000000
00001000
00000000
00010000
00000100
00000000
00010000
00000000
00000000
00000000
00001000
00000000
,
00000000
00010000
00000100
00020000
00000000
00030000
00000000
00000000
,
00001000
01000000
00001000
00000000
00100000
00000000
00001000
00000000
01000000
00001000
00000000
00010000
00000000
00000000
00001000
00000000
,
01000000
00001000
01000000
00000000
00100000
00000000
01000000
00000000
00001000
01000000
00000000
00010000
00000000
00000000
01000000
00000000
,
00001000
01000000
00001000
00000000
00000000
01000000
00000000
00100000
01000000
00000000
00001000
00000000
00000000
00000000
01000000
00000000
,
00000000
00010000
01000000
00002000
00000000
00003000
00000000
00000000
,
00010000
00000010
00010000
00000010
00010000
00000000
00000010
00000000
00001000
00000100
00001000
00000100
00001000
00000000
00000010
00000000
,
00010000
00000010
00010000
00000010
00010000
00000000
00000010
00000000
00000100
00001000
00000100
00001000
00000100
00000000
00000010
00000000
,
00010000
00001000
00000100
00000010
00010000
00001000
00000100
00000010
00010000
00001000
00000100
00000010
00010000
00000000
00000010
00000000
,
00000000
00001000
00000010
00020000
00000000
00030000
00000000
00000000
,
00001000
01000000
00001000
01000000
00001000
00010000
00100000
00010000
00100000
00010000
00001000
01000000
00001000
00000000
01000000
00000000
,
00001000
01000000
00001000
01000000
00001000
00100000
00010000
00100000
00010000
00100000
00001000
01000000
00001000
00000000
01000000
00000000
,
00010000
00100000
01000000
10000000
00010000
00100000
01000000
10000000
00010000
00100000
01000000
10000000
00100000
01000000
00010000
10000000
,
00100000
01000000
00010000
10000000
00100000
01000000
00020000
00000000
00000000
00000000
00030000
00000000
00000000
00000000
00000000
00000000
,
00000000
00000000
00000000
00000000
,
00000000
00000000
01000000
00010000
00100000
00000000
00000000
00000000
00001000
00000000
00010000
00000000
00100000
00000000
01000000
00000000
,
00010000
00000000
00100000
00001000
00000000
00010000
00000000
00100000
,
00000000
01000000
00010000
00100000
00010000
01000000
00100000
00010000
,
00100000
01000000
00010000
00002000
00000000
00003000
00000000
00000000
,
00000000
00011000
00000000
00000110
00000000
00000000
00000000
00000000
,
00000000
00000000
00000000
00000000
00000000
00000000
00000000
00000000
00000000
00000000
00000000
00000000
00010000
00001000
00010000
00000100
,
00000000
00010000
00000000
00001000
00000000
00010000
00000000
00000100
00010000
00001000
00010000
00000000
00000010
00000000
00000100
00000000
,
00000010
00000000
00001000
00000010
00000000
00000100
00000000
00000010
00001000
00000000
00000010
00000000
00010000
00000000
00000100
00000000
,
00010000
00000000
00001000
00010000
00000000
00000100
00000000
00010000
00000100
00001000
00000001
00001000
00000001
00000000
00000010
00000000
,
00000001
00000000
00000100
00000001
00000000
00000010
00000000
00000001
00000100
00000000
00000001
00000000
00000010
00000000
00000100
00000000
,
00001000
00000000
00000001
00000010
00000000
00000100
00000000
00001000
00000001
00000010
00000100
00000010
00000001
00000000
00000000
00000000
,
00001000
00000001
00002000
00000000
00000000
00000000
00003000
00000000
00000000
00000000
00000000
00000000
00000010
00000000
00010000
00000010
,
00000000
00010000
00000010
00000000
00001000
00000010
00000000
00000100
00000010
00000000
00001000
00000010
00010000
00000100
00001000
00000010
,
00010000
00000100
00001000
00000010
00010000
00000010
00010000
00000010
00000100
00001000
00000100
00001000
00010000
00000010
00000100
00001000
,
00010000
00000010
00000100
00001000
00010000
00001000
01000000
00001000
01000000
00010000
00100000
00010000
00100000
00000000
00000000
00000000
,
00001000
00010000
00200000
00000000
00000000
00000000
00300000
00000000
00000000
00000000
00000000
00000000
00010000
00000000
10000000
00010000
,
00000000
10000000
00010000
00000000
00100000
00010000
00000000
01000000
00010000
00000000
00100000
00010000
01000000
00010000
10000000
00010000
,
00100000
00010000
01000000
00010000
10000000
00010000
01000000
00010000
01000000
00100000
01000000
00001000
01000000
00010000
01000000
00100000
,
01000000
00001000
01000000
00001000
00010000
00100000
00010000
00100000
01000000
00010000
00100000
00010000
00100000
00000000
00001000
00000000
,
00010000
00000000
00000100
00010000
00000000
00000010
00000000
00001000
00000010
00000000
00000100
00000000
00001000
00000000
00010000
00000000
,
00000010
00000000
00000100
00000010
00000000
00010000
00000000
00001000
00010000
00000010
00010000
00000100
00010000
00000000
00001000
00000000
,
00000100
00000000
00000010
00010000
00000000
00000010
00000000
00001000
00000010
00000000
00010000
00000000
00000100
00000000
00001000
00000000
,
00000010
00000000
00000100
00000010
00000000
00010000
00000000
00001000
00010000
00000010
00010000
00000100
00010000
00000000
00000000
00000000
,
00000010
00001000
00000020
00000000
00000000
00000000
00000030
00000000
00000000
00000000
00000000
00000000
00010000
00000000
00001000
00100000
,
00000000
00001000
00010000
00000000
00001000
00100000
00000000
00001000
01000000
00000000
00001000
01000000
00001000
01000000
00001000
00010000
,
00100000
01000000
00001000
00010000
00100000
01000000
00001000
00010000
00100000
01000000
00001000
00010000
00000010
00010000
00000100
00001000
,
00000010
00010000
00000100
00001000
00000010
00010000
00000100
00001000
00000010
00010000
00000010
00010000
00000010
00000000
00000000
00000000
,
00010000
00000100
00020000
00000000
00000000
00000000
00030000
00000000
00000000
00000000
00000000
00000000
00000100
00000000
00001000
00000010
,
00000000
00001000
00000100
00000000
00001000
00000010
00000000
00001000
00000001
00000000
00001000
00000001
00001000
00000100
00001000
00000010
,
00001000
00000001
00000100
00000001
00000010
00000001
00001000
00000100
00001000
00000010
00001000
00000001
00000100
00000001
00000010
00000001
,
00001000
00000100
00001000
00000010
00001000
00000001
00000100
00000010
00000100
00000010
00010000
00000010
00000000
00000000
00000000
00000000
,
00000000
00000000
00000000
00000000
,
00000000
00000000
00000000
MMMM0000
,
00010000
00001000
00000010
00000100
,
00010000
MMMM0000
00000010
00001000
,
00010000
00000100
00000010
MMMM0000
,
00010000
00001000
00000100
00000010
00001000
00000100
00010000
00000000
,
00000010
00001000
00000100
00010000
00001000
00000100
00000010
00000000
,
00001000
00000100
00001000
00000001
00000010
00000001
00001000
00000000
,
00000001
00000100
00000001
00001000
00000010
00001000
00000001
00000000
,
00001000
00000100
00000010
00000100
00000010
00000001
00001000
00000000
,
00000010
00001000
00000100
00001000
00000100
00010000
00000010
00000000
,
00001000
00000100
00001000
00000010
00000100
00001000
00000100
00000000
,
00001000
00000100
00001000
00010000
00000100
00001000
00000100
00000000
,
00010000
00001000
00000010
00010000
01000000
00100000
00001000
00000000
,
01000000
00010000
00001000
00100000
01000000
00100000
00010000
00000000
,
10000000
01000000
10000000
00100000
01000000
00010000
00100000
00000000
,
00010000
01000000
00010000
00100000
01000000
10000000
00100000
00000000
,
10000000
01000000
00100000
00010000
00100000
00010000
01000000
00000000
,
00001000
00100000
00010000
01000000
00100000
00010000
00001000
00000000
,
01000000
00100000
01000000
00001000
00010000
00000100
00010000
00000000
,
00000010
00001000
00000010
00010000
00000010
00000100
00000010
00000000
,
00001000
00000010
00000000
00000100
00000010
00000000
00000100
00000001
00000000
00000010
00000001
00000000
00001000
00000001
00001000
00000001
,
00001000
00000100
00000000
00001000
00000010
00000000
00001000
00000100
00000000
00010000
00000100
00000000
00010000
00000010
00010000
00000010
,
00010000
00001000
00010000
00000100
00010000
00001000
00000100
00001000
00010000
00001000
00100000
00001000
,
00010000
00001000
00100000
00010000
00100000
00010000
01000000
00100000
00010000
00001000
00100000
00010000
,
01000000
00100000
00000000
01000000
00010000
00000000
01000000
00100000
00000000
01000000
00010000
00000000
01000000
00001000
01000000
00001000
,
01000000
00010000
00000000
00100000
00010000
00000000
01000000
00010000
00000000
00100000
00010000
00000000
10000000
00010000
10000000
00010000
,
10000000
01000000
00100000
00010000
01000000
00100000
10000000
01000000
00100000
00010000
01000000
00100000
,
10000000
01000000
00100000
00010000
00100000
00010000
01000000
00100000
00010000
00001000
00100000
00010000
,
00000000
00000000
00000000
00000000
,
00000000
00000000
00000000
00000000
00000000
00000000
00000000
00000000
01000000
00001000
01000000
00001000
01000000
00001000
01000000
00000000
,
00001000
00100000
00001000
00010000
00000010
00001000
00000010
00000000
00010000
00000100
00010000
00001000
00010000
00000100
00010000
00000000
,
00001000
00010000
00000100
00001000
00000100
00010000
00001000
00000000
00000100
00000010
00001000
00000100
00001000
00000010
00000100
00000000
,
00000010
00000100
00000010
00001000
00000001
00000100
00000010
00000000
00001000
00000100
00000010
00000001
00001000
00000100
00000010
00000000
,
00000001
00000100
00000000
00000001
00000000
00000010
00000001
00000000
00001000
00000000
00000100
00000000
00001000
00000000
00000001
00000000
,
00001000
00000010
00001000
00000001
00000100
00000010
00010000
00000010
,
00000100
00000000
00000010
00000000
00010000
00000000
00001000
00000000
00010000
00000010
00010000
00000010
00010000
00000100
00010000
00001000
,
00010000
00000010
00010000
00000010
00000100
00000010
00001000
00000000
00000010
00000100
00001000
01000000
00010000
00100000
00001000
00010000
,
00100000
01000000
00010000
00100000
00001000
00010000
00100000
01000000
00001000
00000000
00000000
00000000
01000000
00000000
00010000
00000000
,
01000000
00000000
00001000
00000000
01000000
00000000
00010000
00000000
00100000
00000000
00000000
00000000
00000000
00000000
01000000
00100000
,
01000000
00000000
00000000
00000000
00100000
01000000
10000000
00100000
,
01000000
00000000
00000000
00000000
00010000
00000000
00100000
00000000
01000000
00000000
00000000
00000000
00000000
00000000
10000000
00010000
,
01000000
00000000
00000000
00000000
00001000
00000000
00100000
00010000
,
01000000
00000000
00100000
00000000
00010000
00000000
00001000
00000000
00100000
00000000
00000000
00000000
00000000
00000000
00010000
01000000
,
00100000
00000000
00000000
00000000
00010000
00001000
00100000
00001000
,
00010000
00000000
00000100
00000000
00001000
00000000
00000100
00000000
00000010
00000000
00000000
00000000
00000000
00000000
00001000
00010000
,
00000100
00000000
00000000
00000000
00000010
00001000
00000100
00010000
,
00001000
00000100
00000010
00000000
00010000
00001000
00000100
00000010
,
00001000
00000100
00010000
00000000
00001000
00000100
00001000
00010000
,
00000010
00000100
00000010
00000000
00000100
00000010
00000100
00000010
,
00000100
00001000
00000100
00000000
00010010
00000000
00001000
00100000
,
00001000
00000000
00110000
00000000
01001000
00000000
10000000
00100000
,
10000000
00000000
01100000
00000000
00010000
00100000
00010000
01000000
,
00100000
00000000
00000000
00010000
00000000
00000000
00001000
00000000
00000000
00100000
00000000
00000000
00010000
00000000
01000000
00000000
00100000
00000000
00010000
00000000
00001000
00000000
00100000
00000000
,
00010000
00000000
01000000
00001000
00010000
00000010
00010000
00000010
00010000
00000000
00000000
00000000
00000010
00000000
00001000
00000000
,
00010000
00000000
00000100
00000000
00000010
00000000
00001000
00000000
00000010
00000000
00000000
00000000
00000000
00000000
00000100
00001000
,
00010000
00000000
00000000
00000000
00000010
00000100
00010000
00001000
,
00000010
00000000
00000000
00000000
00001000
00000000
00000010
00000000
00001000
00000000
00000000
00000000
00000000
00000000
00000100
00000010
,
00000001
00000000
00000000
00000000
00000100
00000000
00000001
00000010
,
00000100
00000000
00001000
00000000
00000001
00000000
00000010
00000000
00000100
00000000
00000000
00000000
00000000
00000000
00001000
00000010
,
00001000
00000000
00000000
00000000
00000001
00000100
00000010
00001000
,
00000010
00000000
00001000
00000000
00000100
00000000
00010000
00000000
00000010
00000000
00000000
00000000
00000000
00000000
00001000
00000100
,
00100000
00000000
00000000
00000000
00001000
00010000
01000000
00100000
,
00001000
00010000
01000000
00000000
00100000
00001000
00010000
01000000
,
00100000
00001000
00010000
00000000
01000000
00100000
00001000
00010000
,
01000000
00000000
00100000
00000000
00001000
00000000
00000000
00000000
00010000
00100000
00010000
00000000
00001000
00010000
00000010
00000000
,
00001000
00000100
00001000
00000000
00000010
00010000
00000010
00000000
00010100
00000000
00000000
00000000
00000010
00000000
00001000
00000000
,
00010100
00000000
00010010
00000000
00011000
00000000
00000010
00000100
,
00001100
00000000
00000011
00000000
00001000
00000100
00000010
00000001
,
00001000
00000000
00000000
00000100
00000000
00000000
00000010
00000000
00000000
00000001
00000000
00000000
00001000
00000000
00000100
00000000
00000010
00000000
00000001
00000000
00000100
00000000
00000010
00000000
,
00001000
00000000
00000000
00000000
;
