#VERSION:0.83;
#TITLE:Smooth Criminal;
#SUBTITLE:Moonwalker;
#ARTIST:8BitDanoOct1;
#TITLETRANSLIT:;
#SUBTITLETRANSLIT:;
#ARTISTTRANSLIT:;
#GENRE:;
#ORIGIN:;
#CREDIT:Link AKA Dude;
#BANNER:MJMSmoothCriminal.png;
#BACKGROUND:MJMSmoothCriminal-bg.png;
#PREVIEWVID:;
#JACKET:;
#CDIMAGE:;
#DISCIMAGE:;
#LYRICSPATH:;
#CDTITLE:;
#MUSIC:MJMSmoothCriminal.ogg;
#OFFSET:2.592000;
#SAMPLESTART:21.500000;
#SAMPLELENGTH:12.500000;
#SELECTABLE:YES;
#BPMS:0.000=120.060;
#STOPS:;
#DELAYS:;
#WARPS:;
#TIMESIGNATURES:0.000=4=4;
#TICKCOUNTS:0.000=4;
#COMBOS:0.000=1;
#SPEEDS:0.000=1.000=0.000=0;
#SCROLLS:0.000=1.000;
#FAKES:;
#LABELS:0.000=Song Start;
#BGCHANGES:0.000=SmoothCriminal.mpg=1.000=0=0=0=StretchNoLoop====,
5.625=SmoothCriminal.mpg=1.000=0=0=0=StretchNoLoop====,
295.000=SmoothCriminal.bg.png=1.000=0=0=0=StretchNoLoop====,
99999=-nosongbg-=1.000=0=0=0 // don't automatically add -songbackground-
;
#KEYSOUNDS:;
#ATTACKS:
;

//---------------dance-single - LinkDude02----------------
#NOTEDATA:;
#CHARTNAME:LinkDude02;
#STEPSTYPE:dance-single;
#DESCRIPTION:LinkDude02;
#CHARTSTYLE:;
#DIFFICULTY:Beginner;
#METER:1;
#RADARVALUES:0.113685,0.178017,0.006920,0.034600,0.000000,115.000000,114.000000,1.000000,5.000000,0.000000,0.000000,0.000000,0.000000,0.000000,0.113685,0.178017,0.006920,0.034600,0.000000,115.000000,114.000000,1.000000,5.000000,0.000000,0.000000,0.000000,0.000000,0.000000;
#CREDIT:LinkDude02;
#NOTES:
// measure 0
0000
0000
0000
0000
,  // measure 1
0000
0000
0000
0000
,  // measure 2
0000
0000
0001
0000
,  // measure 3
0001
0000
0001
0000
,  // measure 4
0000
0000
1000
0000
,  // measure 5
1000
0000
1000
0000
,  // measure 6
0000
0000
0001
0000
,  // measure 7
0001
0000
0001
0000
,  // measure 8
0000
0000
1000
0000
,  // measure 9
1000
0000
1000
0000
,  // measure 10
0000
0000
0001
0000
,  // measure 11
0001
0000
0001
0000
,  // measure 12
0000
0000
1000
0000
,  // measure 13
1000
0000
1000
0000
,  // measure 14
0100
0000
0000
0100
,  // measure 15
0000
0000
0100
0000
,  // measure 16
1000
0000
0000
1000
,  // measure 17
0000
0000
1000
0000
,  // measure 18
0001
0000
0000
0001
,  // measure 19
0000
0000
0001
0000
,  // measure 20
0010
0000
0000
0010
,  // measure 21
0000
0000
0010
0000
,  // measure 22
0000
0000
0001
0000
,  // measure 23
0001
0000
0001
0000
,  // measure 24
0000
0000
1000
0000
,  // measure 25
1000
0000
1000
0000
,  // measure 26
0000
0000
0010
0000
,  // measure 27
0010
0000
0010
0000
,  // measure 28
0000
0000
0100
0000
,  // measure 29
0100
0000
0100
0000
,  // measure 30
0000
0000
0002
0003
0000
0000
0000
0001
,  // measure 31
0000
0000
0000
0001
0000
0000
0000
0000
,  // measure 32
0000
1000
0000
0000
0000
0000
0000
1000
,  // measure 33
0000
0000
0000
1000
0000
0000
0000
0000
,  // measure 34
0000
0001
0000
0000
0000
0000
0000
0001
,  // measure 35
0000
0000
0000
0001
0000
0000
0000
0000
,  // measure 36
0000
1000
0000
0000
0000
0000
0000
1000
,  // measure 37
0000
0000
0000
2000
0000
0000
0000
3000
,  // measure 38
0000
0000
0000
0001
0000
0000
0000
0001
,  // measure 39
0000
0000
0000
0001
0000
0000
0000
0000
,  // measure 40
0000
0000
0000
0100
0000
0000
0000
0100
,  // measure 41
0000
0000
0000
0100
0000
0000
0000
0000
,  // measure 42
0000
0000
0000
0001
0000
0000
0000
0001
,  // measure 43
0000
0000
0000
0001
0000
0000
0000
0000
,  // measure 44
0000
0000
0000
0010
0000
0000
0000
0010
,  // measure 45
0000
0000
0000
0010
0000
0000
0000
0000
,  // measure 46
0000
0000
0000
0100
0000
0000
0000
0100
,  // measure 47
0000
0000
0000
0100
0000
0000
0000
0000
,  // measure 48
0000
0000
0000
1000
0000
0000
0000
1000
,  // measure 49
0000
0000
0000
1000
0000
0000
0000
0000
,  // measure 50
0000
0010
0000
0000
0000
0000
0000
0010
,  // measure 51
0000
0000
0000
0010
0000
0000
0000
0000
,  // measure 52
0000
1000
0000
0000
0000
0000
0000
1000
,  // measure 53
0000
0000
0000
1000
0000
0000
0000
0000
,  // measure 54
0000
0001
0000
0000
0000
0000
0000
0001
,  // measure 55
0000
0000
0000
0001
0000
0000
0000
0000
,  // measure 56
0000
0010
0000
0000
0000
0000
0000
0010
,  // measure 57
0000
0000
0000
0000
0000
0010
0000
0000
,  // measure 58
0000
0001
0000
0001
0000
0000
0000
0001
,  // measure 59
0000
0000
0000
0001
0000
0000
0000
0000
,  // measure 60
0000
1000
0000
1000
0000
0000
0000
1000
,  // measure 61
0000
0000
0000
1000
0000
0000
0000
0000
,  // measure 62
0000
0010
0000
0010
0000
0000
0000
0010
,  // measure 63
0000
0000
0000
0010
0000
0000
0000
0000
,  // measure 64
0000
0100
0000
0100
0000
0000
0000
0100
,  // measure 65
0000
0000
0000
0100
0000
0000
0000
0000
,  // measure 66
0000
0002
0003
0000
0000
0000
0001
0000
,  // measure 67
0000
0001
0000
0000
,  // measure 68
0010
0000
0000
0010
,  // measure 69
0000
0010
0000
0000
,  // measure 70
0001
0000
0000
0001
,  // measure 71
0000
0001
0000
1000
,  // measure 72
1000
0000
0100
0100
,  // measure 73
0000
0220
0330
0000
;

//---------------dance-single - LinkDude05----------------
#NOTEDATA:;
#CHARTNAME:LinkDude05;
#STEPSTYPE:dance-single;
#DESCRIPTION:LinkDude05;
#CHARTSTYLE:;
#DIFFICULTY:Easy;
#METER:3;
#RADARVALUES:0.237257,0.305171,0.000000,0.041520,0.000000,240.000000,240.000000,0.000000,6.000000,16.000000,0.000000,0.000000,0.000000,0.000000,0.237257,0.305171,0.000000,0.041520,0.000000,240.000000,240.000000,0.000000,6.000000,16.000000,0.000000,0.000000,0.000000,0.000000;
#CREDIT:LinkDude05;
#NOTES:
0000
0000
0000
0000
,
0000
0000
0000
0000
,
0000
0001
1000
0001
,
1000
0000
0001
0000
1000
0000
0001
M000
,
0000
1000
0100
1000
,
0100
0000
1000
0000
0100
0000
1000
0M00
,
0000
0001
0100
0001
,
0100
0000
0001
0000
0100
0000
0001
0M00
,
0000
1000
0010
1000
,
0010
0000
1000
0000
0010
0000
1000
00M0
,
0000
0001
0010
0001
,
0010
0000
0001
0000
0010
0000
0001
00M0
,
0000
1000
0001
1000
,
0001
0000
1000
0000
0001
0000
1000
000M
,
0100
0100
0000
0100
,
0100
0000
0100
0100
,
1000
1000
0000
1000
,
1000
0000
1000
1000
,
0001
0001
0000
0001
,
0001
0000
0001
0001
,
0010
0010
0000
0010
,
0010
0000
0010
0010
,
0000
0001
0100
0001
,
0100
0000
0001
0000
0100
0000
0001
0M00
,
0000
1000
0010
1000
,
0010
0000
1000
0000
0010
0000
1000
00M0
,
0000
0010
0100
0010
,
0100
0000
0010
0000
0100
0000
0010
0M00
,
0000
0100
0010
0100
,
0010
0000
0100
0000
0010
0000
0100
00M0
,
0000
0000
0002
0023
0030
0000
0000
0001
,
0010
0000
0000
0001
0010
0000
0000
0000
,
0000
1000
0010
0000
0000
0000
0000
1000
,
0010
0000
0000
1000
0010
0000
0000
0000
,
0000
0001
0100
0000
0000
0000
0000
0001
,
0100
0000
0000
0001
0100
0000
0000
0100
,
0100
0001
0001
0000
0000
0001
0001
1000
,
1000
0000
1000
2000
0000
0000
0000
3000
,
0000
0001
0000
0100
0000
0001
0000
1000
,
0000
0001
0000
0010
0000
0001
00M0
0000
,
0000
1000
0000
0100
0000
1000
0000
0001
,
0000
1000
0000
0010
0000
1000
00M0
0000
,
0000
0010
0000
0100
0000
0010
0000
0001
,
0000
0010
0000
1000
0000
0010
M000
0000
,
0000
1000
0000
0010
0000
1000
0000
0001
,
0000
1000
0000
0100
0000
1000
0M00
0000
,
0000
0001
0000
0010
0000
0001
0000
1000
,
0000
0001
0000
0100
0000
0001
0M00
0000
,
0000
0100
0000
0010
0000
0100
0000
1000
,
0000
0100
0000
0001
0000
0100
000M
0010
,
0000
0010
0000
0000
0000
0010
0000
0010
,
0000
0000
0000
0010
0000
0010
0000
1000
,
0000
1000
0000
0000
0000
1000
0000
1000
,
0000
0000
0000
1000
0000
1000
0000
0001
,
0000
0001
0000
0000
0000
0001
0000
0001
,
0000
0000
0000
0001
0000
0001
0000
0010
,
0000
0010
0000
0000
0000
0010
0000
0010
,
0000
0000
0000
0010
0000
0010
0000
0000
,
0000
0000
0000
0001
0010
0000
0000
0001
,
1000
0000
0000
0001
0100
0000
0000
0000
,
0000
0000
0000
1000
0010
0000
0000
1000
,
0001
0000
0000
1000
0100
0000
0000
0000
,
0000
0000
0000
0001
0100
0000
0000
0001
,
1000
0000
0000
0001
0010
0000
0000
0000
,
0000
0000
0000
1000
0100
0000
0000
1000
,
0001
0000
0000
1000
0010
0000
0000
0000
,
0000
0002
2003
3000
0000
0000
1000
0100
,
0000
0000
0100
0010
0000
0000
0000
0000
,
0010
0001
0000
0000
0000
0000
0001
1000
,
0000
0000
1000
0010
0000
0000
0000
0000
,
0010
0100
0000
0000
0000
0000
0100
0001
,
0000
0000
0001
1000
0000
0000
1000
1000
,
0001
0001
0000
0000
0001
0001
0010
0010
,
0000
0010
0020
0000
0030
0000
0000
0000
;

//---------------dance-single - LinkDude09----------------
#NOTEDATA:;
#CHARTNAME:LinkDude09;
#STEPSTYPE:dance-single;
#DESCRIPTION:LinkDude09;
#CHARTSTYLE:;
#DIFFICULTY:Medium;
#METER:6;
#RADARVALUES:0.414210,0.382762,0.013840,0.034600,0.000000,419.000000,417.000000,2.000000,5.000000,16.000000,0.000000,0.000000,0.000000,0.000000,0.414210,0.382762,0.013840,0.034600,0.000000,419.000000,417.000000,2.000000,5.000000,16.000000,0.000000,0.000000,0.000000,0.000000;
#CREDIT:LinkDude09;
#NOTES:
0000
0000
0000
0000
,
0000
0000
0000
0000
,
0000
0001
0010
0001
0010
0001
0000
0010
,
0001
0010
0000
0001
0010
0001
0000
00M0
,
0000
0010
0001
0010
0001
0010
0000
0001
,
0100
0001
0000
0100
0010
0100
0000
00M0
,
0000
0010
1000
0010
1000
0010
0000
1000
,
0100
1000
0000
0100
0010
0100
0000
00M0
,
0000
0010
0001
0010
0001
0010
0000
0001
,
0100
0001
0000
0100
0010
0100
0000
00M0
,
0000
0010
1000
0010
1000
0010
0000
1000
,
0100
1000
0000
0100
0010
0100
0000
00M0
,
0000
0010
0001
0010
0001
0010
0000
0001
,
0100
0001
0000
0100
0010
0100
0000
00M0
,
0001
1000
0001
1000
0000
0000
0010
0100
,
0010
0100
0000
0001
1000
0001
1000
0001
,
0100
0010
0100
0010
0000
0000
1000
0001
,
1000
0001
0000
0100
0010
0100
0010
0100
,
0001
1000
0001
1000
0000
0000
0100
0010
,
0100
0010
0000
0001
1000
0001
1000
0001
,
0010
0100
0010
0100
0000
0000
0001
1000
,
0001
1000
0000
0010
0100
0010
0100
0010
,
0000
0100
0001
0100
1000
0100
0000
0001
,
0010
0001
0000
0100
0010
0100
0000
00M0
,
0000
0010
1000
0010
0001
0010
0000
1000
,
0100
1000
0000
0100
0010
0100
0000
00M0
,
0000
0010
0001
0010
1000
0010
0000
0001
,
0100
0001
0000
0100
0010
0100
0000
00M0
,
0000
0010
1000
0010
0001
0010
0000
1000
,
0100
1000
0000
0100
0010
0100
0000
00M0
,
0010
0001
0020
0032
0003
0000
0101
0100
,
0001
0000
0000
0010
0001
0010
0001
1000
,
0100
1000
0100
0000
0000
1000
0010
1000
,
0010
0000
0000
1000
0100
1000
0100
0010
,
0001
0010
0001
0000
0000
0100
0001
0100
,
0001
0000
0000
0010
0001
0010
0001
1000
,
1000
0010
0010
0000
0000
0100
0100
0001
,
0001
0000
1000
1000
0000
0001
0001
0000
,
0010
0001
0100
0001
0010
0000
0001
0100
,
0001
0000
0100
0010
0100
0000
00M0
0000
,
0010
1000
0100
1000
0010
0000
1000
0100
,
1000
0000
0100
0010
0100
0000
00M0
0000
,
0010
0001
1000
0001
0010
0000
0001
0100
,
0001
0000
0100
0010
0100
0000
00M0
0000
,
0010
1000
0001
1000
0010
0000
1000
0100
,
1000
0000
0100
0010
0100
0000
00M0
0000
,
0010
0001
0100
0001
0010
0000
0001
0100
,
0001
0000
0100
0010
0100
0000
00M0
0000
,
0010
1000
0100
1000
0010
0000
1000
0100
,
1000
0000
0100
0010
0100
0000
00M0
0010
,
0001
0010
0001
0000
0001
0010
0100
1000
,
0000
0000
0000
1000
0100
0010
0001
1000
,
0100
1000
0100
0000
0000
0100
1000
0001
,
0010
0000
0000
0010
0001
1000
0100
1000
,
0010
1000
0010
0000
0000
0010
1000
0001
,
0100
0000
0000
0100
0001
1000
0010
1000
,
0001
1000
0001
0000
0000
0001
1000
0010
,
0100
0000
0000
0100
0010
1000
0001
0000
,
0000
1000
0010
0001
0010
0000
1000
0010
,
1000
0000
0010
0001
0010
0000
0000
0000
,
0100
0001
0100
1000
0100
0000
0001
0100
,
0001
0000
0100
1000
0100
0001
0100
0000
,
0001
0100
0010
0100
0001
0000
1000
0001
,
1000
0000
0010
0100
0010
0000
0000
0000
,
1000
0100
0010
0100
1000
0000
0001
1000
,
0001
0000
0100
0010
0100
0000
0000
0001
,
0010
0200
2300
3000
0000
1100
0100
1000
,
0000
0000
0001
0010
0100
1000
0001
0100
,
0010
1000
0000
0000
0001
0100
0010
1000
,
0010
0100
0010
0001
0010
0100
0010
1000
,
0100
1000
0000
0000
0100
1000
0100
0010
,
0100
0001
0100
1000
0100
0000
1000
1000
,
0001
0001
0000
0000
0100
0100
0010
0010
,
0000
0100
0100
0000
0002
0000
0003
0000
;

//---------------dance-single - LinkDude13----------------
#NOTEDATA:;
#CHARTNAME:LinkDude13;
#STEPSTYPE:dance-single;
#DESCRIPTION:LinkDude13;
#CHARTSTYLE:;
#DIFFICULTY:Hard;
#METER:9;
#RADARVALUES:0.616867,0.560432,0.173000,0.096880,0.539759,624.000000,599.000000,25.000000,14.000000,5.000000,0.000000,0.000000,0.000000,0.000000,0.616867,0.560432,0.173000,0.096880,0.539759,624.000000,599.000000,25.000000,14.000000,5.000000,0.000000,0.000000,0.000000,0.000000;
#CREDIT:LinkDude13;
#NOTES:
0000
0000
0000
0000
,
0M00
M000
00M0
M000
,
0000
0000
0001
0000
0010
0000
0001
0010
0001
0000
0010
0000
0000
0000
0001
0010
,
0001
0000
0010
0000
0000
0000
0001
0010
0001
0000
0010
0000
0000
0000
0110
0000
,
0000
0000
1000
0000
0100
0000
1000
0100
1000
0000
0100
0000
0000
0000
1000
0100
,
1000
0000
0100
0000
0000
0000
1000
0100
1000
0000
0100
0000
0000
0000
0110
0000
,
0000
0000
0001
0000
1000
0000
0001
1000
0001
0000
1000
0000
0000
0000
0001
1000
,
0001
0000
1000
0000
0000
0000
0001
1000
0001
0000
1000
0000
0000
0000
1001
0000
,
0000
0000
1000
0000
0010
0000
1000
0010
1000
0000
0010
0000
0000
0000
1000
0010
,
1000
0000
0010
0000
0000
0000
1000
0010
1000
0000
0010
0000
0000
0000
0110
0000
,
0000
0000
0001
0000
0100
0000
0001
0100
0001
0000
0100
0000
0000
0000
0001
0100
,
0001
0000
0100
0000
0000
0000
0001
0100
0001
0000
0100
0000
0000
0000
0110
0000
,
0000
0000
1000
0000
0001
0000
1000
0001
1000
0000
0001
0000
0000
0000
1000
0001
,
1000
0000
0001
0000
0000
0000
1000
0001
1000
0000
0001
0000
0000
0000
1001
0000
,
0001
1000
0001
1000
0001
0000
1000
0000
0000
0000
0000
0000
0010
1000
0010
1000
,
0010
0000
1000
0000
0000
0000
0010
0100
0010
0000
0100
0000
0010
0100
0000
0000
,
0001
0100
0001
0100
0001
0000
0100
0000
0000
0000
0000
0000
0001
0010
0001
0010
,
0001
0000
0010
0000
0000
0000
0100
0010
0100
0000
0010
0000
0100
0010
0000
0000
,
0100
1000
0100
1000
0100
0000
1000
0000
0000
0000
0000
0000
0010
1000
0010
1000
,
0010
0000
1000
0000
0000
0000
0010
0100
0010
0000
0100
0000
0010
0100
0000
0000
,
0001
0100
0001
0100
0001
0000
0100
0000
0000
0000
0000
0000
0001
0010
0001
0010
,
0001
0000
0010
0000
0000
0000
0100
0010
0100
0000
0010
0000
0100
0000
1100
0000
,
0000
0000
0000
0000
1000
0100
1000
0100
1000
0000
0100
0000
0000
0000
1000
0010
,
1000
0000
0010
0000
0000
0000
0100
0010
0100
0000
0010
0000
0100
0000
0101
0000
,
0000
0000
0001
0100
0001
0000
0100
0001
0100
0000
0001
0000
0000
0000
0010
0001
,
0010
0000
0001
0000
0000
0000
0010
0100
0010
0000
0100
0000
1000
0000
1100
0000
,
0000
0000
1000
0100
1000
0000
0100
1000
0100
0000
1000
0000
0000
0000
0010
1000
,
0010
0000
1000
0000
0000
0000
0010
0100
0010
0000
0100
0000
0001
0000
0011
0000
,
0000
0000
0001
0010
0001
0000
0010
0001
0010
0000
0001
0000
0000
0000
1000
0001
,
1000
0000
0001
0000
0000
0000
0100
0001
0100
0000
0001
0000
1000
0000
1010
0000
,
0010
1000
0010
1000
0020
0000
2030
0000
3000
0000
0100
1000
0100
1000
0100
0000
,
1000
0000
0000
0000
0001
1000
0001
0000
1000
0000
0010
1000
0000
0000
0010
0100
,
0010
0100
0010
0000
0100
0000
0000
0000
0000
0000
0001
0100
0001
0100
0001
0000
,
0100
0000
0000
0000
0010
0100
0010
0000
0100
0000
0010
0100
0000
0000
0010
1000
,
0010
1000
0010
0000
0100
0000
0000
0000
0000
0000
0020
0032
0023
0032
0023
0030
,
0100
0000
0000
0000
0010
1000
0010
0000
1000
0000
0010
0100
0000
0000
0001
0000
,
0001
0100
0100
0000
0000
0100
0100
0001
,
0001
0000
0000
0000
0010
0001
0010
0000
0000
0001
0010
0001
0010
0000
0000
0000
,
0001
0000
0100
0000
0001
0010
0001
0000
0100
0000
0000
0000
0001
0010
0001
0000
,
0100
0000
0000
0000
0001
0010
0001
0000
0100
0000
0010
0000
0110
0000
0000
0000
,
1000
0000
0100
0000
1000
0010
1000
0000
0100
0000
0000
0000
1000
0010
1000
0000
,
0100
0000
0000
0000
1000
0010
1000
0000
0100
0000
0010
0000
0110
0000
0000
0000
,
0001
0000
0010
0000
0001
0100
0001
0000
1000
0000
0000
0000
0001
0010
0001
0000
,
0100
0000
0000
0000
0001
1000
0001
0000
0010
0000
0100
0000
0110
0000
0000
0000
,
1000
0000
0100
0000
1000
0010
1000
0000
0001
0000
0000
0000
1000
0100
1000
0000
,
0010
0000
0000
0000
1000
0001
1000
0000
0100
0000
0010
0000
0110
0000
0000
0000
,
0100
0000
1000
0000
0100
0010
0100
0000
1000
0000
0000
0000
0100
1000
0100
0000
,
0010
0000
0000
0000
0100
1000
0100
0000
0010
0000
0100
0000
0110
0000
0000
0000
,
0010
0000
0100
0000
0010
0001
0010
0000
0100
0000
0000
0000
0010
0001
0010
0000
,
0100
0000
0000
0000
0010
0001
0010
0000
0100
0000
0000
0000
0000
0000
1000
0010
,
1000
0010
1000
0000
0001
0000
0000
0000
0000
0000
0100
0010
0100
0010
0100
0000
,
0001
0000
0000
0000
1000
0010
1000
0000
0001
0000
1000
0010
0000
0000
0100
0001
,
0100
0001
0100
0000
0010
0000
0000
0000
0000
0000
1000
0001
1000
0001
1000
0000
,
0010
0000
0000
0000
0100
0010
0100
0000
0001
0000
0100
0010
0000
0000
1000
0001
,
1000
0001
1000
0000
0100
0000
0000
0000
0000
0000
0010
0001
0010
0001
0010
0000
,
0100
0000
0000
0000
1000
0001
1000
0000
0100
0000
1000
0001
0000
0000
0010
0100
,
0010
0100
0010
0000
0001
0000
0000
0000
0000
0000
1000
0100
1000
0100
1000
0000
,
0001
0000
0000
0000
0010
0100
0010
0000
0001
0000
0010
0000
0110
0000
0000
0000
,
0000
0000
0001
0010
0001
0010
0001
0000
0010
0000
0000
0000
0001
0100
0001
0000
,
0100
0000
0000
0000
0010
0100
0010
0000
0100
0000
0010
0000
1010
0000
0000
0000
,
1000
0010
1000
0000
0010
1000
0010
0000
1000
0000
0000
0000
0100
1000
0100
0000
,
1000
0000
0000
0000
0100
0010
0100
0000
0010
0000
0001
0000
0011
0000
0000
0000
,
0001
0010
0001
0000
0010
0001
0010
0000
0001
0000
0000
0000
0100
0001
0100
0000
,
0001
0000
0000
0000
0100
0010
0100
0000
0010
0000
1000
0000
1100
0000
0000
0000
,
1000
0100
1000
0000
0100
1000
0100
0000
1000
0000
0000
0000
0001
1000
0001
0000
,
1000
0000
0000
0000
0010
1000
0010
0000
1000
0000
0001
0000
0101
0000
0001
1000
,
0001
1000
0002
0000
2003
0000
3000
0000
0010
1000
0010
1000
0010
0000
1000
0000
,
0000
0000
0001
1000
0001
0000
1000
0000
0100
1000
0000
0000
0100
0010
0100
0010
,
0100
0000
0010
0000
0000
0000
0000
0000
0001
0010
0001
0010
0001
0000
0010
0000
,
0000
0000
0100
0010
0100
0000
0010
0000
0100
0010
0000
0000
0100
1000
0100
1000
,
0100
0000
0010
0000
0000
0000
0000
0000
0200
0302
0203
0302
0203
0300
0010
0000
,
0000
0000
0100
1000
0100
0000
1000
0000
0100
0010
0000
0000
0001
0000
0001
0000
,
0011
0011
0000
0000
0100
0100
0101
0101
,
0000
0000
0100
0001
0100
0000
0000
0001
0100
0001
0M00
0000
0000
0000
0000
0000
;

//---------------dance-single - LinkDude15----------------
#NOTEDATA:;
#CHARTNAME:LinkDude15;
#STEPSTYPE:dance-single;
#DESCRIPTION:LinkDude15;
#CHARTSTYLE:;
#DIFFICULTY:Challenge;
#METER:10;
#RADARVALUES:0.797775,0.840648,0.110720,0.013840,1.114117,807.000000,791.000000,16.000000,2.000000,9.000000,0.000000,0.000000,0.000000,0.000000,0.797775,0.840648,0.110720,0.013840,1.114117,807.000000,791.000000,16.000000,2.000000,9.000000,0.000000,0.000000,0.000000,0.000000;
#CREDIT:LinkDude15;
#NOTES:
0000
0000
0000
0000
,
0M00
M000
00M0
M000
,
0000
0000
0001
0100
0001
0100
0001
0100
0001
0000
0100
0000
0000
0000
0010
0100
,
0010
0000
0100
0000
0000
0000
0010
1000
0010
0000
1000
0000
0010
0000
1000
0000
,
0000
0000
1000
0100
1000
0100
1000
0100
1000
0000
0100
0000
0000
0000
0010
0100
,
0010
0000
0100
0000
0000
0000
0010
0001
0010
0000
0001
0000
0010
0000
0001
0000
,
0000
1000
0001
1000
0001
1000
0001
1000
0001
0000
1000
0000
0000
0001
1000
0001
,
1000
0000
0001
0000
0000
1000
0100
1000
0100
0000
1000
0000
0100
1000
0100
0000
,
0000
0010
0100
0010
0100
0010
0100
0010
0100
0000
0010
0000
0000
0001
0010
0001
,
0010
0000
0001
0000
0000
0100
0001
0100
0001
0000
0100
0000
0001
0100
0001
0000
,
0000
0100
0010
0100
0010
0100
0010
0100
0010
0000
0100
0000
0000
0010
1000
0010
,
1000
0000
0010
0000
0000
1000
0100
1000
0100
0000
1000
0000
0100
1000
0100
0000
,
0000
1000
0100
1000
0100
0010
0100
0010
0100
1000
0001
1000
0001
0100
0001
0100
,
0001
1000
0010
1000
0010
0100
0010
0100
0010
1000
0001
1000
0001
0010
0001
0010
,
0001
1000
0001
0100
0001
1000
0001
0000
0000
0000
0000
0000
1000
0001
1000
0100
,
1000
0001
1000
0000
0000
0000
0010
1000
0010
1000
0010
0000
1000
0010
1000
0000
,
0010
0100
0010
0001
0010
0100
0010
0000
0000
0000
0000
0000
0100
0010
0100
0001
,
0100
0010
0100
0000
0000
0000
0010
1000
0010
1000
0010
0000
1000
0010
1000
0000
,
0010
0100
0010
1000
0010
0100
0010
0000
0000
0000
0000
0000
0100
0010
0100
1000
,
0100
0010
0100
0000
0000
0000
0010
0001
0010
0001
0010
0000
0001
0010
0001
0000
,
0010
0100
0010
0001
0010
0100
0010
0000
0000
0000
0000
0000
0100
0010
0100
0001
,
0100
0010
0100
0000
0000
0000
0010
0100
0010
0100
0010
0000
0100
0010
0100
0000
,
0000
0000
0000
0000
0001
0100
0001
0100
0001
0100
0001
0000
0000
0000
1000
0100
,
1000
0100
1000
0000
0000
0000
0001
0010
0001
0010
0001
0000
1000
0010
1000
0000
,
0000
0000
0100
1000
0100
0010
0100
0001
0100
0010
0100
0000
0000
0000
0010
0001
,
0010
0100
0010
0000
0000
0000
0100
0010
0100
1000
0100
0000
1000
0100
1000
0000
,
0000
0000
0010
1000
0010
0100
0010
0001
0010
0100
0010
0000
0000
0000
0100
0001
,
0100
0010
0100
0000
0000
0000
0010
0100
0010
1000
0010
0000
1000
0010
1000
0000
,
0000
0000
0010
1000
0010
1000
0010
0100
0010
0100
0001
1000
0001
1000
0001
0010
,
0001
0010
0100
1000
0100
1000
0100
0010
0100
0010
0001
1000
0001
1000
0001
0010
,
0001
0010
0100
1000
0001
1000
0020
0M3M
0000
0000
1000
0100
1000
0010
1000
0100
,
1000
0000
0000
0000
0001
0010
0001
0100
0001
0000
1000
0010
1000
0000
0001
0100
,
0001
0010
0001
0100
0001
0000
0000
0000
0000
0000
1000
0010
1000
0100
1000
0010
,
1000
0000
0000
0000
0001
0100
0001
0010
0001
0000
1000
0100
1000
0000
0001
0010
,
0001
0100
0001
0010
0001
0000
0000
0000
0000
0000
0010
0001
0010
1000
0010
0001
,
0010
0000
0000
0000
0100
1000
0100
0001
0100
0000
0010
1000
0010
0000
0011
0000
,
0011
1100
1100
0000
0000
0101
0101
1010
,
1010
0000
0000
0000
0010
1000
0010
0000
0000
0100
0010
0100
0010
0000
0000
0000
,
1000
0010
1000
0010
1000
0010
1000
0000
0010
0000
0000
0000
0100
0010
0100
0000
,
0010
0000
0000
0000
0100
0001
0100
0000
0001
0000
0100
0000
0001
0000
0000
0000
,
0001
0010
0001
0010
0001
0010
0001
0000
0010
0000
0000
0000
0100
0010
0100
0000
,
0010
0000
0000
0000
0100
1000
0100
0000
1000
0000
0100
0000
1000
0000
0000
0001
,
1000
0001
1000
0001
1000
0001
1000
0000
0001
0000
0000
1000
0001
1000
0001
0000
,
1000
0000
0000
0001
0010
0001
0010
0000
0001
0000
0010
0001
0010
0000
0000
0100
,
0010
0100
0010
0100
0010
0100
0010
0000
0100
0000
0000
1000
0100
1000
0100
0000
,
1000
0000
0000
0010
1000
0010
1000
0000
0010
0000
1000
0010
1000
0000
0000
0010
,
0100
0010
0100
0010
0100
0010
0100
0000
0010
0000
0000
0100
0001
0100
0001
0000
,
0100
0000
0000
0001
0010
0001
0010
0000
0001
0000
0010
0001
0010
0000
0000
0001
,
0010
0001
0010
0100
0010
0100
0010
0001
1000
0001
1000
0010
1000
0010
1000
0001
,
0100
0001
0100
0010
0100
0010
0100
0001
1000
0001
1000
0100
1000
0100
1000
0001
,
1000
0010
1000
0001
1000
0000
0000
0000
0000
0000
0001
1000
0001
0010
0001
1000
,
0001
0000
0000
0000
0100
0001
0100
0001
0100
0000
0001
0100
0001
0000
0100
0010
,
0100
1000
0100
0010
0100
0000
0000
0000
0000
0000
0010
0100
0010
1000
0010
0100
,
0010
0000
0000
0000
0100
0001
0100
0001
0100
0000
0001
0100
0001
0000
0100
0010
,
0100
0001
0100
0010
0100
0000
0000
0000
0000
0000
0010
0100
0010
0001
0010
0100
,
0010
0000
0000
0000
0100
1000
0100
1000
0100
0000
1000
0100
1000
0000
0100
0010
,
0100
1000
0100
0010
0100
0000
0000
0000
0000
0000
0010
0100
0010
1000
0010
0100
,
0010
0000
0000
0000
0100
0010
0100
0010
0100
0000
0010
0100
0010
0000
0000
0000
,
0000
0000
1000
0010
1000
0010
1000
0010
1000
0000
0000
0000
0001
0010
0001
0010
,
0001
0000
0000
0000
1000
0100
1000
0100
1000
0000
0001
0100
0001
0000
0000
0000
,
0010
0001
0010
0100
0010
1000
0010
0100
0010
0000
0000
0000
0100
1000
0100
0010
,
0100
0000
0000
0000
0010
0100
0010
0001
0010
0000
0001
0010
0001
0000
0000
0000
,
0100
0001
0100
0010
0100
1000
0100
0010
0100
0000
0000
0000
0010
1000
0010
0100
,
0010
0000
0000
0000
0100
0010
0100
0001
0100
0000
0001
0100
0001
0000
0000
0000
,
0100
0001
0100
0001
0100
0010
0100
0010
1000
0001
1000
0001
1000
0100
1000
0100
,
0010
0001
0010
0001
0010
0100
0010
0100
1000
0001
1000
0001
1000
0100
1000
0100
,
0010
0001
1000
0001
0200
M3M0
0000
0000
0001
0010
0001
0100
0001
0010
0001
0000
,
0000
0000
1000
0100
1000
0010
1000
0000
0001
0100
0001
0000
1000
0010
1000
0100
,
1000
0010
1000
0000
0000
0000
0000
0000
0001
0100
0001
0010
0001
0100
0001
0000
,
0000
0000
1000
0010
1000
0100
1000
0000
0001
0010
0001
0000
1000
0100
1000
0010
,
1000
0100
1000
0000
0000
0000
0000
0000
0100
1000
0100
0001
0100
1000
0100
0000
,
0000
0000
0010
0001
0010
1000
0010
0000
0100
0001
0100
0000
1100
0000
1100
0000
,
0011
0011
0000
0000
1010
1010
0101
0101
,
0000
0000
0100
0001
0100
0000
0000
0010
0100
0010
0M00
0000
0000
0000
0000
0000
;

//---------------dance-double - LinkDubs02----------------
#NOTEDATA:;
#CHARTNAME:LinkDubs02;
#STEPSTYPE:dance-double;
#DESCRIPTION:LinkDubs02;
#CHARTSTYLE:;
#DIFFICULTY:Beginner;
#METER:1;
#RADARVALUES:0.106765,0.102070,0.000000,0.027680,0.000000,108.000000,108.000000,0.000000,4.000000,0.000000,0.000000,0.000000,0.000000,0.000000,0.106765,0.102070,0.000000,0.027680,0.000000,108.000000,108.000000,0.000000,4.000000,0.000000,0.000000,0.000000,0.000000,0.000000;
#CREDIT:LinkDubs02;
#NOTES:
00000000
00000000
00000000
00000000
,
00000000
00000000
00000000
00000000
,
00000000
00000000
00000010
00000000
,
00000010
00000000
00000010
00000000
,
00000000
00000000
00001000
00000000
,
00001000
00000000
00001000
00000000
,
00000000
00000000
00000100
00000000
,
00000100
00000000
00000100
00000000
,
00000000
00000000
00010000
00000000
,
00010000
00000000
00010000
00000000
,
00000000
00000000
00001000
00000000
,
00001000
00000000
00001000
00000000
,
00000000
00000000
00100000
00000000
,
00100000
00000000
00100000
00000000
,
00010000
00000000
00000000
00010000
,
00000000
00000000
00010000
00000000
,
01000000
00000000
00000000
01000000
,
00000000
00000000
01000000
00000000
,
00010000
00000000
00000000
00010000
,
00000000
00000000
00010000
00000000
,
00100000
00000000
00000000
00100000
,
00000000
00000000
00100000
00000000
,
00000000
00000000
00001000
00000000
,
00001000
00000000
00001000
00000000
,
00000000
00000000
00010000
00000000
,
00010000
00000000
00010000
00000000
,
00000000
00000000
00000100
00000000
,
00000100
00000000
00000100
00000000
,
00000000
00000000
00001000
00000000
,
00001000
00000000
00001000
00000000
,
00000000
00000000
00000020
00000030
00000000
00000000
00000000
00000010
,
00000000
00000000
00000000
00000010
00000000
00000000
00000000
00000000
,
00000000
00001000
00000000
00000000
00000000
00000000
00000000
00001000
,
00000000
00000000
00000000
00001000
00000000
00000000
00000000
00000000
,
00000000
00000100
00000000
00000000
00000000
00000000
00000000
00000100
,
00000000
00000000
00000000
00000100
00000000
00000000
00000000
00000000
,
00000000
00010000
00000000
00000000
00000000
00000000
00000000
00010000
,
00000000
00000000
00000000
00002000
00000000
00000000
00000000
00003000
,
00000000
00000000
00000000
01000000
00000000
00000000
00000000
01000000
,
00000000
00000000
00000000
01000000
00000000
00000000
00000000
00000000
,
00000000
00000000
00000000
00010000
00000000
00000000
00000000
00010000
,
00000000
00000000
00000000
00010000
00000000
00000000
00000000
00000000
,
00000000
00000000
00000000
00100000
00000000
00000000
00000000
00100000
,
00000000
00000000
00000000
00100000
00000000
00000000
00000000
00000000
,
00000000
00000000
00000000
00001000
00000000
00000000
00000000
00001000
,
00000000
00000000
00000000
00001000
00000000
00000000
00000000
00000000
,
00000000
00000000
00000000
00010000
00000000
00000000
00000000
00010000
,
00000000
00000000
00000000
00010000
00000000
00000000
00000000
00000000
,
00000000
00000000
00000000
00000100
00000000
00000000
00000000
00000100
,
00000000
00000000
00000000
00000100
00000000
00000000
00000000
00001000
,
00000000
00000000
00000000
00000000
00000000
00001000
00000000
00000000
,
00000000
00000000
00000000
00001000
00000000
00000000
00000000
00000010
,
00000000
00000000
00000000
00000000
00000000
00000010
00000000
00000000
,
00000000
00000000
00000000
00000010
00000000
00000000
00000000
00001000
,
00000000
00000000
00000000
00000000
00000000
00001000
00000000
00000000
,
00000000
00000000
00000000
00001000
00000000
00000000
00000000
00000100
,
00000000
00000000
00000000
00000000
00000000
00000100
00000000
00000000
,
00000000
00000000
00000000
00000100
00000000
00000000
00000000
00000000
,
00000000
00000000
00000000
00010000
00000000
00000000
00000000
00010000
,
00000000
00000000
00000000
00010000
00000000
00000000
00000000
00000000
,
00000000
00000000
00000000
00001000
00000000
00000000
00000000
00001000
,
00000000
00000000
00000000
00001000
00000000
00000000
00000000
00000000
,
00000000
00000000
00000000
00100000
00000000
00000000
00000000
00100000
,
00000000
00000000
00000000
00100000
00000000
00000000
00000000
00000000
,
00000000
00000000
00000000
00010000
00000000
00000000
00000000
00010000
,
00000000
00000000
00000000
00010000
00000000
00000000
00000000
00000000
,
00000000
02000000
03000000
00000000
00000000
00000000
01000000
00000000
,
00000000
01000000
00000000
00000000
,
00010000
00000000
00000000
00010000
,
00000000
00010000
00000000
00000000
,
00100000
00000000
00000000
00100000
,
00000000
00100000
00000000
00000000
,
00001000
00000000
00000000
00001000
,
00000000
00020000
00000000
00030000
;

//---------------dance-double - LinkDubs04----------------
#NOTEDATA:;
#CHARTNAME:LinkDubs04;
#STEPSTYPE:dance-double;
#DESCRIPTION:LinkDubs04;
#CHARTSTYLE:;
#DIFFICULTY:Easy;
#METER:3;
#RADARVALUES:0.237257,0.305171,0.000000,0.041520,0.000000,240.000000,240.000000,0.000000,6.000000,16.000000,0.000000,0.000000,0.000000,0.000000,0.237257,0.305171,0.000000,0.041520,0.000000,240.000000,240.000000,0.000000,6.000000,16.000000,0.000000,0.000000,0.000000,0.000000;
#CREDIT:LinkDubs04;
#NOTES:
00000000
00000000
00000000
00000000
,
00000000
00000000
00000000
00000000
,
00000000
00000010
00001000
00000010
,
00001000
00000000
00000010
00000000
00001000
00000000
00000010
0000M000
,
00000000
00001000
00000100
00001000
,
00000100
00000000
00001000
00000000
00000100
00000000
00001000
00000M00
,
00000000
00000100
00010000
00000100
,
00010000
00000000
00000100
00000000
00010000
00000000
00000100
000M0000
,
00000000
00010000
00001000
00010000
,
00001000
00000000
00010000
00000000
00001000
00000000
00010000
0000M000
,
00000000
00001000
00100000
00001000
,
00100000
00000000
00001000
00000000
00100000
00000000
00001000
00M00000
,
00000000
00100000
00010000
00100000
,
00010000
00000000
00100000
00000000
00010000
00000000
00100000
000M0000
,
01000000
01000000
00000000
01000000
,
01000000
00000000
01000000
01000000
,
00010000
00010000
00000000
00010000
,
00010000
00000000
00010000
00010000
,
00100000
00100000
00000000
00100000
,
00100000
00000000
00100000
00100000
,
00001000
00001000
00000000
00001000
,
00001000
00000000
00001000
00001000
,
00000000
00010000
00001000
00010000
,
00001000
00000000
00010000
00000000
00001000
00000000
00010000
0000M000
,
00000000
00000010
00010000
00000010
,
00010000
00000000
00000010
00000000
00010000
00000000
00000010
000M0000
,
00000000
00001000
00000010
00001000
,
00000010
00000000
00001000
00000000
00000010
00000000
00001000
000000M0
,
00000000
00000100
00001000
00000100
,
00001000
00000000
00000100
00000000
00001000
00000000
00000100
0000M000
,
00000000
00000000
00000020
00000230
00000300
00000000
00000000
00000010
,
00000100
00000000
00000000
00000010
00000100
00000000
00000000
00000000
,
00000000
00010000
00001000
00000000
00000000
00000000
00000000
00010000
,
00001000
00000000
00000000
00010000
00001000
00000000
00000000
00000000
,
00000000
00010000
00000100
00000000
00000000
00000000
00000000
00010000
,
00000100
00000000
00000000
00010000
00000100
00000000
00000000
00010000
,
00010000
00001000
00001000
00000000
00000000
01000000
01000000
00001000
,
00001000
00000000
00100000
00200000
00000000
00000000
00000000
00300000
,
00000000
00001000
00000000
01000000
00000000
00001000
00000000
00100000
,
00000000
00001000
00000000
00010000
00000000
00001000
000M0000
00000000
,
00000000
00010000
00000000
00001000
00000000
00010000
00000000
00000100
,
00000000
00010000
00000000
00000010
00000000
00010000
000000M0
00000000
,
00000000
00000010
00000000
00000100
00000000
00000010
00000000
00001000
,
00000000
00000010
00000000
00010000
00000000
00000010
000M0000
00000000
,
00000000
00010000
00000000
00000010
00000000
00010000
00000000
00000100
,
00000000
00010000
00000000
00001000
00000000
00010000
0000M000
00000000
,
00000000
00001000
00000000
00010000
00000000
00001000
00000000
00100000
,
00000000
00001000
00000000
01000000
00000000
00001000
0M000000
00000000
,
00000000
01000000
00000000
00001000
00000000
01000000
00000000
00010000
,
00000000
01000000
00000000
00100000
00000000
01000000
00M00000
00001000
,
00000000
00001000
00000000
00000000
00000000
00001000
00000000
00001000
,
00000000
00000000
00000000
00001000
00000000
00001000
00000000
00010000
,
00000000
00010000
00000000
00000000
00000000
00010000
00000000
00010000
,
00000000
00000000
00000000
00010000
00000000
00010000
00000000
00000100
,
00000000
00000100
00000000
00000000
00000000
00000100
00000000
00000100
,
00000000
00000000
00000000
00000100
00000000
00000100
00000000
00001000
,
00000000
00001000
00000000
00000000
00000000
00001000
00000000
00001000
,
00000000
00000000
00000000
00001000
00000000
00001000
00000000
00000000
,
00000000
00000000
00000000
00000010
00000100
00000000
00000000
00000010
,
00001000
00000000
00000000
00000010
00010000
00000000
00000000
00000000
,
00000000
00000000
00000000
00010000
00000010
00000000
00000000
00010000
,
00000100
00000000
00000000
00010000
00001000
00000000
00000000
00000000
,
00000000
00000000
00000000
00001000
00010000
00000000
00000000
00001000
,
00100000
00000000
00000000
00001000
01000000
00000000
00000000
00000000
,
00000000
00000000
00000000
01000000
00001000
00000000
00000000
00100000
,
00001000
00000000
00000000
00010000
00001000
00000000
00000000
00000000
,
00000000
00020000
00032000
00003000
00000000
00000000
00001000
00100000
,
00000000
00000000
00100000
00001000
00000000
00000000
00000000
00000000
,
00001000
00010000
00000000
00000000
00000000
00000000
00010000
00000010
,
00000000
00000000
00000010
00010000
00000000
00000000
00000000
00000000
,
00010000
00001000
00000000
00000000
00000000
00000000
00001000
01000000
,
00000000
00000000
01000000
00001000
00000000
00000000
00001000
00001000
,
00010000
00010000
00000000
00000000
00000100
00000100
00010000
00010000
,
00000000
00001000
00002000
00000000
00003000
00000000
00000000
00000000
;

//---------------dance-double - LinkDubs09----------------
#NOTEDATA:;
#CHARTNAME:LinkDubs09;
#STEPSTYPE:dance-double;
#DESCRIPTION:LinkDubs09;
#CHARTSTYLE:;
#DIFFICULTY:Medium;
#METER:6;
#RADARVALUES:0.414210,0.357244,0.013840,0.034600,0.000000,419.000000,417.000000,2.000000,5.000000,20.000000,0.000000,0.000000,0.000000,0.000000,0.414210,0.357244,0.013840,0.034600,0.000000,419.000000,417.000000,2.000000,5.000000,20.000000,0.000000,0.000000,0.000000,0.000000;
#CREDIT:LinkDubs09;
#NOTES:
00000000
00000000
00000000
00000000
,
00000000
00000000
00000000
00000000
,
00000000
00001000
00010000
00001000
00010000
00001000
00000000
00010000
,
00001000
00010000
00000000
00001000
00010000
00001000
00000000
000M0000
,
00000000
00010000
00001000
00010000
00001000
00010000
00000000
00001000
,
00100000
00001000
00000000
00100000
00010000
00100000
00000000
000M0000
,
00000000
00010000
01000000
00010000
01000000
00010000
00000000
01000000
,
00100000
01000000
00000000
00100000
10000000
00100000
00000000
M0000000
,
00000000
10000000
00010000
10000000
00010000
10000000
00000000
00010000
,
00100000
00010000
00000000
00100000
00001000
00100000
00000000
0000M000
,
00000000
00001000
00010000
00001000
00010000
00001000
00000000
00010000
,
00000100
00010000
00000000
00000100
00000010
00000100
00000000
000000M0
,
00000000
00000010
00000001
00000010
00000001
00000010
00000000
00000001
,
00000100
00000001
00000000
00000100
00000010
00000100
00000000
000000M0
,
00000001
00001000
00000001
00001000
00000000
00000000
00000010
00010000
,
00000010
00010000
00000000
00000100
00010000
00000100
00010000
00001000
,
01000000
00010000
01000000
00010000
00000000
00000000
10000000
00010000
,
10000000
00010000
00000000
00100000
00001000
00100000
00001000
00010000
,
00000010
00001000
00000010
00001000
00000000
00000000
00000001
00001000
,
00000001
00001000
00000000
00000100
00010000
00000100
00010000
00001000
,
00100000
00010000
00100000
00010000
00000000
00000000
00010000
10000000
,
00010000
10000000
00000000
00100000
10000000
00100000
10000000
00100000
,
00000000
01000000
00010000
01000000
10000000
01000000
00000000
00001000
,
01000000
00001000
00000000
00010000
00000100
00010000
00000000
00000M00
,
00000000
00000100
00001000
00000100
00000001
00000100
00000000
00010000
,
00000100
00010000
00000000
00001000
00100000
00001000
00000000
00M00000
,
00000000
00100000
00010000
00100000
10000000
00100000
00000000
00001000
,
00100000
00001000
00000000
00010000
00000010
00010000
00000000
000000M0
,
00000000
00000010
00001000
00000010
00000001
00000010
00000000
00010000
,
00000010
00010000
00000000
00001000
01000000
00001000
00000000
0M000000
,
00100000
00001000
00200000
00302000
00003000
00000000
00011000
00010000
,
00000100
00000000
00000000
00010000
00000100
00010000
00000100
00001000
,
00000100
00001000
00000100
00000000
00000000
00001000
00000010
00001000
,
00000010
00000000
00000000
00001000
00000001
00001000
00000001
00000010
,
00000001
00000010
00000001
00000000
00000000
00000100
00000001
00000100
,
00000001
00000000
00000000
00000100
00000010
00000100
00000010
00001000
,
00001000
00000010
00000010
00000000
00000000
00001000
00001000
00000100
,
00000100
00000000
00010000
00010000
00000000
00001000
00001000
00000000
,
00010000
00001000
00010000
00001000
00010000
00000000
00000010
00010000
,
00000010
00000000
00010000
00000010
00010000
00000000
000000M0
00000000
,
00000010
00010000
00000010
00010000
00000010
00000000
00010000
00000100
,
00010000
00000000
00000100
00001000
00000100
00000000
0000M000
00000000
,
00001000
00000010
00001000
00000010
00001000
00000000
00000010
00000100
,
00000010
00000000
00000100
00000001
00000100
00000000
0000000M
00000000
,
00000001
00001000
00000001
00001000
00000001
00000000
00001000
00000100
,
00001000
00000000
00000100
00010000
00000100
00000000
000M0000
00000000
,
00010000
00001000
00010000
00001000
00010000
00000000
00001000
00100000
,
00001000
00000000
00100000
01000000
00100000
00000000
0M000000
00000000
,
01000000
10000000
01000000
10000000
01000000
00000000
10000000
00100000
,
10000000
00000000
00100000
01000000
00100000
00000000
0M000000
10000000
,
00010000
10000000
00010000
00000000
00000000
01000000
00001000
01000000
,
00001000
00000000
00100000
00001000
00100000
00001000
00010000
00000010
,
00001000
00000010
00001000
00000000
00000000
00000001
00001000
00000001
,
00001000
00000000
00000100
00010000
00000100
00010000
00001000
01000000
,
00010000
01000000
00010000
00000000
00000000
10000000
00010000
10000000
,
00010000
00000000
00100000
00001000
00100000
00001000
00010000
00000100
,
00001000
00000100
00001000
00000000
00000000
00001000
00000001
00001000
,
00000001
00000000
00000100
00000001
00000100
00000001
00000100
00000000
,
00000010
00001000
00000010
00000001
00000010
00000000
00010000
00000010
,
00010000
00000000
00001000
00100000
00001000
00000000
00M00000
00000000
,
00100000
00010000
00100000
10000000
00100000
00000000
00001000
00100000
,
00001000
00000000
00010000
00000100
00010000
00000000
00000M00
00000000
,
00000100
00001000
00000100
00000001
00000100
00000000
00010000
00000100
,
00010000
00000000
00001000
01000000
00001000
00000000
0M000000
00000000
,
01000000
00010000
01000000
10000000
01000000
00000000
00001000
01000000
,
00001000
00000000
00010000
00000010
00010000
00000000
000000M0
00000100
,
00010000
00000200
00020300
00030000
00000000
00011000
00001000
00100000
,
00000000
00000000
00001000
00100000
00001000
00100000
00010000
00100000
,
00010000
00100000
00000000
00000000
00010000
01000000
00010000
01000000
,
00000000
00000000
00010000
10000000
00010000
10000000
01000000
10000000
,
01000000
10000000
00000000
00000000
00100000
10000000
00100000
10000000
,
00000000
00000000
00100000
01000000
00100000
01000000
00010000
00010000
,
01000000
01000000
00000000
00000000
00010000
00010000
00100000
00100000
,
00000000
00001000
00001000
00000000
00020000
00000000
00030000
00000000
;

//---------------dance-double - LinkDubs13----------------
#NOTEDATA:;
#CHARTNAME:LinkDubs13;
#STEPSTYPE:dance-double;
#DESCRIPTION:LinkDubs13;
#CHARTSTYLE:;
#DIFFICULTY:Hard;
#METER:9;
#RADARVALUES:0.616867,0.560432,0.173000,0.096880,0.539759,624.000000,599.000000,25.000000,14.000000,5.000000,0.000000,0.000000,0.000000,0.000000,0.616867,0.560432,0.173000,0.096880,0.539759,624.000000,599.000000,25.000000,14.000000,5.000000,0.000000,0.000000,0.000000,0.000000;
#CREDIT:LinkDubs13;
#NOTES:
00000000
00000000
00000000
00000000
,
0M000000
M0000000
00M00000
M0000000
,
00000000
00000000
00001000
00000000
00100000
00000000
00001000
00100000
00001000
00000000
00100000
00000000
00000000
00000000
00001000
00100000
,
00001000
00000000
00100000
00000000
00000000
00000000
00001000
00100000
00001000
00000000
00100000
00000000
00000000
00000000
01100000
00000000
,
00000000
00000000
10000000
00000000
01000000
00000000
10000000
01000000
10000000
00000000
01000000
00000000
00000000
00000000
10000000
01000000
,
10000000
00000000
01000000
00000000
00000000
00000000
10000000
01000000
10000000
00000000
01000000
00000000
00000000
00000000
01100000
00000000
,
00000000
00000000
00001000
00000000
00100000
00000000
00001000
00100000
00001000
00000000
00100000
00000000
00000000
00000000
00001000
00100000
,
00001000
00000000
00100000
00000000
00000000
00000000
00001000
00100000
00001000
00000000
00100000
00000000
00000000
00000000
00011000
00000000
,
00000000
00000000
00010000
00000000
00000010
00000000
00010000
00000010
00010000
00000000
00000010
00000000
00000000
00000000
00010000
00000010
,
00010000
00000000
00000010
00000000
00000000
00000000
00010000
00000010
00010000
00000000
00000010
00000000
00000000
00000000
00000110
00000000
,
00000000
00000000
00000001
00000000
00000100
00000000
00000001
00000100
00000001
00000000
00000100
00000000
00000000
00000000
00000001
00000100
,
00000001
00000000
00000100
00000000
00000000
00000000
00000001
00000100
00000001
00000000
00000100
00000000
00000000
00000000
00000110
00000000
,
00000000
00000000
00010000
00000000
00000010
00000000
00010000
00000010
00010000
00000000
00000010
00000000
00000000
00000000
00010000
00000010
,
00010000
00000000
00000010
00000000
00000000
00000000
00010000
00000010
00010000
00000000
00000010
00000000
00000000
00000000
00011000
00000000
,
00001000
00010000
00001000
00010000
00001000
00000000
00010000
00000000
00000000
00000000
00000000
00000000
00001000
01000000
00001000
01000000
,
00001000
00000000
01000000
00000000
00000000
00000000
00001000
00100000
00001000
00000000
00100000
00000000
00001000
00100000
00000000
00000000
,
00001000
00010000
00001000
00010000
00001000
00000000
00010000
00000000
00000000
00000000
00000000
00000000
00001000
00010000
00001000
00010000
,
00001000
00000000
00010000
00000000
00000000
00000000
00000100
00010000
00000100
00000000
00010000
00000000
00000100
00010000
00000000
00000000
,
00000010
00010000
00000010
00010000
00000010
00000000
00010000
00000000
00000000
00000000
00000000
00000000
00001000
00010000
00001000
00010000
,
00001000
00000000
00010000
00000000
00000000
00000000
00001000
01000000
00001000
00000000
01000000
00000000
00010000
01000000
00000000
00000000
,
00010000
00100000
00001000
00100000
00001000
00000000
00100000
00000000
00000000
00000000
00000000
00000000
00001000
00010000
00001000
00010000
,
00001000
00000000
00010000
00000000
00000000
00000000
00000100
00010000
00000100
00000000
00010000
00000000
00000100
00000000
00001100
00000000
,
00000000
00000000
00000000
00000000
00001000
00000100
00001000
00000100
00001000
00000000
00000100
00000000
00000000
00000000
00001000
00000010
,
00001000
00000000
00000010
00000000
00000000
00000000
00000100
00000010
00000100
00000000
00000010
00000000
00000100
00000000
00000101
00000000
,
00000000
00000000
00000001
00000100
00000001
00000000
00000100
00000001
00000100
00000000
00000001
00000000
00000000
00000000
00000010
00000001
,
00000010
00000000
00000001
00000000
00000000
00000000
00000010
00000100
00000010
00000000
00000100
00000000
00010000
00000000
00010100
00000000
,
00000000
00000000
00010000
00000100
00010000
00000000
00000100
00010000
00000100
00000000
00010000
00000000
00000000
00000000
00001000
00010000
,
00001000
00000000
00010000
00000000
00000000
00000000
00001000
00100000
00001000
00000000
00100000
00000000
00001000
00000000
00101000
00000000
,
00000000
00000000
00010000
00100000
00010000
00000000
00100000
00010000
00100000
00000000
00010000
00000000
00000000
00000000
00100000
01000000
,
00100000
00000000
01000000
00000000
00000000
00000000
10000000
01000000
10000000
00000000
01000000
00000000
10000000
00000000
10100000
00000000
,
00100000
10000000
00100000
10000000
00200000
00000000
20300000
00000000
30000000
00000000
00010000
10000000
00010000
10000000
00010000
00000000
,
10000000
00000000
00000000
00000000
00010000
01000000
00010000
00000000
01000000
00000000
00010000
01000000
00000000
00000000
00001000
01000000
,
00001000
01000000
00001000
00000000
01000000
00000000
00000000
00000000
00000000
00000000
00001000
00100000
00001000
00100000
00001000
00000000
,
00100000
00000000
00000000
00000000
00001000
00010000
00001000
00000000
00010000
00000000
00001000
00010000
00000000
00000000
00000010
00010000
,
00000010
00010000
00000010
00000000
00010000
00000000
00000000
00000000
00000000
00000000
00000020
00000230
00000320
00000032
00000023
00000030
,
00010000
00000000
00000000
00000000
00000010
00001000
00000010
00000000
00000100
00000000
00000010
00001000
00000000
00000000
00000010
00000000
,
00000010
00010000
00010000
00000000
00000000
00001000
00001000
01000000
,
01000000
00000000
00000000
00000000
00100000
01000000
00100000
00000000
00000000
01000000
00100000
01000000
00100000
00000000
00000000
00000000
,
10000000
00000000
00100000
00000000
10000000
01000000
10000000
00000000
00100000
00000000
00000000
00000000
10000000
01000000
10000000
00000000
,
00100000
00000000
00000000
00000000
10000000
01000000
10000000
00000000
00100000
00000000
01000000
00000000
01100000
00000000
00000000
00000000
,
00001000
00000000
00100000
00000000
00001000
01000000
00001000
00000000
00100000
00000000
00000000
00000000
00001000
01000000
00001000
00000000
,
00100000
00000000
00000000
00000000
00001000
01000000
00001000
00000000
00100000
00000000
01000000
00000000
01100000
00000000
00000000
00000000
,
10000000
00000000
01000000
00000000
10000000
00100000
10000000
00000000
00010000
00000000
00000000
00000000
10000000
01000000
10000000
00000000
,
00100000
00000000
00000000
00000000
10000000
00010000
10000000
00000000
01000000
00000000
00100000
00000000
01100000
00000000
00000000
00000000
,
00001000
00000000
00100000
00000000
00001000
01000000
00001000
00000000
00010000
00000000
00000000
00000000
00001000
00100000
00001000
00000000
,
01000000
00000000
00000000
00000000
00001000
00010000
00001000
00000000
00100000
00000000
01000000
00000000
01100000
00000000
00000000
00000000
,
00100000
00000000
00001000
00000000
00100000
01000000
00100000
00000000
00001000
00000000
00000000
00000000
00100000
00001000
00100000
00000000
,
01000000
00000000
00000000
00000000
00100000
00001000
00100000
00000000
01000000
00000000
00100000
00000000
00110000
00000000
00000000
00000000
,
00010000
00000000
00100000
00000000
00010000
01000000
00010000
00000000
00100000
00000000
00000000
00000000
00001000
01000000
00001000
00000000
,
00100000
00000000
00000000
00000000
00010000
01000000
00010000
00000000
00100000
00000000
00000000
00000000
00000000
00000000
00001000
00100000
,
00001000
00100000
00001000
00000000
00010000
00000000
00000000
00000000
00000000
00000000
00000100
00010000
00000100
00010000
00000100
00000000
,
00001000
00000000
00000000
00000000
00000100
00001000
00000100
00000000
00010000
00000000
00000100
00001000
00000000
00000000
00000010
00001000
,
00000010
00001000
00000010
00000000
00000100
00000000
00000000
00000000
00000000
00000000
00000001
00000100
00000001
00000100
00000001
00000000
,
00000010
00000000
00000000
00000000
00000001
00000010
00000001
00000000
00000100
00000000
00000001
00000010
00000000
00000000
00000100
00000010
,
00000100
00000010
00000100
00000000
00010000
00000000
00000000
00000000
00000000
00000000
00001000
00010000
00001000
00010000
00001000
00000000
,
00100000
00000000
00000000
00000000
00010000
00100000
00010000
00000000
01000000
00000000
00010000
00100000
00000000
00000000
00010000
00100000
,
00010000
00100000
00010000
00000000
10000000
00000000
00000000
00000000
00000000
00000000
01000000
10000000
01000000
10000000
01000000
00000000
,
00100000
00000000
00000000
00000000
01000000
00100000
01000000
00000000
10000000
00000000
01000000
00000000
01100000
00000000
00000000
00000000
,
00000000
00000000
10000000
01000000
10000000
01000000
10000000
00000000
01000000
00000000
00000000
00000000
10000000
00100000
10000000
00000000
,
00100000
00000000
00000000
00000000
01000000
00100000
01000000
00000000
00100000
00000000
01000000
00000000
01001000
00000000
00000000
00000000
,
00001000
01000000
00001000
00000000
01000000
00001000
01000000
00000000
00001000
00000000
00000000
00000000
00010000
00001000
00010000
00000000
,
00001000
00000000
00000000
00000000
00010000
00000010
00010000
00000000
00000010
00000000
00010000
00000000
00011000
00000000
00000000
00000000
,
00010000
00000100
00010000
00000000
00000100
00010000
00000100
00000000
00010000
00000000
00000000
00000000
00000010
00001000
00000010
00000000
,
00001000
00000000
00000000
00000000
00000010
00000100
00000010
00000000
00000100
00000000
00000001
00000000
00000011
00000000
00000000
00000000
,
00000001
00000010
00000001
00000000
00000010
00000001
00000010
00000000
00000001
00000000
00000000
00000000
00001000
00000001
00001000
00000000
,
00000001
00000000
00000000
00000000
00001000
00000010
00001000
00000000
00000010
00000000
00010000
00000000
00010100
00000000
00010000
00000010
,
00010000
00000010
00020000
00000000
00030020
00000000
00000030
00000000
00010000
00000100
00010000
00000100
00010000
00000000
00000100
00000000
,
00000000
00000000
00010000
00001000
00010000
00000000
00001000
00000000
00100000
00001000
00000000
00000000
00100000
00010000
00100000
00010000
,
00100000
00000000
00010000
00000000
00000000
00000000
00000000
00000000
10000000
00010000
10000000
00010000
10000000
00000000
00010000
00000000
,
00000000
00000000
00100000
00010000
00100000
00000000
00010000
00000000
00100000
00010000
00000000
00000000
00100000
01000000
00100000
01000000
,
00100000
00000000
00010000
00000000
00000000
00000000
00000000
00000000
00200000
20300000
30200000
20300000
30200000
00300000
01000000
00000000
,
00000000
00000000
00100000
00010000
00100000
00000000
00001000
00000000
00100000
01000000
00000000
00000000
00100000
00000000
00100000
00000000
,
00110000
00110000
00000000
00000000
00001000
00001000
00101000
00101000
,
00000000
00000000
00001000
00100000
00001000
00000000
00000000
00100000
00001000
00100000
0000M000
00000000
00000000
00000000
00000000
00000000
;

//---------------dance-double - LinkDubs15----------------
#NOTEDATA:;
#CHARTNAME:LinkDubs15;
#STEPSTYPE:dance-double;
#DESCRIPTION:LinkDubs15;
#CHARTSTYLE:;
#DIFFICULTY:Challenge;
#METER:10;
#RADARVALUES:0.797775,0.840648,0.110720,0.013840,1.114117,807.000000,791.000000,16.000000,2.000000,9.000000,0.000000,0.000000,0.000000,0.000000,0.797775,0.840648,0.110720,0.013840,1.114117,807.000000,791.000000,16.000000,2.000000,9.000000,0.000000,0.000000,0.000000,0.000000;
#CREDIT:LinkDubs15;
#NOTES:
00000000
00000000
00000000
00000000
,
0M000000
M0000000
00M00000
M0000000
,
00000000
00000000
00010000
01000000
00010000
01000000
00010000
01000000
00010000
00000000
01000000
00000000
00000000
00000000
00100000
01000000
,
00100000
00000000
01000000
00000000
00000000
00000000
00100000
10000000
00100000
00000000
10000000
00000000
00100000
00000000
10000000
00000000
,
00000000
00000000
10000000
01000000
10000000
01000000
10000000
01000000
10000000
00000000
01000000
00000000
00000000
00000000
00100000
01000000
,
00100000
00000000
01000000
00000000
00000000
00000000
00100000
00001000
00100000
00000000
00001000
00000000
00100000
00000000
00001000
00000000
,
00000000
00010000
00001000
00010000
00001000
00010000
00001000
00010000
00001000
00000000
00010000
00000000
00000000
00001000
00010000
00001000
,
00010000
00000000
00001000
00000000
00000000
00010000
00000100
00010000
00000100
00000000
00010000
00000000
00000100
00010000
00000100
00000000
,
00000000
00000010
00000100
00000010
00000100
00000010
00000100
00000010
00000100
00000000
00000010
00000000
00000000
00000001
00000010
00000001
,
00000010
00000000
00000001
00000000
00000000
00000100
00000001
00000100
00000001
00000000
00000100
00000000
00000001
00000100
00000001
00000000
,
00000000
00000100
00000010
00000100
00000010
00000100
00000010
00000100
00000010
00000000
00000100
00000000
00000000
00000010
00010000
00000010
,
00010000
00000000
00000010
00000000
00000000
00010000
00001000
00010000
00001000
00000000
00100000
00000000
00010000
00100000
00010000
00000000
,
00000000
10000000
01000000
10000000
01000000
00100000
01000000
00100000
01000000
10000000
00010000
10000000
00010000
01000000
00010000
01000000
,
00010000
10000000
00100000
10000000
00100000
01000000
00100000
01000000
00100000
10000000
00010000
10000000
00010000
00100000
00010000
00100000
,
00010000
01000000
00001000
01000000
00001000
00010000
00001000
00000000
00000000
00000000
00000000
00000000
01000000
00001000
01000000
00010000
,
01000000
00001000
01000000
00000000
00000000
00000000
00010000
00100000
00010000
00100000
00010000
00000000
00100000
00010000
00100000
00000000
,
00010000
01000000
00010000
00001000
00010000
01000000
00010000
00000000
00000000
00000000
00000000
00000000
01000000
00010000
01000000
00001000
,
01000000
00010000
01000000
00000000
00000000
00000000
00001000
00100000
00001000
00100000
00001000
00000000
00100000
00001000
00100000
00000000
,
00010000
01000000
00010000
00100000
00010000
01000000
00010000
00000000
00000000
00000000
00000000
00000000
01000000
00010000
01000000
00100000
,
01000000
00010000
01000000
00000000
00000000
00000000
00010000
00001000
00010000
00001000
00010000
00000000
00001000
00010000
00001000
00000000
,
00010000
01000000
00010000
00001000
00010000
01000000
00010000
00000000
00000000
00000000
00000000
00000000
01000000
10000000
01000000
00100000
,
01000000
00010000
01000000
00000000
00000000
00000000
00010000
01000000
00010000
01000000
00010000
00000000
01000000
00010000
01000000
00000000
,
00000000
00000000
00000000
00000000
00001000
01000000
00001000
01000000
00001000
01000000
00001000
00000000
00000000
00000000
00100000
01000000
,
00100000
01000000
00100000
00000000
00000000
00000000
00001000
00100000
00001000
00100000
00001000
00000000
00100000
00010000
00100000
00000000
,
00000000
00000000
01000000
00100000
01000000
00010000
01000000
00001000
01000000
00010000
01000000
00000000
00000000
00000000
00010000
01000000
,
00010000
01000000
00010000
00000000
00000000
00000000
01000000
00010000
01000000
00100000
01000000
00000000
10000000
01000000
10000000
00000000
,
00000000
00000000
00010000
00100000
00010000
01000000
00010000
00001000
00010000
01000000
00010000
00000000
00000000
00000000
01000000
00001000
,
01000000
00010000
01000000
00000000
00000000
00000000
00010000
01000000
00010000
00100000
00010000
00000000
00100000
00010000
00100000
00000000
,
00000000
00000000
00010000
00100000
00010000
00100000
00010000
01000000
00010000
01000000
00001000
00100000
00001000
00100000
00001000
00010000
,
00001000
00010000
01000000
10000000
01000000
10000000
01000000
00010000
01000000
00010000
00001000
00100000
00001000
00100000
00001000
00010000
,
00001000
00010000
01000000
00100000
00001000
00100000
00002000
00M03M00
00000000
00000000
00010000
00000100
00010000
00000010
00010000
00000100
,
00010000
00000000
00000000
00000000
00000010
00000100
00000010
00001000
00000010
00000000
00010000
00000100
00010000
00000000
00000010
00001000
,
00000010
00000100
00000010
00001000
00000010
00000000
00000000
00000000
00000000
00000000
00001000
00000010
00001000
00000100
00001000
00000010
,
00001000
00000000
00000000
00000000
00000001
00000100
00000001
00000010
00000001
00000000
00001000
00000100
00001000
00000000
00000001
00000010
,
00000001
00000100
00000001
00000010
00000001
00000000
00000000
00000000
00000000
00000000
00000010
00000001
00000010
00010000
00000010
00000100
,
00000010
00000000
00000000
00000000
00000100
00010000
00000100
00000001
00000100
00000000
00000010
00001000
00000010
00000000
00000110
00000000
,
00000110
00011000
00011000
00000000
00000000
00001010
00001010
00000101
,
00000101
00000000
00000000
00000000
00000010
00001000
00000010
00000000
00000000
00001000
00000010
00001000
00000010
00000000
00000000
00000000
,
00001000
00000010
00001000
00000010
00001000
00000010
00001000
00000000
00000010
00000000
00000000
00000000
00000100
00000010
00000100
00000000
,
00000010
00000000
00000000
00000000
00000100
00000001
00000100
00000000
00000001
00000000
00000100
00000000
00000001
00000000
00000000
00000000
,
00000001
00000010
00000001
00000010
00000001
00000010
00000001
00000000
00000010
00000000
00000000
00000000
00000100
00000010
00000100
00000000
,
00000010
00000000
00000000
00000000
00000100
00010000
00000100
00000000
00010000
00000000
00000100
00000000
00010000
00000000
00000000
00001000
,
00010000
00001000
00010000
00001000
00010000
00001000
00010000
00000000
00001000
00000000
00000000
00010000
00001000
00010000
00001000
00000000
,
00010000
00000000
00000000
00001000
00100000
00001000
00100000
00000000
00001000
00000000
00100000
00001000
00100000
00000000
00000000
01000000
,
00100000
01000000
00100000
01000000
00100000
01000000
00100000
00000000
01000000
00000000
00000000
10000000
01000000
10000000
01000000
00000000
,
10000000
00000000
00000000
00100000
10000000
00100000
10000000
00000000
00100000
00000000
10000000
00100000
10000000
00000000
00000000
00100000
,
01000000
00100000
01000000
00100000
01000000
00100000
01000000
00000000
00100000
00000000
00000000
01000000
00001000
01000000
00001000
00000000
,
01000000
00000000
00000000
00001000
00010000
00001000
00010000
00000000
00000100
00000000
00001000
00000100
00001000
00000000
00000000
00000001
,
00000010
00000001
00000010
00000100
00000010
00000100
00000010
00000001
00001000
00000001
00001000
00000010
00001000
00000010
00001000
00000001
,
00000100
00000001
00000100
00000010
00000100
00000010
00000100
00000001
00001000
00000001
00001000
00000100
00001000
00000100
00001000
00000010
,
00010000
00000010
00010000
00001000
00010000
00000000
00000000
00000000
00000000
00000000
00000010
00010000
00000010
00001000
00000010
00010000
,
00000010
00000000
00000000
00000000
00001000
00000100
00001000
00000100
00001000
00000000
00000100
00001000
00000100
00000000
00001000
00000010
,
00001000
00010000
00001000
00000010
00001000
00000000
00000000
00000000
00000000
00000000
00000010
00001000
00000010
00010000
00000010
00001000
,
00000010
00000000
00000000
00000000
00010000
00000100
00010000
00000100
00010000
00000000
00000100
00010000
00000100
00000000
00001000
00000010
,
00001000
00000100
00001000
00000010
00001000
00000000
00000000
00000000
00000000
00000000
00000010
00001000
00000010
00000100
00000010
00001000
,
00000010
00000000
00000000
00000000
00001000
00010000
00001000
00010000
00001000
00000000
00010000
00001000
00010000
00000000
00001000
00000010
,
00001000
00010000
00001000
00000010
00001000
00000000
00000000
00000000
00000000
00000000
00000010
00000001
00000010
00000100
00000010
00001000
,
00000010
00000000
00000000
00000000
00001000
00000010
00001000
00000010
00001000
00000000
00000010
00001000
00000010
00000000
00000000
00000000
,
00000000
00000000
00010000
00000010
00010000
00000010
00010000
00000010
00010000
00000000
00000000
00000000
00000100
00000010
00000100
00000010
,
00000100
00000000
00000000
00000000
00010000
00000100
00010000
00000100
00010000
00000000
00000100
00001000
00000100
00000000
00000000
00000000
,
00000010
00000100
00000010
00001000
00000010
00010000
00000010
00001000
00000010
00000000
00000000
00000000
00001000
00000010
00001000
00000010
,
00001000
00000000
00000000
00000000
00000010
00001000
00000010
00000100
00000010
00000000
00000001
00000010
00000001
00000000
00000000
00000000
,
00001000
00000100
00001000
00000010
00001000
00010000
00001000
00000010
00001000
00000000
00000000
00000000
00000010
00010000
00000010
00001000
,
00000010
00000000
00000000
00000000
00001000
00000010
00001000
00000100
00001000
00000000
00000100
00001000
00000100
00000000
00000000
00000000
,
00001000
00000100
00001000
00000100
00001000
00000010
00001000
00000010
00010000
00000100
00010000
00000100
00010000
00001000
00010000
00001000
,
00000010
00000001
00000010
00000001
00000010
00001000
00000010
00001000
00010000
00000100
00010000
00000100
00010000
00001000
00010000
00001000
,
00000010
00000100
00010000
00000100
00020000
00M30M00
00000000
00000000
00001000
00100000
00001000
01000000
00001000
00100000
00001000
00000000
,
00000000
00000000
01000000
00100000
01000000
00010000
01000000
00000000
00001000
00100000
00001000
00000000
01000000
00010000
01000000
00100000
,
01000000
00010000
01000000
00000000
00000000
00000000
00000000
00000000
00010000
01000000
00010000
00100000
00010000
01000000
00010000
00000000
,
00000000
00000000
10000000
00100000
10000000
01000000
10000000
00000000
00010000
00100000
00010000
00000000
10000000
01000000
10000000
00100000
,
10000000
01000000
10000000
00000000
00000000
00000000
00000000
00000000
01000000
10000000
01000000
00001000
01000000
00100000
01000000
00000000
,
00000000
00000000
00100000
00001000
00100000
10000000
00100000
00000000
01000000
00010000
01000000
00000000
01100000
00000000
01100000
00000000
,
00011000
00011000
00000000
00000000
01010000
01010000
10100000
10100000
,
00000000
00000000
01000000
00010000
01000000
00000000
00000000
00010000
01000000
00010000
0M000000
00000000
00000000
00000000
00000000
00000000
;

//---------------dance-single - LinkDump15----------------
#NOTEDATA:;
#CHARTNAME:LinkDump15;
#STEPSTYPE:dance-single;
#DESCRIPTION:LinkDump15;
#CHARTSTYLE:;
#DIFFICULTY:Edit;
#METER:10;
#RADARVALUES:0.790855,0.839935,0.000000,0.000000,0.788878,800.000000,800.000000,0.000000,0.000000,4.000000,0.000000,0.000000,0.000000,0.000000,0.790855,0.839935,0.000000,0.000000,0.788878,800.000000,800.000000,0.000000,0.000000,4.000000,0.000000,0.000000,0.000000,0.000000;
#CREDIT:LinkDump15;
#NOTES:
0000
0000
0000
0000
,
0M00
M000
00M0
M000
,
0000
0001
1000
0001
1000
0010
0100
0010
,
1000
0001
1000
0001
0100
0001
1000
0010
,
1000
0100
0010
0001
1000
0001
1000
0001
,
0100
0010
1000
0100
1000
0001
0010
0001
,
1000
0001
1000
0100
0010
0100
0010
0001
,
1000
0001
1000
0100
1000
0001
0010
0001
,
0100
0010
1000
0100
1000
0001
1000
0001
,
0010
0100
0010
0001
1000
0001
1000
0100
,
1000
0010
0100
0001
0010
0001
1000
0100
,
1000
0001
1000
0001
0010
0100
0010
0100
,
1000
0001
1000
0001
1000
0010
0100
0001
,
0010
0001
1000
0100
1000
0010
1000
0001
,
0100
0001
0010
0100
1000
0001
1000
0001
1000
0010
0100
0001
0010
0001
1000
0100
,
1000
0001
1000
0001
0010
0100
0010
0001
1000
0001
1000
0100
1000
0001
0010
0001
,
0100
0010
1000
0001
1000
0001
1000
0100
0010
0100
0010
0001
1000
0001
1000
0001
,
0100
0010
1000
0100
1000
0001
0010
0001
0100
0001
1000
0010
1000
0100
0010
0001
,
1000
0001
1000
0001
0100
0010
0100
0010
1000
0001
1000
0001
0100
0001
1000
0010
,
1000
0100
0010
0001
0100
0001
1000
0001
1000
0010
0100
0010
1000
0001
1000
0001
,
0100
0001
0010
0100
1000
0010
1000
0001
0100
0010
1000
0100
1000
0001
0010
0001
,
1000
0100
1000
0010
0100
0010
1000
0001
1000
0001
0100
0010
1000
0100
1000
0010
,
0100
0001
1000
0001
1000
0010
0100
0010
,
1000
0100
1000
0001
0010
0001
0100
0010
,
1000
0100
1000
0001
1000
0010
0100
0010
,
0100
0001
1000
0001
1000
0010
1000
0100
,
0010
0001
0100
0010
1000
0100
1000
0001
,
1000
0001
0010
0100
0010
0100
1000
0001
,
1000
0010
1000
0100
0010
0001
0100
0001
,
1000
0010
1000
0100
1000
0001
0010
0100
,
0010
0100
1000
0001
1000
0001
1000
0010
0100
0010
0100
0001
1000
0001
0010
0001
,
0100
0010
1000
0001
1000
0001
0100
0010
0100
0001
0010
0001
1000
0100
1000
0001
,
0010
0001
0100
0010
0100
0001
1000
0001
1000
0010
0100
0001
0010
0001
0100
0010
,
1000
0100
1000
0001
0010
0001
0100
0001
1000
0010
0100
0010
0100
0001
1000
0001
,
1000
0001
0010
0100
0010
0100
1000
0001
0010
0001
0100
0001
1000
0010
1000
0100
,
0010
0001
0100
0001
1000
0001
0010
0100
0010
0100
1000
0001
1000
0000
0001
0000
,
0010
0001
0100
0010
1000
0100
0010
0001
,
0100
0000
0001
0000
1000
0001
1000
0010
0100
0010
0100
0001
1000
0000
0001
0000
,
0010
0001
0100
0010
1000
0100
0010
0001
,
0100
0001
1000
0001
0010
0100
0010
0100
,
1000
0001
0010
0001
0100
0001
1000
0010
,
0100
0010
0100
0001
1000
0001
0010
0001
,
0100
0010
1000
0100
1000
0001
0010
0001
,
0100
0010
0100
0001
1000
0001
1000
0010
,
0100
0010
0100
0001
0010
0001
1000
0100
,
1000
0001
0010
0001
0100
0010
0100
0010
,
1000
0001
1000
0001
0100
0010
0100
0001
,
0010
0001
1000
0100
1000
0010
0100
0001
,
0010
0001
0100
0010
1000
0001
1000
0001
,
0100
0000
0010
0000
0100
0000
0010
0000
0100
0000
0001
0000
1000
0000
0001
1000
,
0010
0100
0010
1000
0100
1000
0001
0010
0100
0010
0100
1000
0001
1000
0010
1000
,
0100
0010
0001
0100
0010
1000
0100
1000
0001
1000
0010
0100
0010
0100
0001
1000
,
0010
1000
0100
1000
0001
0010
0001
0100
0010
1000
0100
1000
0010
0100
0001
1000
,
0001
1000
0010
0100
0010
0100
0010
1000
0001
1000
0001
0100
0010
1000
0100
1000
,
0010
0100
0001
0010
0001
1000
0100
1000
0010
0100
0010
1000
0001
1000
0001
0100
,
0010
0100
0010
1000
0100
1000
0001
0010
0001
1000
0100
1000
0010
0100
0010
0100
,
0001
1000
0001
1000
0010
0100
0010
0100
0010
0100
0001
1000
0001
0010
0100
0010
,
0100
1000
0010
0100
0001
0010
0001
1000
0100
0010
0100
0010
0100
1000
0001
0000
,
0010
0001
0100
0010
1000
0100
0010
0100
,
0010
0001
1000
0001
1000
0100
0010
0100
,
0010
0001
0100
0010
1000
0100
1000
0001
,
0010
0001
0100
0010
0100
0010
1000
0001
,
1000
0100
0010
0100
0010
0001
0100
0001
,
1000
0010
1000
0100
0010
0001
0100
0010
,
0100
0010
1000
0001
1000
0001
0100
0010
,
0100
0000
0010
0000
0100
0000
0001
0000
1000
0000
0010
0000
1000
0000
0100
0010
,
0001
0100
0001
0010
0100
1000
0010
1000
0001
0100
0010
0100
0010
0100
0001
1000
,
0010
1000
0100
0010
0001
0100
0010
0100
0010
1000
0001
1000
0100
0010
0100
0010
,
0001
0100
0010
1000
0100
1000
0001
0010
0100
0010
0100
0010
0001
1000
0001
1000
,
0100
0010
0100
0010
0100
1000
0001
0010
0001
0100
0010
1000
0100
1000
0010
0100
,
0001
0010
0001
1000
0100
0010
0100
0010
0100
1000
0001
1000
0001
0010
0100
0010
,
0100
1000
0010
0100
0001
0010
0001
1000
0100
1000
0010
0000
0100
0000
0010
0000
,
0100
0001
1000
0001
0010
0100
0010
0100
,
1000
0000
0010
1000
0001
0100
0001
0010
0100
1000
0000
0000
0000
0000
0000
0000
;

//---------------dance-double - LinkDump15----------------
#NOTEDATA:;
#CHARTNAME:LinkDump15;
#STEPSTYPE:dance-double;
#DESCRIPTION:LinkDump15;
#CHARTSTYLE:;
#DIFFICULTY:Edit;
#METER:10;
#RADARVALUES:0.790855,0.839935,0.000000,0.000000,0.788878,800.000000,800.000000,0.000000,0.000000,4.000000,0.000000,0.000000,0.000000,0.000000,0.790855,0.839935,0.000000,0.000000,0.788878,800.000000,800.000000,0.000000,0.000000,4.000000,0.000000,0.000000,0.000000,0.000000;
#CREDIT:LinkDump15;
#NOTES:
00000000
00000000
00000000
00000000
,
0M000000
M0000000
00M00000
M0000000
,
00000000
00000001
00001000
00000001
00001000
00000100
00000010
00000100
,
00001000
00000001
00001000
00000001
00000010
00000001
00001000
00000100
,
00010000
00000010
00000100
00000001
00001000
00000001
00001000
00000001
,
00000010
00000100
00010000
00000010
00001000
00000001
00000100
00000010
,
00010000
00000010
00010000
00000100
00001000
00000100
00001000
00000010
,
00010000
00000010
00010000
00000100
00010000
00000010
00001000
00000001
,
00001000
00000100
00010000
00000100
00010000
00000010
00010000
00000010
,
00001000
00000001
00001000
00000010
00010000
00000010
00010000
00000100
,
00010000
00000100
00001000
00000001
00001000
00000010
00010000
00000100
,
00010000
00000010
00010000
00000010
00001000
00000001
00001000
00000100
,
00010000
00000010
00010000
00000010
00010000
00000100
00001000
00000001
,
00001000
00000010
00010000
00000100
00010000
00000100
00010000
00000010
,
00001000
00000001
00001000
00000100
00010000
00001000
01000000
00001000
01000000
00010000
00100000
00001000
00100000
00001000
01000000
00010000
,
01000000
00001000
01000000
00001000
00100000
00010000
00100000
00001000
01000000
00001000
01000000
00010000
01000000
00001000
00100000
00001000
,
00100000
00010000
01000000
00010000
10000000
00010000
10000000
01000000
00100000
01000000
00100000
00010000
10000000
00010000
10000000
00010000
,
01000000
00100000
10000000
01000000
10000000
00010000
00100000
00001000
01000000
00010000
10000000
00100000
10000000
01000000
00100000
00010000
,
10000000
00010000
10000000
00010000
01000000
00100000
01000000
00100000
10000000
00010000
10000000
00010000
01000000
00010000
10000000
00100000
,
10000000
01000000
00100000
00001000
01000000
00010000
10000000
00010000
10000000
00100000
01000000
00100000
10000000
00010000
10000000
00010000
,
01000000
00001000
00100000
01000000
10000000
00100000
10000000
00010000
01000000
00010000
10000000
00010000
01000000
00001000
00100000
00001000
,
01000000
00010000
10000000
00010000
00100000
00010000
01000000
00001000
01000000
00001000
00100000
00010000
10000000
00010000
01000000
00010000
,
00100000
00001000
01000000
00001000
01000000
00010000
00100000
00000100
,
00010000
00000100
00010000
00000010
00001000
00000001
00001000
00000100
,
00010000
00000100
00010000
00000010
00010000
00000100
00001000
00000001
,
00001000
00000010
00010000
00000010
00010000
00000100
00010000
00000100
,
00001000
00000001
00001000
00000100
00010000
00000100
00010000
00000010
,
00010000
00000010
00001000
00000001
00001000
00000100
00010000
00000010
,
00010000
00000100
00010000
00000100
00001000
00000001
00001000
00000010
,
00010000
00000100
00010000
00000100
00010000
00000010
00001000
00000001
,
00001000
00000100
00010000
00000010
00010000
00000010
00010000
00000100
00001000
00000001
00001000
00000010
00010000
00000100
00000010
00000001
,
00000100
00000010
00001000
00000001
00001000
00000001
00000100
00000010
00000100
00000001
00000010
00000001
00001000
00000100
00001000
00000001
,
00000010
00000001
00000100
00000010
00000100
00000001
00001000
00000001
00001000
00000010
00000100
00000010
00001000
00000001
00001000
00000100
,
00010000
00000100
00010000
00000010
00001000
00000001
00001000
00000010
00010000
00000100
00001000
00000001
00001000
00000010
00010000
00000010
,
00010000
00000010
00001000
00000001
00001000
00000100
00010000
00000010
00001000
00000001
00001000
00000010
00010000
00000100
00010000
00000100
,
00001000
00000001
00001000
00000010
00010000
00000010
00001000
00000001
00001000
00000100
00010000
00000010
00010000
00000000
00000010
00000000
,
00001000
00000001
00001000
00000100
00010000
00000100
00001000
00000001
,
00001000
00000000
00000010
00000000
00010000
00000010
00010000
00000100
00001000
00000001
00001000
00000010
00010000
00000000
00001000
00000000
,
00100000
00001000
00100000
00010000
10000000
00010000
00100000
00001000
,
00100000
00001000
01000000
00001000
00100000
00010000
10000000
00010000
,
01000000
00001000
00100000
00001000
00100000
00001000
01000000
00010000
,
10000000
00010000
00100000
00001000
01000000
00010000
00100000
00001000
,
01000000
00100000
10000000
01000000
10000000
00010000
00100000
00001000
,
01000000
00100000
01000000
00010000
10000000
00010000
10000000
00100000
,
01000000
00100000
01000000
00001000
00100000
00010000
10000000
01000000
,
10000000
00010000
00100000
00001000
01000000
00100000
01000000
00100000
,
10000000
00010000
10000000
00010000
01000000
00100000
01000000
00001000
,
00100000
00010000
10000000
01000000
10000000
00100000
01000000
00001000
,
00100000
00001000
01000000
00100000
10000000
00010000
10000000
00010000
,
01000000
00000000
00100000
00000000
01000000
00000000
00100000
00000000
01000000
00000000
00010000
00000000
10000000
00000000
00010000
10000000
,
00100000
01000000
00010000
10000000
00010000
01000000
00001000
00100000
00010000
10000000
00010000
01000000
00001000
01000000
00010000
10000000
,
00010000
00100000
00001000
00100000
00010000
10000000
00010000
01000000
00001000
01000000
00010000
10000000
00010000
00100000
00001000
01000000
,
00001000
00010000
00000100
00010000
00000010
00001000
00000001
00001000
00000100
00010000
00000100
00010000
00000100
00001000
00000010
00010000
,
00000010
00010000
00000100
00001000
00000001
00001000
00000100
00010000
00000010
00010000
00000010
00001000
00000100
00010000
00000100
00010000
,
00000100
00001000
00000001
00001000
00000010
00010000
00000100
00010000
00000100
00001000
00000100
00010000
00000010
00010000
00000010
00001000
,
00000001
00001000
00000100
00010000
00000100
00010000
00000010
00001000
00000010
00010000
00000100
00010000
00000100
00001000
00000001
00001000
,
00000010
00010000
00000010
00010000
00000100
00001000
00000010
00000100
00000010
00000100
00000001
00001000
00000001
00000010
00000100
00000010
,
00000100
00010000
00000010
00000100
00000001
00000010
00000001
00001000
00000100
00000010
00000100
00000010
00000100
00001000
00000001
00000000
,
00000010
00000001
00000100
00000010
00001000
00000100
00001000
00000001
,
00001000
00000010
00010000
00000010
00010000
00000100
00001000
00000001
,
00001000
00000001
00001000
00000100
00010000
00000100
00010000
00000010
,
00001000
00000001
00001000
00000001
00001000
00000100
00010000
00000010
,
00010000
00000100
00001000
00000001
00001000
00000001
00001000
00000010
,
00010000
00000100
00010000
00000100
00001000
00000001
00001000
00000001
,
00001000
00000100
00010000
00000010
00010000
00000010
00001000
00000001
,
00001000
00000000
00000001
00000000
00001000
00000000
00000010
00000000
00010000
00000000
00000100
00000000
00010000
00000000
00000100
00001000
,
00000001
00001000
00000001
00001000
00000100
00010000
00000100
00010000
00000010
00010000
00001000
00100000
00010000
00100000
00001000
01000000
,
00010000
10000000
00010000
00100000
00001000
00100000
00010000
10000000
00010000
01000000
00001000
01000000
00010000
10000000
00010000
00100000
,
00001000
00100000
00010000
10000000
00010000
01000000
00001000
00100000
01000000
00100000
01000000
00100000
00010000
10000000
00010000
10000000
,
01000000
00100000
01000000
00100000
01000000
10000000
00010000
00100000
00001000
01000000
00100000
10000000
01000000
10000000
00100000
01000000
,
00001000
00100000
00010000
10000000
01000000
00100000
01000000
00100000
01000000
10000000
00010000
10000000
00010000
00100000
01000000
00100000
,
01000000
10000000
00100000
01000000
00001000
00100000
00010000
10000000
01000000
10000000
00100000
00000000
01000000
00000000
00100000
00000000
,
01000000
00010000
10000000
00010000
00100000
01000000
00100000
01000000
,
10000000
00000000
00100000
10000000
00010000
01000000
00001000
00100000
01000000
10000000
00000000
00000000
00000000
00000000
00000000
00000000
;
