#TITLE:Jump in the Line;
#SUBTITLE:Shake Senora;
#ARTIST:Harry Belafonte;
#TITLETRANSLIT:;
#SUBTITLETRANSLIT:;
#ARTISTTRANSLIT:;
#GENRE:;
#CREDIT:LinkDudeGB;
#BANNER:JumpInTheLine.png;
#BACKGROUND:JumpInTheLine.bg.png;
#LYRICSPATH:;
#CDTITLE:LinkStepsRight.png;
#MUSIC:JumpInTheLine.mp3;
#OFFSET:-0.385000;
#SAMPLESTART:52.419487;
#SAMPLELENGTH:12.000000;
#SELECTABLE:YES;
#BPMS:0.000000=115.412003
;
#STOPS:
;
#BGCHANGES:;
#KEYSOUNDS:;
#ATTACKS:;

//---------------dance-single - LinkDude03----------------
#NOTES:
     dance-single:
     LinkDude03:
     Beginner:
     2:
     0.124703,0.163575,0.071259,0.000000,0.167013,196.000000,180.000000,16.000000,0.000000,0.000000,0.000000,0.124703,0.163575,0.071259,0.000000,0.167013,196.000000,180.000000,16.000000,0.000000,0.000000,0.000000:
0000
0000
0000
0000
,
0000
0000
0000
0000
,
0000
0000
0000
0000
,
0000
0000
0000
0000
,
0000
0000
0000
0000
,
0000
0000
0000
0000
,
0000
0000
0000
0000
,
0000
0000
0000
0000
,
0001
0000
0001
0000
,
1000
0000
0000
0000
,
0001
0000
0001
0000
,
0100
0000
0000
0000
,
0010
0000
0010
0000
,
1000
0000
0000
0000
,
0100
0000
0100
0000
,
0010
0000
0000
0000
0000
0000
0000
0000
0000
0000
0000
0000
0000
0000
0000
0001
,
0000
0000
0000
0000
0000
0000
0000
1000
0000
0000
0000
0000
0000
0000
0000
0010
,
0000
0000
0000
0000
0000
0000
0000
1000
0000
0000
0000
0000
0000
0000
0000
0000
,
0000
0100
0000
0000
0000
0000
0000
0000
0000
1000
0000
0000
0000
0000
0000
0000
,
0000
0001
0000
0000
0000
0000
0000
0000
0000
1000
0000
0000
0000
0000
0000
0000
,
0000
1001
0000
0000
0000
0000
0000
0000
0000
0000
0000
0000
0000
0100
0000
0000
,
0000
0100
0000
0000
0000
0000
0000
0000
0000
0000
0000
0000
0000
0000
0000
0000
,
0000
1001
0000
0000
0000
0000
0000
0000
0000
0000
0000
0000
0000
0010
0000
0000
,
0000
0010
0000
0000
0000
0000
0000
0000
0000
0000
0000
0000
0000
0000
0000
0000
,
0000
0110
0000
0000
0000
0000
0000
0000
0000
0000
0000
0000
0000
0001
0000
0000
,
0000
0001
0000
0000
0000
0000
0000
0000
0000
0000
0000
0000
0000
0000
0000
0000
,
0000
0110
0000
0000
0000
0000
0000
0000
0000
0000
0000
0000
0000
1000
0000
0000
,
0000
1000
0000
0000
0000
0000
0000
0000
0000
0000
0000
0000
0000
0000
0000
0000
,
0000
0001
0000
0000
0000
0000
0000
0000
0000
0100
0000
0000
0000
0000
0000
0000
,
0000
0010
0000
0000
0000
0000
0000
0000
0000
0000
0000
0000
0000
0000
0000
0000
,
0001
0000
0010
0000
,
0100
0000
0000
0000
,
0001
0000
0010
0000
,
1000
0000
0000
0000
,
0001
0000
0100
0000
,
1000
0000
0000
0000
,
0001
0000
1000
0000
,
1000
0000
0001
0000
,
0001
0000
1000
0000
,
1000
0000
0001
0000
,
1001
0000
0000
0010
,
0010
0000
0000
0000
,
1001
0000
0000
0100
,
0100
0000
0000
0000
,
0110
0000
0000
1000
,
1000
0000
0000
0000
,
0110
0000
0000
0001
,
0001
0000
0000
0000
0000
0000
0000
0000
0000
0000
0000
0000
0000
0000
0000
1000
,
0000
0000
0000
1000
0000
0000
0000
1000
0000
0000
0000
0000
0000
0000
0000
0001
,
0000
0000
0000
0000
0000
0000
0000
1000
0000
0000
0000
0000
0000
0000
0000
0001
,
0000
0000
0000
0001
0000
0000
0000
0001
0000
0000
0000
0000
0000
0000
0000
1000
,
0000
0000
0000
0000
0000
0000
0000
0001
0000
0000
0000
0000
0000
0000
0100
0000
,
0000
0100
0000
0100
0000
0000
0000
0001
,
0000
0000
0000
1000
0000
0000
0000
0010
,
0000
0010
0000
0010
0000
0000
0000
1000
,
0000
0000
0000
0001
0000
0000
0000
1000
,
0000
0000
0000
0100
0000
0000
0000
1000
,
0000
0000
0000
0010
0000
0000
0000
1000
,
0000
0000
0000
0001
0000
0000
0000
1000
,
0000
0000
0000
0001
0000
0000
0000
1001
,
0000
0000
0000
0000
0000
0100
0000
0100
,
0000
0000
0000
0000
0000
0000
0000
0110
,
0000
0000
0000
0000
0000
0001
0000
0001
,
0000
0000
0000
0000
0000
0000
0000
1001
,
0000
0000
0000
0000
0000
0010
0000
0010
,
0000
0000
0000
0000
0000
0000
0000
0110
,
0000
0000
0000
0000
0000
1000
0000
1000
,
0000
0000
0000
0000
0000
0000
0000
0001
,
0000
0000
0000
0010
0000
0000
0000
0100
,
0000
0000
0000
0000
0000
0000
1000
0000
0000
0000
0000
0000
0000
0000
0000
0100
,
0000
0000
0000
0000
0000
0000
0000
0010
0000
0000
0000
0000
0000
0000
0000
0001
,
0000
0000
0000
0000
0000
0000
0000
0010
0000
0000
0000
0000
0000
0000
0000
0100
,
0000
0000
0000
0000
0000
0000
0000
1000
0000
0000
0000
0000
0000
0000
0000
0010
,
0000
0000
0000
0000
0000
0000
0000
0100
0000
0000
0000
0000
0000
0000
0000
0001
,
0000
0000
0000
0000
0000
0000
0000
0100
0000
0000
0000
0000
0000
0000
0000
0010
,
0000
0000
0000
0000
0000
0000
0000
1000
0000
0000
0000
0000
0000
0000
0000
0001
,
0000
0000
0000
0001
0000
0000
0000
0001
0000
0000
0000
0000
0000
0000
0000
1000
,
0000
0000
0000
0001
0000
0000
0000
1000
0000
0000
0000
0001
0000
0000
0000
0000
,
0000
0000
0000
0000
,
1000
1000
1000
0000
,
0010
1000
0010
1000
,
0000
0000
0000
0000
,
0001
0001
0001
0000
,
0100
0001
0100
0001
,
0000
0000
0000
0000
,
1000
1000
1000
0000
,
0100
1000
0100
1000
,
0000
0000
0000
0000
,
0001
0000
0010
0000
,
0000
0001
0000
0000
0000
0000
0000
0000
0000
1000
0000
0000
0000
0000
0000
0000
,
0000
0001
0000
0000
0000
0100
0000
0000
,
0000
0001
0000
0000
0000
1000
0000
0000
,
0000
1001
0000
0000
0000
0000
0000
0001
,
0000
0001
0000
0000
0000
0000
0000
0000
,
0000
0000
0000
0110
0000
0000
0000
0000
0000
0000
0000
0000
0000
0000
0000
0100
,
0000
0000
0000
0100
0000
0000
0000
0000
0000
0000
0000
0000
0000
0000
0000
0000
,
0000
0000
0000
1001
0000
0000
0000
0000
0000
0000
0000
0000
0000
0000
0000
1000
,
0000
0000
0000
1000
0000
0000
0000
0000
0000
0000
0000
0000
0000
0000
0000
0000
,
0000
0000
0000
0110
0000
0000
0000
0000
0000
0000
0000
0000
0000
0000
0000
0010
,
0000
0000
0000
0010
0000
0000
0000
0000
0000
0000
0000
0000
0000
0000
0000
0000
,
0000
0000
0000
0001
0000
0000
0000
0001
0000
0000
0000
1000
0000
0000
0000
1000
,
0000
0000
0000
0000
,
0000
0000
0000
1000
0000
0000
0000
1000
0000
0000
0000
0001
0000
0000
0000
0001
,
0000
0000
0000
0000
,
0000
0000
0000
0100
0000
0000
0000
0100
0000
0000
0000
0010
0000
0000
0000
0010
;

//---------------dance-single - LinkDude04----------------
#NOTES:
     dance-single:
     LinkDude04:
     Easy:
     3:
     0.169876,0.210812,0.146971,0.204869,0.207096,267.000000,234.000000,33.000000,46.000000,0.000000,0.000000,0.169876,0.210812,0.146971,0.204869,0.207096,267.000000,234.000000,33.000000,46.000000,0.000000,0.000000:
0000
0000
0000
0000
,
0000
0000
0000
0000
,
0000
0000
0000
0000
,
0000
0000
0000
0000
,
0000
0000
0000
0000
,
0000
0000
0000
0000
,
0000
0000
0000
0000
,
0000
0000
0000
0000
,
0001
1000
0001
0000
,
1000
0001
1000
0000
,
0001
0100
0001
0000
,
0100
0010
0100
0000
,
0010
1000
0010
0000
,
1000
0100
1000
0000
,
0100
0010
0100
0000
,
0010
0000
0000
0000
0001
0000
0000
0000
0010
0000
0000
0000
0000
0000
0000
0001
,
0000
0000
0000
0001
0000
0000
0000
1000
0000
0000
0000
0000
0000
0000
0000
0010
,
0000
0000
0000
0010
0000
0000
0000
1000
0000
0000
0000
0000
0000
0000
0000
0000
,
0000
0100
0000
0000
0000
0100
0000
0000
0000
1000
0000
0000
0000
0000
0000
0000
,
0000
1000
0000
0000
0000
1000
0000
0000
0000
0001
0000
0000
0000
0000
0000
0000
,
0000
2002
0000
0000
0000
3003
0000
0000
0000
0000
0000
0000
0000
0000
0000
0000
,
0000
0110
0000
0000
0000
0000
0000
0000
0000
0000
0000
0000
0000
0000
0000
0000
,
0000
0202
0000
0000
0000
0303
0000
0000
0000
0000
0000
0000
0000
0000
0000
0000
,
0000
1010
0000
0000
0000
0000
0000
0000
0000
0000
0000
0000
0000
0000
0000
0000
,
0000
2200
0000
0000
0000
3300
0000
0000
0000
0000
0000
0000
0000
0000
0000
0000
,
0000
0011
0000
0000
0000
0000
0000
0000
0000
0000
0000
0000
0000
0000
0000
0000
,
0000
0220
0000
0000
0000
0330
0000
0000
0000
0000
0000
0000
0000
0000
0000
0000
,
0000
1001
0000
0000
0000
0000
0000
0000
0000
0000
0000
0000
0000
0000
0000
0000
,
0000
0001
0000
0000
0000
1000
0000
0000
0000
0100
0000
0000
0000
0000
0000
0000
,
0000
0010
0000
0000
0000
0100
0000
0000
0000
1000
0000
0000
0000
0000
0000
0000
,
0001
1000
0010
0000
,
0100
0010
1000
0000
,
0001
0100
0010
0000
,
1000
0010
0100
0000
,
0001
0010
0100
0000
,
1000
0100
0010
0000
,
0001
0100
2000
3000
,
1000
0100
0002
0003
,
0001
0010
2000
3000
,
1000
0010
0002
0003
,
2002
3003
0000
0000
,
0110
0000
0000
0000
,
2020
3030
0000
0000
,
0101
0000
0000
0000
,
0022
0033
0000
0000
,
1100
0000
0000
0000
,
0220
0330
0000
0000
,
1001
0000
0000
0000
0000
0000
0000
0000
0000
0000
0000
0000
0000
0000
0000
1000
,
0000
0000
0000
0100
0000
0000
0000
0010
0000
0000
0000
0000
0000
0000
0000
0001
,
0000
0000
0000
0010
0000
0000
0000
0100
0000
0000
0000
0000
0000
0000
0000
1000
,
0000
0000
0000
0010
0000
0000
0000
0100
0000
0000
0000
0000
0000
0000
0000
0001
,
0000
0000
0000
0100
0000
0000
0000
0010
0000
0000
0000
0000
0000
0000
1000
0000
,
0000
0001
0000
0100
0000
0000
0000
0010
,
0000
0100
0000
0001
0000
0000
0000
1000
,
0000
0001
0000
0010
0000
0000
0000
0100
,
0000
0010
0000
0001
0000
0000
0000
1000
,
0000
1000
0000
0100
0000
0000
0000
1000
,
0000
1000
0000
0010
0000
0000
0000
1000
,
0000
1000
0000
0001
0000
0000
0000
0001
,
0000
0001
0000
1000
0000
0000
0000
0022
,
0000
0033
0000
0000
0000
0000
0000
1100
,
0000
0000
0000
0000
0000
0000
0000
2020
,
0000
3030
0000
0000
0000
0000
0000
0101
,
0000
0000
0000
0000
0000
0000
0000
2200
,
0000
3300
0000
0000
0000
0000
0000
0011
,
0000
0000
0000
0000
0000
0000
0000
0202
,
0000
0303
0000
0000
0000
0000
0000
1010
,
0000
0000
0000
0000
0000
0000
0000
1000
,
0000
0010
0000
0002
0000
0003
0000
0001
,
0000
0000
0010
0000
0000
0000
2000
0000
0000
0000
3000
0000
0000
0000
0000
1000
,
0000
0000
0000
0100
0000
0000
0000
0002
0000
0000
0000
0003
0000
0000
0000
0001
,
0000
0000
0000
0100
0000
0000
0000
2000
0000
0000
0000
3000
0000
0000
0000
1000
,
0000
0000
0000
0010
0000
0000
0000
0002
0000
0000
0000
0003
0000
0000
0000
0001
,
0000
0000
0000
0100
0000
0000
0000
2000
0000
0000
0000
3000
0000
0000
0000
1000
,
0000
0000
0000
0010
0000
0000
0000
0002
0000
0000
0000
0003
0000
0000
0000
0001
,
0000
0000
0000
0100
0000
0000
0000
2000
0000
0000
0000
3000
0000
0000
0000
0100
,
0000
0000
0000
0100
0000
0000
0000
0010
0000
0000
0000
0000
0000
0000
0000
0001
,
0000
0000
0000
0010
0000
0000
0000
0100
0000
0000
0000
1000
0000
0000
0000
0100
,
0000
0000
0000
0010
0000
0000
0000
0001
0000
0000
0000
0000
0000
0000
0000
0000
,
0010
0010
0100
0000
,
1000
0100
0010
0001
,
0010
0100
1000
0000
,
0100
0100
0010
0000
,
0001
0010
0100
1000
,
0100
0010
0001
0000
,
0010
0010
0100
0000
,
1000
0100
0010
0001
,
0010
0100
1000
0000
,
0001
1000
1000
0000
,
0000
1000
0000
0000
0000
0001
0000
0000
0000
0001
0000
0000
0000
0000
0000
0000
,
0000
0010
0000
0001
0000
0100
0000
0000
,
0000
0010
0000
1000
0000
0100
0000
0000
,
0000
2200
0000
3300
0000
0000
0000
0000
,
0000
0011
0000
0000
0000
0000
0000
0000
,
0000
0000
0000
2020
0000
0000
0000
3030
0000
0000
0000
0000
0000
0000
0000
0000
,
0000
0000
0000
0101
0000
0000
0000
0000
0000
0000
0000
0000
0000
0000
0000
0000
,
0000
0000
0000
0022
0000
0000
0000
0033
0000
0000
0000
0000
0000
0000
0000
0000
,
0000
0000
0000
1100
0000
0000
0000
0000
0000
0000
0000
0000
0000
0000
0000
0000
,
0000
0000
0000
0202
0000
0000
0000
0303
0000
0000
0000
0000
0000
0000
0000
0000
,
0000
0000
0000
1010
0000
0000
0000
0000
0000
0000
0000
0000
0000
0000
0000
0000
,
0000
0000
0000
0001
0000
0000
0000
0100
0000
0000
0000
0010
0000
0000
0000
1000
,
0000
0000
0000
0010
0000
0000
0000
0100
0000
0000
0000
0001
0000
0000
0000
0000
,
0000
0000
0000
1000
0000
0000
0000
0010
0000
0000
0000
0100
0000
0000
0000
0001
,
0000
0000
0000
0100
0000
0000
0000
0010
0000
0000
0000
1000
0000
0000
0000
0000
,
0000
0000
0000
0010
0000
0000
0000
0010
0000
0000
0000
0010
0000
0000
0000
0220
,
0000
0000
0000
0330
0000
0000
0000
0000
0000
0000
0000
0000
0000
0000
0000
0000
;

//---------------dance-single - LinkDude09----------------
#NOTES:
     dance-single:
     LinkDude09:
     Medium:
     6:
     0.282490,0.374776,0.160332,0.111342,0.356293,444.000000,408.000000,36.000000,25.000000,0.000000,0.000000,0.282490,0.374776,0.160332,0.111342,0.356293,444.000000,408.000000,36.000000,25.000000,0.000000,0.000000:
0000
0000
0000
0000
,
0000
0000
0000
0000
,
0000
0000
0000
0000
,
0000
0000
0000
0000
,
0000
0000
0000
0000
,
0000
0000
0000
0000
,
0000
0000
0000
0000
,
0000
0000
0000
0000
,
0001
1000
0001
1000
,
0001
1000
0001
1000
0001
0000
0000
0000
,
1000
0100
1000
0100
,
0010
0100
0010
0100
0010
0000
0000
0000
,
0100
1000
0100
1000
,
0001
1000
0001
1000
0001
0000
0000
0000
,
1000
0010
1000
0010
,
0100
0000
0010
0000
0100
0000
0010
0000
0100
0000
0000
0000
0000
0000
0000
0001
,
0000
1000
0000
0001
0000
1000
0000
0001
0000
0000
0000
0000
0000
0000
0000
0010
,
0000
0001
0000
0010
0000
0001
0000
0010
0000
0000
0000
0000
0000
0000
0000
0000
,
0000
0001
0000
0100
0000
0001
0000
0100
0000
0001
0000
0000
0000
0000
0000
0000
,
0000
0100
0000
0010
0000
0100
0000
0010
0000
0100
0000
0000
0000
0000
0000
0000
,
0000
1001
0000
0000
0000
0110
0000
0000
0000
0000
0000
0010
0000
0100
0000
0010
,
0000
0100
0000
0000
0000
0000
0000
0000
0000
0000
0000
0000
0000
0000
0000
0000
,
0000
1100
0000
0000
0000
0011
0000
0000
0000
0000
0000
0001
0000
0010
0000
0001
,
0000
0010
0000
0000
0000
0000
0000
0000
0000
0000
0000
0000
0000
0000
0000
0000
,
0000
0101
0000
0000
0000
1010
0000
0000
0000
0000
0000
1000
0000
0010
0000
1000
,
0000
0010
0000
0000
0000
0000
0000
0000
0000
0000
0000
0000
0000
0000
0000
0000
,
0000
0110
0000
0000
0000
1001
0000
0000
0000
0000
0000
0001
0000
1000
0000
0001
,
0000
1000
0000
0000
0000
0000
0000
0000
0000
0000
0000
0000
0000
0000
0000
0000
,
0000
1000
0000
0000
0000
0001
0000
0000
0000
0100
0000
0000
0000
0010
0000
0000
,
0000
0100
0000
0010
0000
0100
0000
0010
0000
0100
0000
0000
0000
0000
0000
0000
,
0001
1000
0010
0100
,
0010
0100
0010
0100
0010
0000
0000
0000
,
1000
0100
0010
0001
,
0010
0001
0010
0001
0010
0000
0000
0000
,
0001
0010
0100
1000
,
0100
1000
0100
1000
0100
0000
0000
0000
,
1000
0000
0001
0000
0010
0000
0001
0000
1000
0000
0200
0300
0000
0000
0000
0000
,
0100
0000
1000
0000
0001
0000
0010
0000
0001
0000
2000
3000
0000
0000
0000
0000
,
1000
0000
0010
0000
0001
0000
0010
0000
1000
0000
0020
0030
0000
0000
0000
0000
,
0010
1000
0010
0001
0010
1000
0000
0000
,
1001
0000
0110
0000
0000
0100
0010
0100
,
0010
0000
0000
0000
,
0011
0000
1100
0000
0000
0100
1000
0100
,
1000
0000
0000
0000
,
1010
0000
0101
0000
0000
0100
0001
0100
,
0001
0000
0000
0000
,
0110
0000
1001
0000
0000
0001
1000
0001
,
1000
0000
0000
0000
0000
0000
0000
0000
0000
0000
0000
0000
0000
0000
0000
0001
,
0000
0000
0000
0100
0000
0000
0000
0010
0000
0000
0000
1000
0000
0000
0000
0001
,
0000
0100
0000
0010
0000
1000
0000
0010
0000
0000
0000
0000
0000
0000
0000
1000
,
0000
0000
0000
0010
0000
0000
0000
0100
0000
0000
0000
0001
0000
0000
0000
1000
,
0000
0010
0000
0100
0000
0001
0000
0100
0000
0000
0000
0000
0000
0000
0001
0000
,
0000
1000
0000
0100
0000
0010
0000
0001
,
1000
0100
0010
0001
0000
0000
0000
1000
,
0000
0001
0000
0010
0000
0100
0000
1000
,
0001
0010
0100
1000
0000
0000
0000
0001
,
0100
0000
1000
0000
0100
0000
0002
0003
0000
0000
0000
0000
0000
0000
0001
0000
,
0010
0000
1000
0000
0010
0000
0002
0003
0000
0000
0000
0000
0000
0000
1000
0000
,
0100
0000
0001
0000
0100
0000
2000
3000
0000
0000
0000
0000
0000
0000
1000
0000
,
0010
0000
0001
0000
0010
0000
2000
3000
0000
0000
0000
0000
0000
0000
1010
0000
,
0000
0101
0000
0000
0100
0001
0100
0001
,
0000
0000
0000
0000
0000
0000
0000
0011
,
0000
1100
0000
0000
0100
1000
0100
1000
,
0000
0000
0000
0000
0000
0000
0000
0101
,
0000
1010
0000
0000
0010
1000
0010
1000
,
0000
0000
0000
0000
0000
0000
0000
1100
,
0000
0011
0000
0000
0010
0001
0010
0001
,
0000
0000
0000
0000
0000
0000
0000
1000
,
0100
0010
0001
0100
0000
0000
0000
0010
,
1000
0000
0100
0000
0010
0000
0001
0000
0000
0000
0000
0000
0000
0000
0000
0100
,
0000
0010
0000
1000
0000
0100
0000
0010
0000
0000
0000
0000
0000
0000
0000
0001
,
0000
0100
0000
0010
0000
1000
0000
0100
0000
0000
0000
0000
0000
0000
0000
0010
,
0000
0001
0000
0100
0000
0010
0000
1000
0000
0000
0000
0000
0000
0000
0000
0100
,
0000
0010
0000
0001
0000
0100
0000
0010
0000
0000
0000
0000
0000
0000
0000
1000
,
0000
0100
0000
0010
0000
0001
0000
0100
0000
0000
0000
0000
0000
0000
0000
0010
,
0000
1000
0000
0100
0000
0010
0000
0001
0000
0000
0000
0000
0000
0000
0000
1000
,
0000
0000
0000
0100
0000
0000
0000
0001
0000
0000
0000
0100
0000
0000
0000
2000
,
0000
3000
0000
2000
0000
3000
0000
2000
0000
3000
0000
2000
0000
3000
0000
0001
,
0000
0100
0000
1000
0000
0100
0000
0001
0000
0000
0000
0000
0000
0000
0000
0000
,
1000
0010
0001
0010
,
2000
3000
2000
3000
2000
3000
2000
3000
,
0001
0010
1000
0010
0001
0000
0000
0000
,
0001
0100
1000
0100
,
0002
0003
0002
0003
0002
0003
0002
0003
,
1000
0100
0001
0100
1000
0000
0000
0000
,
0001
0010
1000
0010
,
0002
0003
0002
0003
0002
0003
0002
0003
,
1000
0010
0001
0010
1000
0000
0000
0000
,
0001
0010
0001
0010
0001
0010
0000
0000
,
0000
0001
0000
1000
0000
0001
0000
1000
0000
0001
0000
1000
0000
0000
0000
0000
,
0000
0001
0100
0001
0100
0001
0100
0000
,
0000
0010
0100
0010
0100
0010
0100
0010
,
0100
0101
0000
1010
0000
0000
1000
0010
,
1000
0010
0000
0000
0000
0000
0000
0000
,
0000
0000
0000
0011
0000
0000
0000
1100
0000
0000
0000
0000
0000
1000
0000
0100
,
0000
1000
0000
0100
0000
0000
0000
0000
0000
0000
0000
0000
0000
0000
0000
0000
,
0000
0000
0000
1010
0000
0000
0000
0101
0000
0000
0000
0000
0000
0001
0000
0100
,
0000
0001
0000
0100
0000
0000
0000
0000
0000
0000
0000
0000
0000
0000
0000
0000
,
0000
0000
0000
1100
0000
0000
0000
0011
0000
0000
0000
0000
0000
0001
0000
0010
,
0000
0001
0000
0010
0000
0000
0000
0000
0000
0000
0000
0000
0000
0000
0000
0000
,
0000
0000
0000
1000
0000
0000
0000
0100
0000
0000
0000
0010
0000
0000
0000
0001
,
0000
0000
0000
0010
0000
0001
0000
0100
0000
0001
0000
1000
0000
0000
0000
0000
,
0000
0000
0000
0001
0000
0000
0000
0010
0000
0000
0000
0100
0000
0000
0000
1000
,
0000
0000
0000
0100
0000
1000
0000
0010
0000
1000
0000
0001
0000
0000
0000
0000
,
0000
0000
0000
1001
0000
0000
0000
0011
0000
0000
0000
1100
0000
0000
0000
0220
,
0000
0000
0000
0330
0000
0000
0000
0000
0000
0000
0000
0000
0000
0000
0000
0000
;

//---------------dance-single - LinkDude12----------------
#NOTES:
     dance-single:
     LinkDude12:
     Hard:
     8:
     0.360747,0.491309,0.000000,0.017815,0.612379,567.000000,567.000000,0.000000,4.000000,8.000000,0.000000,0.360747,0.491309,0.000000,0.017815,0.612379,567.000000,567.000000,0.000000,4.000000,8.000000,0.000000:
0000
0000
0000
0000
,
0000
0000
0000
0000
,
0000
0000
0000
0000
,
0000
0000
0000
0000
,
0000
0000
0000
0000
,
0000
0000
0000
0000
,
0M00
M000
00M0
M000
,
0M00
M000
00M0
M000
,
0001
0000
0000
0000
1000
0000
0000
0000
0001
0000
0000
1000
0001
0000
1000
0000
,
0000
0001
0000
1000
0001
0000
1000
0001
0000
0000
0000
0000
0000
0000
0000
0000
,
1000
0000
0000
0000
0100
0000
0000
0000
1000
0000
0000
0100
1000
0000
0100
0000
,
0000
0010
0000
0100
0010
0000
0100
0010
0000
0000
0000
0000
0000
0000
0000
0000
,
0001
0000
0000
0000
0010
0000
0000
0000
0001
0000
0000
0010
0001
0000
0010
0000
,
0000
0001
0000
0100
0001
0000
0100
0001
0000
0000
0000
0000
0000
0000
0000
0000
,
0100
0000
0000
0000
0010
0000
0000
0000
0100
0000
0000
0010
0100
0000
0010
0000
,
0000
1000
0000
0010
1000
0000
0010
1000
0000
0000
0000
0000
0000
0000
0000
0100
,
1000
0000
0100
0000
1000
0000
0100
1000
0000
0100
0000
0000
0000
0000
0010
0000
,
0100
0010
0000
0100
0000
0010
0100
0000
0010
0000
0100
0000
0000
0000
0000
0010
,
0000
0001
0000
0010
0001
0000
0010
0001
0000
0010
0001
0000
0000
0000
0000
1000
,
0001
1000
0000
0001
0000
1000
0000
0001
1000
0000
0001
0000
1000
0001
0000
1000
,
0000
0010
1000
0000
0010
1000
0000
0000
0000
0000
0000
0010
0000
0100
0010
0100
,
0010
0100
0000
0000
0000
0000
0000
0000
,
0000
0001
0100
0000
0001
0100
0000
0000
0000
0000
0001
0000
0010
0001
0010
0001
,
0000
0010
0000
0000
0000
0000
0000
0000
0000
0000
0000
0000
0000
0000
0000
0000
,
0000
0100
0010
0000
0100
0010
0000
0000
0000
0000
0100
0000
1000
0100
1000
0100
,
0000
1000
0000
0000
0000
0000
0000
0000
0000
0000
0000
0000
0000
0000
0000
0000
,
0000
0010
1000
0000
0010
1000
0000
0000
0000
0000
0010
0000
0100
0010
0100
0010
,
0000
0100
0000
0000
0000
0000
0000
0000
0000
0000
0000
0000
0000
0000
0000
0000
,
0000
0001
0000
0000
0000
1000
0000
0000
0000
0100
0000
0000
0010
0001
0000
0010
,
0000
0000
0001
0000
1000
0001
0000
1000
0001
0000
0000
0000
0000
0000
0000
0000
,
1000
0000
0000
0000
0001
0000
0000
0000
0010
0000
0000
0100
1000
0000
0100
0000
,
0000
1000
0000
0001
1000
0000
0001
1000
0000
0000
0000
0000
0000
0000
0000
0000
,
0001
0000
0000
0000
0100
0000
0000
0000
0010
0000
0000
1000
0010
0000
1000
0000
,
0000
0001
0000
1000
0001
0000
1000
0001
0000
0000
0000
0000
0000
0000
0000
0000
,
1000
0000
0000
0000
0010
0000
0000
0000
0100
0000
0000
0001
0100
0000
0001
0000
,
0000
1000
0000
0001
1000
0000
0001
1000
0000
0000
0000
0000
0000
0000
0000
0000
,
0001
0000
0100
0001
0000
1000
0001
0000
0010
0000
0001
0000
0000
0000
0000
0000
,
1000
0000
0010
1000
0000
0001
0000
1000
0100
0000
1000
0000
0000
0000
0001
0000
,
0010
0001
0000
1000
0000
0001
0000
0100
0001
0000
1000
0000
0000
0000
0001
1000
,
0000
0001
0000
1000
0001
1000
0001
1000
0000
0001
0000
1000
0001
0000
1000
0000
,
0001
0100
0000
0001
0100
0000
0000
0000
0000
0010
0000
0100
0010
0100
0010
0000
,
0100
0000
0000
0000
,
0010
1000
0000
0010
1000
0000
0000
0000
0000
0100
0000
1000
0100
1000
0100
0000
,
1000
0000
0000
0000
,
0100
0010
0000
0100
0010
0000
0000
0000
0000
0001
0000
0010
0001
0010
0001
0000
,
0010
0000
0000
0000
,
0001
0100
0000
0001
0100
0000
0000
0000
0000
0010
0000
0100
0010
0100
0010
0000
,
0100
0000
0000
0000
0000
0000
0000
0000
0000
0000
0000
0000
0000
0000
0000
0001
,
0000
0000
0000
0100
0000
0000
0000
0010
0000
0000
1000
0010
0000
1000
0000
0000
,
0001
0000
1000
0100
0000
1000
0001
0000
0000
0000
0000
0000
0000
0000
0000
1000
,
0000
0000
0000
0010
0000
0000
0000
0100
0000
0000
0001
0100
0000
0001
0000
0000
,
1000
0000
0001
0010
0000
0001
1000
0000
0000
0000
0000
0000
0000
0000
1000
0000
,
0000
0000
0001
0000
0000
0000
0100
0000
0000
0010
0100
0000
0010
0000
0000
1000
,
0000
0010
0100
0000
0010
0100
0000
0000
0000
0000
0000
0000
0000
0000
0001
0000
,
0000
0000
1000
0000
0000
0000
0100
0000
0000
0010
0100
0000
0010
0000
0000
0001
,
0000
0010
0100
0000
0010
0100
0000
0000
0000
0000
0000
1000
0000
0100
1000
0000
,
0001
0000
1000
0010
0000
1000
0000
0001
0000
0000
0000
0000
1000
0000
0001
0000
,
0100
0001
0000
1000
0000
0001
0010
0000
0001
0000
0000
0000
0010
0000
0100
0010
,
0000
0100
0000
0010
0000
0100
0010
0100
0000
0000
0000
1000
0000
0001
1000
0001
,
0000
1000
0001
1000
0000
0001
1000
0000
0001
1000
0001
1000
0000
0000
0001
0010
,
0000
0001
0010
0000
0000
0000
0000
0100
0000
0010
0100
0010
0100
0000
0010
0000
,
0000
0000
0000
0000
0000
0000
0000
0000
0000
0000
0000
0000
0000
0000
0100
1000
,
0000
0100
1000
0000
0000
0000
0000
0010
0000
1000
0010
1000
0010
0000
1000
0000
,
0000
0000
0000
0000
0000
0000
0000
0000
0000
0000
0000
0000
0000
0000
0010
0100
,
0000
0010
0100
0000
0000
0000
0000
0001
0000
0100
0001
0100
0001
0000
0100
0000
,
0000
0000
0000
0000
0000
0000
0000
0000
0000
0000
0000
0000
0000
0000
0001
0010
,
0000
0001
0010
0000
0000
0000
0000
0100
0000
0010
0100
0010
0100
0000
0010
0000
,
0000
0000
0000
0000
0000
0000
0000
0000
0000
0000
0000
0000
0000
0000
0100
1000
,
0000
0100
1000
0100
0000
1000
0000
0000
0000
0000
0000
0000
0000
0010
1000
0010
,
0000
1000
0000
0010
1000
0000
0010
0000
0000
0000
0000
0000
0000
0000
0000
0000
,
0100
0010
0000
0100
0010
0000
0100
0000
0000
0000
0000
0000
0000
0000
0000
0001
,
0000
0100
0001
0100
0000
0001
0000
0000
0000
0000
0000
0000
0000
0000
0000
0000
,
0000
0000
0010
0000
0001
0000
0010
0000
0000
0000
0000
0000
0000
0100
0010
0100
,
0000
0010
0000
0100
0010
0000
0100
0000
0000
0000
0000
0000
0000
0000
0000
0000
,
1000
0100
0000
1000
0100
0000
1000
0000
0000
0000
0000
0000
0000
0000
0000
0010
,
0000
1000
0010
1000
0000
0010
0000
0000
0000
0000
0000
0000
0000
0000
0000
0100
,
0000
0000
0000
0010
0000
0000
0000
0100
0000
0000
0010
0100
0000
0020
0000
0100
,
0000
0000
0000
0100
0000
0000
0000
0100
0000
0000
0000
0130
0000
0000
0000
0001
,
0100
0000
0001
0100
0000
0001
0100
0000
0000
0000
0000
0000
0000
0000
0000
0000
,
0001
0000
0000
0000
0010
0000
0000
0000
0001
0000
0000
0010
0001
0000
0020
0000
,
0001
0001
0001
0031
,
0010
0100
0000
0010
0100
0000
0010
0100
0000
0000
0000
0000
0000
0000
0000
0000
,
1000
0000
0000
0000
0100
0000
0000
0000
1000
0000
0000
0100
1000
0000
0200
0000
,
1000
1000
1000
1300
,
0010
1000
0000
0010
1000
0000
1000
0010
0000
0000
0000
0000
0000
0000
0000
0000
,
0100
0000
0000
0000
0010
0000
0000
0000
0100
0000
0000
0010
0100
0000
0020
0000
,
0100
0100
0100
0130
,
0001
0100
0000
0001
0100
0000
0001
0100
0000
0000
0000
0000
0000
0000
0000
0001
,
0000
0010
0001
0000
0010
0000
0001
0000
0010
0001
0000
0010
0000
0000
0000
0000
,
0000
0001
0000
1000
0001
0000
1000
0000
0001
1000
0000
0001
0000
0000
0000
0000
,
1000
0000
0100
0000
1000
0100
0000
1000
0100
0000
1000
0000
0100
0000
0000
0000
,
0010
0100
0010
0100
0000
0010
0100
0000
0010
0100
0000
0010
0000
0100
0010
0000
,
0100
0000
0010
0001
0000
0010
0001
0000
0000
0000
0000
1000
0000
0100
1000
0100
,
1000
0100
0000
0000
0000
0000
0000
0000
,
0000
0000
0000
0010
0100
0000
0010
0100
0000
0000
0000
0000
0010
0000
0001
0010
,
0001
0010
0000
0001
0000
0000
0000
0000
0000
0000
0000
0000
0000
0000
0000
0000
,
0000
0000
0000
0100
0001
0000
0100
0001
0000
0000
0000
0000
0100
0000
0010
0100
,
0010
0100
0000
0010
0000
0000
0000
0000
0000
0000
0000
0000
0000
0000
0000
0000
,
0000
0000
0000
1000
0010
0000
1000
0010
0000
0000
0000
0000
0100
0000
0010
0100
,
0010
0100
0000
0010
0000
0000
0000
0000
0000
0000
0000
0000
0000
0000
0000
0000
,
0000
0000
0000
0100
0000
0000
0000
0001
0000
0000
0000
1000
0000
0000
0001
0010
,
0000
0001
0000
0000
1000
0000
0001
0100
0000
0001
1000
0000
0000
0000
0000
0000
,
0000
0000
0000
0010
0000
0000
0000
1000
0000
0000
0000
0001
0000
0000
1000
0100
,
0000
1000
0000
0000
0001
0000
1000
0010
0000
1000
0001
0000
0000
0000
0000
0000
,
0000
0000
0000
1000
0000
0000
0000
0100
0000
0000
0000
0010
0000
0000
0001
0010
,
0000
0100
0000
0000
0000
0000
0000
0000
0000
0000
0000
0000
0000
0000
0000
0000
;

//---------------dance-single - LinkDude14----------------
#NOTES:
     dance-single:
     LinkDude14:
     Challenge:
     9:
     0.443458,0.491894,0.120249,0.080166,0.743763,697.000000,670.000000,27.000000,18.000000,8.000000,0.000000,0.443458,0.491894,0.120249,0.080166,0.743763,697.000000,670.000000,27.000000,18.000000,8.000000,0.000000:
0000
0000
0000
0000
,
0000
0000
0000
0000
,
0000
0M00
0000
0000
0000
M000
0000
0000
0000
00M0
0000
0000
0000
M000
0000
0000
,
0000
0M00
0000
0000
0000
M000
0000
0000
0000
00M0
0000
0000
0000
M000
0000
0000
,
0000
0000
0001
1000
0000
0001
0000
1000
0001
0000
1000
0000
0000
0000
0000
0000
,
0000
0000
0001
0010
0000
0100
0000
0010
0001
0000
0000
0000
0000
0000
0000
0000
,
0000
0000
1000
0100
0000
1000
0000
0010
1000
0000
0100
0000
0000
0000
0010
0000
,
0001
0010
0000
0001
0100
0001
0000
0100
0000
0000
0000
0000
0000
0000
0000
0000
,
0001
0000
0000
0000
1000
0000
0000
0000
0001
0000
0000
1000
0001
0000
0010
0000
,
0000
0001
0000
1000
0001
0000
1000
0100
0000
0000
0000
0000
0000
0000
0000
0000
,
0010
0000
0000
0000
0100
0000
0000
0000
0010
0000
0000
0100
0010
0000
0001
0000
,
0000
0010
0000
0100
0010
0000
0100
1000
0000
0000
0000
0000
0000
0000
0000
0000
,
0001
0000
0000
0000
0010
0000
0000
0000
0001
0000
0000
0100
0001
0000
1000
0000
,
0000
0001
0000
0100
0001
0000
0100
0010
0000
0000
0000
0000
0000
0000
0000
0000
,
1000
0000
0000
0000
0100
0000
0000
0000
1000
0000
0000
0010
1000
0000
0001
0000
,
0000
1000
0000
0010
1000
0000
0010
0100
0000
0000
0000
0000
0000
0000
0000
0001
,
1000
0000
0001
0000
1000
0000
0100
1000
0000
0100
0000
0000
0000
0000
0010
0000
,
0001
0010
0000
0001
0000
1000
0001
0000
1000
0000
0001
0000
0000
0000
0000
1000
,
0000
0010
0000
1000
0010
0000
0100
0010
0000
0100
0010
0000
0000
0000
0000
0100
,
0001
0100
0000
0001
0000
0100
0000
0001
0010
0000
0001
0000
0010
0001
0000
0010
,
0000
0001
0001
0000
1000
1000
0000
0000
0000
0000
0000
0010
0000
0100
0010
0100
,
0010
0000
0100
0000
0000
0001
0000
1000
0000
0000
0001
0000
1000
0001
0000
1000
,
0000
0010
1000
0000
0100
1000
0000
0000
0000
0000
0001
0000
0010
0001
0010
0001
,
0000
0100
0000
0000
0001
0000
1000
0000
0000
0000
0001
0000
1000
0001
0000
1000
,
0000
0010
1000
0000
0100
1000
0000
0000
0000
0000
0001
0000
0010
0001
0010
0001
,
0000
0100
0000
0000
0001
0000
1000
0000
0000
0000
0001
0000
1000
0001
0000
1000
,
0000
0001
0100
0000
0010
1000
0000
0000
0000
0000
0001
0000
1000
0100
1000
0100
,
0000
0010
0000
0000
2002
3003
0000
0000
0000
0000
0000
0000
0000
0000
0000
0000
,
0000
1000
0000
0000
0000
0001
0000
0000
0000
0100
0000
0000
0010
1000
0000
0010
,
0000
0000
1000
0000
0001
1000
0000
0001
1000
0000
0000
0000
2002
3003
0000
0000
,
0001
0000
0000
0000
1000
0000
0000
0000
0010
0000
0000
0100
0001
0000
0100
0000
,
0000
0001
0000
1000
0001
0000
1000
0010
0000
0000
0000
0000
0000
0000
0000
0000
,
1000
0000
0000
0000
0100
0000
0000
0000
0010
0000
0000
0001
0010
0000
0001
0000
,
0000
1000
0000
0001
1000
0000
0001
0100
0000
0000
0000
0000
0000
0000
0000
0000
,
0001
0000
0000
0000
0010
0000
0000
0000
0100
0000
0000
1000
0100
0000
1000
0000
,
0000
0001
0000
1000
0001
0000
1000
0010
0000
0000
0000
0000
0000
0000
0000
0000
,
1000
0000
0100
1000
0000
0001
1000
0000
0010
0000
1000
0000
0000
0000
0000
0000
,
0001
0000
0010
0001
0000
1000
0000
0001
0100
0000
0001
0000
0000
0000
1000
0000
,
0010
1000
0000
0001
0000
1000
0000
0100
1000
0000
0001
0000
0000
0000
1000
0100
,
0000
1000
0000
0100
0010
0100
0001
0100
0000
0010
0000
0100
1000
0000
0100
0000
,
1000
1000
0000
0001
0001
0000
0000
0000
0000
0010
0000
0100
0010
0100
0010
0000
,
0100
0000
0000
0000
1000
0000
0001
0000
0000
1000
0000
0001
1000
0000
0001
0000
,
1000
0010
0000
0100
0001
0000
0000
0000
0000
0100
0000
0001
0010
0001
0010
0000
,
0001
0000
0000
1000
0000
0001
0000
0100
0001
0000
1000
0000
0000
0000
0000
0000
,
0010
1000
0000
0001
0100
0000
0000
0000
0000
0010
0000
1000
0001
1000
0001
0000
,
0100
0000
0000
0000
0001
0000
1000
0001
0000
1000
0000
0001
0000
0000
0000
0000
,
0100
0001
0000
1000
0010
0000
0000
0000
0000
0100
0000
0001
1000
0001
1000
0000
,
0010
0000
0000
2002
3003
0000
0000
0000
0000
0000
0000
0000
0000
0000
0000
0001
,
0000
0000
0000
0100
0000
0000
0000
0010
0000
0000
0001
0010
0000
0001
0000
0000
,
1000
0000
0001
0100
0000
0001
1000
0000
0000
0000
0000
0000
0000
0000
0000
0001
,
0000
0000
0000
0010
0000
0000
0000
0100
0000
0000
1000
0100
0000
1000
0000
0000
,
0001
0000
1000
0010
0000
1000
0001
0000
0000
0000
2002
3003
0000
0000
0001
0000
,
0000
0000
1000
0000
0000
0000
0100
0000
0000
0010
0100
0000
0010
0000
0000
0001
,
0000
0010
0100
0000
1000
0100
0000
0000
0000
2002
3003
0000
0000
0000
1000
0000
,
0000
0000
0001
0000
0000
0000
0100
0000
0000
0010
0100
0000
0010
0000
0000
1000
,
0000
0010
0100
0000
0001
0100
0000
0000
0000
0000
0000
0010
0000
1000
0010
0000
,
0100
0000
0010
0001
0000
0010
0000
1000
0000
0000
0000
0000
0001
0000
0100
0000
,
0001
0100
0000
0010
0000
0100
1000
0000
0100
0000
0000
0000
0001
0000
1000
0001
,
0000
0100
0000
0010
0000
1000
0010
0100
0000
0000
0000
0001
0000
0010
0001
0010
,
0000
0100
1000
0100
0000
1000
0001
0000
0010
0001
0010
0001
0000
0000
1000
0010
,
0000
0010
1000
0000
0000
0000
0000
0001
0000
0100
0001
0100
0001
0000
0100
0000
,
0000
0001
0000
1000
0000
0000
0000
0001
0000
1000
0001
0000
1000
0000
0001
0010
,
0000
0010
0001
0000
0000
0000
0000
1000
0000
0100
1000
0100
1000
0000
0100
0000
,
0000
1000
0000
0001
0000
1000
0000
0001
1000
0001
1000
0001
1000
0000
0100
1000
,
0000
0100
1000
0000
0000
0000
0000
0001
0000
0010
0001
0010
0001
0000
0010
0000
,
0000
0001
0000
1000
0001
1000
0001
0000
0000
0000
0000
0000
0000
0000
0001
0100
,
0000
0100
0001
0000
0000
0000
0000
1000
0000
0010
1000
0010
1000
0000
0010
0000
,
0000
2002
3003
0000
0000
0000
0000
0000
0000
0000
0000
0000
0000
0000
0100
0001
,
0000
1000
0010
0100
0000
0001
0000
0000
0000
0000
0000
0000
0000
0010
0100
1000
,
0000
0010
0000
0100
0001
0000
0010
0000
0000
0000
0000
0000
0000
0000
0000
0000
,
0100
1000
0000
0010
0100
0000
0001
0000
0000
0000
0000
0000
0000
0000
0000
0010
,
0000
0100
1000
0010
0000
0100
0000
0000
2002
3003
0000
0000
0000
0000
0000
0000
,
0000
0000
0001
0000
0010
0000
0100
0000
0000
0000
0000
0000
0000
1000
0010
0100
,
0000
0001
0000
0010
0100
0000
1000
0000
0000
0000
0000
0000
0000
0000
0000
0000
,
0010
0100
0000
0001
0010
0000
0100
0000
0000
0000
0000
0000
0000
0000
0000
1000
,
0000
0010
0100
0001
0000
0010
0000
0000
0000
0000
0000
0000
0000
0000
0000
0001
,
0000
0000
0000
1000
0000
0000
0000
0001
0000
0000
1000
0001
0000
1000
0000
1001
,
0000
0000
0000
0101
0000
0000
0000
0110
0000
0000
0000
1010
0000
0000
0000
1000
,
0010
0000
1000
0010
0000
1000
0010
0000
0000
0000
0000
0000
0000
0000
0000
0000
,
1000
0000
0000
0000
0010
0000
0000
0000
0100
0000
0000
0010
0100
0000
0001
0000
,
0101
0110
1010
1100
,
1000
0010
0000
1000
0010
0000
1000
0010
0000
0000
0000
0000
0000
0000
0000
0000
,
1000
0000
0000
0000
0100
0000
0000
0000
0001
0000
0000
0100
1000
0000
0100
0000
,
1100
1001
0011
0110
,
1000
0100
0000
0010
0100
0000
0001
0100
0000
0000
0000
0000
0000
0000
0000
0000
,
1000
0000
0000
0000
0010
0000
0000
0000
0001
0000
0000
0010
1000
0000
0010
0000
,
1010
0110
0101
1001
,
0001
0010
0000
0100
0010
0000
1000
0010
0000
0000
0000
0000
0000
0000
0000
1000
,
0000
0100
0010
0000
0001
0000
1000
0000
0100
0010
0000
0001
0000
0000
0000
0000
,
0000
1000
0000
0001
1000
0000
0001
0000
1000
0001
0000
1000
0000
0000
0000
0000
,
1000
0000
0010
0000
0100
0001
0000
1000
0010
0000
0100
0000
0001
0000
0000
0000
,
0010
0001
0010
0001
0000
1000
0100
0000
1000
0100
0000
0010
0000
0001
0010
0000
,
0001
0000
1000
0100
0000
0010
0100
0000
0000
0000
0000
1000
0000
0010
0100
0010
,
0100
0000
0001
0000
0000
1000
0000
0001
0000
0000
0000
0000
1000
0000
0001
1000
,
0000
0001
0000
1000
0010
0000
0100
0010
0000
0000
0000
0000
1000
0000
0100
0010
,
0100
0010
0000
0001
0000
0000
1000
0000
0010
0000
0001
0000
0100
0000
1000
0000
,
0000
0000
0000
0001
0100
0000
0010
0100
0000
0000
0000
0000
0001
0000
0010
0100
,
0010
0100
0000
1000
0000
0000
0001
0000
0100
0000
0000
0000
0001
0000
0010
0001
,
0000
1000
0000
0001
0010
0000
0100
0010
0000
0000
0000
0000
0001
0000
0100
0010
,
0100
0010
0000
1000
0000
0000
2002
3003
0000
0000
0000
0000
0000
0000
0000
0000
,
0000
0000
0000
0001
0000
0000
0000
0010
0000
0000
0000
0100
0000
0000
1000
0100
,
0000
0010
0000
0000
0001
0000
0010
0100
0000
1000
0100
0000
0000
0000
0000
0000
,
0000
0000
0000
1000
0000
0000
0000
0010
0000
0000
0000
0100
0000
0000
0001
0100
,
0000
0010
0000
0000
1000
0000
0010
0100
0000
0001
0100
0000
0000
0000
0000
0000
,
0000
0000
0000
0101
0000
0000
0000
0110
0000
0000
0000
1010
0000
0000
0010
2000
,
0000
0020
0000
3030
0000
0000
0000
0000
0000
0000
0000
0000
0000
0000
0000
0000
;

//---------------dance-single - LinkDump17----------------
#NOTES:
     dance-single:
     LinkDump17:
     Edit:
     11:
     0.811840,0.772057,0.000000,0.000000,1.436308,1276.000000,1276.000000,0.000000,0.000000,8.000000,0.000000,0.811840,0.772057,0.000000,0.000000,1.436308,1276.000000,1276.000000,0.000000,0.000000,8.000000,0.000000:
0000
0000
0000
0000
,
0000
0000
0000
0000
,
0000
0M00
0000
0000
0000
M000
0000
0000
0000
00M0
0000
0000
0000
M000
0000
0000
,
0000
0M00
0000
0000
0000
M000
0000
0000
0000
00M0
0000
0000
0000
M000
0000
0000
,
0000
0000
0001
1000
0000
0001
0000
1000
0010
0000
0100
0000
0000
0000
0000
0000
,
0000
0000
0010
0100
0000
0001
0000
1000
0001
0000
0000
0000
0000
0000
0000
0000
,
0000
0000
1000
0010
0000
0100
0000
0010
1000
0000
0001
0000
0000
0000
1000
0000
,
0001
0100
0000
0010
0100
0001
0000
1000
0000
0000
0000
0000
0000
0000
0000
0000
,
0001
1000
0010
0100
0010
1000
0001
1000
0001
0100
0010
0100
0010
1000
0001
1000
,
0001
0100
0010
1000
0001
1000
0001
0100
0000
0000
0000
0000
0000
0000
0000
0000
,
0010
0100
0010
1000
0001
1000
0001
0100
0010
1000
0100
1000
0001
0010
0001
0100
,
0010
1000
0001
1000
0001
0100
0010
1000
0000
0000
0000
0000
0000
0000
0000
0000
,
0100
1000
0001
0010
0001
0100
0010
1000
0100
1000
0001
0010
0001
1000
0100
1000
,
0001
0010
0001
0100
0010
1000
0100
1000
0000
0000
0000
0000
0000
0000
0000
0000
,
0001
0010
0001
1000
0100
1000
0010
0100
0001
0010
0001
1000
0100
1000
0001
0010
,
0001
1000
0100
1000
0010
0100
0001
0010
0000
0000
0000
0000
0000
0000
0000
0001
,
1000
0100
1000
0010
0100
0001
1000
0001
1000
0010
0000
0000
0000
0000
0100
0001
,
0010
0001
1000
0100
1000
0010
0100
0001
1000
0001
1000
0000
0000
0000
0000
0010
,
0100
0010
0100
0001
1000
0001
1000
0010
0100
0001
1000
0000
0000
0000
0000
0001
,
1000
0001
1000
0001
0010
0100
0010
0100
1000
0001
1000
0001
0010
0100
0010
0001
,
1000
0001
1000
0100
0010
0100
1000
0001
1000
0001
0010
0100
0010
0001
1000
0001
,
1000
0100
0010
0100
0010
0001
1000
0001
1000
0100
0010
0001
1000
0001
1000
0100
,
0010
0100
0010
0001
1000
0001
1000
0100
0010
0001
0100
0001
1000
0010
1000
0100
,
0010
0001
1000
0001
1000
0100
0010
0001
0100
0001
1000
0010
1000
0100
0010
0001
,
0100
0001
1000
0010
1000
0001
0100
0001
1000
0010
1000
0100
0010
0001
0100
0001
,
1000
0010
1000
0001
0100
0001
0010
0100
1000
0010
1000
0001
0100
0001
1000
0010
,
1000
0001
0100
0001
0010
0100
1000
0010
1000
0001
0100
0001
0010
0100
1000
0001
,
1000
0001
0000
0000
0010
0000
0000
0000
0000
0000
0000
0000
0000
0000
0000
0000
,
0000
0100
1000
0010
1000
0001
0100
0001
0010
0100
1000
0001
1000
0001
0010
0100
,
0010
0100
1000
0001
1000
0001
0010
0100
1000
0000
0000
0000
0001
0000
0000
0000
,
1000
0001
1000
0010
1000
0001
0100
0001
0010
0100
1000
0010
1000
0001
0100
0001
,
1000
0010
1000
0100
0010
0001
0100
0010
0000
0000
0000
0000
0000
0000
0000
0000
,
1000
0100
1000
0001
0010
0001
1000
0100
1000
0010
0100
0001
0010
0001
1000
0100
,
1000
0010
0100
0001
1000
0010
1000
0100
0000
0000
0000
0000
0000
0000
0000
0000
,
0010
0001
0100
0001
1000
0010
1000
0100
0010
0001
1000
0001
1000
0100
0010
0100
,
0010
0001
1000
0100
1000
0010
0100
0001
0000
0000
0000
0000
0000
0000
0000
0000
,
1000
0001
1000
0010
0100
0010
0100
0001
1000
0001
1000
0000
0000
0000
0000
0000
,
0010
0100
0010
1000
0001
1000
0100
0010
0100
0010
0001
0000
0000
0000
1000
0001
,
1000
0100
0010
0100
1000
0001
1000
0001
0010
0100
0010
0000
0000
0000
0100
1000
,
0001
1000
0010
0100
0010
1000
0001
1000
0001
0100
0010
0100
0010
1000
0001
1000
,
0001
0100
0010
1000
0100
1000
0001
0010
0100
0010
0100
1000
0001
1000
0001
0010
,
0100
1000
0010
1000
0001
0100
0001
0010
0100
1000
0010
1000
0001
0100
0010
1000
,
0001
1000
0001
0100
0001
1000
0010
1000
0100
0010
0001
0100
0001
1000
0010
1000
,
0001
0100
0001
0010
0100
1000
0010
0100
0001
0010
0001
1000
0100
1000
0001
0010
,
0001
0100
0010
1000
0100
1000
0001
0010
0001
0100
0010
1000
0001
0100
0001
0010
,
0100
1000
0010
1000
0001
0100
0001
0010
0100
1000
0001
1000
0001
0010
0100
0010
,
0100
1000
0001
0010
0001
0100
0010
1000
0001
1000
0001
0100
0010
0100
0010
1000
,
0001
0000
0000
1000
0000
0000
0000
0000
0000
0000
0000
0000
0000
0000
0000
0001
,
0100
0010
0100
0001
1000
0001
0010
0100
0010
0100
1000
0001
1000
0001
0010
0100
,
0010
0001
1000
0001
1000
0100
0010
0000
0000
0000
0000
0000
0000
0000
0000
0100
,
0010
0001
1000
0001
0100
0010
0100
0001
1000
0001
1000
0010
0100
0010
0100
0001
,
1000
0001
1000
0010
0100
0001
0010
0000
0000
0000
0001
0000
0000
0000
1000
0100
,
0010
0100
0010
0001
1000
0001
1000
0100
0010
0001
0100
0001
1000
0010
1000
0100
,
0010
0001
0100
0001
1000
0010
0000
0000
0000
0100
0000
0000
0000
0000
0001
1000
,
0001
1000
0001
0010
0100
1000
0010
1000
0001
0100
0001
0010
0100
1000
0010
0100
,
0001
0010
0001
1000
0100
1000
0000
0000
0000
0000
0000
0001
0010
0001
0100
0010
,
1000
0100
0010
0001
0100
0001
1000
0010
0000
0000
0000
0000
1000
0100
0010
0001
,
0100
0001
1000
0010
0100
0001
0010
0001
1000
0000
0000
0000
0100
1000
0010
0100
,
0001
0010
0001
1000
0100
0010
0100
0010
0000
0000
0000
0001
1000
0001
1000
0100
,
0010
0001
0100
0001
1000
0010
0100
0010
0100
0001
1000
0001
1000
0010
0100
0010
,
0100
0001
1000
0001
0010
0100
0010
0001
1000
0001
1000
0100
0010
0100
0010
0001
,
1000
0001
0100
0010
0100
0010
1000
0001
1000
0001
0100
0010
0100
0001
1000
0001
,
0010
0100
0010
0100
1000
0001
1000
0001
0010
0100
0010
0100
1000
0001
0010
0001
,
0100
0010
1000
0001
1000
0001
0100
0010
0100
0010
1000
0001
0100
0001
0010
0100
,
1000
0010
1000
0001
0100
0001
0010
0100
1000
0001
0010
0001
1000
0001
1000
0100
,
0010
0001
0100
0001
1000
0010
1000
0100
0010
0001
0100
0010
1000
0100
1000
0001
,
0010
0001
1000
0100
1000
0010
0100
0001
0010
0100
1000
0010
1000
0001
0100
0000
,
0000
0001
0000
0000
0000
0000
0000
0000
0000
0000
0000
0000
0000
0000
0010
0100
,
1000
0010
1000
0001
0100
0010
0000
0000
0000
0000
0000
0000
0000
1000
0100
1000
,
0001
0010
0001
0100
0010
1000
0100
0000
0000
0000
0000
0000
0000
0000
0000
0000
,
1000
0001
0010
0100
0010
0100
1000
0000
0000
0000
0000
0000
0000
0000
0000
0001
,
1000
0001
0010
0100
1000
0010
0000
0000
1000
0000
0000
0000
0000
0000
0000
0000
,
0000
0000
0001
0100
0010
0100
0010
0000
0000
0000
0000
0000
0000
1000
0001
1000
,
0001
0100
0010
0100
0010
1000
0001
0000
0000
0000
0000
0000
0000
0000
0000
0000
,
1000
0100
0010
0100
1000
0001
1000
0000
0000
0000
0000
0000
0000
0000
0000
0001
,
0010
0100
0010
0100
1000
0001
0000
0000
0000
0000
0000
0000
0000
0000
0000
1000
,
0010
0100
0010
0100
0001
1000
0001
1000
0010
0100
0010
1000
0001
1000
0100
0010
,
0100
0010
0001
1000
0001
1000
0100
0010
0100
0010
0001
1000
0100
1000
0010
0100
,
0001
1000
0001
1000
0010
0100
0010
0000
0000
0000
0000
0000
0000
0000
0000
0000
,
0100
0001
1000
0010
1000
0100
0010
0001
0100
0001
1000
0010
1000
0100
0010
0001
,
1000
0100
1000
0001
1000
0010
0100
0001
1000
0001
1000
0010
0100
0010
0100
0001
,
1000
0001
0010
0100
0010
0100
1000
0001
0000
0000
0000
0000
0000
0000
0000
0000
,
1000
0010
0100
0010
0100
0001
1000
0001
0010
0100
0010
0100
1000
0001
1000
0001
,
0010
0100
0010
0100
1000
0001
0010
0100
0010
0100
1000
0001
1000
0001
0010
0100
,
0010
0100
1000
0001
0010
0001
0100
0010
0000
0000
0000
0000
0000
0000
0000
0000
,
1000
0100
1000
0001
0010
0100
0010
0100
1000
0001
0010
0001
0100
0010
1000
0100
,
1000
0001
0010
0001
0100
0010
1000
0100
0010
0001
0100
0010
1000
0100
1000
0001
,
0010
0001
0100
0010
1000
0100
0010
0001
0000
0000
0000
0000
0000
0000
0000
0100
,
0001
1000
0010
1000
0100
0010
0001
0100
0010
1000
0100
0010
0000
0000
0000
0000
,
0000
0001
0100
0001
1000
0010
1000
0100
0010
0001
0100
0001
0000
0000
0000
0000
,
1000
0010
0100
0010
0100
0001
1000
0010
1000
0100
0010
0001
0100
0000
0000
0000
,
0001
1000
0010
0100
0010
0100
0001
1000
0001
1000
0010
0100
0010
0100
0001
1000
,
0010
0100
0001
1000
0001
0010
0100
1000
0001
1000
0001
0010
0100
0010
0100
1000
,
0001
1000
0010
0100
0010
0100
0001
1000
0001
0010
0100
0010
0100
1000
0001
1000
,
0010
0100
0010
0100
0001
1000
0001
1000
0010
0100
0010
0100
0001
1000
0010
0100
,
0010
0100
0001
1000
0001
1000
0010
0100
0010
0100
0001
1000
0010
1000
0100
0010
,
0001
0100
0001
1000
0010
0100
0010
0100
0001
1000
0010
1000
0100
0010
0001
0100
,
0001
1000
0010
1000
0100
0010
0001
0100
0010
1000
0100
0010
0001
0100
0001
1000
,
0010
1000
0100
0010
0001
0100
0010
1000
0100
1000
0001
0010
0001
0100
0010
1000
,
0100
0010
0001
0100
0000
0000
0010
0000
0000
0000
0000
0000
0000
0000
0000
0000
,
0000
0000
0000
1000
0100
1000
0001
0010
0001
0100
0010
1000
0100
1000
0001
0010
,
0100
0010
0100
1000
0001
0010
0001
0100
0010
1000
0100
0000
0000
0000
0000
0000
,
0000
0000
0000
1000
0001
0010
0100
0010
0100
1000
0001
1000
0001
0010
0100
0010
,
0100
1000
0001
0010
0100
1000
0001
1000
0001
1000
0010
0000
0000
0000
0000
0000
,
0000
0000
0000
1000
0100
0001
0100
1000
0100
0001
0100
1000
0010
0001
0010
1000
,
0010
0001
0000
0000
0000
0000
0000
0000
0000
0000
0000
0000
0000
0000
0000
0000
;

//---------------dance-double - LinkDude03----------------
#NOTES:
     dance-double:
     LinkDude03:
     Beginner:
     2:
     0.124703,0.163575,0.071259,0.000000,0.167013,196.000000,180.000000,16.000000,0.000000,0.000000,0.000000,0.124703,0.163575,0.071259,0.000000,0.167013,196.000000,180.000000,16.000000,0.000000,0.000000,0.000000:
00000000
00000000
00000000
00000000
,
00000000
00000000
00000000
00000000
,
00000000
00000000
00000000
00000000
,
00000000
00000000
00000000
00000000
,
00000000
00000000
00000000
00000000
,
00000000
00000000
00000000
00000000
,
00000000
00000000
00000000
00000000
,
00000000
00000000
00000000
00000000
,
00001000
00000000
00010000
00000000
,
00001000
00000000
00000000
00000000
,
00010000
00000000
00000100
00000000
,
00001000
00000000
00000000
00000000
,
00000100
00000000
00001000
00000000
,
00000010
00000000
00000000
00000000
,
00000100
00000000
00000010
00000000
,
00001000
00000000
00000000
00000000
00000000
00000000
00000000
00000000
00000000
00000000
00000000
00000000
00000000
00000000
00000000
00000100
,
00000000
00000000
00000000
00000000
00000000
00000000
00000000
00001000
00000000
00000000
00000000
00000000
00000000
00000000
00000000
00000100
,
00000000
00000000
00000000
00000000
00000000
00000000
00000000
00010000
00000000
00000000
00000000
00000000
00000000
00000000
00000000
00000000
,
00000000
00001000
00000000
00000000
00000000
00000000
00000000
00000000
00000000
00010000
00000000
00000000
00000000
00000000
00000000
00000000
,
00000000
00001000
00000000
00000000
00000000
00000000
00000000
00000000
00000000
00100000
00000000
00000000
00000000
00000000
00000000
00000000
,
00000000
00110000
00000000
00000000
00000000
00000000
00000000
00000000
00000000
00000000
00000000
00000000
00000000
00010000
00000000
00000000
,
00000000
00100000
00000000
00000000
00000000
00000000
00000000
00000000
00000000
00000000
00000000
00000000
00000000
00000000
00000000
00000000
,
00000000
00110000
00000000
00000000
00000000
00000000
00000000
00000000
00000000
00000000
00000000
00000000
00000000
00010000
00000000
00000000
,
00000000
01000000
00000000
00000000
00000000
00000000
00000000
00000000
00000000
00000000
00000000
00000000
00000000
00000000
00000000
00000000
,
00000000
01100000
00000000
00000000
00000000
00000000
00000000
00000000
00000000
00000000
00000000
00000000
00000000
00100000
00000000
00000000
,
00000000
01000000
00000000
00000000
00000000
00000000
00000000
00000000
00000000
00000000
00000000
00000000
00000000
00000000
00000000
00000000
,
00000000
01010000
00000000
00000000
00000000
00000000
00000000
00000000
00000000
00000000
00000000
00000000
00000000
00010000
00000000
00000000
,
00000000
00100000
00000000
00000000
00000000
00000000
00000000
00000000
00000000
00000000
00000000
00000000
00000000
00000000
00000000
00000000
,
00000000
00010000
00000000
00000000
00000000
00000000
00000000
00000000
00000000
00100000
00000000
00000000
00000000
00000000
00000000
00000000
,
00000000
00001000
00000000
00000000
00000000
00000000
00000000
00000000
00000000
00000000
00000000
00000000
00000000
00000000
00000000
00000000
,
00010000
00000000
00001000
00000000
,
00010000
00000000
00000000
00000000
,
00000100
00000000
00001000
00000000
,
00000100
00000000
00000000
00000000
,
00001000
00000000
00000010
00000000
,
00000100
00000000
00000000
00000000
,
00000010
00000000
00001000
00000000
,
00000100
00000000
00001000
00000000
,
00000100
00000000
00010000
00000000
,
00001000
00000000
00010000
00000000
,
00011000
00000000
00000000
00001000
,
00100000
00000000
00000000
00000000
,
00110000
00000000
00000000
00010000
,
00100000
00000000
00000000
00000000
,
00110000
00000000
00000000
00010000
,
01000000
00000000
00000000
00000000
,
01100000
00000000
00000000
00100000
,
01000000
00000000
00000000
00000000
00000000
00000000
00000000
00000000
00000000
00000000
00000000
00000000
00000000
00000000
00000000
00010000
,
00000000
00000000
00000000
00100000
00000000
00000000
00000000
00010000
00000000
00000000
00000000
00000000
00000000
00000000
00000000
00100000
,
00000000
00000000
00000000
00000000
00000000
00000000
00000000
00001000
00000000
00000000
00000000
00000000
00000000
00000000
00000000
00010000
,
00000000
00000000
00000000
00001000
00000000
00000000
00000000
00010000
00000000
00000000
00000000
00000000
00000000
00000000
00000000
00000100
,
00000000
00000000
00000000
00000000
00000000
00000000
00000000
00001000
00000000
00000000
00000000
00000000
00000000
00000000
00000100
00000000
,
00000000
00001000
00000000
00000010
00000000
00000000
00000000
00000100
,
00000000
00000000
00000000
00000010
00000000
00000000
00000000
00001000
,
00000000
00000100
00000000
00001000
00000000
00000000
00000000
00000100
,
00000000
00000000
00000000
00010000
00000000
00000000
00000000
00001000
,
00000000
00000000
00000000
00010000
00000000
00000000
00000000
00001000
,
00000000
00000000
00000000
00100000
00000000
00000000
00000000
00010000
,
00000000
00000000
00000000
00100000
00000000
00000000
00000000
00010000
,
00000000
00000000
00000000
01000000
00000000
00000000
00000000
01100000
,
00000000
00000000
00000000
00000000
00000000
00100000
00000000
01000000
,
00000000
00000000
00000000
00000000
00000000
00000000
00000000
01010000
,
00000000
00000000
00000000
00000000
00000000
00010000
00000000
00100000
,
00000000
00000000
00000000
00000000
00000000
00000000
00000000
00110000
,
00000000
00000000
00000000
00000000
00000000
00010000
00000000
00100000
,
00000000
00000000
00000000
00000000
00000000
00000000
00000000
00101000
,
00000000
00000000
00000000
00000000
00000000
00001000
00000000
00010000
,
00000000
00000000
00000000
00000000
00000000
00000000
00000000
00001000
,
00000000
00000000
00000000
00010000
00000000
00000000
00000000
00000100
,
00000000
00000000
00000000
00000000
00000000
00000000
00001000
00000000
00000000
00000000
00000000
00000000
00000000
00000000
00000000
00000100
,
00000000
00000000
00000000
00000000
00000000
00000000
00000000
00001000
00000000
00000000
00000000
00000000
00000000
00000000
00000000
00000010
,
00000000
00000000
00000000
00000000
00000000
00000000
00000000
00000100
00000000
00000000
00000000
00000000
00000000
00000000
00000000
00000010
,
00000000
00000000
00000000
00000000
00000000
00000000
00000000
00001000
00000000
00000000
00000000
00000000
00000000
00000000
00000000
00000100
,
00000000
00000000
00000000
00000000
00000000
00000000
00000000
00001000
00000000
00000000
00000000
00000000
00000000
00000000
00000000
00000100
,
00000000
00000000
00000000
00000000
00000000
00000000
00000000
00010000
00000000
00000000
00000000
00000000
00000000
00000000
00000000
00001000
,
00000000
00000000
00000000
00000000
00000000
00000000
00000000
00010000
00000000
00000000
00000000
00000000
00000000
00000000
00000000
00001000
,
00000000
00000000
00000000
00100000
00000000
00000000
00000000
00010000
00000000
00000000
00000000
00000000
00000000
00000000
00000000
00100000
,
00000000
00000000
00000000
00010000
00000000
00000000
00000000
01000000
00000000
00000000
00000000
00100000
00000000
00000000
00000000
00000000
,
00000000
00000000
00000000
00000000
,
01000000
00010000
00100000
00000000
,
00010000
00100000
00001000
00010000
,
00000000
00000000
00000000
00000000
,
00001000
00010000
00000100
00000000
,
00001000
00000100
00001000
00000010
,
00000000
00000000
00000000
00000000
,
00000100
00000010
00001000
00000000
,
00000100
00001000
00000100
00010000
,
00000000
00000000
00000000
00000000
,
00001000
00000000
00010000
00000000
,
00000000
00001000
00000000
00000000
00000000
00000000
00000000
00000000
00000000
00100000
00000000
00000000
00000000
00000000
00000000
00000000
,
00000000
00010000
00000000
00000000
00000000
00100000
00000000
00000000
,
00000000
00010000
00000000
00000000
00000000
01000000
00000000
00000000
,
00000000
01100000
00000000
00000000
00000000
00000000
00000000
00100000
,
00000000
01000000
00000000
00000000
00000000
00000000
00000000
00000000
,
00000000
00000000
00000000
01010000
00000000
00000000
00000000
00000000
00000000
00000000
00000000
00000000
00000000
00000000
00000000
00010000
,
00000000
00000000
00000000
00100000
00000000
00000000
00000000
00000000
00000000
00000000
00000000
00000000
00000000
00000000
00000000
00000000
,
00000000
00000000
00000000
00110000
00000000
00000000
00000000
00000000
00000000
00000000
00000000
00000000
00000000
00000000
00000000
00010000
,
00000000
00000000
00000000
00100000
00000000
00000000
00000000
00000000
00000000
00000000
00000000
00000000
00000000
00000000
00000000
00000000
,
00000000
00000000
00000000
00110000
00000000
00000000
00000000
00000000
00000000
00000000
00000000
00000000
00000000
00000000
00000000
00001000
,
00000000
00000000
00000000
00010000
00000000
00000000
00000000
00000000
00000000
00000000
00000000
00000000
00000000
00000000
00000000
00000000
,
00000000
00000000
00000000
00001000
00000000
00000000
00000000
00010000
00000000
00000000
00000000
00000100
00000000
00000000
00000000
00001000
,
00000000
00000000
00000000
00000000
,
00000000
00000000
00000000
00000100
00000000
00000000
00000000
00001000
00000000
00000000
00000000
00000010
00000000
00000000
00000000
00000100
,
00000000
00000000
00000000
00000000
,
00000000
00000000
00000000
00000010
00000000
00000000
00000000
00001000
00000000
00000000
00000000
00000100
00000000
00000000
00000000
00001000
;

//---------------dance-double - LinkDude04----------------
#NOTES:
     dance-double:
     LinkDude04:
     Easy:
     3:
     0.169876,0.210812,0.146971,0.204869,0.207096,267.000000,234.000000,33.000000,46.000000,0.000000,0.000000,0.169876,0.210812,0.146971,0.204869,0.207096,267.000000,234.000000,33.000000,46.000000,0.000000,0.000000:
00000000
00000000
00000000
00000000
,
00000000
00000000
00000000
00000000
,
00000000
00000000
00000000
00000000
,
00000000
00000000
00000000
00000000
,
00000000
00000000
00000000
00000000
,
00000000
00000000
00000000
00000000
,
00000000
00000000
00000000
00000000
,
00000000
00000000
00000000
00000000
,
00000001
00001000
00000001
00000000
,
00001000
00000001
00001000
00000000
,
00000010
00001000
00000010
00000000
,
00001000
00000100
00001000
00000000
,
00000100
00010000
00001000
00000000
,
01000000
00100000
01000000
00000000
,
00100000
00010000
00100000
00000000
,
00010000
00000000
00000000
00000000
00001000
00000000
00000000
00000000
00010000
00000000
00000000
00000000
00000000
00000000
00000000
00001000
,
00000000
00000000
00000000
00001000
00000000
00000000
00000000
01000000
00000000
00000000
00000000
00000000
00000000
00000000
00000000
00100000
,
00000000
00000000
00000000
00100000
00000000
00000000
00000000
10000000
00000000
00000000
00000000
00000000
00000000
00000000
00000000
00000000
,
00000000
01000000
00000000
00000000
00000000
01000000
00000000
00000000
00000000
00100000
00000000
00000000
00000000
00000000
00000000
00000000
,
00000000
01000000
00000000
00000000
00000000
01000000
00000000
00000000
00000000
00001000
00000000
00000000
00000000
00000000
00000000
00000000
,
00000000
02002000
00000000
00000000
00000000
03003000
00000000
00000000
00000000
00000000
00000000
00000000
00000000
00000000
00000000
00000000
,
00000000
00110000
00000000
00000000
00000000
00000000
00000000
00000000
00000000
00000000
00000000
00000000
00000000
00000000
00000000
00000000
,
00000000
00202000
00000000
00000000
00000000
00303000
00000000
00000000
00000000
00000000
00000000
00000000
00000000
00000000
00000000
00000000
,
00000000
01010000
00000000
00000000
00000000
00000000
00000000
00000000
00000000
00000000
00000000
00000000
00000000
00000000
00000000
00000000
,
00000000
02200000
00000000
00000000
00000000
03300000
00000000
00000000
00000000
00000000
00000000
00000000
00000000
00000000
00000000
00000000
,
00000000
00011000
00000000
00000000
00000000
00000000
00000000
00000000
00000000
00000000
00000000
00000000
00000000
00000000
00000000
00000000
,
00000000
00220000
00000000
00000000
00000000
00330000
00000000
00000000
00000000
00000000
00000000
00000000
00000000
00000000
00000000
00000000
,
00000000
01001000
00000000
00000000
00000000
00000000
00000000
00000000
00000000
00000000
00000000
00000000
00000000
00000000
00000000
00000000
,
00000000
00001000
00000000
00000000
00000000
00010000
00000000
00000000
00000000
00001000
00000000
00000000
00000000
00000000
00000000
00000000
,
00000000
00000100
00000000
00000000
00000000
00001000
00000000
00000000
00000000
00010000
00000000
00000000
00000000
00000000
00000000
00000000
,
00000010
00001000
00000010
00000000
,
00000100
00000010
00001000
00000000
,
00000010
00001000
00000100
00000000
,
00010000
00000100
00010000
00000000
,
00001000
00010000
00100000
00000000
,
01000000
00100000
00010000
00000000
,
00001000
01000000
20000000
30000000
,
10000000
01000000
00002000
00003000
,
00001000
00100000
20000000
30000000
,
10000000
00100000
00002000
00003000
,
00022000
00033000
00000000
00000000
,
00000110
00000000
00000000
00000000
,
00020200
00030300
00000000
00000000
,
00001010
00000000
00000000
00000000
,
00000220
00000330
00000000
00000000
,
00011000
00000000
00000000
00000000
,
00002200
00003300
00000000
00000000
,
00010010
00000000
00000000
00000000
00000000
00000000
00000000
00000000
00000000
00000000
00000000
00000000
00000000
00000000
00000000
00001000
,
00000000
00000000
00000000
00000100
00000000
00000000
00000000
00000010
00000000
00000000
00000000
00000000
00000000
00000000
00000000
00000001
,
00000000
00000000
00000000
00000010
00000000
00000000
00000000
00000100
00000000
00000000
00000000
00000000
00000000
00000000
00000000
00001000
,
00000000
00000000
00000000
00000100
00000000
00000000
00000000
00001000
00000000
00000000
00000000
00000000
00000000
00000000
00000000
00000010
,
00000000
00000000
00000000
00001000
00000000
00000000
00000000
00000100
00000000
00000000
00000000
00000000
00000000
00000000
00010000
00000000
,
00000000
00001000
00000000
00100000
00000000
00000000
00000000
00010000
,
00000000
00100000
00000000
00001000
00000000
00000000
00000000
01000000
,
00000000
00010000
00000000
00100000
00000000
00000000
00000000
01000000
,
00000000
00100000
00000000
00010000
00000000
00000000
00000000
10000000
,
00000000
10000000
00000000
01000000
00000000
00000000
00000000
10000000
,
00000000
10000000
00000000
00010000
00000000
00000000
00000000
01000000
,
00000000
01000000
00000000
00001000
00000000
00000000
00000000
00001000
,
00000000
00001000
00000000
00010000
00000000
00000000
00000000
00000220
,
00000000
00000330
00000000
00000000
00000000
00000000
00000000
00011000
,
00000000
00000000
00000000
00000000
00000000
00000000
00000000
00020200
,
00000000
00030300
00000000
00000000
00000000
00000000
00000000
00001010
,
00000000
00000000
00000000
00000000
00000000
00000000
00000000
00022000
,
00000000
00033000
00000000
00000000
00000000
00000000
00000000
00000110
,
00000000
00000000
00000000
00000000
00000000
00000000
00000000
00002020
,
00000000
00003030
00000000
00000000
00000000
00000000
00000000
00010100
,
00000000
00000000
00000000
00000000
00000000
00000000
00000000
00010000
,
00000000
00000010
00000000
00000002
00000000
00000003
00000000
00000001
,
00000000
00000000
00000010
00000000
00000000
00000000
00020000
00000000
00000000
00000000
00030000
00000000
00000000
00000000
00000000
00010000
,
00000000
00000000
00000000
00000100
00000000
00000000
00000000
00000002
00000000
00000000
00000000
00000003
00000000
00000000
00000000
00000001
,
00000000
00000000
00000000
00000100
00000000
00000000
00000000
00020000
00000000
00000000
00000000
00030000
00000000
00000000
00000000
00010000
,
00000000
00000000
00000000
00000010
00000000
00000000
00000000
00000002
00000000
00000000
00000000
00000003
00000000
00000000
00000000
00000001
,
00000000
00000000
00000000
00000100
00000000
00000000
00000000
00020000
00000000
00000000
00000000
00030000
00000000
00000000
00000000
00010000
,
00000000
00000000
00000000
00000010
00000000
00000000
00000000
00000002
00000000
00000000
00000000
00000003
00000000
00000000
00000000
00000001
,
00000000
00000000
00000000
00000100
00000000
00000000
00000000
00020000
00000000
00000000
00000000
00030000
00000000
00000000
00000000
00001000
,
00000000
00000000
00000000
00001000
00000000
00000000
00000000
00010000
00000000
00000000
00000000
00000000
00000000
00000000
00000000
00001000
,
00000000
00000000
00000000
00100000
00000000
00000000
00000000
01000000
00000000
00000000
00000000
10000000
00000000
00000000
00000000
01000000
,
00000000
00000000
00000000
00100000
00000000
00000000
00000000
00010000
00000000
00000000
00000000
00000000
00000000
00000000
00000000
00000000
,
00100000
00010000
00100000
00000000
,
01000000
00100000
00010000
00001000
,
00010000
00100000
01000000
00000000
,
00100000
00001000
00000100
00000000
,
00000010
00000100
00001000
00010000
,
00001000
00000100
00000010
00000000
,
00000100
00000100
00001000
00000000
,
00010000
00000100
00000010
00000001
,
00000010
00000100
00001000
00000000
,
00000001
00001000
00001000
00000000
,
00000000
00001000
00000000
00000000
00000000
00000001
00000000
00000000
00000000
00000001
00000000
00000000
00000000
00000000
00000000
00000000
,
00000000
00000010
00000000
00000001
00000000
00001000
00000000
00000000
,
00000000
00000100
00000000
00010000
00000000
00001000
00000000
00000000
,
00000000
02200000
00000000
03300000
00000000
00000000
00000000
00000000
,
00000000
00011000
00000000
00000000
00000000
00000000
00000000
00000000
,
00000000
00000000
00000000
02020000
00000000
00000000
00000000
03030000
00000000
00000000
00000000
00000000
00000000
00000000
00000000
00000000
,
00000000
00000000
00000000
00101000
00000000
00000000
00000000
00000000
00000000
00000000
00000000
00000000
00000000
00000000
00000000
00000000
,
00000000
00000000
00000000
00022000
00000000
00000000
00000000
00033000
00000000
00000000
00000000
00000000
00000000
00000000
00000000
00000000
,
00000000
00000000
00000000
01100000
00000000
00000000
00000000
00000000
00000000
00000000
00000000
00000000
00000000
00000000
00000000
00000000
,
00000000
00000000
00000000
00202000
00000000
00000000
00000000
00303000
00000000
00000000
00000000
00000000
00000000
00000000
00000000
00000000
,
00000000
00000000
00000000
01010000
00000000
00000000
00000000
00000000
00000000
00000000
00000000
00000000
00000000
00000000
00000000
00000000
,
00000000
00000000
00000000
00010000
00000000
00000000
00000000
01000000
00000000
00000000
00000000
00100000
00000000
00000000
00000000
10000000
,
00000000
00000000
00000000
00100000
00000000
00000000
00000000
01000000
00000000
00000000
00000000
00010000
00000000
00000000
00000000
00000000
,
00000000
00000000
00000000
01000000
00000000
00000000
00000000
00010000
00000000
00000000
00000000
00100000
00000000
00000000
00000000
00001000
,
00000000
00000000
00000000
00100000
00000000
00000000
00000000
00010000
00000000
00000000
00000000
01000000
00000000
00000000
00000000
00000000
,
00000000
00000000
00000000
00010000
00000000
00000000
00000000
00010000
00000000
00000000
00000000
00010000
00000000
00000000
00000000
00220000
,
00000000
00000000
00000000
00330000
00000000
00000000
00000000
00000000
00000000
00000000
00000000
00000000
00000000
00000000
00000000
00000000
;

//---------------dance-double - LinkDude09----------------
#NOTES:
     dance-double:
     LinkDude09:
     Medium:
     6:
     0.282490,0.374776,0.160332,0.111342,0.356293,444.000000,408.000000,36.000000,25.000000,0.000000,0.000000,0.282490,0.374776,0.160332,0.111342,0.356293,444.000000,408.000000,36.000000,25.000000,0.000000,0.000000:
00000000
00000000
00000000
00000000
,
00000000
00000000
00000000
00000000
,
00000000
00000000
00000000
00000000
,
00000000
00000000
00000000
00000000
,
00000000
00000000
00000000
00000000
,
00000000
00000000
00000000
00000000
,
00000000
00000000
00000000
00000000
,
00000000
00000000
00000000
00000000
,
00000001
00001000
00000001
00001000
,
00000001
00001000
00000001
00001000
00000001
00000000
00000000
00000000
,
00001000
00000100
00001000
00000100
,
00000010
00000100
00000010
00000100
00000010
00000000
00000000
00000000
,
00001000
00010000
00001000
00010000
,
00000010
00010000
00000010
00010000
00000010
00000000
00000000
00000000
,
00010000
00000100
00010000
00000100
,
00001000
00000000
00000100
00000000
00001000
00000000
00000100
00000000
00001000
00000000
00000000
00000000
00000000
00000000
00000000
00000010
,
00000000
00010000
00000000
00000010
00000000
00010000
00000000
00001000
00000000
00000000
00000000
00000000
00000000
00000000
00000000
00010000
,
00000000
00001000
00000000
00010000
00000000
00001000
00000000
00010000
00000000
00000000
00000000
00000000
00000000
00000000
00000000
00000000
,
00000000
00001000
00000000
00100000
00000000
00001000
00000000
00100000
00000000
00001000
00000000
00000000
00000000
00000000
00000000
00000000
,
00000000
01000000
00000000
00100000
00000000
01000000
00000000
00100000
00000000
01000000
00000000
00000000
00000000
00000000
00000000
00000000
,
00000000
10010000
00000000
00000000
00000000
01100000
00000000
00000000
00000000
00000000
00000000
00100000
00000000
01000000
00000000
00100000
,
00000000
01000000
00000000
00000000
00000000
00000000
00000000
00000000
00000000
00000000
00000000
00000000
00000000
00000000
00000000
00000000
,
00000000
01100000
00000000
00000000
00000000
00011000
00000000
00000000
00000000
00000000
00000000
00001000
00000000
00010000
00000000
00001000
,
00000000
00010000
00000000
00000000
00000000
00000000
00000000
00000000
00000000
00000000
00000000
00000000
00000000
00000000
00000000
00000000
,
00000000
00101000
00000000
00000000
00000000
01010000
00000000
00000000
00000000
00000000
00000000
00010000
00000000
00000100
00000000
00010000
,
00000000
00000100
00000000
00000000
00000000
00000000
00000000
00000000
00000000
00000000
00000000
00000000
00000000
00000000
00000000
00000000
,
00000000
00001100
00000000
00000000
00000000
00010010
00000000
00000000
00000000
00000000
00000000
00000010
00000000
00001000
00000000
00000001
,
00000000
00001000
00000000
00000000
00000000
00000000
00000000
00000000
00000000
00000000
00000000
00000000
00000000
00000000
00000000
00000000
,
00000000
00001000
00000000
00000000
00000000
00000001
00000000
00000000
00000000
00000100
00000000
00000000
00000000
00000010
00000000
00000000
,
00000000
00000100
00000000
00000010
00000000
00000100
00000000
00000010
00000000
00000100
00000000
00000000
00000000
00000000
00000000
00000000
,
00000010
00010000
00000100
00001000
,
00000100
00001000
00000100
00001000
00000100
00000000
00000000
00000000
,
00010000
00001000
00000100
00001000
,
00010000
00001000
00010000
00001000
00010000
00000000
00000000
00000000
,
00001000
00010000
00100000
01000000
,
00100000
01000000
00100000
01000000
00100000
00000000
00000000
00000000
,
01000000
00000000
00010000
00000000
00100000
00000000
00010000
00000000
10000000
00000000
02000000
03000000
00000000
00000000
00000000
00000000
,
01000000
00000000
10000000
00000000
00010000
00000000
00100000
00000000
00010000
00000000
02000000
03000000
00000000
00000000
00000000
00000000
,
01000000
00000000
00010000
00000000
00001000
00000000
00010000
00000000
01000000
00000000
00020000
00030000
00000000
00000000
00000000
00000000
,
00010000
01000000
00010000
00001000
00010000
01000000
00000000
00000000
,
00010010
00000000
00001100
00000000
00000000
00001000
00000100
00001000
,
00000100
00000000
00000000
00000000
,
00000110
00000000
00011000
00000000
00000000
00001000
00010000
00001000
,
00010000
00000000
00000000
00000000
,
00010100
00000000
00001010
00000000
00000000
00001000
00000010
00001000
,
00000010
00000000
00000000
00000000
,
00000110
00000000
00001001
00000000
00000000
00000001
00001000
00000001
,
00001000
00000000
00000000
00000000
00000000
00000000
00000000
00000000
00000000
00000000
00000000
00000000
00000000
00000000
00000000
00000001
,
00000000
00000000
00000000
00000100
00000000
00000000
00000000
00000010
00000000
00000000
00000000
00001000
00000000
00000000
00000000
00000001
,
00000000
00000100
00000000
00000010
00000000
00010000
00000000
00000100
00000000
00000000
00000000
00000000
00000000
00000000
00000000
00010000
,
00000000
00000000
00000000
00000100
00000000
00000000
00000000
00001000
00000000
00000000
00000000
00000010
00000000
00000000
00000000
00010000
,
00000000
00000100
00000000
00001000
00000000
00000010
00000000
00000100
00000000
00000000
00000000
00000000
00000000
00000000
00000010
00000000
,
00000000
00010000
00000000
00001000
00000000
00010000
00000000
00001000
,
01000000
00100000
00010000
00001000
00000000
00000000
00000000
01000000
,
00000000
00001000
00000000
00010000
00000000
00100000
00000000
01000000
,
00001000
00100000
01000000
10000000
00000000
00000000
00000000
00010000
,
01000000
00000000
10000000
00000000
01000000
00000000
00020000
00030000
00000000
00000000
00000000
00000000
00000000
00000000
00010000
00000000
,
00100000
00000000
10000000
00000000
00100000
00000000
00002000
00003000
00000000
00000000
00000000
00000000
00000000
00000000
01000000
00000000
,
00100000
00000000
00001000
00000000
00100000
00000000
02000000
03000000
00000000
00000000
00000000
00000000
00000000
00000000
01000000
00000000
,
00010000
00000000
00001000
00000000
00010000
00000000
02000000
03000000
00000000
00000000
00000000
00000000
00000000
00000000
00011000
00000000
,
00000000
00001010
00000000
00000000
00001000
00000010
00001000
00000010
,
00000000
00000000
00000000
00000000
00000000
00000000
00000000
00000110
,
00000000
00011000
00000000
00000000
00001000
00010000
00001000
00010000
,
00000000
00000000
00000000
00000000
00000000
00000000
00000000
00001010
,
00000000
00010100
00000000
00000000
00000010
00001000
00000010
00001000
,
00000000
00000000
00000000
00000000
00000000
00000000
00000000
00001100
,
00000000
00000011
00000000
00000000
00000010
00000001
00000010
00000001
,
00000000
00000000
00000000
00000000
00000000
00000000
00000000
00001000
,
00000100
00000010
00000001
00001000
00000000
00000000
00000000
00000100
,
00010000
00000000
00001000
00000000
00000100
00000000
00000010
00000000
00000000
00000000
00000000
00000000
00000000
00000000
00000000
00001000
,
00000000
00000100
00000000
00010000
00000000
00001000
00000000
00000100
00000000
00000000
00000000
00000000
00000000
00000000
00000000
00000010
,
00000000
00010000
00000000
00001000
00000000
01000000
00000000
00100000
00000000
00000000
00000000
00000000
00000000
00000000
00000000
00010000
,
00000000
00001000
00000000
00100000
00000000
00010000
00000000
01000000
00000000
00000000
00000000
00000000
00000000
00000000
00000000
00100000
,
00000000
00010000
00000000
00001000
00000000
01000000
00000000
00100000
00000000
00000000
00000000
00000000
00000000
00000000
00000000
10000000
,
00000000
01000000
00000000
00100000
00000000
00010000
00000000
01000000
00000000
00000000
00000000
00000000
00000000
00000000
00000000
00100000
,
00000000
10000000
00000000
01000000
00000000
00100000
00000000
00010000
00000000
00000000
00000000
00000000
00000000
00000000
00000000
01000000
,
00000000
00000000
00000000
00100000
00000000
00000000
00000000
00001000
00000000
00000000
00000000
00100000
00000000
00000000
00000000
02000000
,
00000000
03000000
00000000
02000000
00000000
03000000
00000000
02000000
00000000
03000000
00000000
02000000
00000000
03000000
00000000
00001000
,
00000000
00100000
00000000
01000000
00000000
00100000
00000000
00001000
00000000
00000000
00000000
00000000
00000000
00000000
00000000
00000000
,
00010000
00000100
00000010
00000100
,
00020000
00030000
00020000
00030000
00020000
00030000
00020000
00030000
,
00000010
00000100
00010000
00000100
00000001
00000000
00000000
00000000
,
00000001
00000100
00010000
00000100
,
00000002
00000003
00000002
00000003
00000002
00000003
00000002
00000003
,
00010000
00000010
00001000
00000010
00010000
00000000
00000000
00000000
,
00000010
00000100
00010000
00000100
,
00000020
00000030
00000020
00000030
00000020
00000030
00000020
00000030
,
00010000
00000100
00000010
00000100
00010000
00000000
00000000
00000000
,
00001000
00010000
00001000
00010000
00001000
00010000
00000000
00000000
,
00000000
00001000
00000000
01000000
00000000
00001000
00000000
01000000
00000000
00001000
00000000
01000000
00000000
00000000
00000000
00000000
,
00000000
00001000
00100000
00001000
00100000
00010000
01000000
00000000
,
00000000
00100000
01000000
00100000
01000000
00100000
01000000
00100000
,
01000000
01010000
00000000
10100000
00000000
00000000
10000000
00100000
,
10000000
00100000
00000000
00000000
00000000
00000000
00000000
00000000
,
00000000
00000000
00000000
00110000
00000000
00000000
00000000
01100000
00000000
00000000
00000000
00000000
00000000
01000000
00000000
00100000
,
00000000
01000000
00000000
00100000
00000000
00000000
00000000
00000000
00000000
00000000
00000000
00000000
00000000
00000000
00000000
00000000
,
00000000
00000000
00000000
01010000
00000000
00000000
00000000
00101000
00000000
00000000
00000000
00000000
00000000
00001000
00000000
00100000
,
00000000
00001000
00000000
00100000
00000000
00000000
00000000
00000000
00000000
00000000
00000000
00000000
00000000
00000000
00000000
00000000
,
00000000
00000000
00000000
01100000
00000000
00000000
00000000
00011000
00000000
00000000
00000000
00000000
00000000
00001000
00000000
00010000
,
00000000
00001000
00000000
00010000
00000000
00000000
00000000
00000000
00000000
00000000
00000000
00000000
00000000
00000000
00000000
00000000
,
00000000
00000000
00000000
01000000
00000000
00000000
00000000
00100000
00000000
00000000
00000000
00010000
00000000
00000000
00000000
00000100
,
00000000
00000000
00000000
00001000
00000000
00000100
00000000
00010000
00000000
00001000
00000000
00100000
00000000
00000000
00000000
00000000
,
00000000
00000000
00000000
00000100
00000000
00000000
00000000
00001000
00000000
00000000
00000000
00010000
00000000
00000000
00000000
00100000
,
00000000
00000000
00000000
00010000
00000000
00100000
00000000
00001000
00000000
00010000
00000000
00000100
00000000
00000000
00000000
00000000
,
00000000
00000000
00000000
00001001
00000000
00000000
00000000
00000011
00000000
00000000
00000000
00001100
00000000
00000000
00000000
00000220
,
00000000
00000000
00000000
00000330
00000000
00000000
00000000
00000000
00000000
00000000
00000000
00000000
00000000
00000000
00000000
00000000
;

//---------------dance-double - LinkDude12----------------
#NOTES:
     dance-double:
     LinkDude12:
     Hard:
     8:
     0.360747,0.491309,0.000000,0.017815,0.612379,567.000000,567.000000,0.000000,4.000000,8.000000,0.000000,0.360747,0.491309,0.000000,0.017815,0.612379,567.000000,567.000000,0.000000,4.000000,8.000000,0.000000:
00000000
00000000
00000000
00000000
,
00000000
00000000
00000000
00000000
,
00000000
00000000
00000000
00000000
,
00000000
00000000
00000000
00000000
,
00000000
00000000
00000000
00000000
,
00000000
00000000
00000000
00000000
,
0M000000
M0000000
00M00000
M0000000
,
0M000000
M0000000
00M00000
M0000000
,
00000001
00000000
00000000
00000000
00001000
00000000
00000000
00000000
00000001
00000000
00000000
00001000
00000001
00000000
00001000
00000000
,
00000000
00000001
00000000
00001000
00000001
00000000
00001000
00000010
00000000
00000000
00000000
00000000
00000000
00000000
00000000
00000000
,
00010000
00000000
00000000
00000000
00001000
00000000
00000000
00000000
00010000
00000000
00000000
00001000
00010000
00000000
00001000
00000000
,
00000000
00000100
00000000
00001000
00000100
00000000
00001000
00010000
00000000
00000000
00000000
00000000
00000000
00000000
00000000
00000000
,
00001000
00000000
00000000
00000000
00010000
00000000
00000000
00000000
00001000
00000000
00000000
00010000
00001000
00000000
00010000
00000000
,
00000000
00001000
00000000
00100000
00010000
00000000
01000000
00010000
00000000
00000000
00000000
00000000
00000000
00000000
00000000
00000000
,
01000000
00000000
00000000
00000000
00100000
00000000
00000000
00000000
01000000
00000000
00000000
00100000
01000000
00000000
00100000
00000000
,
00000000
10000000
00000000
00010000
01000000
00000000
00010000
01000000
00000000
00000000
00000000
00000000
00000000
00000000
00000000
00100000
,
01000000
00000000
00100000
00000000
01000000
00000000
00100000
00010000
00000000
00001000
00000000
00000000
00000000
00000000
00000100
00000000
,
00001000
00000100
00000000
00001000
00000000
00000100
00001000
00000000
00000100
00000000
00001000
00000000
00000000
00000000
00000000
00000100
,
00000000
00000001
00000000
00000010
00000001
00000000
00000010
00000001
00000000
00000010
00000001
00000000
00000000
00000000
00000000
00001000
,
00000001
00001000
00000000
00000010
00000000
00010000
00000000
00000010
00010000
00000000
00000010
00000000
00010000
00000010
00000000
00010000
,
00000000
00000100
00010000
00000000
00001000
01000000
00000000
00000000
00000000
00000000
00000000
00010000
00000000
00100000
00010000
00100000
,
00010000
00100000
00000000
00000000
00000000
00000000
00000000
00000000
,
00000000
00001000
00100000
00000000
00010000
01000000
00000000
00000000
00000000
00000000
00010000
00000000
00100000
00010000
00100000
00010000
,
00000000
00100000
00000000
00000000
00000000
00000000
00000000
00000000
00000000
00000000
00000000
00000000
00000000
00000000
00000000
00000000
,
00000000
01000000
00100000
00000000
01000000
00010000
00000000
00000000
00000000
00000000
00100000
00000000
01000000
00100000
01000000
00100000
,
00000000
01000000
00000000
00000000
00000000
00000000
00000000
00000000
00000000
00000000
00000000
00000000
00000000
00000000
00000000
00000000
,
00000000
00010000
00100000
00000000
00001000
00010000
00000000
00000000
00000000
00000000
00000100
00000000
00001000
00000100
00001000
00000100
,
00000000
00001000
00000000
00000000
00000000
00000000
00000000
00000000
00000000
00000000
00000000
00000000
00000000
00000000
00000000
00000000
,
00000000
00000010
00000000
00000000
00000000
00010000
00000000
00000000
00000000
00000100
00000000
00000000
00000010
00000001
00000000
00000010
,
00000000
00000000
00000001
00000000
00001000
00000001
00000000
00001000
00000001
00000000
00000000
00000000
00000000
00000000
00000000
00000000
,
00001000
00000000
00000000
00000000
00000010
00000000
00000000
00000000
00000100
00000000
00000000
00001000
00010000
00000000
00001000
00000000
,
00000000
00010000
00000000
00000010
00010000
00000000
00000010
00010000
00000000
00000000
00000000
00000000
00000000
00000000
00000000
00000000
,
00001000
00000000
00000000
00000000
00100000
00000000
00000000
00000000
00010000
00000000
00000000
01000000
00010000
00000000
01000000
00000000
,
00000000
00001000
00000000
01000000
00001000
00000000
01000000
00010000
00000000
00000000
00000000
00000000
00000000
00000000
00000000
00000000
,
10000000
00000000
00000000
00000000
00100000
00000000
00000000
00000000
01000000
00000000
00000000
00010000
01000000
00000000
00010000
00000000
,
00000000
10000000
00000000
00010000
10000000
00000000
00010000
01000000
00000000
00000000
00000000
00000000
00000000
00000000
00000000
00000000
,
00001000
00000000
00100000
00001000
00000000
01000000
00001000
00000000
00010000
00000000
00001000
00000000
00000000
00000000
00000000
00000000
,
01000000
00000000
00000100
00010000
00000000
00000010
00000000
00010000
00001000
00000000
00010000
00000000
00000000
00000000
00000010
00000000
,
00000100
00000010
00000000
00010000
00000000
00000010
00000000
00000100
00000001
00000000
00001000
00000000
00000000
00000000
00000001
00001000
,
00000000
00000001
00000000
00001000
00000001
00001000
00000010
00010000
00000000
00000010
00000000
00010000
00000010
00000000
00010000
00000000
,
00000010
00001000
00000000
00000010
00001000
00000000
00000000
00000000
00000000
00010000
00000000
00100000
00010000
00100000
00010000
00000000
,
00100000
00000000
00000000
00000000
,
00010000
01000000
00000000
00010000
01000000
00000000
00000000
00000000
00000000
01000000
00000000
10000000
01000000
10000000
01000000
00000000
,
10000000
00000000
00000000
00000000
,
01000000
00100000
00000000
01000000
00100000
00000000
00000000
00000000
00000000
00001000
00000000
00010000
00001000
00010000
00001000
00000000
,
00010000
00000000
00000000
00000000
,
00001000
00100000
00000000
00001000
00010000
00000000
00000000
00000000
00000000
00000100
00000000
00001000
00000100
00001000
00000100
00000000
,
00001000
00000000
00000000
00000000
00000000
00000000
00000000
00000000
00000000
00000000
00000000
00000000
00000000
00000000
00000000
00000010
,
00000000
00000000
00000000
00001000
00000000
00000000
00000000
00000100
00000000
00000000
00000010
00000100
00000000
00000001
00000000
00000000
,
00001000
00000000
00000001
00000100
00000000
00000001
00001000
00000000
00000000
00000000
00000000
00000000
00000000
00000000
00000000
00000001
,
00000000
00000000
00000000
00000010
00000000
00000000
00000000
00000100
00000000
00000000
00010000
00001000
00000000
00010000
00000000
00000000
,
00000010
00000000
00010000
00000100
00000000
00010000
00000010
00000000
00000000
00000000
00000000
00000000
00000000
00000000
00010000
00000000
,
00000000
00000000
00001000
00000000
00000000
00000000
00100000
00000000
00000000
00010000
00100000
00000000
00010000
00000000
00000000
01000000
,
00000000
00010000
00100000
00000000
00010000
00100000
00000000
00000000
00000000
00000000
00000000
00000000
00000000
00000000
00001000
00000000
,
00000000
00000000
10000000
00000000
00000000
00000000
01000000
00000000
00000000
00100000
01000000
00000000
00100000
00000000
00000000
00010000
,
00000000
00100000
01000000
00000000
00100000
01000000
00000000
00000000
00000000
00000000
00000000
10000000
00000000
00100000
01000000
00000000
,
00001000
00000000
01000000
00010000
00000000
01000000
00000000
00001000
00000000
00000000
00000000
00000000
01000000
00000000
00001000
00000000
,
00010000
00000010
00000000
00010000
00000000
00000010
00000100
00000000
00000010
00000000
00000000
00000000
00000100
00000000
00001000
00000100
,
00000000
00001000
00000000
00000010
00000000
00000100
00000010
00000100
00000000
00000000
00000000
00001000
00000000
00000001
00001000
00000001
,
00000000
00001000
00000001
00010000
00000000
00000010
00010000
00000000
00000010
00010000
00000010
00010000
00000000
00000000
00000010
00000100
,
00000000
00000010
00010000
00000000
00000000
00000000
00000000
00100000
00000000
00010000
00100000
00010000
00100000
00000000
00010000
00000000
,
00000000
00000000
00000000
00000000
00000000
00000000
00000000
00000000
00000000
00000000
00000000
00000000
00000000
00000000
00100000
01000000
,
00000000
00100000
10000000
00000000
00000000
00000000
00000000
00100000
00000000
10000000
00100000
10000000
00100000
00000000
10000000
00000000
,
00000000
00000000
00000000
00000000
00000000
00000000
00000000
00000000
00000000
00000000
00000000
00000000
00000000
00000000
00100000
01000000
,
00000000
00010000
00100000
00000000
00000000
00000000
00000000
00001000
00000000
00100000
00001000
00100000
00001000
00000000
00100000
00000000
,
00000000
00000000
00000000
00000000
00000000
00000000
00000000
00000000
00000000
00000000
00000000
00000000
00000000
00000000
00001000
00010000
,
00000000
00001000
00000100
00000000
00000000
00000000
00000000
00001000
00000000
00000100
00001000
00000100
00001000
00000000
00000100
00000000
,
00000000
00000000
00000000
00000000
00000000
00000000
00000000
00000000
00000000
00000000
00000000
00000000
00000000
00000000
00001000
00010000
,
00000000
00001000
00010000
00000100
00000000
00001000
00000000
00000000
00000000
00000000
00000000
00000000
00000000
00000010
00001000
00000010
,
00000000
00001000
00000000
00000010
00001000
00000000
00000010
00000000
00000000
00000000
00000000
00000000
00000000
00000000
00000000
00000000
,
00001000
00000100
00000000
00001000
00000100
00000000
00001000
00000000
00000000
00000000
00000000
00000000
00000000
00000000
00000000
00000010
,
00000000
00001000
00000010
00001000
00000000
00000010
00000000
00000000
00000000
00000000
00000000
00000000
00000000
00000000
00000000
00000000
,
00000000
00000000
00010000
00000000
00001000
00000000
00010000
00000000
00000000
00000000
00000000
00000000
00000000
00100000
00010000
00100000
,
00000000
00010000
00000000
00100000
00010000
00000000
00100000
00000000
00000000
00000000
00000000
00000000
00000000
00000000
00000000
00000000
,
10000000
01000000
00000000
10000000
01000000
00000000
10000000
00000000
00000000
00000000
00000000
00000000
00000000
00000000
00000000
00100000
,
00000000
10000000
00100000
10000000
00000000
00100000
00000000
00000000
00000000
00000000
00000000
00000000
00000000
00000000
00000000
01000000
,
00000000
00000000
00000000
00010000
00000000
00000000
00000000
00100000
00000000
00000000
00010000
00100000
00000000
00020000
00000000
00100000
,
00000000
00000000
00000000
00100000
00000000
00000000
00000000
00100000
00000000
00000000
00000000
00130000
00000000
00000000
00000000
00001000
,
00010000
00000000
00000010
00001000
00000000
00000010
00001000
00000000
00000000
00000000
00000000
00000000
00000000
00000000
00000000
00000000
,
00000010
00000000
00000000
00000000
00000100
00000000
00000000
00000000
00000010
00000000
00000000
00000100
00000001
00000000
00000020
00000000
,
00000001
00000001
00000001
00000031
,
00000010
00000100
00000000
00000010
00000100
00000000
00000010
00001000
00000000
00000000
00000000
00000000
00000000
00000000
00000000
00000000
,
00010000
00000000
00000000
00000000
00001000
00000000
00000000
00000000
00010000
00000000
00000000
00001000
00010000
00000000
00002000
00000000
,
00010000
00010000
00010000
00013000
,
00001000
01000000
00000000
00010000
01000000
00000000
00001000
00010000
00000000
00000000
00000000
00000000
00000000
00000000
00000000
00000000
,
00100000
00000000
00000000
00000000
00010000
00000000
00000000
00000000
00100000
00000000
00000000
00100000
01000000
00000000
00200000
00000000
,
01000000
01000000
01000000
01300000
,
10000000
01000000
00000000
10000000
00100000
00000000
01000000
00100000
00000000
00000000
00000000
00000000
00000000
00000000
00000000
01000000
,
00000000
00010000
01000000
00000000
00010000
00000000
01000000
00000000
00010000
01000000
00000000
00001000
00000000
00000000
00000000
00000000
,
00000000
00010000
00000000
00000010
00010000
00000000
00000010
00000000
00010000
00000010
00000000
00010000
00000000
00000000
00000000
00000000
,
00000010
00000000
00001000
00000000
00000001
00000100
00000000
00000001
00000100
00000000
00000001
00000000
00000100
00000000
00000000
00000000
,
00000010
00000100
00000010
00000100
00000000
00000010
00001000
00000000
00000100
00001000
00000000
00000100
00000000
00001000
00000100
00000000
,
00001000
00000000
00000100
00010000
00000000
00001000
01000000
00000000
00000000
00000000
00000000
00001000
00000000
00100000
00001000
00100000
,
00001000
00100000
00000000
00000000
00000000
00000000
00000000
00000000
,
00000000
00000000
00000000
00010000
00100000
00000000
00010000
01000000
00000000
00000000
00000000
00000000
00100000
00000000
10000000
00100000
,
10000000
00100000
00000000
10000000
00000000
00000000
00000000
00000000
00000000
00000000
00000000
00000000
00000000
00000000
00000000
00000000
,
00000000
00000000
00000000
01000000
10000000
00000000
00100000
01000000
00000000
00000000
00000000
00000000
00100000
00000000
00010000
00100000
,
00010000
00100000
00000000
00010000
00000000
00000000
00000000
00000000
00000000
00000000
00000000
00000000
00000000
00000000
00000000
00000000
,
00000000
00000000
00000000
00001000
00010000
00000000
00000010
00000100
00000000
00000000
00000000
00000000
00001000
00000000
00000100
00001000
,
00000100
00001000
00000000
00000100
00000000
00000000
00000000
00000000
00000000
00000000
00000000
00000000
00000000
00000000
00000000
00000000
,
00000000
00000000
00000000
00001000
00000000
00000000
00000000
00010000
00000000
00000000
00000000
00000001
00000000
00000000
00001000
00000010
,
00000000
00001000
00000000
00000000
00000001
00000000
00001000
00000100
00000000
00001000
00000001
00000000
00000000
00000000
00000000
00000000
,
00000000
00000000
00000000
00000010
00000000
00000000
00000000
00000001
00000000
00000000
00000000
00010000
00000000
00000000
00000010
00001000
,
00000000
00000010
00000000
00000000
00010000
00000000
00000010
00000100
00000000
00000010
00010000
00000000
00000000
00000000
00000000
00000000
,
00000000
00000000
00000000
00001000
00000000
00000000
00000000
00100000
00000000
00000000
00000000
00010000
00000000
00000000
01000000
00010000
,
00000000
00100000
00000000
00000000
00000000
00000000
00000000
00000000
00000000
00000000
00000000
00000000
00000000
00000000
00000000
00000000
;

//---------------dance-double - LinkDude14----------------
#NOTES:
     dance-double:
     LinkDude14:
     Challenge:
     9:
     0.443458,0.491894,0.120249,0.080166,0.743763,697.000000,670.000000,27.000000,18.000000,8.000000,0.000000,0.443458,0.491894,0.120249,0.080166,0.743763,697.000000,670.000000,27.000000,18.000000,8.000000,0.000000:
00000000
00000000
00000000
00000000
,
00000000
00000000
00000000
00000000
,
00000000
0M000000
00000000
00000000
00000000
M0000000
00000000
00000000
00000000
00M00000
00000000
00000000
00000000
M0000000
00000000
00000000
,
00000000
0M000000
00000000
00000000
00000000
M0000000
00000000
00000000
00000000
00M00000
00000000
00000000
00000000
M0000000
00000000
00000000
,
00000000
00000000
00001000
00000001
00000000
00001000
00000000
00000001
00001000
00000000
00000001
00000000
00000000
00000000
00000000
00000000
,
00000000
00000000
00001000
00000010
00000000
00000100
00000000
00000010
00001000
00000000
00000000
00000000
00000000
00000000
00000000
00000000
,
00000000
00000000
00000010
00001000
00000000
00000010
00000000
00000100
00000010
00000000
00001000
00000000
00000000
00000000
00000100
00000000
,
00010000
00000100
00000000
00010000
00001000
00010000
00000000
00001000
00000000
00000000
00000000
00000000
00000000
00000000
00000000
00000000
,
00010000
00000000
00000000
00000000
00001000
00000000
00000000
00000000
01000000
00000000
00000000
00001000
01000000
00000000
00010000
00000000
,
00000000
01000000
00000000
00001000
01000000
00000000
00010000
01000000
00000000
00000000
00000000
00000000
00000000
00000000
00000000
00000000
,
00100000
00000000
00000000
00000000
01000000
00000000
00000000
00000000
00100000
00000000
00000000
01000000
00100000
00000000
10000000
00000000
,
00000000
00100000
00000000
01000000
00100000
00000000
01000000
00010000
00000000
00000000
00000000
00000000
00000000
00000000
00000000
00000000
,
01000000
00000000
00000000
00000000
00010000
00000000
00000000
00000000
01000000
00000000
00000000
00100000
01000000
00000000
00001000
00000000
,
00000000
01000000
00000000
00100000
01000000
00000000
00100000
00010000
00000000
00000000
00000000
00000000
00000000
00000000
00000000
00000000
,
00001000
00000000
00000000
00000000
00100000
00000000
00000000
00000000
00001000
00000000
00000000
00010000
00001000
00000000
00010000
00000000
,
00000000
00000010
00000000
00000100
00000010
00000000
00000100
00001000
00000000
00000000
00000000
00000000
00000000
00000000
00000000
00010000
,
00000010
00000000
00001000
00000000
00000001
00000000
00000100
00000001
00000000
00000100
00000000
00000000
00000000
00000000
00000010
00000000
,
00001000
00000010
00000000
00001000
00000000
00000010
00010000
00000000
00000010
00000000
00010000
00000000
00000000
00000000
00000000
00000010
,
00000000
00000100
00000000
00000010
00000100
00000000
00001000
00000100
00000000
00001000
00000100
00000000
00000000
00000000
00000000
00001000
,
00010000
00001000
00000000
00010000
00000000
00001000
00000000
00010000
00000100
00000000
00010000
00000000
00000100
00010000
00000000
00000100
,
00000000
00010000
00010000
00000000
00001000
00001000
00000000
00000000
00000000
00000000
00000000
00010000
00000000
00100000
00010000
00100000
,
00010000
00000000
00100000
00000000
00000000
01000000
00000000
00010000
00000000
00000000
10000000
00000000
00010000
10000000
00000000
00010000
,
00000000
00100000
00010000
00000000
01000000
00010000
00000000
00000000
00000000
00000000
01000000
00000000
00010000
01000000
00010000
01000000
,
00000000
00100000
00000000
00000000
01000000
00000000
00001000
00000000
00000000
00000000
00010000
00000000
00000010
00010000
00000000
00000010
,
00000000
00000100
00000010
00000000
00001000
00000010
00000000
00000000
00000000
00000000
00001000
00000000
00000010
00001000
00000010
00001000
,
00000000
00000100
00000000
00000000
00001000
00000000
00000001
00000000
00000000
00000000
00001000
00000000
00000010
00010000
00000000
00000010
,
00000000
00010000
00001000
00000000
00000100
00000010
00000000
00000000
00000000
00000000
00010000
00000000
00001000
00100000
00001000
00100000
,
00000000
00010000
00000000
00000000
02002000
03003000
00000000
00000000
00000000
00000000
00000000
00000000
00000000
00000000
00000000
00000000
,
00000000
00001000
00000000
00000000
00000000
01000000
00000000
00000000
00000000
00100000
00000000
00000000
00010000
00001000
00000000
00010000
,
00000000
00000000
00001000
00000000
01000000
00010000
00000000
10000000
00010000
00000000
00000000
00000000
20020000
30030000
00000000
00000000
,
10000000
00000000
00000000
00000000
00010000
00000000
00000000
00000000
00100000
00000000
00000000
01000000
10000000
00000000
01000000
00000000
,
00000000
10000000
00000000
00010000
01000000
00000000
00001000
00010000
00000000
00000000
00000000
00000000
00000000
00000000
00000000
00000000
,
00001000
00000000
00000000
00000000
00100000
00000000
00000000
00000000
00010000
00000000
00000000
01000000
00010000
00000000
01000000
00000000
,
00000000
00001000
00000000
00010000
00000010
00000000
00010000
00001000
00000000
00000000
00000000
00000000
00000000
00000000
00000000
00000000
,
00010000
00000000
00000000
00000000
00000100
00000000
00000000
00000000
00001000
00000000
00000000
00000010
00001000
00000000
00000010
00000000
,
00000000
00001000
00000000
00000001
00001000
00000000
00000001
00000010
00000000
00000000
00000000
00000000
00000000
00000000
00000000
00000000
,
00000001
00000000
00000100
00000001
00000000
00001000
00000010
00000000
00000100
00000000
00000010
00000000
00000000
00000000
00000000
00000000
,
00010000
00000000
00000100
00010000
00000000
00000010
00000000
00010000
00001000
00000000
00010000
00000000
00000000
00000000
00001000
00000000
,
00010000
00001000
00000000
01000000
00000000
00001000
00000000
00100000
00001000
00000000
01000000
00000000
00000000
00000000
00010000
01000000
,
00000000
00010000
00000000
01000000
00100000
01000000
10000000
01000000
00000000
00100000
00000000
01000000
00010000
00000000
01000000
00000000
,
00010000
00010000
00000000
01000000
01000000
00000000
00000000
00000000
00000000
00010000
00000000
00100000
00010000
00100000
00010000
00000000
,
00100000
00000000
00000000
00000000
01000000
00000000
00001000
00000000
00000000
00010000
00000000
00000010
00010000
00000000
00000010
00000000
,
00010000
00000100
00000000
00001000
00000010
00000000
00000000
00000000
00000000
00001000
00000000
00000010
00000100
00000010
00000100
00000000
,
00000010
00000000
00000000
00001000
00000000
00000001
00000000
00000100
00000001
00000000
00001000
00000000
00000000
00000000
00000000
00000000
,
00000010
00001000
00000000
00000001
00000100
00000000
00000000
00000000
00000000
00000010
00000000
00001000
00000010
00010000
00000010
00000000
,
00001000
00000000
00000000
00000000
00000010
00000000
00010000
00000010
00000000
00010000
00000000
00001000
00000000
00000000
00000000
00000000
,
00100000
00001000
00000000
01000000
00010000
00000000
00000000
00000000
00000000
00100000
00000000
00001000
01000000
00010000
10000000
00000000
,
00100000
00000000
00000000
20020000
30030000
00000000
00000000
00000000
00000000
00000000
00000000
00000000
00000000
00000000
00000000
00010000
,
00000000
00000000
00000000
01000000
00000000
00000000
00000000
00100000
00000000
00000000
00010000
00100000
00000000
00010000
00000000
00000000
,
01000000
00000000
00001000
00100000
00000000
00001000
01000000
00000000
00000000
00000000
00000000
00000000
00000000
00000000
00000000
00001000
,
00000000
00000000
00000000
00010000
00000000
00000000
00000000
00100000
00000000
00000000
01000000
00100000
00000000
01000000
00000000
00000000
,
00001000
00000000
00010000
00000100
00000000
00010000
00000010
00000000
00000000
00000000
00020020
00030030
00000000
00000000
00000010
00000000
,
00000000
00000000
00001000
00000000
00000000
00000000
00000100
00000000
00000000
00000010
00000100
00000000
00000010
00000000
00000000
00000001
,
00000000
00000010
00000100
00000000
00001000
00000100
00000000
00000000
00000000
00002002
00003003
00000000
00000000
00000000
00001000
00000000
,
00000000
00000000
00000010
00000000
00000000
00000000
00001000
00000000
00000000
00000100
00001000
00000000
00000100
00000000
00000000
00010000
,
00000000
00000100
00001000
00000000
00000010
00001000
00000000
00000000
00000000
00000000
00000000
00000100
00000000
00010000
00000100
00000000
,
00001000
00000000
00000100
00000010
00000000
00000100
00000000
00010000
00000000
00000000
00000000
00000000
00001000
00000000
00100000
00000000
,
00001000
00100000
00000000
00010000
00000000
00100000
01000000
00000000
00100000
00000000
00000000
00000000
00001000
00000000
01000000
00010000
,
00000000
01000000
00000000
00100000
00000000
10000000
00100000
01000000
00000000
00000000
00000000
00010000
00000000
00100000
00010000
00100000
,
00000000
01000000
10000000
01000000
00000000
10000000
00010000
00000000
00100000
00010000
00100000
00010000
00000000
00000000
01000000
00010000
,
00000000
00010000
01000000
00000000
00000000
00000000
00000000
00001000
00000000
00100000
00001000
00100000
00001000
00000000
00100000
00000000
,
00000000
00001000
00000000
00010000
00000000
00000000
00000000
00000010
00000000
00010000
00000010
00000000
00010000
00000000
00000010
00000100
,
00000000
00000100
00000010
00000000
00000000
00000000
00000000
00001000
00000000
00000100
00001000
00000100
00001000
00000000
00000100
00000000
,
00000000
00001000
00000000
00000001
00000000
00001000
00000000
00000010
00010000
00000010
00010000
00000010
00010000
00000000
00001000
00010000
,
00000000
00001000
00010000
00000000
00000000
00000000
00000000
00001000
00000000
00010000
00001000
00010000
00001000
00000000
00010000
00000000
,
00000000
00001000
00000000
01000000
00010000
10000000
00010000
00000000
00000000
00000000
00000000
00000000
00000000
00000000
00010000
01000000
,
00000000
01000000
00010000
00000000
00000000
00000000
00000000
10000000
00000000
00100000
10000000
00100000
10000000
00000000
00100000
00000000
,
00000000
20020000
30030000
00000000
00000000
00000000
00000000
00000000
00000000
00000000
00000000
00000000
00000000
00000000
01000000
00010000
,
00000000
01000000
00010000
00100000
00000000
00001000
00000000
00000000
00000000
00000000
00000000
00000000
00000000
00010000
00100000
01000000
,
00000000
00010000
00000000
00100000
00001000
00000000
00010000
00000000
00000000
00000000
00000000
00000000
00000000
00000000
00000000
00000000
,
00100000
01000000
00000000
00010000
00100000
00000000
00001000
00000000
00000000
00000000
00000000
00000000
00000000
00000000
00000000
00010000
,
00000000
00100000
01000000
00010000
00000000
00001000
00000000
00000000
00020020
00030030
00000000
00000000
00000000
00000000
00000000
00000000
,
00000000
00000000
00000010
00000000
00000100
00000000
00001000
00000000
00000000
00000000
00000000
00000000
00000000
00010000
00000100
00001000
,
00000000
00000010
00000000
00000100
00001000
00000000
00010000
00000000
00000000
00000000
00000000
00000000
00000000
00000000
00000000
00000000
,
00000100
00001000
00000000
00000010
00000100
00000000
00001000
00000000
00000000
00000000
00000000
00000000
00000000
00000000
00000000
00010000
,
00000000
00000100
00001000
00000010
00000000
00000100
00000000
00000000
00000000
00000000
00000000
00000000
00000000
00000000
00000000
00000010
,
00000000
00000000
00000000
00001000
00000000
00000000
00000000
00000001
00000000
00000000
00001000
00000001
00000000
00001000
00000000
00001001
,
00000000
00000000
00000000
00000101
00000000
00000000
00000000
00000110
00000000
00000000
00000000
00001010
00000000
00000000
00000000
00001000
,
00000010
00000000
00001000
00000010
00000000
00001000
00000010
00000000
00000000
00000000
00000000
00000000
00000000
00000000
00000000
00000000
,
00001000
00000000
00000000
00000000
00000010
00000000
00000000
00000000
00000100
00000000
00000000
00000010
00000100
00000000
00000001
00000000
,
00001010
00001100
00010100
00011000
,
00010000
00000100
00000000
00010000
00000100
00000000
00010000
00000100
00000000
00000000
00000000
00000000
00000000
00000000
00000000
00000000
,
00010000
00000000
00000000
00000000
00001000
00000000
00000000
00000000
00000010
00000000
00000000
00001000
00010000
00000000
00001000
00000000
,
00011000
01001000
00011000
00110000
,
01000000
00100000
00000000
00010000
00100000
00000000
00001000
00100000
00000000
00000000
00000000
00000000
00000000
00000000
00000000
00000000
,
01000000
00000000
00000000
00000000
00010000
00000000
00000000
00000000
00001000
00000000
00000000
00010000
01000000
00000000
00010000
00000000
,
01010000
00110000
00101000
01001000
,
00010000
00100000
00000000
01000000
00100000
00000000
10000000
00100000
00000000
00000000
00000000
00000000
00000000
00000000
00000000
10000000
,
00000000
01000000
00100000
00000000
00010000
00000000
01000000
00000000
00100000
00010000
00000000
00001000
00000000
00000000
00000000
00000000
,
00000000
01000000
00000000
00001000
01000000
00000000
00001000
00000000
00010000
00000010
00000000
00010000
00000000
00000000
00000000
00000000
,
00010000
00000000
00000100
00000000
00001000
00000010
00000000
00010000
00000100
00000000
00001000
00000000
00000010
00000000
00000000
00000000
,
00000100
00000010
00000100
00000010
00000000
00001000
00000100
00000000
00001000
00000100
00000000
00000010
00000000
00000001
00000010
00000000
,
00000001
00000000
00001000
00000100
00000000
00000010
00000100
00000000
00000000
00000000
00000000
00001000
00000000
00000010
00000100
00000010
,
00000100
00000000
00000001
00000000
00000000
00001000
00000000
00000010
00000000
00000000
00000000
00000000
00010000
00000000
00000010
00010000
,
00000000
00000010
00000000
00010000
00000100
00000000
00001000
00000100
00000000
00000000
00000000
00000000
00010000
00000000
00001000
00000100
,
00001000
00000100
00000000
00000010
00000000
00000000
00010000
00000000
00000100
00000000
00000010
00000000
00001000
00000000
00010000
00000000
,
00000000
00000000
00000000
00001000
00100000
00000000
00010000
00100000
00000000
00000000
00000000
00000000
00001000
00000000
00010000
00100000
,
00010000
00100000
00000000
01000000
00000000
00000000
00010000
00000000
01000000
00000000
00000000
00000000
00010000
00000000
00100000
00010000
,
00000000
10000000
00000000
00010000
00100000
00000000
01000000
00100000
00000000
00000000
00000000
00000000
00010000
00000000
00100000
00010000
,
00100000
00010000
00000000
01000000
00000000
00000000
02002000
03003000
00000000
00000000
00000000
00000000
00000000
00000000
00000000
00000000
,
00000000
00000000
00000000
00001000
00000000
00000000
00000000
00010000
00000000
00000000
00000000
00100000
00000000
00000000
01000000
00100000
,
00000000
00010000
00000000
00000000
00001000
00000000
00010000
00100000
00000000
01000000
00001000
00000000
00000000
00000000
00000000
00000000
,
00000000
00000000
00000000
00010000
00000000
00000000
00000000
00000100
00000000
00000000
00000000
00001000
00000000
00000000
00000010
00001000
,
00000000
00000100
00000000
00000000
00010000
00000000
00000100
00001000
00000000
00000010
00001000
00000000
00000000
00000000
00000000
00000000
,
00000000
00000000
00000000
00000101
00000000
00000000
00000000
00000110
00000000
00000000
00000000
00001010
00000000
00000000
00000010
00002000
,
00000000
00000020
00000000
00003030
00000000
00000000
00000000
00000000
00000000
00000000
00000000
00000000
00000000
00000000
00000000
00000000
;

//---------------dance-double - LinkDump17----------------
#NOTES:
     dance-double:
     LinkDump17:
     Edit:
     11:
     0.811840,0.772057,0.000000,0.000000,1.436308,1276.000000,1276.000000,0.000000,0.000000,8.000000,0.000000,0.811840,0.772057,0.000000,0.000000,1.436308,1276.000000,1276.000000,0.000000,0.000000,8.000000,0.000000:
// measure 0
00000000
00000000
00000000
00000000
,  // measure 1
00000000
00000000
00000000
00000000
,  // measure 2
00000000
00000M00
00000000
00000000
00000000
0000M000
00000000
00000000
00000000
000000M0
00000000
00000000
00000000
0000M000
00000000
00000000
,  // measure 3
00000000
0M000000
00000000
00000000
00000000
M0000000
00000000
00000000
00000000
00M00000
00000000
00000000
00000000
M0000000
00000000
00000000
,  // measure 4
00000000
00000000
00000001
00001000
00000000
00000001
00000000
00001000
00000010
00000000
00000100
00000000
00000000
00000000
00000000
00000000
,  // measure 5
00000000
00000000
00000010
00000100
00000000
00000001
00000000
00001000
00000001
00000000
00000000
00000000
00000000
00000000
00000000
00000000
,  // measure 6
00000000
00000000
00001000
00000010
00000000
00000100
00000000
00000010
00001000
00000000
00000001
00000000
00000000
00000000
00001000
00000000
,  // measure 7
00000001
00000100
00000000
00000010
00000100
00000001
00000000
00001000
00000000
00000000
00000000
00000000
00000000
00000000
00000000
00000000
,  // measure 8
00000010
00010000
00000100
00001000
00000100
00010000
00000010
00010000
00000010
00001000
00000100
00001000
00000100
00010000
00000010
00010000
,  // measure 9
00000010
00001000
00000100
00010000
00001000
01000000
00001000
00100000
00000000
00000000
00000000
00000000
00000000
00000000
00000000
00000000
,  // measure 10
00010000
00100000
00010000
01000000
00001000
01000000
00001000
00100000
00010000
01000000
00010000
01000000
00001000
00100000
00001000
00100000
,  // measure 11
00010000
01000000
00010000
10000000
00010000
01000000
00100000
10000000
00000000
00000000
00000000
00000000
00000000
00000000
00000000
00000000
,  // measure 12
01000000
10000000
00010000
00100000
00010000
01000000
00100000
10000000
01000000
10000000
00010000
00100000
00010000
01000000
00010000
01000000
,  // measure 13
00001000
00100000
00001000
00100000
00010000
01000000
00010000
01000000
00000000
00000000
00000000
00000000
00000000
00000000
00000000
00000000
,  // measure 14
00001000
00100000
00001000
01000000
00010000
01000000
00010000
00100000
00001000
00100000
00001000
00010000
00000100
00010000
00000010
00001000
,  // measure 15
00000010
00010000
00000100
00010000
00000100
00001000
00000010
00001000
00000000
00000000
00000000
00000000
00000000
00000000
00000000
00000010
,  // measure 16
00010000
00000100
00010000
00000100
00001000
00000010
00001000
00000001
00001000
00000010
00000000
00000000
00000000
00000000
00000100
00000001
,  // measure 17
00000010
00000001
00001000
00000100
00001000
00000010
00000100
00000001
00001000
00000001
00001000
00000000
00000000
00000000
00000000
00000010
,  // measure 18
00000100
00000010
00000100
00000001
00001000
00000010
00010000
00000100
00001000
00000010
00010000
00000000
00000000
00000000
00000000
00000010
,  // measure 19
00010000
00000010
00010000
00000010
00001000
00000100
00001000
00000100
00010000
00000010
00010000
00000010
00001000
00000100
00001000
00000010
,  // measure 20
00010000
00001000
01000000
00010000
00100000
00010000
01000000
00001000
01000000
00001000
00100000
00010000
00100000
00001000
01000000
00001000
,  // measure 21
01000000
00010000
00100000
00010000
00100000
00001000
01000000
00010000
10000000
01000000
00100000
00010000
10000000
00010000
10000000
01000000
,  // measure 22
00100000
01000000
00100000
00010000
10000000
00010000
10000000
01000000
00100000
00010000
01000000
00010000
01000000
00010000
01000000
00010000
,  // measure 23
00100000
00001000
01000000
00001000
01000000
00010000
00100000
00001000
00100000
00001000
01000000
00010000
01000000
00010000
00100000
00001000
,  // measure 24
00100000
00001000
00010000
00000100
00010000
00000010
00001000
00000010
00010000
00000100
00010000
00000100
00001000
00000010
00001000
00000010
,  // measure 25
00010000
00000100
00010000
00000010
00001000
00000010
00001000
00000100
00001000
00000010
00001000
00000001
00000100
00000001
00001000
00000010
,  // measure 26
00001000
00000001
00000100
00000001
00000010
00000100
00001000
00000010
00001000
00000001
00000100
00000001
00000010
00000100
00001000
00000010
,  // measure 27
00010000
00000010
00000000
00000000
00001000
00000000
00000000
00000000
00000000
00000000
00000000
00000000
00000000
00000000
00000000
00000000
,  // measure 28
00000000
00000100
00010000
00000100
00010000
00000010
00001000
00000010
00001000
00000100
00010000
00000010
00010000
00000010
00001000
00000100
,  // measure 29
00001000
00000100
00010000
00001000
01000000
00001000
00100000
00010000
01000000
00000000
00000000
00000000
00001000
00000000
00000000
00000000
,  // measure 30
01000000
00001000
01000000
00010000
01000000
00001000
00100000
00001000
00100000
00010000
01000000
00010000
01000000
00010000
00100000
00010000
,  // measure 31
10000000
01000000
10000000
00100000
01000000
00010000
00100000
01000000
00000000
00000000
00000000
00000000
00000000
00000000
00000000
00000000
,  // measure 32
10000000
00100000
10000000
00010000
01000000
00010000
10000000
00100000
10000000
01000000
00100000
00010000
01000000
00010000
01000000
00010000
,  // measure 33
01000000
00010000
00100000
00001000
01000000
00010000
01000000
00010000
00000000
00000000
00000000
00000000
00000000
00000000
00000000
00000000
,  // measure 34
00100000
00001000
00100000
00001000
01000000
00010000
01000000
00010000
00100000
00001000
00010000
00000010
00010000
00000100
00001000
00000100
,  // measure 35
00001000
00000010
00010000
00000100
00010000
00000100
00001000
00000010
00000000
00000000
00000000
00000000
00000000
00000000
00000000
00000000
,  // measure 36
00010000
00000010
00010000
00000100
00001000
00000100
00001000
00000010
00001000
00000001
00001000
00000000
00000000
00000000
00000000
00000000
,  // measure 37
00000010
00000100
00000010
00001000
00000001
00001000
00000100
00000010
00000100
00000010
00000001
00000000
00000000
00000000
00001000
00000001
,  // measure 38
00001000
00000100
00000010
00000100
00001000
00000010
00010000
00000010
00001000
00000100
00001000
00000000
00000000
00000000
00000100
00010000
,  // measure 39
00000010
00010000
00000100
00001000
00000100
00010000
00000010
00010000
00000010
00001000
00000100
00001000
00000100
00010000
00001000
01000000
,  // measure 40
00001000
00100000
00010000
01000000
00010000
01000000
00001000
00100000
00010000
00100000
00010000
01000000
00001000
01000000
00001000
00100000
,  // measure 41
00010000
01000000
00010000
01000000
00010000
00100000
00010000
01000000
00100000
10000000
01000000
10000000
00010000
00100000
01000000
10000000
,  // measure 42
00010000
10000000
00010000
00100000
00010000
10000000
01000000
10000000
00100000
01000000
00010000
00100000
00010000
01000000
00010000
01000000
,  // measure 43
00001000
00100000
00001000
00100000
00010000
01000000
00010000
00100000
00001000
00100000
00001000
01000000
00010000
01000000
00001000
00100000
,  // measure 44
00001000
00010000
00000100
00010000
00000100
00010000
00000010
00001000
00000010
00001000
00000100
00010000
00000010
00001000
00000010
00001000
,  // measure 45
00000100
00010000
00000100
00010000
00000010
00001000
00000010
00001000
00000100
00010000
00000010
00001000
00000001
00000010
00000100
00000010
,  // measure 46
00000100
00001000
00000001
00000010
00000001
00000100
00000010
00001000
00000001
00001000
00000001
00000100
00000010
00000100
00000010
00001000
,  // measure 47
00000010
00000000
00000000
00010000
00000000
00000000
00000000
00000000
00000000
00000000
00000000
00000000
00000000
00000000
00000000
00000010
,  // measure 48
00001000
00000100
00001000
00000010
00010000
00000010
00001000
00000100
00001000
00000100
00010000
00000010
00010000
00000010
00001000
00000100
,  // measure 49
00001000
00000010
00010000
00001000
01000000
00010000
00100000
00000000
00000000
00000000
00000000
00000000
00000000
00000000
00000000
00010000
,  // measure 50
00100000
00001000
01000000
00001000
00100000
00010000
00100000
00001000
01000000
00001000
01000000
00010000
00100000
00010000
00100000
00001000
,  // measure 51
01000000
00010000
10000000
01000000
00100000
00010000
01000000
00000000
00000000
00000000
00010000
00000000
00000000
00000000
10000000
00100000
,  // measure 52
01000000
00100000
01000000
00010000
10000000
00010000
10000000
00100000
01000000
00010000
00100000
00010000
01000000
00010000
01000000
00010000
,  // measure 53
00100000
00001000
00100000
00001000
01000000
00010000
00000000
00000000
00000000
00100000
00000000
00000000
00000000
00000000
00001000
01000000
,  // measure 54
00001000
01000000
00001000
00100000
00010000
01000000
00010000
01000000
00001000
00100000
00001000
00010000
00000100
00010000
00000100
00001000
,  // measure 55
00000010
00001000
00000010
00010000
00000100
00010000
00000000
00000000
00000000
00000000
00000000
00000010
00001000
00000010
00001000
00000100
,  // measure 56
00010000
00000100
00001000
00000010
00001000
00000010
00001000
00000100
00000000
00000000
00000000
00000000
00001000
00000010
00000100
00000001
,  // measure 57
00000010
00000001
00001000
00000100
00000010
00000001
00000100
00000001
00001000
00000000
00000000
00000000
00000010
00001000
00000100
00000010
,  // measure 58
00000001
00000100
00000001
00001000
00000100
00001000
00000100
00001000
00000000
00000000
00000000
00000010
00010000
00000010
00010000
00000100
,  // measure 59
00001000
00000010
00001000
00000010
00010000
00000100
00001000
00000100
00001000
00000010
00010000
00001000
01000000
00010000
00100000
00010000
,  // measure 60
00100000
00001000
01000000
00001000
00100000
00010000
00100000
00001000
01000000
00001000
01000000
00010000
00100000
00010000
00100000
00001000
,  // measure 61
01000000
00010000
01000000
00100000
01000000
00100000
10000000
00010000
10000000
00010000
01000000
00100000
01000000
00010000
10000000
00010000
,  // measure 62
00100000
01000000
00100000
01000000
10000000
00010000
01000000
00001000
00100000
00010000
00100000
00010000
01000000
00001000
00100000
00001000
,  // measure 63
00100000
00010000
01000000
00001000
01000000
00001000
00100000
00010000
00100000
00010000
01000000
00001000
00100000
00001000
00010000
00000100
,  // measure 64
00010000
00000100
00010000
00000010
00001000
00000010
00001000
00000100
00010000
00000010
00001000
00000010
00010000
00000010
00010000
00000100
,  // measure 65
00001000
00000010
00001000
00000010
00001000
00000010
00001000
00000100
00000010
00000001
00000100
00000010
00001000
00000100
00001000
00000001
,  // measure 66
00000010
00000001
00001000
00000100
00001000
00000010
00000100
00000001
00000010
00000100
00001000
00000100
00010000
00000010
00001000
00000000
,  // measure 67
00000000
00000010
00000000
00000000
00000000
00000000
00000000
00000000
00000000
00000000
00000000
00000000
00000000
00000000
00001000
00000100
,  // measure 68
00010000
00000100
00010000
00000010
00001000
00000100
00000000
00000000
00000000
00000000
00000000
00000000
00000000
00010000
00000100
00010000
,  // measure 69
00000010
00001000
00000010
00001000
00000100
00010000
00000100
00000000
00000000
00000000
00000000
00000000
00000000
00000000
00000000
00000000
,  // measure 70
00010000
00001000
00100000
00010000
00100000
00010000
01000000
00000000
00000000
00000000
00000000
00000000
00000000
00000000
00000000
00001000
,  // measure 71
01000000
00001000
00100000
00010000
01000000
00010000
00000000
00000000
01000000
00000000
00000000
00000000
00000000
00000000
00000000
00000000
,  // measure 72
00000000
00000000
00001000
00100000
00010000
00100000
00010000
00000000
00000000
00000000
00000000
00000000
00000000
01000000
00010000
10000000
,  // measure 73
00010000
00100000
01000000
00100000
01000000
10000000
00010000
00000000
00000000
00000000
00000000
00000000
00000000
00000000
00000000
00000000
,  // measure 74
10000000
00100000
01000000
00100000
10000000
00010000
10000000
00000000
00000000
00000000
00000000
00000000
00000000
00000000
00000000
00010000
,  // measure 75
01000000
00100000
01000000
00100000
10000000
00010000
00000000
00000000
00000000
00000000
00000000
00000000
00000000
00000000
00000000
01000000
,  // measure 76
00010000
00100000
00010000
00100000
00001000
01000000
00001000
01000000
00010000
00100000
00010000
01000000
00001000
01000000
00010000
00100000
,  // measure 77
00010000
00100000
00001000
00010000
00000010
00010000
00000100
00001000
00000100
00001000
00000010
00010000
00000100
00010000
00000100
00001000
,  // measure 78
00000010
00010000
00000010
00010000
00000100
00001000
00000100
00000000
00000000
00000000
00000000
00000000
00000000
00000000
00000000
00000000
,  // measure 79
00001000
00000010
00001000
00000010
00001000
00000100
00000010
00000001
00000100
00000001
00001000
00000010
00001000
00000100
00000010
00000001
,  // measure 80
00001000
00000100
00001000
00000001
00001000
00000010
00000100
00000001
00001000
00000010
00010000
00000100
00001000
00000100
00001000
00000010
,  // measure 81
00010000
00000010
00001000
00000100
00001000
00000100
00010000
00000010
00000000
00000000
00000000
00000000
00000000
00000000
00000000
00000000
,  // measure 82
00010000
00000100
00001000
00000100
00001000
00000010
00010000
00001000
00100000
00010000
00100000
00010000
01000000
00001000
01000000
00001000
,  // measure 83
00100000
00010000
00100000
00010000
01000000
00001000
00100000
00010000
00100000
00010000
01000000
00010000
10000000
00010000
01000000
00100000
,  // measure 84
01000000
00100000
10000000
00010000
01000000
00010000
00100000
01000000
00000000
00000000
00000000
00000000
00000000
00000000
00000000
00000000
,  // measure 85
10000000
00100000
10000000
00010000
01000000
00100000
01000000
00100000
10000000
00010000
00100000
00001000
00100000
00010000
01000000
00010000
,  // measure 86
01000000
00001000
00100000
00001000
00100000
00010000
01000000
00010000
00100000
00001000
00100000
00010000
01000000
00010000
01000000
00001000
,  // measure 87
00100000
00001000
00010000
00000100
00010000
00000100
00001000
00000010
00000000
00000000
00000000
00000000
00000000
00000000
00000000
00001000
,  // measure 88
00000010
00010000
00000100
00010000
00000100
00001000
00000010
00001000
00000100
00010000
00000100
00001000
00000000
00000000
00000000
00000000
,  // measure 89
00000000
00000010
00001000
00000010
00001000
00000010
00001000
00000100
00000010
00000001
00000100
00000001
00000000
00000000
00000000
00000000
,  // measure 90
00001000
00000010
00000100
00000010
00000100
00000001
00001000
00000010
00001000
00000100
00000010
00000001
00000100
00000000
00000000
00000000
,  // measure 91
00000001
00001000
00000100
00001000
00000100
00001000
00000010
00010000
00000010
00010000
00000100
00001000
00000100
00001000
00000010
00010000
,  // measure 92
00000100
00001000
00000010
00010000
00000010
00001000
00000100
00010000
00001000
01000000
00001000
00100000
00010000
00100000
00010000
01000000
,  // measure 93
00001000
01000000
00010000
00100000
00010000
00100000
00001000
01000000
00001000
00100000
00010000
00100000
00010000
01000000
00010000
10000000
,  // measure 94
01000000
00100000
01000000
00100000
00010000
10000000
00010000
10000000
01000000
00100000
01000000
00100000
00010000
10000000
01000000
00100000
,  // measure 95
01000000
00100000
00010000
01000000
00001000
01000000
00010000
00100000
00010000
00100000
00001000
01000000
00010000
01000000
00010000
00100000
,  // measure 96
00001000
00100000
00001000
01000000
00010000
00100000
00010000
00100000
00001000
00010000
00000100
00010000
00000100
00001000
00000010
00001000
,  // measure 97
00000010
00010000
00000100
00010000
00000100
00001000
00000010
00001000
00000100
00010000
00000100
00001000
00000010
00001000
00000010
00001000
,  // measure 98
00000010
00001000
00000100
00000010
00000001
00000100
00000010
00001000
00000100
00001000
00000001
00000010
00000001
00000100
00000010
00001000
,  // measure 99
00000100
00000010
00000001
00000100
00000000
00000000
00000010
00000000
00000000
00000000
00000000
00000000
00000000
00000000
00000000
00000000
,  // measure 100
00000000
00000000
00000000
00001000
00000100
00010000
00000010
00001000
00000010
00001000
00000100
00010000
00000100
00010000
00000010
00001000
,  // measure 101
00000100
00001000
00000100
00010000
00000010
00001000
00000010
00001000
00000100
00010000
00000100
00000000
00000000
00000000
00000000
00000000
,  // measure 102
00000000
00000000
00000000
00010000
00001000
00100000
00010000
00100000
00010000
01000000
00001000
01000000
00001000
00100000
00010000
00100000
,  // measure 103
00010000
01000000
00001000
00100000
00010000
01000000
00001000
01000000
00010000
01000000
10000000
00000000
00000000
00000000
00000000
00000000
,  // measure 104
00000000
00000000
00000000
01000000
00010000
01000000
10000000
01000000
00010000
00100000
10000000
00100000
00010000
00100000
10000000
00100000
,  // measure 105
00010000
10000000
00000000
00000000
00000000
00000000
00000000
00000000
00000000
00000000
00000000
00000000
00000000
00000000
00000000
00000000
;
