#VERSION:0.83;
#TITLE:I Knew You Were Trouble;
#SUBTITLE:Sensibility Validation;
#ARTIST:Taylor Swift;
#TITLETRANSLIT:;
#SUBTITLETRANSLIT:;
#ARTISTTRANSLIT:;
#GENRE:;
#CREDIT:;
#MUSIC:Trouble.ogg;
#BANNER:Trouble - bn.png;
#BACKGROUND:Trouble - bg.png;
#CDTITLE:;
#SAMPLESTART:114.540;
#SAMPLELENGTH:12.000;
#SELECTABLE:YES;
#OFFSET:0.010;
#BPMS:0.000=154.000
,34.000=308.000
,39.000=154.000
,66.000=308.000
,71.000=154.000
,104.000=77.000
,120.000=154.000
,376.000=77.000
,394.000=154.000
;
#STOPS:34.000=0.194
,35.000=0.195
,36.000=0.195
,37.000=0.195
,38.000=0.195
,66.000=0.195
,67.000=0.194
,68.000=0.195
,69.000=0.195
,70.000=0.195
;
#DISPLAYBPM:154.000;
#BGCHANGES:;
#FGCHANGES:;

//--------------- dance-single - LinkDude04 ----------------
#NOTEDATA:;
#STEPSTYPE:dance-single;
#DESCRIPTION:LinkDude04;
#DIFFICULTY:Beginner;
#METER:3;
#RADARVALUES:0,0,0,0,0;
#NOTES:
0000
0000
0000
0000
,
0000
0000
0000
0000
,
0001
0000
0001
0000
,
0100
0000
0100
0000
,
0010
0000
0010
0000
,
1000
0000
1000
0000
,
0200
0000
0300
0000
,
0020
0000
0030
0000
,
0002
0000
0003
0000
0020
0030
0000
0000
,
0200
0300
0000
0000
2000
3000
0000
0000
,
0001
0000
0001
0000
,
0010
0000
0010
0000
,
0100
0000
0100
0000
,
1000
0000
1000
0000
,
0020
0000
0030
0000
,
0200
0000
0300
0000
,
0002
0003
2000
3000
,
0020
0030
0200
0000
,
0000
0000
0300
0000
,
0020
0000
0030
0000
,
0110
0000
0000
0000
,
2000
0000
3000
0000
,
1001
0000
0000
0000
,
0020
0030
0000
0110
,
0000
0000
1000
0000
,
0002
0000
0003
0000
,
1000
0000
0001
0000
1MM0
1000
0001
0002
,
0000
0003
0100
0001
,
1000
0000
0010
0000
1000
1000
0010
0020
,
0000
0030
1000
0001
,
0010
0000
0100
0000
,
M01M
0010
0100
0200
,
0000
0000
0000
0300
0000
0000
0000
0000
,
1000
0000
0010
0000
,
0100
0000
0001
0000
,
0100
0100
0001
0002
,
0000
0000
0003
0000
,
1000
0000
0010
0000
,
0100
0000
0220
0000
,
0330
0000
2002
0000
,
3003
0000
0MM1
0000
,
1MM0
0000
0MM1
0000
,
1000
0000
2020
0000
,
3030
0000
0220
0000
,
0330
0000
M01M
0000
,
M10M
0000
M01M
0000
,
1000
0000
1000
0000
,
0010
0000
0010
0000
,
0100
0000
0100
0000
,
0001
0000
0001
0000
,
0200
0000
0300
0000
,
0002
0000
0003
0000
,
2000
3000
0020
0030
,
0200
0300
0001
0000
,
1000
0000
1000
0000
,
0100
0000
0100
0000
,
0010
0000
0010
0000
,
0001
0000
0001
0000
,
0020
0000
0030
0000
,
0200
0000
0300
0000
,
2000
3000
0002
0003
,
0200
0300
0020
0000
,
0000
0000
0030
0000
,
0200
0000
0300
0000
,
0220
0330
0000
0020
,
0000
0000
0030
0000
,
2002
0000
3003
0000
,
2000
3000
0000
0220
,
0330
0000
0001
0000
,
1000
0000
1001
0000
,
0001
0000
0010
0000
,
MM01
0001
0010
0020
,
0000
0000
0030
0000
,
0100
0000
1000
0000
,
0100
0000
0010
0000
,
0001
0001
0010
0020
,
0000
0000
0030
0000
,
0001
0000
0100
0000
,
0010
0000
1000
0000
,
0M1M
0010
1000
2000
,
0000
0000
3000
0000
,
0001
0000
0100
0000
,
0010
0000
1000
0000
,
0001
0001
1000
2000
,
0000
0000
3000
0000
,
0010
0000
1000
0000
,
0100
0000
2200
0000
,
3300
0000
2200
0000
,
3300
0000
10MM
0000
,
01MM
0000
10MM
0000
,
0100
0000
0220
0000
,
0330
0000
2002
0000
,
3003
0000
1MM0
0000
,
0MM1
0000
1MM0
0000
,
0001
0200
0000
0300
,
0001
0020
0000
0030
,
0001
0000
0000
0000
0200
0000
0000
0300
0000
0000
0000
0002
0003
0000
0000
0000
,
2000
3000
0200
0300
,
0010
0001
1000
0000
,
0100
0000
10MM
1000
,
0100
0200
0000
0000
,
0300
0000
0010
0000
,
0001
0000
0010
0000
,
0100
0000
0010
0010
,
0100
0200
0000
0000
,
0300
0000
1000
0000
,
0100
0000
0010
0000
,
0001
0000
MM10
0010
,
0001
0002
0000
0000
,
0003
0000
1000
0000
,
0100
0000
1000
0000
,
0010
0000
0100
0100
,
0010
0020
0000
0000
,
0030
0000
1000
0000
,
0001
0000
0100
0000
,
0202
0000
0303
0000
,
0202
0000
0303
0000
,
M0M1
0000
M1M0
0000
,
M0M1
0000
0010
0000
,
0022
0000
0033
0000
,
2200
0000
3300
0000
,
01MM
0000
10MM
0000
,
01MM
0000
0010
0000
,
0001
0000
MM10
0010
,
0001
0002
0003
0000
,
MM10
0000
MM01
0000
,
MM10
0000
0100
0000
,
0001
0000
M1M0
0100
,
0001
0002
0003
0000
,
MM10
0000
M10M
0000
,
10MM
0000
0000
0000
;

//--------------- dance-single - LinkDude08 ----------------
#NOTEDATA:;
#STEPSTYPE:dance-single;
#DESCRIPTION:LinkDude08;
#DIFFICULTY:Easy;
#METER:5;
#RADARVALUES:0,0,0,0,0;
#NOTES:
0000
0000
0000
0000
,
0000
0000
0000
0000
,
0001
0010
0001
0000
1000
0000
0000
0000
,
0001
1000
0001
0000
0100
0000
0000
0000
,
0001
0100
0001
0000
0010
0000
0000
0000
,
0001
0010
0001
0000
0100
0000
0000
0000
,
0010
0100
0010
0000
1000
0000
0000
0000
,
0100
1000
0100
0000
0010
0000
0000
0000
,
0001
0010
0001
0000
1000
0000
1000
0000
,
0100
0100
0010
0000
,
0001
0010
0001
0000
0100
0000
0000
0000
,
0001
0100
0001
0000
1000
0000
0000
0000
,
0001
1000
0001
0000
0010
0000
0000
0000
,
0100
0010
0100
0000
1000
0000
0000
0000
,
0010
1000
0010
0000
0100
0000
0000
0000
,
0001
0100
0001
0000
1000
0000
0000
0000
,
0001
1000
0001
0000
0010
0000
0010
0000
,
0100
0100
1000
0000
,
1100
0000
0000
0100
,
0020
0000
0030
0000
,
0110
0000
0000
0001
,
2000
0000
3000
0000
,
1001
0000
0000
1000
,
0020
0000
0030
1010
,
0000
0000
0000
0000
1000
0010
1000
0000
,
0100
0000
0000
0000
,
0010
0000
0100
0000
1000
0000
0001
0000
1MM0
0001
1000
0001
1000
0000
0002
0000
,
0000
0000
0003
0000
1000
0001
0100
0001
,
0010
0000
0001
0000
0100
0000
0010
0000
1000
0000
0010
1000
0010
1000
0020
0000
,
0000
0000
0030
0000
1000
0010
0100
0001
,
0010
0001
1000
0100
,
M01M
0100
0010
0100
0010
0000
0200
0000
,
0000
0000
0300
0000
,
0010
0100
1000
0001
,
0100
0001
0100
0010
,
1000
0000
0010
1000
0010
1000
0020
0000
,
0000
0000
0030
0000
,
1000
0010
1000
0000
0001
0000
0001
0000
,
0100
0000
0110
0000
,
0001
0000
1001
0000
,
1000
0000
01MM
0000
,
10MM
0000
01MM
0000
,
1000
0000
1100
0000
,
0001
0000
0011
0000
,
1000
0000
0MM1
0000
,
1MM0
0000
0MM1
0000
,
1000
0001
1000
0000
0100
0000
0000
0000
,
1000
0100
1000
0000
0010
0000
0000
0000
,
1000
0010
1000
0000
0001
0000
0000
0000
,
0010
0001
0010
0000
0100
0000
0000
0000
,
1000
0100
1000
0000
0010
0000
0000
0000
,
0100
0010
0100
0000
0001
0000
0000
0000
,
0100
0001
0100
0000
0010
0000
0010
0000
,
0100
0100
0001
0000
,
1000
0001
1000
0000
0100
0000
0000
0000
,
0010
0100
0010
0000
0001
0000
0000
0000
,
1000
0001
1000
0000
0010
0000
0000
0000
,
0100
0010
0100
0000
0001
0000
0000
0000
,
1000
0001
1000
0000
0100
0000
0000
0000
,
0010
0100
0010
0000
0001
0000
0000
0000
,
1000
0001
1000
0000
0010
0000
0010
0000
,
0100
0100
0001
0000
,
0101
0000
0000
0001
,
0200
0000
0300
0000
,
1010
0000
0000
1000
,
0020
0000
0030
0000
,
0101
0000
0000
0001
,
2000
3000
0000
0110
,
0000
0000
0001
0100
,
0001
0000
1001
0000
,
1000
0010
0100
0001
,
M1M0
0001
0100
0001
0100
0000
0002
0000
,
0000
0000
0000
0003
,
0100
0001
0010
0001
,
0100
0001
1000
0001
,
0010
0000
0001
0010
0001
0010
0002
0000
,
0000
0000
0003
0000
,
1000
0001
0100
0001
,
1000
0001
0010
0100
,
M01M
0100
0010
0100
0010
0000
0200
0000
,
0000
0300
0000
0010
,
0001
1000
0010
0100
,
0001
1000
0100
0010
,
0001
0000
0010
0001
0010
0001
0020
0000
,
0000
0000
0030
0000
,
0001
0010
0001
0000
1000
0000
1000
0000
,
0100
0000
1100
0000
,
1000
0000
1010
0000
,
0010
0000
1M0M
0000
,
0MM1
0000
M1M0
0000
,
0010
0000
0110
0000
,
1000
0000
1001
0000
,
1000
0000
0MM1
0000
,
1MM0
0000
0MM1
0000
,
0100
0001
0200
0000
0000
0000
0300
0000
,
0010
1000
0020
0000
0000
0000
0030
0000
,
1000
0000
0001
0000
0200
0000
0000
0300
0000
0000
0000
0002
0003
0000
0000
0000
,
2000
3000
0200
0300
,
0010
0001
1000
0010
,
0100
0000
0010
0000
1M0M
0010
1000
0010
,
1000
0020
0000
0000
,
0030
0000
1000
0001
,
0010
0100
1000
0100
,
0010
0000
0001
0000
1000
0000
0001
1000
,
0001
1000
0002
0000
0000
0000
0000
0000
,
0003
0000
1000
0001
,
0100
0010
1000
0001
,
0100
0000
0010
0000
M10M
0010
0100
0010
,
0100
0020
0000
0000
,
0030
0000
1000
0010
,
0100
0001
1000
0010
,
1000
0000
0001
0000
0100
0000
0001
0100
,
0001
0100
0002
0000
0000
0000
0000
0000
,
0003
0000
0000
0000
1000
0001
1000
0000
,
0010
0010
0100
0000
,
0110
0000
0001
0000
,
1001
0000
1000
0000
,
01MM
0000
M01M
0000
,
MM01
0000
1000
0000
,
1010
0000
0010
0000
,
0110
0000
0100
0000
,
M0M1
0000
1MM0
0000
,
0M1M
0000
1000
0001
,
0010
0000
0100
0000
M01M
0100
0010
0100
,
0010
0200
0300
0000
,
M01M
0000
M10M
0000
,
M01M
0000
0001
0010
,
0100
0000
1000
0000
01MM
1000
0100
1000
,
0100
2000
3000
0000
,
01MM
0000
M01M
0000
,
MM01
0000
0000
0000
;

//--------------- dance-single - LinkDude10 ----------------
#NOTEDATA:;
#STEPSTYPE:dance-single;
#DESCRIPTION:LinkDude10;
#DIFFICULTY:Medium;
#METER:7;
#RADARVALUES:0,0,0,0,0;
#NOTES:
0000
0000
0000
0000
,
0000
0000
0000
0000
,
0001
1000
0001
1000
0010
0000
0000
0000
,
1000
0001
1000
0001
0100
0000
0000
0000
,
0001
1000
0001
1000
0100
0000
0000
0000
,
1000
0001
1000
0001
0010
0000
0000
0001
,
0010
0001
0010
0001
1000
0000
0000
0001
,
0100
0001
0100
0001
1000
0000
0000
0001
,
0100
0001
0100
0001
0100
0000
0100
0000
,
0010
0000
0010
0000
1000
0000
0000
0001
,
1000
0001
0100
0001
0010
0000
0000
0001
,
0010
0001
0100
0001
1000
0000
0000
0001
,
1000
0001
0010
0001
0100
0000
0000
0001
,
0100
0001
0010
0001
1000
0000
0000
0001
,
0010
0000
0010
0000
0001
0000
0000
1000
,
0100
0000
0100
0000
1000
0000
0000
0001
,
0010
0010
0100
0100
,
1000
1000
0001
0000
,
0010
0010
0000
0001
0000
1000
0001
2000
,
0000
0000
0000
3000
0000
0010
1000
0100
,
1000
0000
0000
0000
0000
0001
1000
0002
,
0000
0000
0000
0003
0000
0010
0001
0100
,
0001
0000
0000
0000
0000
0100
0001
0200
,
0000
0000
0000
0300
0000
0001
0100
0001
,
0000
0000
0000
1000
0100
0001
0100
0000
,
1000
0000
0000
0000
0000
0000
0000
0100
,
1000
0000
0010
0000
1000
0000
0100
0000
10MM
0100
1000
0100
1000
0000
0200
0000
,
0000
0000
0000
0000
0000
0300
0000
1000
0100
0000
0010
0000
0001
0000
0010
0000
,
0100
0000
1000
0000
0010
0000
0100
0000
0001
0000
1000
0001
1000
0010
2000
0000
,
0000
0000
0000
0000
3000
0000
0010
1000
0010
0000
1000
0000
0100
0000
0110
0000
,
0010
0001
1000
0100
,
M01M
0100
0010
0001
0010
0000
0002
0000
,
0000
0000
0000
0000
0000
0003
0000
0010
,
0001
1000
0100
0010
,
0001
0010
0100
0010
,
0001
0000
0100
0001
0100
0010
0200
0000
,
0000
0000
0000
0000
0300
0000
0010
0100
,
0010
1000
0010
0100
0010
1000
0010
0000
,
2000
3000
1001
0000
,
0002
0003
1001
0000
,
1000
0000
0000
0000
0MM1
0001
0000
0000
,
M1M0
0100
0000
0000
M01M
0010
0000
0000
,
0200
0300
0110
0000
,
0020
0030
0110
0000
,
1000
0000
0000
0000
0MM1
0001
0000
0000
,
MM10
0010
0000
0000
MM01
0001
0000
0000
,
0010
0001
0010
0100
0010
0000
0000
0000
,
0100
0010
0100
1000
0100
0000
0000
0000
,
1000
0100
1000
0001
1000
0000
0000
0000
,
0001
1000
0001
0010
0001
0000
0000
0010
,
0001
0010
0001
1000
0100
0000
0000
1000
,
0100
1000
0100
0010
0001
0000
0000
1000
,
0010
1000
0010
0100
0001
0000
0001
0000
,
1000
0000
1000
0000
0010
0000
1000
0010
,
1000
0100
1000
0000
0100
0000
0000
1000
,
0100
1000
0010
1000
0001
0000
0000
1000
,
0001
0100
0001
0010
0001
0000
0000
0010
,
0001
0010
0001
1000
0100
0000
0000
1000
,
0100
1000
0100
0010
0001
0000
0000
0000
,
0010
0001
0010
0100
0010
0000
0000
0000
,
0100
0010
0100
1000
0100
0000
0100
0000
,
1000
1000
0010
0000
,
0100
0100
0000
0001
0000
1000
0001
2000
,
0000
0000
0000
3000
0000
0010
1000
0100
,
1000
0000
0000
0000
0000
0001
1000
0002
,
0000
0000
0000
0003
0000
0010
0001
0100
,
0001
0000
0000
0000
0000
0100
0010
0200
,
0000
0000
0000
0300
0000
0010
0100
0001
,
0000
0000
0000
1000
0100
1000
0100
0000
,
0010
0000
0110
0000
,
0001
0010
0001
1000
,
01MM
1000
0100
0010
0100
0000
0020
0000
,
0000
0000
0000
0000
0000
0030
0000
0001
,
0010
0100
1000
0001
,
0100
0010
1000
0001
,
1000
0000
0100
1000
0100
0010
0200
0000
,
0000
0000
0000
0000
0300
0000
0010
0100
,
0010
0001
0100
0110
,
0010
0100
0010
1000
,
0MM1
1000
0001
0010
0001
0000
0020
0000
,
0000
0000
0000
0000
0000
0030
0000
0001
,
0010
0100
1000
0100
,
0010
0001
1000
0001
,
0100
0000
0010
0100
0010
1000
0020
0000
,
0000
0000
0000
0000
0030
0000
1000
0010
,
1000
0001
1000
0001
1000
0100
1000
0000
,
0200
0300
0110
0000
,
0020
0030
0110
0000
,
2000
0000
3000
0000
0MM1
0001
0000
0000
,
M1M0
0100
0000
0000
M01M
0010
0000
0000
,
2000
3000
1010
0000
,
0002
0003
0101
0000
,
2000
0000
3000
0000
0MM1
0001
0000
0000
,
1MM0
1000
0000
0000
0MM1
0001
1000
0001
,
1000
0100
0020
0000
0000
0000
0030
0100
,
1000
0000
0001
0000
0020
0000
0000
0000
0000
0000
0000
0000
0030
0000
0001
0010
,
0001
1000
0001
0000
1000
0000
0000
0000
0000
0000
0001
1000
0000
0000
0000
0001
,
0100
0001
0010
0000
0000
0000
0000
0001
0100
0001
0010
0000
0000
0000
0000
0000
,
0002
0003
2000
3000
0001
0000
0100
0000
,
0010
0000
1000
0000
0M1M
1000
0010
0100
,
0010
0200
0000
0000
,
0000
0300
0000
0010
1000
0000
0001
0000
,
0010
0100
1000
0001
,
1000
0000
0010
0000
1000
0000
0100
1000
,
0100
0010
0200
0000
0000
0000
0000
0000
,
0000
0300
0000
0010
0001
0000
1000
0000
,
0100
1100
1000
0001
,
1000
0000
0010
0000
1M0M
0010
1000
0001
,
1000
0002
0000
0000
,
0000
0003
0000
1000
0001
0000
1000
0000
,
0010
0100
0001
0010
,
0001
0000
1000
0000
0100
0000
0010
0100
,
0010
0001
0020
0000
0000
0000
0000
0000
,
0030
0000
0001
0010
0001
1000
0001
0010
,
0001
1000
0001
0000
2000
0000
3000
0000
,
1100
0000
0002
0003
,
0011
0000
2000
3000
,
0MM1
0001
0000
0000
1MM0
1000
0000
0000
,
0M1M
0010
0000
0000
0200
0000
0300
0000
,
0101
0000
0020
0030
,
1010
0000
2000
3000
,
0MM1
0001
0000
0000
1MM0
1000
0000
0000
,
01MM
0100
0000
0000
0010
0000
0001
0000
,
0010
0000
0100
0000
10MM
0100
1000
0001
,
1000
0002
0000
0003
,
MM10
0010
0000
0000
M10M
0100
0000
0000
,
M01M
0010
0000
0000
0001
0000
0010
0000
,
0100
0000
0010
0000
MM01
0010
0001
0100
,
0001
0200
0000
0300
,
M01M
0010
0000
0000
1M0M
1000
0000
0000
,
01MM
0100
0000
0000
0000
0000
0000
0000
;

//--------------- dance-single - Cut from J. Nero ----------------
#NOTEDATA:;
#STEPSTYPE:dance-single;
#DESCRIPTION:Cut from J. Nero;
#DIFFICULTY:Hard;
#METER:9;
#RADARVALUES:0,0,0,0,0;
#NOTES:
0000
0000
0000
0000
,
0000
0000
0000
0000
,
0001
0100
0001
1000
0100
0010
0001
1000
,
0001
0010
0001
1000
0010
0100
0001
0100
,
0010
0100
0001
1000
0100
0010
0001
1000
,
0001
0010
0001
0010
0100
1000
0001
0100
,
0001
0000
0000
1000
0001
0100
0010
1000
,
0001
0000
0000
0010
0100
0010
0001
0010
,
0100
0000
0000
1000
0001
0000
0100
0000
,
0001
0000
1000
0000
0001
0000
0100
0010
,
1000
0010
1000
0001
0010
0100
1000
0001
,
1000
0100
0010
0100
1000
0001
0100
0010
,
1000
0010
1000
0001
0010
0100
1000
0001
,
1000
0100
1000
0100
0010
0001
1000
0010
,
0100
0000
0000
0010
1000
0001
1000
0010
,
0100
0000
0000
0001
1000
0100
1000
0100
,
0010
0000
0000
0001
1000
0000
0010
0000
,
1000
0000
0001
0000
1000
0000
0010
0100
,
0001
0100
0010
0100
0001
1000
0100
0010
,
0001
1000
0001
0010
0001
1000
0010
0100
,
0001
0100
0001
1000
0100
0010
0001
1000
,
0001
0010
0100
0010
0001
0010
0100
1000
,
0001
0100
0001
1000
0001
0100
0010
1000
,
0001
0010
0001
0010
0100
1000
0001
0100
,
0010
0100
0001
1000
0001
0100
0010
1000
,
0010
1000
0001
0010
0100
1000
0001
1000
,
0100
0000
1000
0000
0001
0000
0100
0000
0010
1000
0010
0100
0010
0000
1000
0000
,
0000
0000
0000
0000
0000
0000
0000
0001
0010
0000
0100
0000
1000
0000
0001
0000
,
1000
0000
0100
0000
1000
0000
0100
0000
0010
0001
1000
0010
1000
0001
1000
0000
,
0000
0000
0000
0000
0000
0000
0010
0100
0001
0000
1000
0000
0100
0000
0010
0000
,
0100
1000
0100
0010
0001
1000
0010
1000
,
0001
1000
0010
0100
0001
0100
0001
1000
,
0100
0010
0001
1000
0001
0010
0100
0010
,
0001
1000
0010
0100
0001
0100
0001
1000
,
0100
0010
0001
1000
0001
0010
0001
0010
,
0100
1000
0001
0100
0010
0100
0001
1000
,
0001
0100
0010
1000
0001
0010
0001
0010
,
0100
0000
0000
0000
,
1000
0000
0000
0000
0001
0100
0001
1000
,
0001
0100
0010
1000
0010
0100
0010
1000
,
0001
0010
0100
1000
0001
1000
0100
1000
,
0001
0100
0010
1000
0010
1000
0001
0010
,
0100
1000
0001
1000
0100
0010
0100
1000
,
0100
0010
0001
1000
0010
1000
0001
1000
,
0010
0100
0001
1000
0100
1000
0100
0010
,
0001
1000
0010
0100
0010
1000
0001
1000
,
0010
0100
0001
0010
0001
1000
0010
0100
,
0001
1000
0001
0100
0001
1000
0100
0010
,
0001
0010
0100
0010
0001
1000
0010
0100
,
0001
1000
0001
0100
0001
0100
0010
1000
,
0001
0010
0001
1000
0001
0010
0100
1000
,
0001
0100
0010
0100
0001
0100
0010
1000
,
0001
0010
0001
1000
0001
0010
0100
1000
,
0100
1000
0001
0100
0010
1000
0001
1000
,
0010
0100
0010
1000
0001
0010
0100
1000
,
0100
1000
0001
0100
0010
1000
0001
1000
,
0010
1000
0010
0100
0001
1000
0100
0010
,
0100
1000
0001
1000
0100
0010
0001
1000
,
0010
1000
0010
0100
0001
1000
0100
1000
,
0001
1000
0100
0010
0001
0010
0100
0010
,
0001
1000
0010
0100
0001
1000
0001
0100
,
0001
1000
0100
0010
0001
0010
0001
1000
,
0010
0100
0001
1000
0001
0100
0010
0100
,
0001
0100
0010
1000
0001
0010
0001
1000
,
0001
0010
0100
1000
0001
0100
0001
0100
,
0010
1000
0001
0010
0100
0010
0001
1000
,
0001
0010
0100
1000
0010
1000
0001
0010
,
0100
1000
0001
1000
0100
1000
0001
0100
,
0010
1000
0010
0100
0010
1000
0001
0010
,
0100
1000
0001
1000
0100
0000
0000
0000
,
1000
0100
0010
0001
1000
0010
1000
0001
,
1000
0010
0100
0001
1000
0100
0010
0100
,
1000
0100
0010
0001
1000
0010
1000
0001
,
1000
0010
0100
0001
0100
0001
1000
0100
,
0010
0001
1000
0001
0010
0100
0010
0001
,
1000
0010
0100
0001
0100
0001
1000
0100
,
0010
0001
1000
0001
0010
0001
0010
0100
,
1000
0001
0100
0010
0100
0001
1000
0001
,
0100
0010
1000
0001
0010
0001
0010
0100
,
1000
0001
0100
0001
1000
0001
0100
0010
,
1000
0010
0100
0010
1000
0001
0010
0100
,
1000
0001
1000
0100
1000
0001
0100
0010
,
1000
0010
1000
0001
0010
0100
1000
0001
,
1000
0100
0010
0100
1000
0100
0010
0001
,
1000
0010
1000
0001
1000
0010
0100
0001
,
1000
0100
1000
0100
0010
0001
1000
0010
,
0100
0000
0000
0000
0010
1000
0001
1000
,
0010
0100
0001
0100
0001
1000
0100
0010
,
0001
1000
0001
0010
0001
1000
0010
0100
,
0001
0100
0010
0100
0001
1000
0100
0010
,
0001
1000
0001
0010
0001
0010
0100
1000
,
0001
0100
0001
1000
0001
0100
0010
1000
,
0001
0010
0100
0010
0001
0010
0100
1000
,
0001
0100
0001
1000
0001
0100
0010
1000
,
0010
1000
0001
0000
0000
0000
0000
0010
,
0100
0000
1000
0000
0001
0000
0000
0000
0000
0000
0000
0000
0000
0000
1000
0100
,
0010
0100
1000
0000
0001
0000
0000
0000
0000
0000
0100
0010
0000
0000
0000
1000
,
0010
1000
0001
0000
0000
0000
0000
0010
0100
1000
0001
0000
0000
0000
0000
0000
,
1000
0000
0100
0000
1000
0100
0010
0001
,
1000
0010
0100
0010
1000
0001
1000
0010
,
0100
0001
1000
0100
1000
0100
0010
0001
,
1000
0010
1000
0001
1000
0010
0100
0001
,
0100
0010
0100
0001
1000
0100
0010
0001
,
1000
0001
0010
0001
1000
0010
0100
0001
,
0100
0001
1000
0100
0010
0001
1000
0001
,
0010
0100
0010
0001
0010
0100
1000
0001
,
0100
0001
1000
0001
0100
0010
1000
0001
,
0010
0001
0010
0100
1000
0001
0100
0010
,
0100
0001
1000
0001
0100
0010
1000
0010
,
1000
0001
0010
0100
1000
0001
1000
0100
,
1000
0001
0100
0010
1000
0010
0100
0010
,
1000
0001
0010
0100
1000
0001
1000
0100
,
1000
0100
0010
0001
1000
0010
1000
0001
,
1000
0010
0100
0001
1000
0100
0010
0100
,
1000
0000
0100
0000
0010
0001
1000
0010
,
1000
0001
1000
0010
0100
0001
0100
0001
,
1000
0100
0010
0001
1000
0001
0010
0100
,
0010
0001
1000
0010
0100
0001
0100
0001
,
1000
0100
0010
0001
1000
0001
0010
0001
,
0010
0100
1000
0001
0100
0010
0100
0001
,
1000
0001
0100
0010
1000
0001
0010
0001
,
0010
0100
1000
0001
0100
0001
1000
0001
,
0100
0010
1000
0010
0100
0010
1000
0001
,
0010
0100
1000
0001
1000
0100
1000
0001
,
0100
0010
1000
0010
1000
0001
0010
0100
,
1000
0001
1000
0100
0010
0100
1000
0100
,
0010
0001
1000
0010
1000
0001
1000
0010
,
0100
0001
1000
0100
1000
0100
0010
0001
,
1000
0010
0100
0010
1000
0001
1000
0010
,
0100
0001
0010
0001
1000
0010
0100
0001
,
1000
0001
0000
0000
0000
0000
0000
0000
;

//--------------- dance-single - Cut from J. Nero ----------------
#NOTEDATA:;
#STEPSTYPE:dance-single;
#DESCRIPTION:Cut from J. Nero;
#DIFFICULTY:Challenge;
#METER:11;
#RADARVALUES:0,0,0,0,0;
#NOTES:
0000
0000
0000
0000
,
0000
0000
0000
0000
,
0101
0100
0010
1010
1000
0100
0110
0010
,
0011
0001
1000
1010
0010
0100
0101
0001
,
1010
1000
0100
0110
0010
0001
1001
1000
,
1100
0100
1000
1010
0010
0100
0101
0001
,
4001
0000
0000
0000
0000
0000
0000
0000
0000
0000
0000
0000
0100
0000
0000
3000
1000
0000
0000
0000
0001
0000
0000
0000
0101
0000
0000
0000
0100
0000
0000
0000
,
0140
0000
0000
0000
0000
0000
0000
0000
0000
0000
0000
0000
1000
0000
0000
0030
0010
0000
0000
0000
0100
0000
0000
0000
0101
0000
0000
0000
0001
0000
0000
0000
,
4001
0000
0000
0000
0000
0000
0000
0000
0000
0000
0000
0000
0000
0000
0000
0000
0000
0000
0000
0000
0000
0000
0000
0000
3010
0000
0000
0000
0000
0000
0000
0000
0200
0300
0000
0000
0000
0000
0000
0000
0000
0000
0000
0000
0000
0000
0000
0000
0200
0300
0000
0000
0000
0000
0000
0000
0000
0000
0000
0000
0000
0000
0000
0000
,
0200
0300
0000
0000
0000
0000
0000
0000
0000
0000
0000
0000
0000
0000
0000
0000
0200
0300
0000
0000
0000
0000
0000
0000
0000
0000
0000
0000
0000
0000
0000
0000
0200
0300
0000
0000
0000
0000
0000
0000
0000
0000
0000
0000
0000
0000
0000
0000
0200
0000
0000
0000
0000
0000
0000
0000
0301
0000
0000
0000
0000
0000
0000
0000
,
1001
1000
0100
0110
0010
0001
1001
1000
,
0100
0010
0001
0101
0100
0010
1010
1000
,
1001
0001
0010
0110
0100
1000
1010
0010
,
0110
0100
0001
1001
1000
0100
0110
0010
,
1004
0000
0000
0000
0000
0000
0000
0000
0000
0000
0000
0000
0100
0000
0000
0003
0001
0000
0000
0000
0010
0000
0000
0000
0110
0000
0000
0000
0100
0000
0000
0000
,
4100
0000
0000
0000
0000
0000
0000
0000
0000
0000
0000
0000
0010
0000
0000
3000
1000
0000
0000
0000
0010
0000
0000
0000
0110
0000
0000
0000
0100
0000
0000
0000
,
0104
0000
0000
0000
0000
0000
0000
0000
0000
0000
0000
0000
1003
0000
0000
0000
0200
0300
0000
0000
0000
0000
0000
0000
0200
0300
0000
0000
0000
0000
0000
0000
,
0200
0300
0000
0000
0000
0000
0000
0000
0200
0300
0000
0000
0000
0000
0000
0000
0200
0000
0000
0000
0300
0000
0000
0000
0100
0000
0000
0000
1000
0000
0000
0000
,
1001
0001
0100
0110
0010
1000
1001
0001
,
1000
0100
1000
0001
0010
0100
0010
0001
0100
0010
1000
0001
,
1000
0010
0100
0101
0001
1000
1100
0100
,
0010
0001
0010
0100
1000
0001
0100
0010
1000
0001
1000
0100
,
0010
0001
0010
0110
0100
1000
1010
0010
,
0100
0001
1000
0001
0010
0100
0010
0001
0100
0010
1000
0100
,
1000
0001
0100
0101
0001
0010
0110
0100
,
1100
1000
0010
0110
0100
0001
0011
0010
,
1MM1
0000
0001
0000
0010
0000
0100
0000
1000
0010
0100
0001
0010
0000
0400
0000
,
0000
0000
0300
0000
0000
0000
0000
1000
0001
0000
0100
0000
0001
0000
0010
0000
,
0100
0000
1000
0000
0010
0000
0100
0000
0001
0100
0001
1000
0100
0010
0400
0000
,
0000
0300
0000
0000
0000
0000
1000
0001
0010
0000
0010
0000
0100
0000
1000
0000
,
1MM1
0001
1000
0100
0010
0100
1000
0001
,
1000
1000
0010
0100
0001
1000
0100
0010
,
0001
0001
1000
0100
1000
0010
0100
0001
,
0010
0010
0001
0100
0010
1000
0001
0100
,
0001
0100
0001
0010
0100
1000
0001
1000
,
0010
1000
0100
0010
0100
1000
0001
0100
,
0001
1000
0001
0100
0010
1000
0100
0010
,
0002
0003
0000
0000
0000
0000
0000
0000
,
2002
0000
0000
0000
0000
0000
0000
0000
0000
0000
0000
0000
0000
0000
0000
0000
0000
0000
0000
0000
0000
3003
0000
0000
0001
0000
0000
0000
0100
0000
0000
0000
0010
0000
0000
0000
0100
0000
0000
0000
0001
0000
0000
0000
0010
0000
0000
0000
,
0100
1000
0001
1000
0001
0100
0010
0100
0001
1000
0001
0100
,
0010
1000
0100
0010
0100
1000
0010
0100
0001
0010
0100
0010
,
0001
1000
0001
0100
0010
0100
0001
1000
0100
1000
0001
0100
,
0010
0100
0001
1000
0001
0010
0001
0100
0010
0100
0001
1000
,
0100
0010
0001
0100
0010
0100
0001
1000
0100
0010
0001
1000
,
0100
1000
0010
0100
0001
0010
0100
1000
0001
0010
0100
0010
,
0001
1000
0100
0010
0001
0100
0010
1000
0100
0010
0100
1000
,
0001
1000
1000
0001
0100
0100
0001
0010
,
0100
0000
0000
1000
0000
0000
1000
0000
0000
0001
0000
0000
1000
0000
0100
0000
1000
0000
0001
0000
0100
0000
0010
0000
,
1000
0100
0010
0011
0001
0100
0110
0010
,
1010
1000
0001
0011
0010
0100
1100
1000
,
0001
0000
1000
0000
0010
0000
0100
0000
0001
0000
1000
0000
0100
0000
0000
1000
0000
0000
1100
0000
0000
0100
0000
0000
,
1000
0000
0001
0000
0100
0000
0001
0000
1000
0000
0010
0000
1000
0000
0000
0001
0000
0000
0011
0000
0000
0010
0000
0000
,
0100
0000
1000
0000
0001
0000
1000
0000
0010
0000
0100
0000
0001
0000
0000
0010
0000
0000
0001
0000
0000
0010
0000
0000
,
0001
0100
0001
0100
0001
0010
0001
1000
,
0001
0001
1000
0100
0100
1000
0001
0001
,
1000
1000
0010
0100
0100
0001
1000
1000
,
0001
0001
0010
0100
0100
1000
0010
0010
,
0100
0100
0001
1000
1000
0100
0010
0010
,
0001
0000
1000
0000
0100
0000
0010
0000
0100
0000
1000
0000
0001
0000
0000
0010
0000
0000
0001
0000
0000
0001
0000
0000
,
1000
0000
0010
0000
0100
0000
0001
0000
1000
0000
0100
0000
1000
0000
0000
0100
0000
0000
1000
0000
0000
1000
0000
0000
,
0001
0100
0010
0100
0001
1000
0010
1000
0001
0010
0100
0010
,
0001
1000
0100
0010
0100
1000
0001
0010
0100
0010
0001
1000
,
0100
1000
0001
0010
0001
1000
0100
1000
,
0001
0100
0001
1000
0010
0100
0010
1000
0001
0100
0001
1000
,
0100
0010
0001
0100
1000
0001
0010
0001
,
1000
0010
0100
0010
1000
0001
0010
0100
1000
0001
1000
0010
,
0100
0001
1000
0010
1000
0001
1000
1000
,
0001
0100
0001
1000
0010
0100
0010
1000
0001
1000
0001
0010
,
0100
0010
0001
1000
0100
1000
0010
0010
,
1000
0100
0010
0100
1000
0001
0200
0000
0000
0300
0000
0000
,
0001
0100
0001
0010
0100
1000
0010
0100
0001
0010
0100
1000
,
0001
0100
0001
1000
0100
0010
0001
0100
0010
1000
0001
0010
,
0001
0100
0010
0100
0001
1000
0100
0010
0001
0100
0010
1000
,
0001
0010
0100
1000
0010
0100
0010
1000
0100
0010
0001
0100
,
0001
1000
0100
0010
0100
1000
0010
0100
0010
1000
0001
0010
,
0100
1000
0010
0100
0001
1000
0100
0010
0001
0100
0010
1000
,
0001
0100
0001
0010
0100
1000
0010
0100
0001
1000
0100
0010
,
0100
1000
0010
0100
0001
0100
0001
0010
0100
1000
0001
0100
,
0010
1000
0100
0010
0001
1000
0001
0100
0010
0100
0001
0010
,
0100
1000
0010
0100
0001
1000
0100
1000
0001
0100
0010
1000
,
0100
0010
0100
1000
0010
0100
0001
1000
0001
0100
0010
1000
,
0100
1000
0010
0100
0001
1000
0100
0010
0100
1000
0001
0100
,
0001
0010
0100
1000
0010
0100
0001
1000
0100
1000
0001
0100
,
0001
0010
0100
1000
0010
0100
0001
0010
0100
1000
0010
0100
,
0001
1000
0100
0010
0100
1000
0010
0100
0001
0010
0100
1000
,
0010
0100
0010
1000
0100
0010
0001
1000
0010
0100
0010
1000
,
0002
0000
0000
0000
0000
0000
0000
0000
0000
0000
0000
0000
0000
0000
0000
0000
0000
0000
0000
0000
0000
0003
0000
0000
1000
0000
0000
0000
0100
0000
0000
0000
0010
0000
0000
0000
0100
0000
0000
0000
1000
0000
0000
0000
0010
0000
0000
0000
,
0100
0001
1000
0001
0010
0100
1000
0010
0100
0001
0100
0010
,
1000
0100
0010
0001
0100
0010
1000
0001
1000
0010
0100
0001
,
1000
0100
0010
0001
0100
0010
0100
0001
1000
0100
0010
0001
,
0100
0010
0100
0001
1000
0100
0010
0001
0100
0010
0100
0001
,
1000
0100
1000
0001
0100
0010
0100
0001
0010
0100
1000
0010
,
0100
0001
0010
0100
1000
0010
1000
0001
0100
0010
0100
0001
,
0010
0100
1000
0001
0100
0001
0010
0100
1000
0010
0100
0001
,
1MM0
1000
0100
0000
0000
0000
0000
1000
,
0001
0000
0100
0000
0010
0000
0000
0000
0000
0000
0000
0000
0000
0000
0100
0001
,
1000
0100
1000
0000
0001
0000
0000
0000
0000
0000
0100
0010
0000
0000
0000
0100
,
0001
1000
0100
0000
0000
0000
0000
1000
0100
1000
0001
0000
0000
0000
0000
0000
,
2000
0000
0000
0000
0000
0000
3000
0000
0000
0000
0000
0000
2002
0000
0000
3003
0000
0000
0000
0000
0000
0000
0000
0000
0MM1
0000
0000
0000
1000
0000
0000
0000
0100
0000
0000
0000
0010
0000
0000
0000
0001
0000
0000
0000
0100
0000
0000
0000
,
0010
0100
0001
0010
0100
1000
0001
0100
0010
0100
0001
1000
,
0100
0010
0001
1000
0100
1000
0010
0100
0010
1000
0001
0100
,
0001
0010
0100
1000
0001
0100
0010
0100
0001
1000
0100
0010
,
0001
1000
0001
0100
0001
0010
0100
1000
0010
0100
0010
1000
,
0100
0010
0001
0100
0001
1000
0100
1000
0010
0100
0001
0010
,
0100
1000
0001
0100
0001
1000
0100
1000
0001
0100
0010
1000
,
0100
1000
0001
0010
0100
1000
0001
0100
0010
1000
0100
0010
,
0001
0100
0001
1000
0100
0010
0001
1000
0010
0100
0010
1000
,
0100
0010
0001
1000
0010
0100
0010
1000
0100
0010
0001
0100
,
0010
1000
0001
0010
0001
1000
0100
1000
0001
0010
0001
0100
,
0010
1000
0001
0010
0100
1000
0010
0100
0010
1000
0001
1000
,
0010
0100
0010
1000
0100
0010
0001
0100
0010
1000
0100
0010
,
0001
0100
0001
0010
0100
0010
0001
1000
0010
0100
0010
1000
,
0001
1000
0100
0010
0001
1000
0010
1000
0100
0010
0001
1000
,
0001
0000
0010
0000
0100
0000
0010
0000
0001
0000
1000
0000
0001
0000
0000
0100
0000
0000
0001
0000
0000
0010
0000
0000
,
0200
0000
0000
0300
0000
0000
2000
0000
0000
3000
0000
0000
0001
0000
0100
0000
0010
0000
0100
0000
0001
0000
1000
0000
,
0100
1000
0001
0100
0001
0010
0100
1000
0010
0100
0001
1000
,
0010
1000
0100
0010
0001
1000
0001
0100
0010
0100
0001
1000
,
0100
0010
0001
1000
0010
0100
0010
1000
0001
0010
0100
1000
,
0010
0100
0010
1000
0001
0010
0100
1000
0010
0100
0010
1000
,
0001
0010
0100
1000
0010
0100
0010
1000
0100
0010
0001
1000
,
0001
0100
0010
1000
0100
0010
0001
0100
0001
1000
0100
0010
,
0001
0100
0001
1000
0010
1000
0100
0010
0001
0100
0001
1000
,
0100
0010
0100
1000
0010
0100
0001
1000
0100
0010
0001
0100
,
0001
1000
0100
1000
0010
0100
0001
0100
0001
1000
0100
1000
,
0010
0100
0001
0100
0001
1000
0100
1000
0010
0100
0001
0100
,
0001
1000
0100
0010
0001
1000
0001
0100
0010
1000
0001
1000
,
0010
0100
0010
1000
0100
0010
0001
1000
0010
1000
0100
0010
,
0001
0100
0001
0010
0001
1000
0010
0100
0010
1000
0001
1000
,
0010
0100
0010
1000
0001
0100
0010
1000
0100
1000
0001
0100
,
0001
0100
0010
1000
0100
1000
0001
0100
0001
0100
0010
1000
,
0200
2300
0000
0000
3000
0000
0000
0000
;

//--------------- dance-single - J. Nero ----------------
#NOTEDATA:;
#STEPSTYPE:dance-single;
#DESCRIPTION:J. Nero;
#DIFFICULTY:Edit;
#METER:13;
#RADARVALUES:1,1,0.258,0.106,1;
#NOTES:
0000
0000
0000
0000
,
0000
0000
0000
0000
,
0101
0100
0010
1010
1000
0100
0110
0010
,
0011
0001
1000
1010
0010
0100
0101
0001
,
1010
1000
0100
0110
0010
0001
1001
1000
,
1100
0100
1000
1010
0010
0100
0101
0001
,
4001
0000
0000
0000
0000
0000
0000
0000
0000
0000
0000
0000
0100
0000
0000
3000
1000
0000
0000
0000
0001
0000
0000
0000
0101
0000
0000
0000
0100
0000
0000
0000
,
0140
0000
0000
0000
0000
0000
0000
0000
0000
0000
0000
0000
1000
0000
0000
0030
0010
0000
0000
0000
0100
0000
0000
0000
0101
0000
0000
0000
0001
0000
0000
0000
,
4001
0000
0000
0000
0000
0000
0000
0000
0000
0000
0000
0000
0000
0000
0000
0000
0000
0000
0000
0000
0000
0000
0000
0000
3010
0000
0000
0000
0000
0000
0000
0000
0200
0300
0000
0000
0000
0000
0000
0000
0000
0000
0000
0000
0000
0000
0000
0000
0200
0300
0000
0000
0000
0000
0000
0000
0000
0000
0000
0000
0000
0000
0000
0000
,
0200
0300
0000
0000
0000
0000
0000
0000
0000
0000
0000
0000
0000
0000
0000
0000
0200
0300
0000
0000
0000
0000
0000
0000
0000
0000
0000
0000
0000
0000
0000
0000
0200
0300
0000
0000
0000
0000
0000
0000
0000
0000
0000
0000
0000
0000
0000
0000
0200
0000
0000
0000
0000
0000
0000
0000
0301
0000
0000
0000
0000
0000
0000
0000
,
1001
0000
1000
0000
0100
0000
0110
0000
0010
0000
0001
0000
1001
0000
1000
0010
,
0100
0010
1000
1100
0100
0010
0011
0001
,
1001
1000
0010
0110
0100
0001
0011
0010
,
0110
0100
1000
1001
0001
0100
0110
0010
,
4001
0000
0000
0000
0000
0000
0000
0000
0000
0000
0000
0000
0100
0000
0000
3000
1000
0000
0000
0000
0010
0000
0000
0000
0110
0000
0000
0000
0100
0000
0000
0000
,
0104
0000
0000
0000
0000
0000
0000
0000
0000
0000
0000
0000
0010
0000
0000
0003
0001
0000
0000
0000
0010
0000
0000
0000
0110
0000
0000
0000
0100
0000
0000
0000
,
4100
0000
0000
0000
0000
0000
0000
0000
0000
0000
0000
0000
3001
0000
0000
0000
0200
0300
0000
0000
0000
0000
0000
0000
0200
0300
0000
0000
0000
0000
0000
0000
,
0200
0300
0000
0000
0000
0000
0000
0000
0200
0300
0000
0000
0000
0000
0000
0000
0200
0000
0000
0000
0300
0000
0000
0000
0100
0000
0000
0000
0001
0000
0000
0000
,
1001
1000
0100
0110
0010
0001
1001
1000
,
0001
0100
0001
1000
0010
0100
0010
1000
0100
0010
0001
1000
0001
0100
0010
1000
,
0001
0010
0100
1100
1000
0001
0101
0100
,
0010
1000
0010
0100
0001
1000
0100
0010
0001
1000
0001
0100
0010
0100
0001
1000
,
0001
1000
0010
0110
0100
0001
0011
0010
,
0100
1000
0001
1000
0010
0100
0010
1000
0100
0010
0001
0100
0001
1000
0010
0100
,
0001
1000
0100
1100
1000
0010
0110
0100
,
0101
0001
0010
0110
0100
1000
1010
0010
,
1MM1
0000
1000
0000
0010
0000
0100
0000
0001
0010
0100
1000
0010
0000
0400
0000
,
0000
0000
0300
0000
0000
0000
0000
0001
1000
0000
0100
0000
1000
0000
0010
0000
,
0100
0000
0001
0000
0010
0000
0100
0000
1000
0100
1000
0001
0100
0010
0400
0000
,
0000
0300
0000
0000
0000
0000
0001
1000
0010
0000
0010
0000
0100
0000
0001
0000
,
1MM1
1000
0001
0100
0010
0100
0001
1000
,
0001
0100
0001
0000
0010
0000
0100
0000
1000
0000
0001
0000
0100
0000
0010
0000
,
1000
0100
1000
0000
0001
0000
0100
0000
0001
0000
0010
0000
0100
0000
1000
0000
,
0010
0100
0010
0000
1000
0000
0100
0000
0010
0001
1000
0000
0001
0000
0100
0000
,
0001
1000
0100
0000
1000
0000
0010
0000
0100
0000
0001
0000
1000
0000
0001
0000
,
0010
0100
1000
0000
0100
0000
0010
0000
0100
0000
1000
0000
0001
0000
0100
0000
,
0001
1000
0001
0000
1000
0000
0100
0000
0010
0000
0001
0000
0100
0000
0010
0000
,
2000
3000
0000
0000
0000
0000
0000
0000
,
2002
0000
0000
0000
0000
0000
0000
3003
1000
0100
0010
0100
1000
0010
0100
0001
,
1000
0001
1000
0100
0010
0100
1000
0001
1000
0100
0010
0001
0100
0010
0100
0001
,
0010
0100
1000
0010
0100
0010
1000
0001
1000
0100
0010
0100
1000
0001
0100
0001
,
1000
0100
0010
0100
1000
0001
1000
0010
1000
0100
0010
0100
1000
0001
0100
0010
,
1000
0100
0010
0100
1000
0001
0100
0010
1000
0001
0100
0001
0010
0100
1000
0010
,
0100
0001
1000
0010
0100
0010
1000
0001
0100
0010
1000
0100
0010
0001
0100
0010
,
0100
0001
1000
0100
1000
0010
1000
0001
0010
0100
1000
0001
0100
0001
1000
0001
,
0010
0100
1000
0001
0100
0001
1000
0001
0010
0100
1000
0001
0100
0010
0100
0001
,
1000
0001
0001
1000
0100
0100
1000
0010
,
0100
0000
0001
0000
0001
0000
1000
0000
0001
0100
0001
1000
0100
0010
0001
1000
,
0001
0100
0010
1010
1000
0100
0110
0010
,
0011
0001
1000
1010
0010
0100
0101
0001
,
1000
0001
0010
0100
1000
0001
0100
0010
0100
0001
1000
0001
0100
0000
0000
0001
0000
0000
0101
0000
0000
0100
0000
0000
,
0001
1000
0100
1000
0001
0010
0100
1000
0001
0100
0010
0100
0001
0000
0000
1000
0000
0000
1010
0000
0000
0010
0000
0000
,
0100
0000
0001
0000
1000
0000
0001
0000
0010
0000
0100
0000
1000
0000
0001
0000
0100
0000
0001
0000
1000
0000
0001
0000
1000
0000
0000
0100
0000
0000
0010
0000
0000
0001
0000
0000
1000
0000
0000
0100
0000
0000
0010
0000
0000
0100
0000
0000
,
1000
0001
0100
0001
1000
0010
0100
0010
1000
0001
0010
0100
1000
0000
0001
0000
,
1000
0100
1000
0000
0001
0000
0100
0010
0100
0000
0001
0000
1000
0100
1000
0000
,
0001
0100
0001
0000
0010
0000
0100
1000
0100
0000
1000
0000
0001
0100
0001
0000
,
1000
0100
1000
0000
0010
0000
0100
0001
0100
0000
0001
0000
0010
0100
0010
0000
,
0100
1000
0100
0000
1000
0000
0001
0100
0001
0000
0100
0000
0010
0100
0010
0000
,
1000
0000
0001
0000
0100
0000
0010
0000
0100
0000
0001
0000
1000
0000
0100
0000
0010
0000
0001
0000
1000
0000
0001
0000
0100
0000
0000
0000
0000
0000
0010
0000
0000
0000
0000
0000
1000
0000
0000
0100
0000
0000
1000
0000
0000
0000
0000
0000
,
0001
0000
0010
0000
0100
0000
1000
0000
0001
0000
0100
0000
0001
0000
1000
0000
0010
0000
0100
0000
0010
0000
1000
0000
0001
0000
0000
0000
0000
0000
0100
0000
0000
0000
0000
0000
0001
0000
0000
1000
0000
0000
0001
0000
0000
0000
0000
0000
,
1000
0000
0100
0000
0010
0000
0100
0000
1000
0000
0001
0000
0010
0000
0001
0000
1000
0000
0010
0000
0100
0000
0001
0000
0100
0000
0000
0001
0000
0000
1000
0000
0000
0010
0000
0000
0100
0000
0000
0010
0000
0000
1000
0000
0000
0001
0000
0000
,
0100
0010
0100
0001
1000
0010
0100
0010
1000
0001
0100
0010
0100
0001
1000
0100
,
0010
0001
1000
0000
0001
0000
0010
0100
1000
0000
0001
0000
0100
0010
1000
0000
,
0001
0100
0001
1000
0010
0100
0010
1000
0001
0100
0001
1000
0100
0010
0001
1000
0010
0100
0001
0010
0100
1000
0001
1000
,
0001
0100
0010
0000
1000
0000
0100
0010
0001
0000
1000
0000
0010
0100
0001
0000
,
1000
0010
0100
0010
1000
0001
0010
0100
1000
0001
1000
0010
0100
0001
1000
0001
0100
0010
0100
0001
1000
0100
0010
0001
,
1000
0010
0100
0000
0001
0000
0010
0100
1000
0000
0001
0000
1000
0100
1000
0000
,
0001
0100
0001
1000
0010
0100
0010
1000
0001
1000
0001
0010
0100
1000
0001
0100
0001
1000
0100
0010
0001
1000
0001
0100
,
0001
0100
0010
0000
1000
0000
0001
0010
0100
0000
1000
0000
0010
0100
0001
0000
,
1000
0100
0010
0100
1000
0001
0100
0010
2000
0000
0000
0000
3000
0000
0000
0000
,
0001
0100
0001
0010
0100
1000
0010
0100
0001
0010
0100
1000
0001
0100
0001
1000
,
0100
0010
0001
0100
0010
1000
0001
0010
0001
0100
0010
0100
0001
1000
0100
0010
,
0001
0100
0010
1000
0001
0010
0100
1000
0010
0100
0010
1000
0100
0010
0001
0100
,
0001
1000
0100
0010
0100
1000
0010
0100
0010
1000
0001
0010
0100
1000
0010
0100
,
0001
1000
0100
0010
0001
0100
0010
1000
0001
0100
0001
0010
0100
1000
0010
0100
,
0001
1000
0100
0010
0100
1000
0010
0100
0001
0100
0001
0010
0100
1000
0001
0100
,
0010
1000
0100
0010
0001
1000
0001
0100
0010
0100
0001
0010
0100
1000
0010
0100
,
0001
1000
0100
1000
0001
0100
0010
1000
0100
0010
0100
1000
0010
0100
0001
1000
,
0001
0100
0010
1000
0100
1000
0010
0100
0001
1000
0100
0010
0100
1000
0001
0100
,
0001
0010
0100
1000
0010
0100
0001
1000
0100
1000
0001
0100
0001
0010
0100
1000
,
0010
0100
0001
0010
0100
1000
0010
0100
0001
1000
0100
0010
0100
1000
0010
0100
,
0001
0010
0100
1000
0010
0100
0010
1000
0100
0010
0001
1000
0010
0100
0010
1000
,
0001
0100
0001
0010
0100
1000
0010
0100
0001
1000
0100
1000
0001
0100
0001
1000
,
0010
0100
0001
0010
0100
1000
0010
0100
0010
1000
0001
0010
0100
1000
0001
0100
,
0001
0010
0100
1000
0001
0100
0001
0010
0100
1000
0010
0100
0001
0010
0100
1000
,
0010
0100
0010
1000
0100
0010
0100
1000
0001
0100
0010
0100
0001
1000
0100
0010
,
0002
0000
0000
0000
0000
0000
0000
0003
1000
0100
0010
0100
1000
0010
0100
0001
,
1000
0001
0010
0100
1000
0010
0100
0001
0100
0010
1000
0100
0010
0001
0100
0010
,
1000
0001
1000
0010
0100
0001
1000
0100
0010
0001
0100
0010
0100
0001
1000
0100
,
0010
0001
0100
0010
0100
0001
1000
0100
0010
0001
0100
0010
0100
0001
1000
0100
,
1000
0001
0100
0010
0100
0001
0010
0100
1000
0010
0100
0001
0010
0100
1000
0010
,
1000
0001
0100
0010
0100
0001
0010
0100
1000
0001
0100
0001
0010
0100
1000
0010
,
0100
0001
1000
0010
0100
0001
1000
0100
0010
0001
0100
0010
0100
0001
1000
0100
,
0010
0001
0100
0010
0100
0001
1000
0100
0010
0001
0100
0010
0100
0000
0001
0000
,
1MM0
1000
0100
0000
0000
0000
0000
1000
,
0001
0000
0100
0000
0010
0000
0000
0000
0000
0000
0000
0000
0000
0000
0100
0001
,
1000
0100
1000
0000
0001
0000
0000
0000
0000
0000
0100
0010
0000
0000
0000
0100
,
0001
1000
0100
0000
0000
0000
0000
1000
0100
1000
0001
0000
0000
0000
0000
0000
,
2000
0000
3000
0000
2002
3003
0000
0000
0MM1
1000
0100
0010
0001
0100
0010
0100
,
0001
0010
0100
1000
0001
0100
0010
0100
0001
1000
0100
0010
0001
1000
0100
1000
,
0010
0100
0010
1000
0001
0100
0001
0010
0100
1000
0001
0100
0010
0100
0001
1000
,
0100
0010
0001
1000
0001
0100
0001
0010
0100
1000
0010
0100
0010
1000
0100
0010
,
0001
0100
0001
1000
0100
1000
0010
0100
0001
0010
0100
1000
0001
0100
0001
1000
,
0100
1000
0001
0100
0010
1000
0100
1000
0001
0010
0100
1000
0001
0100
0010
1000
,
0100
0010
0001
0100
0001
1000
0100
0010
0001
1000
0010
0100
0010
1000
0100
0010
,
0001
1000
0010
0100
0010
1000
0100
0010
0001
0100
0010
1000
0001
0010
0001
1000
,
0100
1000
0001
0010
0001
0100
0010
1000
0001
0010
0100
1000
0010
0100
0010
1000
,
0001
1000
0010
0100
0010
1000
0100
0010
0001
0100
0010
1000
0100
0010
0001
0100
,
0001
0010
0100
0010
0001
1000
0010
0100
0010
1000
0001
1000
0100
0010
0001
1000
,
0010
1000
0100
0010
0001
1000
0001
0010
0100
0010
0001
0100
0010
1000
0001
0010
,
0001
1000
0010
0100
0001
0010
0100
1000
0001
0010
0001
1000
0010
0100
0010
0100
,
0001
1000
0001
0010
0001
1000
0100
0010
0001
0100
0001
1000
0100
0010
0001
0100
,
0001
1000
0010
1000
0001
0100
0010
0100
0001
1000
0100
0010
0001
0100
0010
0100
,
0001
0010
0100
1000
0010
0100
0001
1000
0001
0000
0100
0000
0001
0000
0010
0000
,
0200
0000
0300
0000
2000
0000
3000
0000
0001
0100
0010
0100
0001
1000
0100
1000
,
0001
0100
0001
0010
0100
1000
0010
0100
0001
1000
0010
1000
0100
0010
0001
1000
,
0001
0100
0010
0100
0001
1000
0100
0010
0001
1000
0010
0100
0010
1000
0001
0010
,
0100
1000
0010
0100
0010
1000
0001
0010
0100
1000
0010
0100
0010
1000
0001
0010
,
0100
1000
0010
0100
0010
1000
0100
0010
0001
1000
0001
0100
0010
1000
0100
0010
,
0001
0100
0001
1000
0100
0010
0001
0100
0001
1000
0010
1000
0100
0010
0001
0100
,
0001
1000
0100
0010
0100
1000
0010
0100
0001
1000
0100
0010
0001
0100
0001
1000
,
0100
1000
0010
0100
0001
0100
0001
1000
0100
1000
0010
0100
0001
0100
0001
1000
,
0100
1000
0010
0100
0001
0100
0001
1000
0100
0010
0001
1000
0001
0100
0010
1000
,
0001
1000
0010
0100
0010
1000
0100
0010
0001
1000
0010
1000
0100
0010
0001
0100
,
0001
0010
0001
1000
0010
0100
0010
1000
0001
1000
0010
0100
0010
1000
0001
0100
,
0010
1000
0100
1000
0001
0100
0001
0100
0010
1000
0100
1000
0001
0100
0001
0100
,
0010
1000
0100
1000
0001
0100
0001
0100
0010
1000
0001
0010
0100
1000
0010
0100
,
0001
0010
0001
1000
0010
1000
0100
0010
0001
1000
0010
1000
0100
0010
0001
1000
,
0010
1000
0100
0010
0001
1000
0010
0100
0001
0010
0001
0100
0010
1000
0001
1000
,
0010
1000
0100
0010
0001
1000
0001
0010
0100
1000
0010
0100
0001
1000
0100
0010
,
0200
2300
0000
0000
3000
0000
0000
0000
;

//--------------- dance-double - LinkDubs04 ----------------
#NOTEDATA:;
#STEPSTYPE:dance-double;
#DESCRIPTION:LinkDubs04;
#DIFFICULTY:Beginner;
#METER:3;
#RADARVALUES:0,0,0,0,0;
#NOTES:
00000000
00000000
00000000
00000000
,
00000000
00000000
00000000
00000000
,
00010000
00000000
00010000
00000000
,
10000000
00000000
10000000
00000000
,
00100000
00000000
00100000
00000000
,
01000000
00000000
01000000
00000000
,
00002000
00000000
00003000
00000000
,
00020000
00000000
00030000
00000000
,
00002000
00003000
00020000
00030000
,
00002000
00003000
00020000
00030000
,
00000010
00000000
00000010
00000000
,
00000100
00000000
00000100
00000000
,
00000001
00000000
00000001
00000000
,
00000100
00000000
00000100
00000000
,
00000020
00000000
00000030
00000000
,
00002000
00000000
00003000
00000000
,
00000020
00000030
00020000
00030000
,
00000020
00000030
00020000
00000000
,
00000000
00000000
00030000
00000000
,
00002000
00000000
00003000
00000000
,
00011000
00000000
00000000
00000000
,
00020000
00000000
00030000
00000000
,
00011000
00000000
00000000
00000000
,
00002000
00003000
00000000
00101000
,
00000000
00000000
00100000
00000000
,
00020000
00000000
00030000
00000000
,
10000000
00000000
00010000
00000000
1MM00000
10000000
00010000
00020000
,
00000000
00030000
00100000
00001000
,
01000000
00000000
00001000
00000000
01000000
01000000
00001000
00002000
,
00000000
00003000
00010000
00001000
,
00000010
00000000
00000100
00000000
,
000MM010
00000010
00000100
00000200
,
00000000
00000000
00000300
00000000
,
00001000
00000000
00000010
00000000
,
00000100
00000000
00000001
00000000
,
00000100
00000100
00000001
00000002
,
00000000
00000000
00000003
00000000
,
00001000
00000000
00000010
00000000
,
00000100
00000000
00000220
00000000
,
00000330
00000000
00002002
00000000
,
00003003
00000000
00000MM1
00000000
,
00001MM0
00000000
00000MM1
00000000
,
00001000
00000000
00002020
00000000
,
00003030
00000000
00020020
00000000
,
00030030
00000000
0000M01M
00000000
,
0001M00M
00000000
0000M01M
00000000
,
00010000
00000000
00010000
00000000
,
00001000
00000000
00001000
00000000
,
01000000
00000000
01000000
00000000
,
00010000
00000000
00010000
00000000
,
02000000
00000000
03000000
00000000
,
00020000
00000000
00030000
00000000
,
20000000
30000000
00200000
00300000
,
02000000
03000000
00010000
00000000
,
10000000
00000000
10000000
00000000
,
01000000
00000000
01000000
00000000
,
00100000
00000000
00100000
00000000
,
00001000
00000000
00001000
00000000
,
00200000
00000000
00300000
00000000
,
00002000
00000000
00003000
00000000
,
00200000
00300000
00002000
00003000
,
00200000
00300000
00002000
00000000
,
00000000
00000000
00003000
00000000
,
00020000
00000000
00030000
00000000
,
00022000
00033000
00000000
00000200
,
00000000
00000000
00000300
00000000
,
00002200
00000000
00003300
00000000
,
00002000
00003000
00000000
00000220
,
00000330
00000000
00000001
00000000
,
00001000
00000000
00001001
00000000
,
00000001
00000000
00000010
00000000
,
0000MM01
00000001
00000010
00000020
,
00000000
00000000
00000030
00000000
,
00000100
00000000
00010000
00000000
,
00000100
00000000
00010000
00000000
,
00000100
00000100
00010000
00020000
,
00000000
00000000
00030000
00000000
,
00001000
00000000
01000000
00000000
,
00100000
00000000
01000000
00000000
,
M01M0000
00100000
01000000
02000000
,
00000000
00000000
03000000
00000000
,
00010000
00000000
10000000
00000000
,
00100000
00000000
10000000
00000000
,
00010000
00010000
10000000
20000000
,
00000000
00000000
30000000
00000000
,
00100000
00000000
01000000
00000000
,
00001000
00000000
02002000
00000000
,
03003000
00000000
00022000
00000000
,
00033000
00000000
0MM10000
00000000
,
0MM01000
00000000
0MM10000
00000000
,
00001000
00000000
00022000
00000000
,
00033000
00000000
00020200
00000000
,
00030300
00000000
0M01M000
00000000
,
0M00M100
00000000
0M01M000
00000000
,
00000100
00000020
00000000
00000030
,
00000001
00000200
00000000
00000300
,
00000001
00000000
00000000
00000000
00000200
00000000
00000000
00000300
00000000
00000000
00000000
00000002
00000003
00000000
00000000
00000000
,
00002000
00003000
00000200
00000300
,
00000010
00000001
00001000
00000000
,
00000100
00000000
000010MM
00001000
,
00000100
00000200
00000000
00000000
,
00000300
00000000
00010000
00000000
,
00001000
00000000
00100000
00000000
,
00001000
00000000
00100000
00100000
,
00001000
00002000
00000000
00000000
,
00003000
00000000
01000000
00000000
,
00010000
00000000
00100000
00000000
,
00010000
00000000
0M10M000
00100000
,
00010000
00020000
00000000
00000000
,
00030000
00000000
10000000
00000000
,
01000000
00000000
10000000
00000000
,
00100000
00000000
01000000
01000000
,
00100000
00200000
00000000
00000000
,
00300000
00000000
10000000
00000000
,
00010000
00000000
01000000
00000000
,
02020000
00000000
03030000
00000000
,
02002000
00000000
03003000
00000000
,
M00M1000
00000000
M10M0000
00000000
,
M00M1000
00000000
00100000
00000000
,
00202000
00000000
00303000
00000000
,
00022000
00000000
00033000
00000000
,
0MM01000
00000000
0MM10000
00000000
,
0MM01000
00000000
00010000
00000000
,
00000100
00000000
00M1M000
00010000
,
00000100
00000200
00000300
00000000
,
00MM1000
00000000
00MM0100
00000000
,
00MM1000
00000000
00000001
00000000
,
00000010
00000000
0000MM01
00000001
,
00001000
00002000
00003000
00000000
,
00000MM1
00000000
00001MM0
00000000
,
00000MM1
00000000
00000000
00000000
;

//--------------- dance-double - LinkDubs08 ----------------
#NOTEDATA:;
#STEPSTYPE:dance-double;
#DESCRIPTION:LinkDubs08;
#DIFFICULTY:Easy;
#METER:5;
#RADARVALUES:0,0,0,0,0;
#NOTES:
00000000
00000000
00000000
00000000
,
00000000
00000000
00000000
00000000
,
00010000
10000000
00010000
00000000
01000000
00000000
00000000
00000000
,
00010000
01000000
00010000
00000000
00100000
00000000
00000000
00000000
,
00010000
00100000
00010000
00000000
01000000
00000000
00000000
00000000
,
00001000
01000000
00001000
00000000
00100000
00000000
00000000
00000000
,
00001000
00100000
00001000
00000000
00010000
00000000
00000000
00000000
,
00000010
00010000
00000010
00000000
00001000
00000000
00000000
00000000
,
00000010
00001000
00000010
00000000
00000100
00000000
00000100
00000000
,
00000001
00000001
00001000
00000000
,
00000001
00001000
00000001
00000000
00000010
00000000
00000000
00000000
,
00000001
00000010
00000001
00000000
00000100
00000000
00000000
00000000
,
00000010
00000100
00000010
00000000
00001000
00000000
00000000
00000000
,
00000010
00001000
00000010
00000000
00010000
00000000
00000000
00000000
,
00000100
00010000
00000100
00000000
00001000
00000000
00000000
00000000
,
00000100
00001000
00000100
00000000
00010000
00000000
00000000
00000000
,
00001000
00010000
00001000
00000000
00100000
00000000
00100000
00000000
,
01000000
01000000
10000000
00000000
,
11000000
00000000
00000000
01000000
,
00200000
00000000
00300000
00000000
,
01100000
00000000
00000000
00010000
,
20000000
00000000
30000000
00000000
,
10010000
00000000
00000000
10000000
,
00200000
00000000
00300000
10100000
,
00000000
00000000
00000000
00000000
10000000
00100000
10000000
00000000
,
01000000
00000000
00000000
00000000
,
00100000
00000000
01000000
00000000
10000000
00000000
00010000
00000000
1MM00000
00010000
10000000
00010000
10000000
00000000
00020000
00000000
,
00000000
00000000
00030000
00000000
01000000
00010000
01000000
00010000
,
00100000
00000000
00001000
00000000
00100000
00000000
00001000
00000000
00010000
00000000
00001000
00010000
00001000
00010000
00002000
00000000
,
00000000
00000000
00003000
00000000
00010000
00000010
00000100
00000001
,
00000010
00000001
00001000
00000100
,
0000M01M
00000100
00000010
00000100
00000010
00000000
00000200
00000000
,
00000000
00000000
00000300
00000000
,
00000010
00000100
00001000
00000001
,
00000100
00000010
00001000
00000010
,
00010000
00000000
00000010
00010000
00000010
00010000
00000020
00000000
,
00000000
00000000
00000030
00000000
,
00010000
00000010
00010000
00000000
00001000
00000000
00001000
00000000
,
01000000
00000000
01100000
00000000
,
00010000
00000000
10010000
00000000
,
10000000
00000000
01MM0000
00000000
,
10MM0000
00000000
01MM0000
00000000
,
10000000
00000000
11000000
00000000
,
00010000
00000000
00110000
00000000
,
10000000
00000000
0MM10000
00000000
,
1MM00000
00000000
0MM10000
00000000
,
00100000
00010000
00100000
00000000
00001000
00000000
00000000
00000000
,
01000000
00001000
01000000
00000000
00010000
00000000
00000000
00000000
,
00100000
00010000
00100000
00000000
00001000
00000000
00000000
00000000
,
00010000
00001000
00010000
00000000
00000100
00000000
00000000
00000000
,
00010000
00000100
00010000
00000000
00000010
00000000
00000000
00000000
,
00001000
00000010
00001000
00000000
00000100
00000000
00000000
00000000
,
00001000
00000100
00001000
00000000
00000001
00000000
00000001
00000000
,
00000100
00000100
00000010
00000000
,
00001000
00000010
00001000
00000000
00000001
00000000
00000000
00000000
,
00000010
00000001
00000010
00000000
00000100
00000000
00000000
00000000
,
00001000
00000100
00001000
00000000
00000010
00000000
00000000
00000000
,
00000100
00000010
00000100
00000000
00000001
00000000
00000000
00000000
,
00001000
00000001
00001000
00000000
00000100
00000000
00000000
00000000
,
00010000
00000100
00010000
00000000
00001000
00000000
00000000
00000000
,
00010000
00001000
00010000
00000000
00001000
00000000
00001000
00000000
,
01000000
01000000
00001000
00000000
,
01001000
00000000
00000000
01000000
,
00020000
00000000
00030000
00000000
,
01010000
00000000
00000000
10000000
,
00200000
00000000
00300000
00000000
,
10100000
00000000
00000000
00010000
,
20000000
30000000
00000000
01100000
,
00000000
00000000
00010000
01000000
,
00010000
00000000
10010000
00000000
,
10000000
00100000
01000000
00010000
,
M1M00000
00010000
01000000
00010000
01000000
00000000
00020000
00000000
,
00000000
00000000
00000000
00030000
,
00100000
00001000
01000000
00001000
,
00010000
00001000
00010000
00000100
,
00000010
00000000
00000100
00000010
00000100
00000010
00000200
00000000
,
00000000
00000000
00000300
00000000
,
00001000
00000001
00000100
00000001
,
00000010
00000001
00001000
00000100
,
000010MM
00000100
00001000
00000100
00001000
00000000
00000200
00000000
,
00000000
00000300
00000000
00010000
,
00001000
00010000
00001000
00100000
,
00010000
01000000
00100000
10000000
,
00010000
00000000
10000000
00010000
10000000
00010000
20000000
00000000
,
00000000
00000000
30000000
00000000
,
00010000
10000000
00010000
00000000
00100000
00000000
00100000
00000000
,
01000000
00000000
11000000
00000000
,
10000000
00000000
10100000
00000000
,
00100000
00000000
1M0M0000
00000000
,
0MM10000
00000000
M1M00000
00000000
,
00100000
00000000
01100000
00000000
,
10000000
00000000
10010000
00000000
,
10000000
00000000
0MM10000
00000000
,
1MM00000
00000000
0MM10000
00000000
,
01000000
00001000
02000000
00000000
00000000
00000000
03000000
00000000
,
00001000
00010000
00002000
00000000
00000000
00000000
00003000
00000000
,
00010000
00000000
00000010
00000000
00020000
00000000
00000000
00030000
00000000
00000000
00000000
00000200
00000300
00000000
00000000
00000000
,
00002000
00003000
00000002
00000003
,
00000010
00000001
00001000
00000001
,
00000100
00000000
00000010
00000000
00001M0M
00000010
00001000
00000010
,
00001000
00000020
00000000
00000000
,
00000030
00000000
00010000
00000010
,
00010000
00001000
00010000
00001000
,
00100000
00000000
00010000
00000000
10000000
00000000
00010000
10000000
,
00010000
10000000
00020000
00000000
00000000
00000000
00000000
00000000
,
00030000
00000000
10000000
00010000
,
01000000
00100000
10000000
00010000
,
01000000
00000000
00100000
00000000
M10M0000
00100000
01000000
00100000
,
01000000
00200000
00000000
00000000
,
00300000
00000000
01000000
00001000
,
00010000
00001000
00010000
00000010
,
00001000
00000000
00000001
00000000
00000100
00000000
00000001
00000100
,
00000001
00000100
00000002
00000000
00000000
00000000
00000000
00000000
,
00000003
00000000
00000000
00000000
00001000
00000001
00001000
00000000
,
00000010
00000010
00000100
00000000
,
00000110
00000000
00000010
00000000
,
00010010
00000000
00010000
00000000
,
00001MM0
00000000
00010MM0
00000000
,
00001MM0
00000000
01000000
00000000
,
01100000
00000000
00100000
00000000
,
10100000
00000000
10000000
00000000
,
0MM10000
00000000
1MM00000
00000000
,
0MM10000
00000000
01000000
00010000
,
00100000
00000000
01000000
00000000
M01M0000
01000000
00100000
01000000
,
00100000
02000000
03000000
00000000
,
M01M0000
00000000
M10M0000
00000000
,
M01M0000
00000000
00001000
00100000
,
00001000
00000000
01000000
00000000
00MM1000
01000000
00001000
01000000
,
00001000
02000000
03000000
00000000
,
001MM000
00000000
0M01M000
00000000
,
1MM00000
00000000
00000000
00000000
;

//--------------- dance-double - LinkDubs10 ----------------
#NOTEDATA:;
#STEPSTYPE:dance-double;
#DESCRIPTION:LinkDubs10;
#DIFFICULTY:Medium;
#METER:7;
#RADARVALUES:0,0,0,0,0;
#NOTES:
00000000
00000000
00000000
00000000
,
00000000
00000000
00000000
00000000
,
00010000
10000000
00010000
10000000
00010000
00000000
00000000
00000000
,
10000000
00010000
10000000
00010000
01000000
00000000
00000000
00000000
,
00010000
01000000
00010000
01000000
00001000
00000000
00000000
00000000
,
01000000
00001000
01000000
00001000
00010000
00000000
00000000
00001000
,
00010000
00001000
00010000
00001000
00100000
00000000
00000000
00001000
,
00100000
00001000
00100000
00001000
00010000
00000000
00000000
00001000
,
00010000
00001000
00010000
00001000
00010000
00000000
00010000
00000000
,
00000010
00000000
00000010
00000000
00001000
00000000
00000000
00000001
,
00001000
00000001
00000100
00000001
00000010
00000000
00000000
00000001
,
00000010
00000001
00000100
00000001
00001000
00000000
00000000
00000001
,
00001000
00000001
00000010
00000001
00000100
00000000
00000000
00000001
,
00000100
00000001
00000010
00000001
00001000
00000000
00000000
00000001
,
00000010
00000000
00000010
00000000
00000100
00000000
00000000
00001000
,
00000100
00000000
00000100
00000000
00010000
00000000
00000000
00000100
,
00010000
00010000
00001000
00001000
,
00010000
00010000
00001000
00000000
,
00100000
00100000
00000000
00010000
00000000
01000000
00010000
02000000
,
00000000
00000000
00000000
03000000
00000000
00100000
10000000
01000000
,
10000000
00000000
00000000
00000000
00000000
00010000
10000000
00020000
,
00000000
00000000
00000000
00030000
00000000
00100000
00010000
01000000
,
00010000
00000000
00000000
00000000
00000000
01000000
00010000
02000000
,
00000000
00000000
00000000
03000000
00000000
00010000
01000000
00010000
,
00000000
00000000
00000000
10000000
01000000
00010000
01000000
00000000
,
10000000
00000000
00000000
00000000
00000000
00000000
00000000
01000000
,
10000000
00000000
00100000
00000000
10000000
00000000
01000000
00000000
10MM0000
01000000
10000000
01000000
10000000
00000000
02000000
00000000
,
00000000
00000000
00000000
00000000
00000000
03000000
00000000
10000000
01000000
00000000
00100000
00000000
00001000
00000000
00100000
00000000
,
01000000
00000000
00100000
00000000
00001000
00000000
01000000
00000000
00001000
00000000
01000000
00001000
01000000
00010000
02000000
00000000
,
00000000
00000000
00000000
00000000
03000000
00000000
00010000
01000000
00010000
00000000
01000000
00000000
00001000
00000000
01001000
00000000
,
01000000
00001000
00010000
00001000
,
0MM10000
00001000
00010000
00000100
00010000
00000000
00000200
00000000
,
00000000
00000000
00000000
00000000
00000000
00000300
00000000
00000010
,
00000100
00010000
00000100
00000010
,
00000001
00000010
00000100
00000010
,
00000001
00000000
00000100
00000001
00000100
00000010
00000200
00000000
,
00000000
00000000
00000000
00000000
00000300
00000000
00000010
00001000
,
00000010
00010000
00000010
00001000
00000010
00010000
00000010
00000000
,
00020000
00030000
00011000
00000000
,
00002000
00003000
00011000
00000000
,
01000000
00000000
00000000
00000000
000M10M0
00001000
00000000
00000000
,
0M1M0000
00100000
00000000
00000000
0M01M000
00010000
00000000
00000000
,
02000000
03000000
01100000
00000000
,
00200000
00300000
01100000
00000000
,
10000000
00000000
00000000
00000000
0MM10000
00010000
00000000
00000000
,
MM100000
00100000
00000000
00000000
MM010000
00010000
00000000
00000000
,
00100000
00010000
00100000
01000000
00100000
00000000
00000000
00000000
,
01000000
00100000
01000000
10000000
01000000
00000000
00000000
00000000
,
10000000
01000000
10000000
00010000
10000000
00000000
00000000
00000000
,
00010000
10000000
00010000
00100000
00010000
00000000
00000000
00100000
,
00010000
00100000
00010000
01000000
00001000
00000000
00000000
01000000
,
00001000
01000000
00001000
00100000
00010000
00000000
00000000
00100000
,
00010000
00100000
00010000
01000000
00001000
00000000
00001000
00000000
,
00010000
00000000
00010000
00000000
00001000
00000000
00010000
00001000
,
00010000
00000010
00010000
00000000
00000010
00000000
00000000
00010000
,
00000010
00010000
00000100
00010000
00001000
00000000
00000000
00010000
,
00000100
00001000
00000100
00000010
00000100
00000000
00000000
00000010
,
00000100
00000010
00000100
00001000
00000001
00000000
00000000
00001000
,
00000001
00001000
00000001
00000010
00000100
00000000
00000000
00000000
,
00000010
00000100
00000010
00000001
00000010
00000000
00000000
00000000
,
00000001
00000010
00000001
00001000
00000001
00000000
00000001
00000000
,
00001000
00001000
00000100
00000000
,
00010000
00010000
00000000
00001000
00000000
00010000
00001000
00020000
,
00000000
00000000
00000000
00030000
00000000
00001000
00100000
00001000
,
01000000
00000000
00000000
00000000
00000000
00010000
10000000
00020000
,
00000000
00000000
00000000
00030000
00000000
00100000
00010000
01000000
,
00010000
00000000
00000000
00000000
00000000
01000000
00100000
02000000
,
00000000
00000000
00000000
03000000
00000000
00100000
01000000
00010000
,
00000000
00000000
00000000
10000000
01000000
10000000
01000000
00000000
,
00100000
00000000
01100000
00000000
,
00010000
00100000
00010000
10000000
,
01MM0000
10000000
01000000
00100000
01000000
00000000
00200000
00000000
,
00000000
00000000
00000000
00000000
00000000
00300000
00000000
00010000
,
00100000
00001000
01000000
00010000
,
01000000
00001000
00010000
00001000
,
00010000
00000000
00000100
00010000
00000100
00001000
00000200
00000000
,
00000000
00000000
00000000
00000000
00000300
00000000
00001000
00000100
,
00001000
00000100
00000010
00000110
,
00000100
00010000
00000100
00010000
,
0000M1M0
00010000
00000100
00010000
00000100
00000000
00020000
00000000
,
00000000
00000000
00000000
00000000
00000000
00030000
00000000
00001000
,
00010000
00001000
01000000
00001000
,
00010000
00000100
00001000
00000001
,
00000100
00000000
00000010
00000100
00000010
00001000
00000020
00000000
,
00000000
00000000
00000000
00000000
00000030
00000000
00001000
00000010
,
00001000
00000001
00001000
00000001
00001000
00000100
00001000
00000000
,
00000200
00000300
00000110
00000000
,
00000020
00000030
00000110
00000000
,
00020000
00000000
00030000
00000000
00001MM0
00001000
00000000
00000000
,
00010MM0
00010000
00000000
00000000
00001MM0
00001000
00000000
00000000
,
00020000
00030000
00010010
00000000
,
00000200
00000300
00001100
00000000
,
00002000
00000000
00003000
00000000
00000MM1
00000001
00000000
00000000
,
00001MM0
00001000
00000000
00000000
00000MM1
00000001
00001000
00000001
,
00001000
00000100
00020000
00000000
00000000
00000000
00030000
00000100
,
00010000
00000000
00000010
00000000
00020000
00000000
00000000
00000000
00000000
00000000
00000000
00000000
00030000
00000000
00001000
00010000
,
00001000
00100000
00001000
00000000
00100000
00000000
00000000
00000000
00000000
00000000
00001000
01000000
00000000
00000000
00000000
00001000
,
01000000
00001000
00100000
00000000
00000000
00000000
00000000
00010000
00100000
00010000
01000000
00000000
00000000
00000000
00000000
00000000
,
00020000
00030000
20000000
30000000
00010000
00000000
01000000
00000000
,
00100000
00000000
10000000
00000000
0M1M0000
10000000
00100000
01000000
,
00100000
02000000
00000000
00000000
,
00000000
03000000
00000000
00100000
10000000
00000000
00010000
00000000
,
00100000
01000000
00100000
00001000
,
00100000
00000000
00001000
00000000
01000000
00000000
00001000
01000000
,
00001000
00010000
00002000
00000000
00000000
00000000
00000000
00000000
,
00000000
00003000
00000000
00010000
00000010
00000000
00010000
00000000
,
00000100
00001100
00001000
00000001
,
00001000
00000000
00000010
00000000
00001M0M
00000010
00001000
00000001
,
00001000
00000002
00000000
00000000
,
00000000
00000003
00000000
00001000
00000001
00000000
00001000
00000000
,
00000010
00000100
00000001
00000010
,
00000001
00000000
00001000
00000000
00000100
00000000
00000010
00000100
,
00000010
00000001
00000020
00000000
00000000
00000000
00000000
00000000
,
00000030
00000000
00000001
00000010
00000001
00001000
00000001
00000010
,
00000001
00001000
00000001
00000000
00002000
00000000
00003000
00000000
,
00001100
00000000
00000200
00000300
,
00010100
00000000
00020000
00030000
,
00001MM0
00001000
00000000
00000000
00010MM0
00010000
00000000
00000000
,
00001MM0
00001000
00000000
00000000
02000000
00000000
03000000
00000000
,
01001000
00000000
00002000
00003000
,
00101000
00000000
00200000
00300000
,
0M01M000
00010000
00000000
00000000
10M0M000
10000000
00000000
00000000
,
01MM0000
01000000
00000000
00000000
00100000
00000000
00010000
00000000
,
00100000
00000000
01000000
00000000
10MM0000
01000000
10000000
00010000
,
10000000
00020000
00000000
00030000
,
MM100000
00100000
00000000
00000000
M10M0000
01000000
00000000
00000000
,
M01M0000
00100000
00000000
00000000
00010000
00000000
00100000
00000000
,
01000000
00000000
00100000
00000000
MM010000
00100000
00010000
01000000
,
00010000
02000000
00000000
03000000
,
M01M0000
00100000
00000000
00000000
1M0M0000
10000000
00000000
00000000
,
01MM0000
01000000
00000000
00000000
00000000
00000000
00000000
00000000
;

//--------------- dance-double - Cut from J. Nero ----------------
#NOTEDATA:;
#STEPSTYPE:dance-double;
#DESCRIPTION:Cut from J. Nero;
#DIFFICULTY:Hard;
#METER:9;
#RADARVALUES:0,0,0,0,0;
#NOTES:
00000000
00000000
00000000
00000000
,
00000000
00000000
00000000
00000000
,
00010000
01000000
00010000
10000000
01000000
00100000
00010000
10000000
,
00010000
00100000
00010000
10000000
00010000
01000000
00001000
01000000
,
00001000
00010000
00001000
00010000
00000100
00000010
00000001
00001000
,
00000001
00000010
00000001
00000010
00000100
00001000
00000001
00000100
,
00000001
00000000
00000000
00001000
00000010
00000100
00000010
00010000
,
00000010
00000000
00000000
00010000
00000010
00010000
00000100
00010000
,
00001000
00000000
00000000
00010000
00001000
00000000
00100000
00000000
,
00001000
00000000
01000000
00000000
00001000
00000000
01000000
00100000
,
10000000
00100000
10000000
00010000
00100000
01000000
10000000
00010000
,
10000000
01000000
00100000
01000000
10000000
00010000
01000000
00100000
,
10000000
00100000
10000000
00010000
00100000
01000000
10000000
00010000
,
10000000
01000000
10000000
01000000
00100000
00001000
00100000
00001000
,
00010000
00000000
00000000
00001000
00010000
00000100
00010000
00000010
,
00010000
00000000
00000000
00000010
00010000
00000010
00001000
00000010
,
00000100
00000000
00000000
00000001
00000100
00000000
00000001
00000000
,
00000010
00000000
00000001
00000000
00000100
00000000
00000010
00000100
,
00000001
00000100
00000010
00000100
00000010
00010000
00000100
00010000
,
00000010
00010000
00000100
00010000
00000010
00010000
00001000
01000000
,
00001000
01000000
00010000
00100000
01000000
10000000
00010000
10000000
,
01000000
00100000
01000000
00100000
00010000
00100000
01000000
10000000
,
00010000
01000000
00010000
10000000
00010000
01000000
00100000
10000000
,
00010000
00100000
00010000
00100000
01000000
10000000
00010000
01000000
,
00100000
01000000
00010000
10000000
00010000
01000000
00100000
10000000
,
00100000
10000000
00010000
00100000
01000000
00100000
00010000
00100000
,
00001000
00000000
00010000
00000000
00001000
00000000
00010000
00000000
00000010
00001000
00000010
00000100
00000010
00000000
00001000
00000000
,
00000000
00000000
00000000
00000000
00000000
00000000
00000000
00000001
00000010
00000000
00000001
00000000
00000100
00000000
00000001
00000000
,
00000010
00000000
00000100
00000000
00010000
00000000
00000100
00000000
00010000
00000010
00010000
00000100
00010000
00001000
00010000
00000000
,
00000000
00000000
00000000
00000000
00000000
00000000
00001000
01000000
00010000
00000000
10000000
00000000
01000000
00000000
00100000
00000000
,
01000000
10000000
01000000
00100000
00010000
10000000
00100000
10000000
,
00010000
10000000
00100000
01000000
00010000
01000000
00010000
10000000
,
01000000
00100000
00001000
00100000
00010000
00100000
01000000
00100000
,
00010000
01000000
00100000
01000000
00010000
01000000
00001000
00100000
,
00001000
00010000
00001000
00010000
00000010
00001000
00000001
00000010
,
00000100
00001000
00000001
00000100
00000010
00000100
00000001
00001000
,
00000001
00000100
00000010
00001000
00000001
00000010
00000100
00010000
,
00001000
00000000
00000000
00000000
,
01000000
00000000
00000000
00000000
00001000
01000000
00010000
10000000
,
00010000
01000000
00100000
10000000
00100000
01000000
00100000
10000000
,
00010000
00100000
01000000
10000000
00010000
10000000
01000000
10000000
,
00010000
01000000
00100000
10000000
00100000
10000000
00010000
00100000
,
01000000
10000000
00010000
10000000
01000000
00100000
01000000
10000000
,
01000000
00100000
00010000
10000000
00100000
10000000
00010000
10000000
,
00100000
01000000
00010000
10000000
01000000
10000000
01000000
00100000
,
00010000
10000000
00100000
01000000
00100000
01000000
00001000
00010000
,
00001000
00010000
00000100
00000010
00000001
00001000
00000010
00000100
,
00000001
00001000
00000001
00000100
00000001
00001000
00000100
00000010
,
00000001
00000010
00000100
00000010
00000100
00010000
00000010
00010000
,
00000100
00010000
00001000
00010000
00001000
01000000
00100000
10000000
,
00010000
00100000
00010000
10000000
00010000
00100000
01000000
10000000
,
00010000
01000000
00100000
01000000
00010000
01000000
00010000
00100000
,
00010000
00100000
00001000
00010000
00001000
00010000
00000100
00001000
,
00000100
00001000
00000001
00000100
00000010
00001000
00000001
00001000
,
00000010
00000100
00000010
00001000
00000001
00000010
00000100
00010000
,
00000100
00001000
00000001
00000100
00000010
00001000
00000010
00010000
,
00000010
00010000
00001000
00010000
00001000
00100000
01000000
00100000
,
01000000
10000000
00010000
10000000
01000000
00100000
00010000
10000000
,
00100000
10000000
00100000
01000000
00010000
10000000
01000000
10000000
,
00010000
10000000
01000000
00100000
00010000
00100000
01000000
00100000
,
00001000
00100000
00001000
00010000
00001000
00010000
00000010
00000100
,
00000001
00001000
00000100
00000010
00000001
00000010
00000001
00001000
,
00000010
00000100
00000001
00001000
00000001
00000100
00000010
00000100
,
00000001
00000100
00000010
00001000
00000100
00000010
00000100
00001000
,
00000100
00010000
00000100
00010000
00001000
00010000
00001000
01000000
,
00100000
10000000
00010000
00100000
01000000
00100000
00010000
10000000
,
00010000
00100000
01000000
10000000
00100000
10000000
00010000
00100000
,
01000000
10000000
00010000
10000000
01000000
10000000
00010000
01000000
,
00100000
10000000
00100000
01000000
00100000
01000000
00001000
00100000
,
01000000
00100000
00001000
00010000
00001000
00000000
00000000
00000000
,
00010000
00000100
00000010
00000001
00001000
00000010
00001000
00000001
,
00001000
00000010
00000100
00000001
00001000
00000100
00000010
00000100
,
00010000
00000100
00000010
00000001
00001000
00000010
00001000
00000001
,
00001000
00000010
00010000
00001000
00010000
00001000
00100000
01000000
,
00100000
00010000
10000000
00010000
00100000
01000000
00100000
00010000
,
10000000
00100000
01000000
00010000
01000000
00010000
10000000
01000000
,
10000000
00100000
01000000
00001000
01000000
00001000
00010000
00001000
,
00010000
00000010
00000100
00000010
00000100
00000001
00001000
00000001
,
00000100
00000010
00001000
00000001
00000010
00000001
00000010
00000100
,
00001000
00000001
00000100
00000001
00001000
00000001
00000100
00000010
,
00010000
00000010
00000100
00000010
00010000
00001000
00010000
00001000
,
00100000
00010000
10000000
01000000
10000000
00010000
01000000
00100000
,
10000000
00100000
10000000
00010000
00100000
01000000
10000000
00010000
,
10000000
01000000
00100000
01000000
00100000
00001000
00100000
00001000
,
01000000
00010000
01000000
00001000
00010000
00001000
00010000
00000100
,
00010000
00000100
00001000
00000100
00000010
00000001
00000010
00000001
,
00000100
00000000
00000000
00000000
00000010
00001000
00000001
00001000
,
00000010
00000100
00000001
00000100
00000001
00001000
00000100
00000010
,
00000001
00001000
00000001
00000010
00000100
00010000
00000010
00010000
,
00001000
00010000
00001000
01000000
00010000
10000000
01000000
00100000
,
00010000
10000000
00010000
00100000
00001000
00100000
01000000
10000000
,
00010000
01000000
00010000
10000000
00010000
01000000
00100000
10000000
,
00010000
00100000
01000000
00100000
00001000
00010000
00001000
00010000
,
00000010
00000100
00000001
00001000
00000001
00000100
00000010
00010000
,
00000010
00001000
00000001
00000000
00000000
00000000
00000000
00000010
,
00000100
00000000
00001000
00000000
00000001
00000000
00000000
00000000
00000000
00000000
00000000
00000000
00000000
00000000
00001000
00000100
,
00000010
00000100
00010000
00000000
00000100
00000000
00000000
00000000
00000000
00000000
00010000
00001000
00000000
00000000
00000000
00010000
,
00001000
00100000
00001000
00000000
00000000
00000000
00000000
00100000
01000000
10000000
01000000
00000000
00000000
00000000
00000000
00000000
,
10000000
00000000
01000000
00000000
10000000
01000000
00100000
00010000
,
10000000
00100000
01000000
00100000
10000000
00010000
10000000
00100000
,
01000000
00010000
10000000
01000000
10000000
00010000
00100000
00001000
,
00010000
00001000
00010000
00000100
00010000
00000010
00001000
00000001
,
00001000
00000010
00000100
00000001
00000010
00000100
00000010
00000001
,
00001000
00000001
00000010
00000001
00001000
00000010
00000100
00000001
,
00000100
00000001
00001000
00000100
00000010
00000100
00001000
00000100
,
00010000
00001000
00010000
00001000
00100000
01000000
10000000
00010000
,
01000000
00010000
10000000
00010000
01000000
00100000
10000000
00010000
,
00100000
00001000
00100000
01000000
10000000
00010000
01000000
00010000
,
00100000
00001000
00010000
00001000
00010000
00000010
00001000
00000010
,
00001000
00000001
00000010
00000100
00001000
00000001
00001000
00000100
,
00001000
00000001
00000100
00000010
00001000
00000010
00010000
00000010
,
00001000
00000001
00000010
00000100
00001000
00000001
00001000
00000100
,
00000010
00000100
00001000
00000100
00010000
00001000
00010000
00001000
,
01000000
00100000
01000000
00010000
10000000
01000000
00100000
01000000
,
10000000
00000000
01000000
00000000
00100000
00010000
10000000
00100000
,
10000000
00010000
10000000
00100000
01000000
00010000
01000000
00010000
,
10000000
01000000
00100000
00010000
10000000
00010000
01000000
00001000
,
00100000
00010000
00100000
00001000
00010000
00001000
00010000
00000100
,
00001000
00000100
00000010
00000001
00001000
00000001
00000010
00000001
,
00000010
00000100
00001000
00000001
00000100
00000010
00000100
00000001
,
00001000
00000001
00000100
00000010
00010000
00000010
00001000
00000100
,
00001000
00000100
00010000
00001000
00010000
00001000
01000000
00010000
,
01000000
00100000
10000000
00100000
01000000
00100000
10000000
00010000
,
00100000
01000000
10000000
00010000
10000000
01000000
10000000
00010000
,
01000000
00100000
10000000
00100000
10000000
00010000
00100000
01000000
,
10000000
00010000
10000000
01000000
00100000
00010000
00100000
00001000
,
00100000
00010000
01000000
00100000
10000000
00010000
10000000
00100000
,
01000000
00010000
10000000
01000000
10000000
01000000
00100000
00010000
,
10000000
00100000
10000000
00010000
01000000
00001000
00100000
00001000
,
00010000
00001000
00010000
00000100
00010000
00000010
00001000
00000001
,
00000100
00000001
00000000
00000000
00000000
00000000
00000000
00000000
;
