#VERSION:0.83;
#TITLE:Fifteen Minutes of Funk Vol 1;
#SUBTITLE:;
#ARTIST:JHNNY RMPG;
#TITLETRANSLIT:;
#SUBTITLETRANSLIT:;
#ARTISTTRANSLIT:;
#GENRE:EDM;
#CREDIT:Johnny Rampage;
#MUSIC:15MFV1.mp3;
#BANNER:JHNNYRMPG-bn.jpg;
#BACKGROUND:JHNNYRMPG-bg.jpg;
#CDTITLE:;
#SAMPLESTART:73.618;
#SAMPLELENGTH:5.424;
#SELECTABLE:YES;
#OFFSET:1.290;
#BPMS:0.000=177.100
,72.000=176.850
,120.000=177.225
,136.000=177.000
,328.000=177.075
,452.000=177.050
,486.000=176.850
,580.000=177.050
,712.000=176.900
,838.000=177.075
,1096.000=177.050
,1288.000=176.875
,1348.000=176.925
,1672.000=176.900
,1832.000=176.975
,1912.000=177.050
,1944.000=176.975
,2120.000=176.950
,2216.000=177.025
,2240.000=177.050
,2296.000=176.550
,2312.000=176.900
,2408.000=177.500
,2424.000=176.525
,2440.000=176.900
,2496.000=177.000
;
#STOPS:;
#DISPLAYBPM:177.000;
#LASTBEATHINT:0.394779;
#BGCHANGES:;
#FGCHANGES:;

//--------------- dance-single - LinkDude03 ----------------
#NOTEDATA:;
#STEPSTYPE:dance-single;
#DESCRIPTION:LinkDude03;
#DIFFICULTY:Beginner;
#METER:2;
#RADARVALUES:0.099387,0.219531,0.037228,0.0826,0,598,566,32,71,0,0,0.099387,0.219531,0.037228,0.0826,0,598,566,32,71,0,0;
#NOTES:
0000
0000
0000
0000
,
0000
0000
0000
0000
,
0000
0000
0000
0000
,
0000
0000
0000
0000
,
0000
0000
0000
0000
,
0000
0000
0000
0000
,
0001
0000
0000
0000
,
0001
0000
0000
0000
,
1000
0000
0000
0000
,
1000
0000
0000
0000
,
0100
0000
0000
0000
,
0100
0000
0000
0000
,
0010
0000
0000
0000
,
0010
0000
0000
0000
,
0001
0000
0000
0000
,
0100
0000
0000
0000
,
0010
0000
0000
0000
,
1000
0000
0000
0000
,
0001
0000
0000
0000
,
0001
0000
0000
0000
,
1000
0000
0000
0000
,
1000
0000
0000
0000
,
0010
0000
0000
0000
,
0010
0000
0000
0000
,
0100
0000
0000
0000
,
0100
0000
0000
0000
,
0001
0000
0000
0000
,
0010
0000
0000
0000
,
0001
0000
0000
0000
,
0100
0000
0000
0000
,
0001
0000
0000
0000
,
1000
0000
0000
0000
,
0001
0000
0000
0000
,
0001
0000
0000
0000
,
1000
0000
0000
0000
,
1000
0000
0000
0000
,
0010
0000
0000
0000
,
0010
0000
0000
0000
,
0100
0000
0000
0000
,
0100
0000
0000
0000
,
0001
0000
0000
0000
,
0001
0000
0000
0000
,
1000
0000
0000
0000
,
0100
0000
0000
0000
,
0010
0000
0000
0000
,
0001
0000
0000
0000
,
1000
0000
0000
0000
,
0010
0000
0000
0000
,
0100
0000
0000
0000
,
0001
0000
0000
0000
,
1001
0000
0000
0000
,
1000
0000
0000
0000
,
0100
0000
0000
0000
,
0010
0000
0000
0000
,
1001
0000
0000
0000
,
0001
0000
0000
0000
,
0100
0000
0000
0000
,
0010
0000
0000
0000
,
1001
0000
0000
0000
,
0110
0000
0000
0000
,
1001
0000
0000
0000
,
0110
0000
0000
0000
,
2002
0000
0000
0000
,
0000
0000
0000
0000
,
0000
0000
0000
0000
,
3003
0000
0000
0000
,
0110
0000
0000
0000
,
0001
0000
0000
0000
,
0100
0000
0000
0000
,
0010
0000
0000
0000
,
1001
0000
0000
0000
,
1000
0000
0000
0000
,
0100
0000
0000
0000
,
0010
0000
0000
0000
,
1001
0000
0000
0000
,
0001
0000
0000
0000
,
0100
0000
0000
0000
,
0010
0000
0000
0000
,
1001
0000
0000
0000
,
1000
0000
0000
0000
,
0100
0000
0000
0000
,
0010
0000
0000
0000
,
0001
0000
0000
0000
,
0010
0000
0000
0000
,
0100
0000
0000
0000
,
0010
0000
0000
0000
,
0001
0000
0000
0000
,
0010
0000
0000
0000
,
0100
0000
0000
0000
,
0010
0000
0000
0000
,
1001
0000
0000
0000
,
0110
0000
0000
0000
,
1001
0000
0000
0000
,
0110
0000
0000
0000
,
2002
0000
0000
0000
,
0000
0000
0000
0000
,
0000
0000
0000
0000
,
3003
0000
0000
0000
,
1001
0000
0000
0000
,
1000
0000
0000
0000
,
0100
0000
0000
0000
,
0010
0000
0000
0000
,
1001
0000
0000
0000
,
0001
0000
0000
0000
,
0100
0000
0000
0000
,
0010
0000
0000
0000
,
1001
0000
0000
0000
,
1000
0000
0000
0000
,
0100
0000
0000
0000
,
0010
0000
0000
0000
,
1001
0000
0000
0000
,
0001
0000
0000
0000
,
0100
0000
0000
0000
,
0020
0000
0000
0000
,
0000
0000
0000
0000
,
0000
0000
0000
0000
,
0000
0000
0000
0000
,
0000
0000
0000
0000
,
0000
0000
0000
0000
,
0000
0000
0000
0000
,
0000
0000
0000
0000
,
0000
0030
0000
0000
,
0000
1000
0000
0000
,
0000
0010
0000
0000
,
0000
0100
0000
0000
,
0000
0001
0000
0000
,
0000
1000
0000
0000
,
0000
0100
0000
0000
,
0000
0020
0000
0000
,
0030
0000
0000
0000
,
0110
0000
0000
0000
,
0001
0000
0000
0000
,
1000
0000
0000
0000
,
0010
0000
0000
0000
,
1000
0000
0000
0000
,
0001
0000
0000
0000
,
0010
0000
0000
0000
,
0001
0000
0000
0000
,
1000
0000
0000
0000
,
0100
0000
0000
0000
,
1001
0000
0000
0000
,
0010
0000
0000
0000
,
0110
0000
0000
0000
,
1000
0000
0000
0000
,
0001
0000
0000
0000
,
0100
0000
0000
0000
,
0110
0000
0000
0000
,
0001
0000
0000
0000
,
1000
0000
0000
0000
,
0010
0000
0000
0000
,
0110
0000
0000
0000
,
1000
0000
0000
0000
,
0100
0000
0000
0000
,
0010
0000
0000
0000
,
1001
0000
0000
0000
,
0001
0000
0000
0000
,
0100
0000
0000
0000
,
0010
0000
0000
0000
,
1001
0000
0000
0000
,
1000
0000
0000
0000
,
0100
0000
0000
0000
,
0010
0000
0000
0000
,
0001
0000
0000
0000
,
0010
0000
0000
0000
,
0100
0000
0000
0000
,
1000
0000
0000
0000
,
0001
0000
0000
0000
,
0100
0000
0000
0000
,
0010
0000
0000
0000
,
1000
0000
0000
0000
,
1001
0000
0000
0000
,
0110
0000
0000
0000
,
1001
0000
0000
0000
,
0110
0000
0000
0000
,
2002
0000
0000
0000
,
0000
0000
0000
0000
,
0000
0000
0000
0000
,
3003
0000
0000
0000
,
0002
0000
0000
0000
,
0020
0000
0000
0033
,
0000
0001
0000
0000
,
0000
0010
0000
0000
,
0000
0100
0000
0000
,
0000
1000
0000
0000
,
0000
0010
0000
0000
,
0000
0100
0000
0000
,
0000
0001
0000
0000
,
0000
0100
0000
0000
,
0000
0010
0000
0000
,
0000
1000
0000
0000
,
0000
0100
0000
0000
,
0000
0010
0000
0000
,
0000
0002
0000
0000
,
0003
0000
0000
0000
,
0020
0000
0000
0000
,
0030
0000
0000
0000
,
0200
0000
0000
0000
,
0300
0000
0000
0000
,
2000
0000
0000
0000
,
3000
0000
0000
0000
,
0020
0000
0000
0000
,
0030
0000
0000
0000
,
0200
0300
0000
0000
,
0000
0001
0000
0000
,
0000
0100
0000
0000
,
0000
0010
0000
0000
,
0000
1000
0000
0000
,
0000
0100
0000
0000
,
0000
0020
0000
0000
,
0030
0000
0000
0000
,
0001
0000
0000
0000
,
0010
0000
0000
0000
,
0100
0000
0000
0000
,
1000
0000
0000
0000
,
0010
0000
0000
0000
,
0100
0000
0000
0000
,
0001
0000
0000
0000
,
0100
0000
0000
0000
,
0010
0000
0000
0000
,
1000
0000
0000
0000
,
0100
0000
0000
0000
,
0010
0000
0000
0000
,
0002
0000
0000
0000
,
0000
0000
0000
0000
,
2000
0000
0000
0000
,
3003
0000
0000
0000
,
1000
0000
0000
0000
,
0100
0000
0000
0000
,
0001
0000
0000
0000
,
0100
0000
0000
0000
,
1000
0000
0000
0000
,
0010
0000
0000
0000
,
0001
0000
0000
0000
,
0010
0000
0000
0000
,
1000
0000
0000
0000
,
0100
0000
0000
0000
,
0001
0000
0000
0000
,
0100
0000
0000
0000
,
1000
0000
0000
0000
,
0010
0000
0000
0000
,
0001
0000
0000
0000
,
0010
0000
0000
0000
,
2000
0000
0000
0000
,
3000
0000
0000
0000
,
0100
0000
0000
0000
,
0010
0000
0000
0000
,
0002
0000
0000
0000
,
0003
0000
0000
0000
,
1000
0000
0000
0000
,
0001
0000
0000
0000
,
0200
0000
0000
0000
,
0300
0000
0000
0000
,
0001
0000
0000
0000
,
1000
0000
0000
0000
,
0200
0000
0000
0000
,
0300
0000
0000
0000
,
1000
0000
0000
0000
,
0001
0000
0000
0000
,
1000
0000
0000
0000
,
0010
0000
0000
0000
,
0100
0000
0000
0000
,
0010
0000
0000
0000
,
0001
0000
0000
0000
,
0010
0000
0000
0000
,
0100
0000
0000
0000
,
0010
0000
0000
0000
,
1000
0000
0000
0000
,
0010
0000
0000
0000
,
0100
0000
0000
0000
,
0010
0000
0000
0000
,
0001
0000
0000
0000
,
0010
0000
0000
0000
,
0100
0000
0000
0000
,
0010
0000
0000
0000
,
2000
0000
0000
0000
,
0000
0000
0000
0000
,
0000
0000
0000
0000
,
0000
3000
0000
0000
,
0000
0100
0000
0000
,
0000
0001
0000
0000
,
0000
0100
0000
0000
,
0000
1000
0000
0000
,
0000
0010
0000
0000
,
0000
0001
0000
0000
,
0000
0010
0000
0000
,
0000
1000
0000
0000
,
0000
0100
0000
0000
,
0000
0001
0000
0000
,
0000
0200
0000
0000
,
0000
0300
0000
0000
,
1000
0000
0000
0000
,
1000
0000
0000
0000
,
0010
0000
0000
0000
,
0010
0000
0000
0000
,
0100
0000
0000
0000
,
0100
0000
0000
0000
,
0001
0000
0000
0000
,
0001
0000
0000
0000
,
1000
0000
0000
0000
,
0010
0000
0000
0000
,
0100
0000
0000
0000
,
0001
0000
0000
0000
,
1000
0000
0000
0000
,
0100
0000
0000
0000
,
0010
0000
0000
0000
,
0001
0000
0000
0000
,
0010
0000
0000
0000
,
0100
0000
0000
0000
,
1000
0000
0000
0000
,
0010
0000
0000
0000
,
0100
0000
0000
0000
,
0001
0000
0000
0000
,
0100
0000
0000
0000
,
0001
0000
0000
0000
,
1000
0000
0000
0000
,
0100
0000
0000
0000
,
1000
0000
0000
0000
,
0010
0000
0000
0000
,
1000
0000
0000
0000
,
0001
0000
0000
0000
,
0010
0000
0000
0000
,
0001
0000
0000
0000
,
2000
0000
0000
0000
,
3000
0000
0000
0000
,
0100
0000
0000
0000
,
0010
0000
0000
0000
,
0002
0000
0000
0000
,
0003
0000
0000
0000
,
0100
0000
0000
0000
,
0010
0000
0000
0000
,
2000
0000
0000
0000
,
3000
0000
0000
0000
,
0100
0000
0000
0000
,
0010
0000
0000
0000
,
0002
0000
0000
0000
,
0003
0000
0000
0000
,
0100
0000
0000
0000
,
0010
0000
0000
0000
,
1000
0000
0000
0000
,
0100
0000
0000
0000
,
0010
0000
0000
0000
,
0001
0000
0000
0000
,
0100
0000
0000
0000
,
0010
0000
0000
0000
,
1000
0000
0000
0000
,
0100
0000
0000
0000
,
0010
0000
0000
0000
,
0001
0000
0000
0000
,
0010
0000
0000
0000
,
0100
0000
0000
0000
,
1000
0000
0000
0000
,
0010
0000
0000
0000
,
0100
0000
0000
0000
,
0001
0000
0000
0000
,
0020
0000
0000
0000
,
0030
0000
0000
0000
,
0200
0000
0000
0000
,
0300
0000
0000
0000
,
2000
0000
0000
0000
,
3000
0000
0000
0000
,
0020
0000
0000
0000
,
0030
0000
0000
0000
,
0200
0000
0000
0000
,
0300
0000
0000
0000
,
0002
0000
0000
0000
,
0003
0000
0000
0000
,
0020
0000
0000
0000
,
0030
0000
0000
0000
,
0200
0000
0000
0000
,
0300
0000
0000
0000
,
1000
0000
0000
0000
,
0100
0000
0000
0000
,
0010
0000
0000
0000
,
0001
0000
0000
0000
,
0100
0000
0000
0000
,
0010
0000
0000
0000
,
2000
0000
0000
0000
,
0000
0000
3000
0000
,
0000
0000
0100
0000
,
0000
0000
0001
0000
,
0000
0000
0100
0000
,
0000
0000
1000
0000
,
0000
0000
0100
0000
,
0000
0000
0001
0000
,
0000
0000
0200
0000
,
0000
0000
0300
0000
,
0000
1000
0000
0000
,
0002
0003
0000
0000
,
0000
1000
0000
0000
,
0020
0030
0000
0000
,
0000
1000
0000
0000
,
0200
0300
0000
0000
,
0000
0010
0000
0000
,
0200
0300
0000
0000
,
0000
0010
0000
0000
,
0002
0003
0000
0000
,
0000
0100
0000
0000
,
0002
0003
0000
0000
,
0000
0200
0300
0000
,
0000
0010
0000
0000
,
0000
1000
0000
0000
,
0000
0001
0000
0000
,
0000
0100
0000
0000
,
0002
0003
0000
0000
,
0000
0010
0000
0000
,
0002
0003
0000
0000
,
0000
1000
0000
0000
,
0200
0300
0000
0000
,
0000
1000
0000
0000
,
0020
0000
0030
0000
,
0000
0000
0100
0000
,
0000
0000
0001
0000
,
0000
0000
0100
0000
,
0000
0000
0010
0000
,
0000
0000
1000
0000
,
0000
0000
0010
0000
,
0000
0000
0200
0000
,
0300
0000
0000
0000
,
0001
0000
0000
0000
,
0010
0000
0000
0000
,
0100
0000
0000
0000
,
1000
0000
0000
0000
,
0100
0000
0000
0000
,
0010
0000
0000
0000
,
0001
0000
0000
0000
,
1000
0000
0000
0000
,
0010
0000
0000
0000
,
0100
0000
0000
0000
,
0001
0000
0000
0000
,
1000
0000
0000
0000
,
0100
0000
0000
0000
,
0010
0000
0000
0000
,
0001
0000
0000
0000
,
2000
0000
0000
3000
0000
0000
0000
0000
,
0000
0000
0000
0100
0000
0000
0000
0000
,
0000
0000
0000
0100
0000
0000
0000
0000
,
0000
0000
0000
0100
0000
0000
0000
0000
,
0000
0000
0000
0100
0000
0000
0000
0000
,
0000
0000
0000
0100
0000
0000
0000
0000
,
0000
0000
0000
0100
0000
0000
0000
0000
,
0000
0000
0000
0100
0000
0000
0000
0000
,
0000
0000
0000
0100
0000
0000
0000
0000
,
0000
0000
0000
0100
0000
0000
0000
0000
,
0000
0000
0000
0100
0000
0000
0000
0000
,
0000
0000
0000
0100
0000
0000
0000
0000
,
0000
0000
0000
0100
0000
0000
0000
0000
,
0000
0000
0000
0100
0000
0000
0000
0000
,
0000
0000
0000
0100
0000
0000
0000
0000
,
0000
0000
0000
0100
0000
0000
0000
0000
,
0000
0000
0000
0100
0000
0000
0000
0000
,
0001
0000
0000
0000
,
0100
0000
0000
0000
,
0000
0010
0000
0000
,
1000
0000
0000
0000
,
0010
0000
0000
0000
,
0100
0000
0000
0000
,
0001
0000
0000
0000
,
0100
0000
0000
0000
,
0010
0000
0000
0000
,
1000
0000
0000
0000
,
0001
0000
0000
0000
,
1000
0000
0000
0000
,
0010
0000
0000
0000
,
0100
0000
0000
0000
,
0001
0000
0000
0000
,
0100
0000
0000
0000
,
0001
0000
0000
0000
,
0010
0000
0000
0000
,
0001
0000
0000
0000
,
1000
0000
0000
0000
,
0100
0000
0000
0000
,
1000
0000
0000
0000
,
0010
0000
0000
0000
,
1000
0000
0000
0000
,
0001
0000
0000
0000
,
0100
0000
0000
0000
,
0001
0000
0000
0000
,
0010
0000
0000
0000
,
0001
0000
0000
0000
,
1000
0000
0000
0000
,
0100
0000
0000
0000
,
1000
0000
0000
0000
,
0010
0000
0000
0000
,
1000
0000
0000
0000
,
0001
0000
0000
0000
,
0100
0000
0000
0000
,
0010
0000
0000
0000
,
0100
0000
0000
0000
,
0001
0000
0000
0000
,
2000
3000
0000
0000
,
0000
0100
0000
0000
,
0000
0010
0000
0000
,
0000
0100
0000
0000
,
0000
1000
0000
0000
,
0000
0001
0000
0000
,
0000
0010
0000
0000
,
0000
0100
0000
0000
,
0000
0010
0000
0000
,
0000
0001
0000
0000
,
0000
1000
0000
0000
,
0000
0100
0000
0000
,
0000
0010
0000
0000
,
0000
0100
0000
0000
,
0000
1000
0000
0000
,
0000
0002
0000
0000
,
0003
0000
0000
0000
,
0100
0000
0000
0000
,
1000
0000
0000
0000
,
0100
0000
0000
0000
,
0001
0000
0000
0000
,
0100
0000
0000
0000
,
1000
0000
0000
0000
,
0100
0000
0000
0000
,
0001
0000
0000
0000
,
1000
0000
0000
0000
,
0001
0000
0000
0000
,
0010
0000
0000
0000
,
0001
0000
0000
0000
,
1000
0000
0000
0000
,
0001
0000
0000
0000
,
0100
0000
0000
0000
,
0001
0000
0000
0000
,
2000
3000
0000
0000
,
0000
0100
0000
0000
,
0000
1000
0000
0000
,
0000
0001
0000
0000
,
0000
1000
0000
0000
,
0000
0010
0000
0000
,
0000
1000
0000
0000
,
0000
0001
0000
0000
,
0200
0300
0000
0000
,
0000
0001
0000
0000
,
0000
1000
0000
0000
,
0000
0001
0000
0000
,
0020
0030
0000
0000
,
0000
0001
0000
0000
,
1000
0000
0000
0000
,
0100
0000
0000
0000
,
1000
0000
0000
0000
,
0001
0000
0000
0000
,
1000
0000
0000
0000
,
0010
0000
0000
0000
,
1000
0000
0000
0000
,
0001
0000
0000
0000
,
0100
0000
0000
0000
,
0001
0000
0000
0000
,
1000
0000
0000
0000
,
0001
0000
0000
0000
,
0010
0000
0000
0000
,
0001
0000
0000
0000
,
1000
0000
0000
0000
,
0100
0000
0000
0000
,
1000
0000
0000
0000
,
0001
0000
0000
0000
,
1000
0000
0000
0000
,
0010
0000
0000
0000
,
1000
0000
0000
0000
,
0001
0000
0000
0000
,
0100
0000
0000
0000
,
0001
0000
0000
0000
,
1000
0000
0000
0000
,
0002
0003
0000
0000
,
0000
0010
0000
0000
,
0000
0001
0000
0000
,
0000
1000
0000
0000
,
0000
0100
0000
0000
,
0000
1000
0000
0000
,
0000
0001
0000
0000
,
0000
1000
0000
0000
,
0000
0010
0000
0000
,
0000
1000
0000
0000
,
0000
0002
0000
0000
,
0000
0000
0000
0000
,
0000
0003
0000
0000
,
0000
0100
0000
0000
,
0000
0001
0000
0000
,
0000
1000
0000
0000
,
0000
0001
0000
0000
,
0000
0010
0000
0000
,
0000
0001
0000
0000
,
0000
1000
0000
0000
,
0000
0100
0000
0000
,
0000
1000
0000
0000
,
0000
0001
0000
0000
,
0000
2000
0000
0000
,
3000
0000
0000
0000
,
0002
0000
0000
0000
,
2003
0000
0000
0000
,
3002
0000
0000
0000
,
2003
0000
0000
0000
,
3020
0000
0000
0000
,
0030
0000
0000
0000
,
0020
0030
0000
0000
,
0000
1000
0000
0000
,
0000
0100
0000
0000
,
0000
0010
0000
0000
,
0000
0001
0000
0000
,
0000
0100
0000
0000
,
0000
0020
0030
0000
,
0000
1000
0000
0000
,
0000
0100
0000
0000
,
0000
0010
0000
0000
,
0000
0001
0000
0000
,
0000
0100
0000
0000
,
0020
0030
0000
0000
,
0000
1000
0000
0000
,
0000
0100
0000
0000
,
0000
0010
0000
0000
,
0000
0001
0000
0000
,
0000
0100
0000
0000
,
0000
0010
0000
0000
,
0000
1000
0000
0000
,
0000
0100
0000
0000
,
0000
0010
0000
0000
,
0000
0001
0000
0000
,
0000
0020
0000
0000
,
0000
0000
0000
0000
,
0030
0000
0000
0000
,
0001
0000
0000
0000
,
0100
0000
0000
0000
,
0010
0000
0000
0000
,
1000
0000
0000
0000
,
0020
0000
0000
0000
,
0030
0000
0000
0000
,
0020
0000
0000
0000
,
0030
0000
0000
0000
,
1000
0000
0000
0000
,
0001
0000
0000
0000
,
1000
0000
0000
0000
,
0001
0000
0000
0000
;

//--------------- dance-single - LinkDude04 ----------------
#NOTEDATA:;
#STEPSTYPE:dance-single;
#DESCRIPTION:LinkDude04;
#DIFFICULTY:Easy;
#METER:3;
#RADARVALUES:0.144592,0.32982,0.037228,0.395552,0,870,838,32,340,0,2,0.144592,0.32982,0.037228,0.395552,0,870,838,32,340,0,2;
#NOTES:
0000
0000
0000
0000
,
0000
0000
0000
0000
,
0000
0000
0000
0000
,
0000
0000
0000
0000
,
0000
0000
0000
0000
,
0000
0000
0000
0000
,
0001
0000
1000
0000
,
0001
0000
2000
0000
,
3000
0000
0001
0000
,
2000
0000
3000
0000
,
0001
0000
1000
0000
,
0001
0000
2000
0000
,
3000
0000
0001
0000
,
1000
0000
0002
0000
,
0003
0000
1000
0000
,
0001
0000
2000
0000
,
3000
0000
0001
0000
,
2000
0000
3000
0000
,
0001
0000
0100
0000
,
0002
0000
0003
0000
,
1000
0000
0100
0000
,
2000
0000
3000
0000
,
0001
0000
0010
0000
,
0002
0000
0003
0000
,
1000
0000
0010
0000
,
2000
0000
3000
0000
,
0002
0000
0003
0000
,
0200
0000
0300
0000
,
0020
0000
0030
0000
,
2000
0000
3000
0000
,
0100
0000
0100
0000
,
0010
0000
0010
0000
,
0001
0000
0001
0000
,
2000
0000
3000
0000
,
0001
0000
0001
0000
,
0200
0000
0300
0000
,
0010
0000
0010
0000
,
2000
0000
3000
0000
,
0001
0000
0001
0000
,
0020
0000
0030
0000
,
0100
0000
0100
0000
,
2000
0000
3000
0000
,
0001
0000
0001
0000
,
0020
0000
0030
0000
,
0100
0000
0100
0000
,
2000
0000
3000
0000
,
0001
0000
0001
0000
,
0100
0000
0100
0000
,
0010
0000
0010
0000
,
2000
0000
3000
0000
,
1010
0000
0010
0000
,
2000
0000
3000
0000
,
0001
0000
1000
0000
,
0002
0000
0003
0000
,
0101
0000
0100
0000
,
0002
0000
0003
0000
,
1000
0000
0100
0000
,
2000
0000
3000
0000
,
2002
0000
3003
0000
,
2020
0000
3030
0000
,
2002
0000
3003
0000
,
2200
0000
3300
0000
,
2002
0000
0000
0000
,
0000
0000
0000
0000
,
0000
0000
0000
0000
,
0000
0000
3003
0000
,
1001
0000
1000
0000
,
0100
0000
0000
0000
,
0010
0000
0001
0000
,
0010
0000
0000
0000
,
0011
0000
0001
0000
,
0100
0000
0000
0000
,
0010
0000
1000
0000
,
0010
0000
0000
0000
,
1010
0000
1000
0000
,
0100
0000
0000
0000
,
0010
0000
0001
0000
,
0010
0000
0000
0000
,
1001
0000
1000
0000
,
0100
0000
0000
0000
,
0010
0000
0001
0000
,
0020
0000
0030
0000
,
0020
0000
0030
0000
,
0010
0000
0001
0000
,
1000
0000
0020
0000
,
0030
0000
1000
0000
,
0001
0000
0020
0000
,
0030
0000
0001
0000
,
1000
0000
0020
0000
,
0030
0000
1000
0000
,
2002
0000
3003
0000
,
0202
0000
0303
0000
,
2002
0000
3003
0000
,
0022
0000
0033
0000
,
2002
0000
0000
0000
,
0000
0000
0000
0000
,
0000
0000
0000
0000
,
0000
0000
3003
0000
,
1001
0000
0001
0000
,
0100
0000
0000
0000
,
0010
0000
1000
0000
,
0010
0000
0000
0000
,
1010
0000
1000
0000
,
0100
0000
0000
0000
,
0010
0000
0001
0000
,
0010
0000
0000
0000
,
0011
0000
0001
0000
,
0100
0000
0000
0000
,
0010
0000
1000
0000
,
0010
0000
0000
0000
,
1010
0000
1000
0000
,
0100
0000
0000
0000
,
0010
0000
0001
0000
,
0010
0000
0010
0000
,
0010
0000
0010
0000
,
0010
0000
0010
0000
,
0010
0000
0010
0000
,
0010
0000
0002
0000
,
0000
0000
0000
0000
,
0000
0000
0000
0000
,
0000
0000
0000
0000
,
0003
0000
2000
3000
,
0000
0001
0000
0100
,
0000
0001
0000
1000
,
0000
0001
0000
0010
,
0000
0001
0000
1000
,
0000
0001
0000
0100
,
0000
0001
0000
1000
,
0000
0001
0000
0020
,
0000
0000
0030
0000
,
0011
0000
0001
0000
,
0200
0000
0300
0000
,
0010
0000
1000
0000
,
0020
0000
0030
0000
,
1000
0000
0100
0000
,
2000
0000
3000
0000
,
0001
0000
0010
0000
,
0002
0000
0003
0000
,
0100
0000
0001
0000
,
0200
0000
0300
0000
,
0101
0000
1000
0000
,
0002
0000
0003
0000
,
0011
0000
0001
0000
,
0020
0000
0030
0000
,
0001
0000
0100
0000
,
0002
0000
0003
0000
,
0101
0000
0001
0000
,
0200
0000
0300
0000
,
0010
0000
1000
0000
,
0020
0000
0030
0000
,
1010
0000
1000
0000
,
0200
0000
0300
0000
,
0010
0000
0001
0000
,
0020
0000
0030
0000
,
0011
0000
0001
0000
,
0200
0000
0300
0000
,
0010
0000
1000
0000
,
0020
0000
0030
0000
,
1010
0000
1000
0000
,
0200
0000
0300
0000
,
0010
0000
0001
0000
,
0200
0000
0300
0000
,
0001
0000
1000
0000
,
0200
0000
0300
0000
,
1000
0000
0001
0000
,
0020
0000
0030
0000
,
0001
0000
1000
0000
,
0020
0000
0030
0000
,
1000
0000
0001
0000
,
0200
0000
0300
0000
,
2002
0000
3003
0000
,
0202
0000
0303
0000
,
2002
0000
3003
0000
,
2020
0000
3030
0000
,
2002
0000
0000
0000
,
0000
0000
0000
0000
,
0000
0000
0000
0000
,
0000
0000
3003
0000
,
0002
0000
0000
0000
,
0000
0000
0003
0000
,
2000
3000
0000
0100
,
0000
0020
0030
0000
,
0002
0003
0000
0100
,
0000
0020
0030
0000
,
2000
3000
0000
0010
,
0000
0200
0300
0000
,
0002
0003
0000
0010
,
0000
0200
0300
0000
,
2000
3000
0000
0100
,
0000
0020
0030
0000
,
0002
0003
0000
0100
,
0000
0020
0030
0000
,
2000
0000
0000
0000
,
0000
0000
3000
0000
,
0002
0003
0000
0020
,
0030
0000
0001
0000
,
2000
3000
0000
0200
,
0300
0000
1000
0000
,
0002
0003
0000
0200
,
0300
0000
0001
0000
,
1000
0000
0020
0000
,
0000
0000
0030
0000
,
2000
3000
0000
0002
,
0003
0000
0010
0000
,
0002
0003
0000
2000
,
3000
0000
0100
0000
,
2000
3000
0000
0002
,
0003
0000
0100
0000
,
0001
0000
2000
0000
,
3000
0000
0010
0000
,
2000
0000
3000
0000
,
0200
0000
0300
0000
,
0020
0000
0030
0000
,
0002
0000
0003
0000
,
0200
0000
0300
0000
,
0020
0000
0030
0000
,
2000
0000
3000
0000
,
0200
0000
0300
0000
,
0020
0000
0030
0000
,
0002
0000
0003
0000
,
0200
0000
0300
0000
,
0020
0000
0030
0000
,
2000
0000
0000
0000
,
0000
0000
3000
0000
,
0001
0000
1000
0000
,
0002
0000
0003
0000
,
1000
0000
0001
0000
,
0200
0000
0300
0000
,
0001
0000
1000
0000
,
0200
0000
0300
0000
,
1000
0000
0001
0000
,
0020
0000
0030
0000
,
0001
0000
1000
0000
,
0020
0000
0030
0000
,
1000
0000
0001
0000
,
0200
0000
0300
0000
,
0001
0000
1000
0000
,
0200
0000
0300
0000
,
1000
0000
0001
0000
,
0020
0000
0030
0000
,
0001
0000
1000
0000
,
0001
0000
1000
0000
,
0002
0000
0000
0000
,
0000
0000
0003
0000
,
0200
0000
0300
0000
,
0002
0000
0003
0000
,
2000
0000
0000
0000
,
0000
0000
3000
0000
,
0002
0000
0003
0000
,
0020
0000
0030
0000
,
0002
0000
0000
0000
,
0000
0000
0003
0000
,
2000
0000
3000
0000
,
0200
0000
0300
0000
,
2000
0000
0000
0000
,
0000
0000
3000
0000
,
0020
0000
0030
0000
,
2000
0000
3000
0000
,
0001
0000
0100
0000
,
0020
0000
0030
0000
,
1000
0000
0100
0000
,
0020
0000
0030
0000
,
0001
0000
0100
0000
,
0020
0000
0030
0000
,
1000
0000
0100
0000
,
0020
0000
0030
0000
,
0001
0000
0100
0000
,
0020
0000
0030
0000
,
1000
0000
0100
0000
,
0020
0000
0030
0000
,
0001
0000
0100
0000
,
0020
0000
0030
0000
,
1000
0000
0100
0000
,
0020
0000
0030
0000
,
0002
0000
0000
0000
,
0000
0000
0000
0000
,
0000
0000
0000
0000
,
0000
0003
0000
1000
,
0000
0001
0000
0100
,
0000
0001
0000
1000
,
0000
0001
0000
1000
,
0000
0010
0000
1000
,
0000
0001
0000
1000
,
0000
0100
0000
1000
,
0000
0001
0000
1000
,
0000
0001
0000
0010
,
0000
0001
0000
1000
,
0000
0001
0000
0100
,
0000
0001
0000
2000
,
0000
0000
3000
0000
,
0002
0000
0003
0000
,
0200
0000
0300
0000
,
0020
0000
0030
0000
,
2000
0000
3000
0000
,
0200
0000
0300
0000
,
0020
0000
0030
0000
,
0002
0000
0003
0000
,
0200
0000
0300
0000
,
0001
0000
0001
0000
,
1000
0000
1000
0000
,
0010
0000
0010
0000
,
1000
0000
1000
0000
,
0001
0000
0001
0000
,
0100
0000
0100
0000
,
0001
0000
1000
0000
,
0002
0000
0003
0000
,
0010
0000
0001
0000
,
0200
0000
0300
0000
,
0010
0000
1000
0000
,
0200
0000
0300
0000
,
0010
0000
0001
0000
,
0200
0000
0300
0000
,
0010
0000
1000
0000
,
0200
0000
0300
0000
,
0010
0000
0001
0000
,
0200
0000
0300
0000
,
0010
0000
1000
0000
,
0200
0000
0300
0000
,
0010
0000
0001
0000
,
0200
0000
0300
0000
,
0010
0000
0010
0000
,
1000
0000
1000
0000
,
0002
0000
0000
0000
,
0000
0000
0003
0000
,
0200
0000
0300
0000
,
0002
0000
0003
0000
,
2000
0000
0000
0000
,
0000
0000
3000
0000
,
0020
0000
0030
0000
,
2000
0000
3000
0000
,
0002
0000
0000
0000
,
0000
0000
0003
0000
,
0020
0000
0030
0000
,
0002
0000
0003
0000
,
2000
0000
0000
0000
,
0000
0000
3000
0000
,
0200
0000
0300
0000
,
2000
0000
3000
0000
,
0002
0000
0003
0000
,
0200
0000
0300
0000
,
0020
0000
0030
0000
,
2000
0000
3000
0000
,
0200
0000
0300
0000
,
0020
0000
0030
0000
,
0002
0000
0003
0000
,
0200
0000
0300
0000
,
0020
0000
0030
0000
,
2000
0000
3000
0000
,
0200
0000
0300
0000
,
0020
0000
0030
0000
,
0002
0000
0003
0000
,
0200
0000
0300
0000
,
0020
0000
0030
0000
,
2000
0000
3000
0000
,
0200
0000
0000
0000
,
0000
0000
0300
0000
,
2000
0000
0000
0000
,
0000
0000
3000
0000
,
0002
0000
0000
0000
,
0000
0000
0003
0000
,
0020
0000
0000
0000
,
0000
0000
0030
0000
,
0200
0000
0000
0000
,
0000
0000
0300
0000
,
2000
0000
0000
0000
,
0000
0000
3000
0000
,
0020
0000
0000
0000
,
0000
0000
0030
0000
,
0200
0000
0000
0000
,
0000
0000
0300
0000
,
0002
0000
0003
0000
,
0100
0000
0100
0000
,
0020
0000
0030
0000
,
1000
0000
1000
0000
,
0200
0000
0300
0000
,
0010
0000
0010
0000
,
0002
0000
0000
0000
,
0000
0000
0000
0000
,
0003
0000
0200
0000
,
0300
0000
0020
0000
,
0030
0000
2000
0000
,
3000
0000
0002
0000
,
0003
0000
0200
0000
,
0300
0000
0020
0000
,
0030
0000
2000
0000
,
0000
0000
0000
3000
,
0000
0002
0000
0000
,
1000
0000
1000
0003
,
0000
2000
0000
0000
,
0100
0000
0100
3000
,
0000
0002
0000
0000
,
0010
0000
0010
0003
,
0000
2000
0000
0000
,
0001
0000
0001
3000
,
0000
0002
0000
0000
,
0100
0000
0100
0003
,
0000
2000
0000
0000
,
0010
0000
0010
3000
,
0000
0002
0000
0003
,
0000
0020
0000
0030
,
0000
0200
0000
0300
,
0000
2000
0000
3000
,
0000
0200
0000
0000
,
1000
0000
1000
0300
,
0000
0020
0000
0000
,
0100
0000
0100
0030
,
0000
0002
0000
0000
,
0010
0000
0010
0003
,
0000
2000
0000
0000
,
0001
0000
0001
0000
,
3000
0000
0001
0200
,
0300
0000
0010
2000
,
3000
0000
0001
0020
,
0030
0000
0100
2000
,
3000
0000
0001
0200
,
0300
0000
0010
2000
,
3000
0000
0001
0020
,
0000
0000
0030
0000
,
0002
0000
0000
0000
0000
0010
0000
0000
,
0000
0000
0000
0000
0000
1000
0000
0000
,
0000
0000
0000
0000
0000
0100
0000
0000
,
0000
0000
0000
0000
0000
1000
0000
0000
,
0000
0000
0000
0000
0000
0010
0000
0000
,
0000
0000
0000
0000
0000
1000
0000
0000
,
0000
0000
0003
0000
,
1000
0000
1000
0000
,
0020
0000
0030
0000
,
0100
0000
0100
0000
,
0002
0000
0003
0000
,
1000
0000
2000
3000
,
0000
0200
0300
0000
,
0020
0000
0000
0030
,
0000
0002
0000
0000
,
0003
0000
2000
0000
,
0000
0000
0000
0100
0000
0000
0000
0000
,
0000
0000
0000
0100
0000
0000
0000
0000
,
0000
0000
0000
0100
0000
0000
0000
0000
,
0000
0000
0000
0100
0000
0000
0000
0000
,
0000
0000
0000
0100
0000
0000
0000
0000
,
0000
0000
0000
0100
0000
0000
0000
0000
,
0000
0000
0000
0100
0000
0000
0000
0000
,
0000
0000
0000
0100
0000
0000
0000
0000
,
0000
0000
0000
0100
0000
0000
0000
0000
,
0000
0000
0000
0100
0000
0000
0000
0000
,
0000
0000
0000
0100
0000
0000
0000
0000
,
0000
0000
0000
0100
0000
0000
0000
0000
,
0000
0000
0000
0100
0000
0000
0000
0000
,
0000
0000
0000
0100
0000
0000
0000
0000
,
0000
0000
0000
0100
0000
0000
0000
0000
,
0000
0000
0000
0100
3000
0000
0000
0000
,
0002
0000
0000
0000
,
0100
0000
0200
0303
,
0000
0200
0000
0000
,
0010
0000
0020
0330
,
0000
0020
0000
0000
,
1000
0000
2000
3030
,
0000
2000
0000
0000
,
0100
0000
0200
3300
,
0000
0200
0000
0000
,
0010
0000
0020
0330
,
0000
0020
0000
0000
,
0001
0000
0002
0033
,
0000
0001
0010
0001
,
0000
1000
0100
1000
,
0000
0001
0100
0001
,
0000
1000
0001
0000
,
2000
0000
3000
0000
,
0200
0000
0300
0000
,
0020
0000
0030
0000
,
0002
0000
0003
0000
,
2000
0000
0000
0000
,
0010
0000
3010
0000
,
0020
0000
0000
0000
,
0100
0000
0130
0000
,
0200
0000
0000
0000
,
0001
0000
0301
0000
,
0002
0000
0000
0000
,
1000
0000
1003
0000
,
2000
0000
3000
0000
,
0200
0000
0300
0000
,
0020
0000
0030
0000
,
0002
0000
0000
0000
,
0200
0000
0003
0000
,
2000
0000
0300
0000
,
0200
0000
3000
0000
,
0002
0000
0303
0000
,
1000
2000
3000
0000
,
0001
0000
0001
0000
,
0010
0020
0030
0000
,
0100
0000
0100
0000
,
1000
1000
0000
0001
,
0000
0010
0000
0001
,
0000
1000
0000
0010
,
0000
1000
0000
0001
,
0000
0100
0000
0001
,
0000
1000
0000
0100
,
0000
2000
3000
0000
,
0002
0000
0000
0000
,
0200
0000
0003
0000
,
2000
0000
0300
0000
,
0200
0000
3000
0000
,
0002
0000
0300
0000
,
0200
0000
2003
0000
,
0000
0000
0300
0000
,
0200
0000
3002
0000
,
0000
0000
0300
0000
,
0200
0000
0003
0000
,
2000
0000
0300
0000
,
0200
0000
3000
0000
,
0002
0000
0300
0000
,
0200
0000
0003
0000
,
2000
0000
0300
0000
,
0200
0000
3000
0000
,
0002
0000
0303
0000
,
2000
0000
0000
0000
,
0001
0000
0000
0000
,
0010
0000
0000
0000
,
0001
0000
0000
0000
,
0100
0000
0000
0000
,
0001
0000
0000
0000
,
0010
0000
0000
0000
,
0001
0000
3000
0000
,
0200
0000
0000
1000
,
0000
1000
0300
0000
,
0020
0000
0000
0100
,
0000
0100
0030
0000
,
0002
0000
0000
0010
,
0000
0010
0003
0000
,
2000
0000
0000
0001
,
0000
0001
3000
0000
,
0020
0000
0000
1000
,
0000
1000
0030
0000
,
0200
0000
0000
0010
,
0000
0010
0300
0000
,
0002
0000
0000
0000
,
0100
0000
0000
0000
,
1000
0000
0000
0000
,
0010
0000
0003
0000
,
1000
0000
0001
0000
,
0100
0000
0001
0000
,
1000
0000
0001
0000
,
0010
0000
0001
0000
,
1000
0000
1000
0000
,
0001
0000
0001
0000
,
0100
0000
0100
0000
,
0002
0000
0003
0000
,
1000
0000
0001
0000
,
0002
0000
0003
0000
,
1000
0000
0010
0000
,
0020
0000
0030
0000
,
1000
0000
0001
0000
,
0002
0000
0003
0000
,
1000
0000
0100
0000
,
0200
0000
0300
0000
,
2000
0000
3000
0000
,
0200
0000
0300
0000
,
0020
0000
0030
0000
,
0002
0000
0003
0000
,
1000
0000
1000
0000
,
0100
0000
0100
0000
,
0010
0000
0010
0000
,
0002
0000
0000
0003
,
0000
1000
0002
0003
,
0000
0010
0200
0300
,
0000
1000
0020
0030
,
0000
0100
0002
0003
,
0000
2000
0000
0000
,
0010
0000
0000
3010
,
0000
0002
0000
0000
,
0010
0000
0000
0013
,
0000
1000
0000
0100
,
0000
0010
0000
0002
,
0000
0000
0000
0000
,
0000
0000
0000
0003
,
0000
2000
0000
0000
,
0100
0000
0000
3100
,
0000
0002
0000
0000
,
0100
0000
0100
0003
,
0000
1000
0000
1000
,
0000
0010
0000
0010
,
0000
0100
0000
0100
,
0000
0001
0000
0001
,
0000
1000
0000
1000
,
0000
0100
0000
0100
,
0000
0010
0000
0020
,
0000
0000
0030
0000
,
0001
0010
0001
1000
,
0001
1000
0001
0100
,
0001
0100
0001
1000
,
0001
1000
0001
0020
,
0000
0000
0000
0000
,
0000
0000
0030
0000
,
0020
0000
0000
0030
,
0000
0001
0002
0003
,
0000
0100
0200
0300
,
0000
0010
0020
0030
,
0000
1000
2000
3000
,
0000
0002
0000
0003
,
0000
2000
0000
0000
,
0010
0000
0000
3010
,
0000
0002
0000
0000
,
0100
0000
0000
0103
,
0000
1000
0000
0010
,
0000
0100
0000
0002
,
0000
0000
0000
0000
,
0003
0000
2000
3000
,
0000
0002
0000
0000
,
0010
0000
0000
1003
,
0000
2000
0000
0000
,
0100
0000
0000
3001
,
0000
0001
0000
0100
,
0000
0001
0000
1000
,
0000
0001
0000
1000
,
0000
0001
0000
0010
,
0000
0001
0000
0010
,
0000
0001
0000
1000
,
0000
0001
0000
2000
,
0000
0000
3000
0000
,
0001
0000
0001
0000
,
0100
0000
0100
0000
,
0010
0000
0010
0000
,
1000
0000
1000
0000
,
0020
0000
0000
0000
,
0000
0000
0030
0000
,
0020
0000
0000
0030
,
0000
0000
1000
0000
,
1000
0000
0001
0000
,
0001
0000
1000
0000
,
1000
0000
0001
0000
,
0002
0000
0000
0000
,
0003
0000
0000
0000
;

//--------------- dance-single - LinkDude07 ----------------
#NOTEDATA:;
#STEPSTYPE:dance-single;
#DESCRIPTION:LinkDude07;
#DIFFICULTY:Medium;
#METER:5;
#RADARVALUES:0.229686,0.32982,0.037228,0.189632,0,1382,1350,32,163,50,0,0.229686,0.32982,0.037228,0.189632,0,1382,1350,32,163,50,0;
#NOTES:
0000
0000
0000
0000
,
0000
0000
0000
0000
,
0000
0000
0000
0000
,
0000
0000
0000
0000
,
0M00
0000
M000
0000
,
00M0
0000
M000
0000
,
0100
0000
1000
0000
,
0010
0000
1000
0010
,
1000
0000
0001
0000
,
0200
0000
0300
0000
,
0001
0000
1000
0000
,
0100
0000
1000
0100
,
1000
0000
0001
0000
,
0010
0000
0001
0010
,
0001
0000
1000
0000
,
0010
0000
1000
0010
,
1000
0000
0001
0000
,
0200
0000
0300
0000
,
0001
0000
1000
0000
,
0010
1000
0010
0000
,
1000
0000
0100
0000
,
2000
0000
3000
0000
,
0001
0000
1000
0000
,
0100
1000
0100
0000
,
1000
0000
0010
0000
,
2000
0000
3000
0000
,
0001
0000
0100
0000
,
0001
0000
0100
0000
,
0010
0000
0100
0000
,
0010
0000
1000
0000
,
0010
0000
1000
0000
,
0100
0000
1000
0000
,
0100
0000
0010
0000
,
0200
0000
M30M
0000
,
1000
0000
0100
0000
,
0010
0000
0001
1000
,
0001
0000
0010
0000
,
0100
0000
1000
0001
,
1000
0000
0010
0000
,
0100
0000
0001
1000
,
0001
0000
0100
0000
,
0010
0000
1000
0001
,
1000
0000
0100
0000
,
0010
0000
0001
0000
,
0010
0000
0100
0000
,
1000
0000
0010
0000
,
0100
0000
0001
0000
,
0100
0000
0010
0000
,
1000
0000
0010
0000
,
0200
0000
0300
0000
,
1001
0000
0001
0000
,
1000
0000
0001
0100
,
0001
0000
0100
0000
,
0001
0000
0100
0000
,
0110
0000
0010
0000
,
0100
0000
0010
1000
,
0010
0000
1000
0000
,
0010
0000
1000
0000
,
1001
0000
0001
0000
,
0011
0000
0010
0000
,
0110
0000
0100
0000
,
1100
0000
1000
0000
,
1002
0000
0100
0000
,
0100
0000
1000
0000
,
1000
0000
0010
0000
,
MM00
0000
0003
0000
,
0011
0000
0001
0000
,
0010
0000
0100
1000
,
0100
0000
1000
0000
,
0010
0000
0100
0000
,
0101
0000
0001
0000
,
1000
0000
0010
1000
,
0010
0000
1000
0000
,
0001
0000
1000
0000
,
1010
0000
0010
0000
,
0100
0000
0001
0010
,
0001
0000
0010
0000
,
0100
0000
1000
0000
,
1100
0000
0100
0000
,
0010
0000
0001
0000
,
0010
0000
0100
0000
,
0010
0000
0010
0000
,
0010
0000
0010
0000
,
0010
0000
1000
0000
,
0001
0000
0010
0000
,
0010
0000
0001
0000
,
1000
0000
0010
0000
,
0010
0000
1000
0000
,
0001
0000
0010
0000
,
0010
0000
0001
0000
,
2002
0000
3003
0000
,
0022
0000
0033
0000
,
0220
0000
0330
0000
,
2200
0000
3300
0000
,
2001
0000
0010
0000
,
0010
0000
0001
0000
,
0001
0000
0200
0000
,
00MM
0000
3300
0000
,
1001
0000
0001
0000
,
1000
0000
0001
0100
,
0001
0000
0100
0000
,
0010
0000
0100
0000
,
0110
0000
0010
0000
,
1000
0000
0001
0100
,
0001
0000
0100
0000
,
0001
0000
1000
0000
,
1100
0000
0100
0000
,
1000
0000
0100
0010
,
0100
0000
0010
0000
,
0001
0000
0010
0000
,
0011
0000
0001
0000
,
0010
0000
0001
1000
,
0001
0000
1000
0000
,
0010
0000
0010
0000
,
0010
0000
0010
0000
,
0010
0000
0010
0000
,
0010
0000
0010
0000
,
0010
0000
2000
0000
,
0000
0000
0000
0000
,
0000
0000
0000
0000
,
0000
0000
0000
0000
,
3000
0000
0010
0010
,
0000
1000
0000
0100
,
0000
1000
0000
0100
,
0000
0010
0000
0100
,
0000
0010
0000
0001
,
0000
0010
0000
0001
,
0000
0100
0000
0001
,
0000
0100
0000
0020
,
0000
0000
0030
0000
,
1010
0000
1000
0000
,
0100
0000
1000
0010
,
1000
0000
0001
0000
,
1000
0000
0010
0100
,
0010
0000
0100
0000
,
0010
0000
0100
0001
,
0100
0000
0001
0000
,
0010
0000
0001
0100
,
0001
0000
1000
0000
,
0001
0000
0100
0000
,
0110
0000
0010
0000
,
0100
0000
0010
0000
,
1010
0000
1000
0000
,
0100
0000
1000
0010
,
1000
0000
0001
0000
,
0100
0000
0001
0000
,
0110
0000
0100
0000
,
0010
0000
0100
0001
,
0100
0000
0001
0000
,
0010
0000
0001
0000
,
1100
0000
1000
0000
,
0010
0000
0100
0010
,
0100
0000
0010
0000
,
1000
0000
0001
0000
,
1001
0000
1000
0000
,
0100
0000
0010
0001
,
0010
0000
0001
0000
,
0010
0000
0001
0000
,
0101
0000
0100
0000
,
0001
0000
1000
0001
,
1000
0000
0001
0000
,
0010
0000
0010
0000
,
0001
0000
1000
0000
,
0001
0100
0001
0000
,
0010
0000
0001
0000
,
1000
0100
1000
0000
,
0010
0000
1000
0000
,
0001
0100
0001
0000
,
0010
0000
0001
0000
,
1000
0001
1000
0000
,
1001
0000
0001
0000
,
0011
0000
0010
0000
,
0110
0000
0100
0000
,
1100
0000
1000
0000
,
1002
0000
0100
0000
,
0100
0000
1000
0000
,
1000
0000
0020
0000
,
0000
0000
0033
0000
,
1000
0000
0010
0000
,
0100
0000
0001
M0M0
,
0001
0001
0000
0100
,
0000
0020
0030
0000
,
1000
1000
0000
0100
,
0000
0020
0030
0000
,
0001
0001
0000
0010
,
0000
0200
0300
0000
,
1000
1000
0000
0010
,
0000
0200
0300
0000
,
0001
0001
0000
0100
,
0000
0020
0030
0000
,
1000
1000
0000
0100
,
0000
0020
0030
0000
,
0001
0001
0000
0010
,
0000
0200
0300
0000
,
1000
0000
0000
0100
0000
0000
1000
0000
,
0000
0100
0000
0000
1000
0000
0000
0000
,
0001
0000
0000
0010
0000
0000
0001
0000
,
0000
0010
0000
0000
0001
0000
0000
0000
,
1000
0000
0000
0100
0000
0000
1000
0000
,
0000
0100
0000
0000
1000
0000
0000
0000
,
0001
0000
2000
0000
,
0000
0000
3000
0000
,
0001
0000
0000
0100
0000
0000
0001
0000
,
0000
0100
0000
0000
0001
0000
0000
0000
,
1000
0000
0000
0010
0000
0000
1000
0000
,
0000
0010
0000
0000
1000
0000
0000
0000
,
0001
0000
0000
0100
0000
0000
0001
0000
,
0000
0100
0000
0000
0001
0000
0000
0000
,
1000
0000
0002
0000
,
0003
0000
1000
0001
,
1000
0000
0100
1000
,
0100
0000
1000
0100
,
1000
0000
0100
0010
,
0100
0000
0010
0100
,
0010
0000
0001
0010
,
0001
0000
0010
0001
,
0010
0000
0001
1000
,
0001
0000
1000
0001
,
1000
0000
0010
0000
,
0100
0000
0001
0000
,
0010
0000
0100
0000
,
1000
0000
0001
0000
,
2000
0000
0000
0000
,
0000
0000
3000
0000
,
0010
0000
0100
0000
,
0001
0002
0003
0000
,
1000
0000
0001
1000
,
0001
0000
1000
0010
,
1000
0000
0010
1000
,
0010
0000
0100
0010
,
0100
0000
0010
0100
,
0010
0000
0100
0001
,
0100
0000
0001
0100
,
0001
0000
1000
0001
,
1000
0000
0100
1000
,
0100
0000
1000
0100
,
1000
0000
0010
0100
,
0010
0000
0100
0010
,
0100
0000
0010
0001
,
0010
0000
0001
0010
,
0001
0000
0001
0000
,
1000
0000
1000
0000
,
0002
0000
0000
0000
,
0000
0003
0000
0000
0000
0100
0000
0000
,
0020
0000
0030
0000
,
1000
0000
0000
0100
0000
0000
0100
0000
,
0020
0000
0000
0000
,
0000
0030
0000
0000
0000
0001
0000
0000
,
0200
0000
0300
0000
,
0010
0000
0000
1000
0000
0000
1000
0000
,
0200
0000
0000
0000
,
0000
0300
0000
0000
0000
0010
0000
0000
,
0002
0000
0003
0000
,
0100
0000
0000
0010
0000
0000
0010
0000
,
2000
0000
0000
0000
,
0000
3000
0000
0000
0000
0100
0000
0000
,
2000
0000
3000
0000
,
0001
0000
0100
0100
,
0001
0000
0100
0100
,
0010
0000
0100
0100
,
1000
0000
0100
0100
,
0010
0000
0100
0001
,
0001
0000
0100
0010
,
0010
0000
0100
1000
,
1000
0000
0100
0010
,
0010
0000
0100
0100
,
0001
0000
0100
0100
,
0010
0000
0100
0100
,
1000
0000
0100
0100
,
0010
0000
0100
0001
,
0001
0000
0100
0010
,
0010
0000
0100
1000
,
1000
0000
0100
0010
,
0010
0000
0100
0001
,
0002
0000
0000
0000
,
0000
0000
0000
0000
,
0000
0000
0000
0000
,
0000
0003
0000
1000
,
1000
0100
0000
0010
,
0000
0100
0000
0001
,
0000
0100
0000
0010
,
0000
0100
0000
1000
,
1000
0100
0000
0010
,
0000
0100
0000
0001
,
0000
0100
0000
0010
,
0000
0100
0000
1000
,
1000
0100
0000
0010
,
0000
0100
0000
0001
,
0000
0100
0000
0010
,
0000
0200
0300
0000
,
1000
0000
0010
0000
,
0100
0000
0001
0000
,
0010
0000
0100
0000
,
1000
0000
0010
0000
,
0100
0000
0001
0000
,
0100
0000
0010
0000
,
1000
0000
0100
0000
,
0010
0000
0001
0000
,
0100
0000
0010
0000
,
1000
0000
0100
0000
,
0010
0000
0001
0000
,
0100
0000
0010
0000
,
1000
0000
0100
0000
,
0010
0000
0001
0000
,
2000
0000
3002
0000
,
1003
2000
3000
0000
,
0001
0000
0001
0001
,
0100
0000
0010
0010
,
0100
0000
1000
1000
,
0100
0000
0010
0010
,
0100
0000
0001
0001
,
0100
0000
0010
0010
,
0100
0000
1000
1000
,
0100
0000
0010
0010
,
0100
0000
0001
0001
,
0100
0000
0010
0010
,
0100
0000
0001
0001
,
0100
0000
0001
1000
,
0001
0000
0100
0001
,
0100
0000
0010
0100
,
0010
0000
1000
0000
,
0010
0000
1000
0000
,
0002
0000
0000
0000
,
0000
0003
0000
0000
0000
0010
0000
0000
,
0200
0000
0300
0000
,
1000
0000
0000
0010
0000
0000
0010
0000
,
0200
0000
0000
0000
,
0000
0300
0000
0000
0000
0001
0000
0000
,
0020
0000
0030
0000
,
0100
0000
0000
1000
0000
0000
1000
0000
,
0020
0000
0000
0000
,
0000
0030
0000
0000
0000
0100
0000
0000
,
0002
0000
0003
0000
,
0010
0000
0000
0100
0000
0000
0100
0000
,
2000
0000
0000
0000
,
0000
3000
0000
0000
0000
0010
0000
0000
,
2000
0000
3000
0000
,
0010
0000
0100
0100
,
0001
0000
0010
0000
,
0100
0000
1000
0000
,
0010
0000
0100
0000
,
0001
0000
0010
0000
,
0100
0000
1000
0000
,
0010
0000
0100
0000
,
0001
0000
0010
0000
,
0100
0000
1000
0000
,
0010
0000
0100
0000
,
0001
0000
0010
0000
,
0100
0000
1000
0000
,
0010
0000
0100
0000
,
0001
0000
0010
0000
,
0100
0000
1000
0000
,
0010
0000
0100
0000
,
0001
0000
0010
0000
,
0200
0000
0000
0000
,
0000
0000
0300
0000
,
2000
0000
0000
0000
,
0000
0000
3000
0000
,
0002
0000
0000
0000
,
0000
0000
0003
0000
,
0020
0000
0000
0000
,
0000
0000
0030
0000
,
0200
0000
0000
0000
,
0000
0000
0300
0000
,
2000
0000
0000
0000
,
0000
0000
3000
0000
,
0020
0000
0000
0000
,
0000
0000
0030
0000
,
0200
0000
0000
0000
,
0000
0000
0300
0000
,
0001
0002
0003
0000
,
1000
0010
0100
0000
,
0001
0002
0003
0000
,
1000
0010
0100
0000
,
0001
0002
0003
0000
,
1000
0100
0010
0000
,
0002
0000
1000
0000
,
0100
0000
1000
0000
,
0003
0000
1000
1000
,
0000
0010
0000
0000
2000
0000
0000
0000
,
3000
0000
0001
0001
,
0000
0010
0000
0000
0002
0000
0000
0000
,
0003
0000
1000
1000
,
0000
0010
0000
0000
2000
0000
0000
0000
,
0000
0000
0001
0001
,
0000
0100
0000
0000
3001
0000
0000
0000
,
1000
0002
0003
0000
,
0010
0001
0100
0000
,
0001
2000
3000
0000
,
0010
1000
0100
0000
,
1000
0002
0003
0000
,
0010
0001
0100
0000
,
0001
2000
3000
0000
,
0010
1000
0100
0000
,
1000
0002
0003
0000
,
0100
0001
0010
0000
,
0001
2000
3000
0000
,
0100
1000
0020
0000
,
0030
0000
1000
1000
,
0000
0010
0000
0000
2000
0000
0000
0000
,
3000
0000
0001
0001
,
0000
0010
0000
0000
0001
0000
0000
0000
,
1000
0002
0003
0000
,
1000
0010
1000
0000
,
0001
2000
3000
0000
,
0001
0010
0001
0000
,
1000
0002
0003
0000
,
1000
0100
1000
0000
,
0001
2000
3000
0000
,
0001
0000
0100
0000
0002
0003
0000
0000
,
0000
1000
0000
0000
0001
0000
1000
0000
,
0000
0010
0000
0000
1000
0000
0010
0000
,
0000
0100
0000
0000
0010
0000
0100
0000
,
0000
0001
0000
0000
0100
0000
0001
0000
,
0000
0010
0000
0000
0001
0000
0010
0000
,
0000
0100
0000
0000
0010
0000
0100
0000
,
0000
1000
0000
0000
0100
0000
1000
0000
,
0000
0002
0000
0000
0003
0000
0000
0000
,
1000
0000
0001
0000
0000
0100
0000
0000
,
0001
0000
1000
0000
0000
0010
0000
0000
,
1000
0000
0001
0000
0000
0010
0000
0000
,
0001
0000
1000
0000
0000
0100
0000
0000
,
1000
0000
0001
0000
0000
0100
0000
0000
,
0001
0000
1000
0000
0000
0200
0000
0000
,
0000
0000
0300
0000
,
0010
0100
0010
0000
,
0001
2000
3000
0000
,
0010
0100
0010
0000
,
1000
0002
0003
0000
,
0010
0100
0020
0030
,
0000
0000
0001
0000
2000
3000
0000
0000
,
0000
0010
0000
0000
2000
0000
3000
0000
,
0000
0000
0001
0000
2000
3000
0000
0000
,
0000
0010
0000
0000
1000
0000
0000
0000
,
0001
0000
0000
0100
0000
0000
0000
0000
,
0001
0000
0000
0100
0000
0000
0000
0000
,
0010
0000
0000
0100
0000
0000
0000
0000
,
1000
0000
0000
0100
0000
0000
0000
0000
,
0010
0000
0000
0100
0000
0000
0000
0000
,
0001
0000
0000
0100
0000
0000
0000
0000
,
0010
0000
0000
0100
0000
0000
0000
0000
,
1000
0000
0000
0100
0000
0000
0001
0000
,
0001
0000
0000
0100
0000
0000
0010
0000
,
0010
0000
0000
0100
0000
0000
1000
0000
,
1000
0000
0000
0100
0000
0000
0010
0000
,
0010
0000
0000
0100
0000
0000
0001
0000
,
0001
0000
0000
0100
0000
0000
0010
0000
,
0010
0000
0000
0100
0000
0000
1000
0000
,
1000
0000
0000
0100
0000
0000
0010
0000
,
0010
0000
0000
0100
0000
0000
0001
0000
,
0002
0000
0000
0000
,
0100
0100
0100
0003
,
M0M0
0200
0000
0000
,
0010
0010
0010
0300
,
M00M
0020
0000
0000
,
1000
1000
1000
0030
,
0M0M
2000
0000
0000
,
0001
0001
0001
3000
,
0MM0
0002
0000
0000
,
0010
0010
0010
0003
,
MM00
0020
0000
0000
,
0001
0001
0001
0030
,
MM00
0001
1000
0001
,
0000
0010
0000
0000
0200
0000
0300
0000
,
0000
1000
0001
1000
,
0000
0010
0000
0000
0100
0000
0000
0000
,
0002
0000
0003
0000
,
0200
0000
0300
0000
,
2000
0000
3000
0000
,
0200
0000
0300
M0M0
,
0001
0002
0003
0000
,
1000
0100
1000
0000
,
0100
0020
0030
0000
,
0001
0010
0001
0000
,
1000
0002
0003
0000
,
1000
0010
1000
0000
,
0010
0200
0300
0000
,
0001
0100
0002
M0M3
,
0000
1000
0001
1000
,
0000
0100
0000
0000
0020
0000
0030
0000
,
0000
0001
1000
0001
,
0000
0100
0000
0000
0010
0000
0000
0000
,
2000
0000
3000
0000
,
0001
0010
0001
0000
,
2000
0000
3000
0000
,
0001
0200
M3M0
0000
,
0001
0200
0300
0000
,
1000
0100
0001
0000
,
0100
2000
3000
0000
,
0100
0001
0100
0000
,
1000
0100
0000
0002
,
0000
0023
0000
0230
,
0000
2300
0000
3020
,
0000
0230
0000
0302
,
0000
0023
0000
0230
,
0000
2300
0000
3020
,
0000
0230
0000
0302
,
0000
0000
M0M3
0000
,
0020
0000
0030
0000
,
0200
0000
0300
0000
,
2000
0000
3000
0000
,
0010
0000
0100
0000
,
0002
0000
0003
0000
,
0020
0000
0030
0000
,
0200
0000
0300
0000
,
2000
0000
30MM
0000
,
0200
0000
0300
0000
,
0020
0000
0030
0000
,
0002
0000
0003
0000
,
0100
0000
0001
0000
,
0200
0000
0300
0000
,
0020
0000
0030
0000
,
2000
0000
3000
0000
,
0002
0000
0MM3
0000
,
1000
0000
0100
0000
,
1000
0000
0001
0000
,
0100
0000
0001
0000
,
1000
0000
0010
0000
,
1000
0000
0001
0000
,
0010
0000
0001
0000
,
1000
0000
0010
0000
,
0100
0000
0010
0000
,
2000
0100
0000
0100
,
0000
0100
3000
0000
,
0200
0010
0000
0010
,
0000
0010
0300
0000
,
0020
0001
0000
0001
,
0000
0001
0030
0000
,
0002
0100
0000
0100
,
0000
0100
0003
0000
,
0200
0010
0000
0010
,
0000
0010
0300
0000
,
0020
1000
0000
1000
,
0000
1000
0030
0000
,
2000
0000
0010
0000
,
0001
0000
0100
0000
,
0001
0000
0010
0000
,
0001
0000
3100
0000
,
1000
0000
0100
0000
,
0010
0000
0001
0000
,
0100
0000
0010
0000
,
1000
0000
0001
0000
,
0010
0001
0010
0001
,
1000
0001
1000
0001
,
0100
0001
0100
0001
,
2000
0000
3000
0000
,
0001
0000
0100
0010
,
0020
0000
0030
0000
,
1000
0000
0010
0100
,
0200
0000
0300
0000
,
0001
0000
0010
0100
,
0200
0000
0300
0000
,
1000
0000
0100
0010
,
0020
0000
0030
0000
,
0001
0000
0000
1000
0000
0000
0100
0000
,
0010
0000
0000
0001
0000
0000
0010
0000
,
0100
0000
0000
1000
0000
0000
0010
0000
,
0200
0000
0300
0000
,
0010
0010
0010
0010
,
0010
0020
0030
M00M
,
0010
0010
0100
0100
,
0002
0000
0000
0003
,
0000
1000
0001
0010
,
0000
0001
1000
0010
,
0000
1000
0001
0100
,
0000
0001
1000
0100
,
00MM
0000
1000
0000
0000
0100
0000
0000
,
1000
0000
0000
0100
0000
0000
1000
0000
,
0000
0000
0001
0000
0000
0010
0000
0000
,
0001
0000
0000
0010
0000
0000
0001
0000
,
0000
1000
0010
1000
,
0000
0001
0100
0001
,
0200
0001
0000
0001
0000
0001
0000
0001
,
0000
0000
0000
0300
,
M0M0
0000
0001
0000
0000
0100
0000
0000
,
0001
0000
0000
0100
0000
0000
0001
0000
,
0000
0000
1000
0000
0000
0001
0000
0000
,
1000
0001
2000
3000
,
0MM0
0001
1000
0001
,
0000
1000
0010
1000
,
0000
0001
0100
0001
,
0000
1000
0001
1000
,
0000
0001
0010
0001
,
0000
1000
0100
1000
,
0000
0001
1000
0001
,
2000
0000
3000
0000
,
0001
0010
0001
1000
,
0001
1000
0001
0100
,
0001
0100
0001
1000
,
0001
1000
0001
0010
,
0010
0010
0010
0010
,
0010
0010
0010
MM00
,
0020
0000
0000
0030
,
0000
0001
1000
0100
,
0000
1000
0001
0100
,
0000
0001
1000
0100
,
0000
1000
0001
0100
,
0000
0002
0000
0003
,
0000
0000
1000
0000
0000
0100
0000
0000
,
1000
0000
0000
0010
0000
0000
1000
0000
,
0000
0000
0001
0000
0000
0100
0000
0000
,
0001
0000
0000
0010
0000
0000
0001
0000
,
0000
1000
0100
0010
,
0000
0001
1000
0MM0
,
0002
1000
0000
1000
0000
1000
0000
1000
,
0003
0000
1000
0001
,
0000
0000
1000
0000
0000
0010
0000
0000
,
1000
0000
0000
0100
0000
0000
1000
0000
,
0000
0000
0001
0000
0000
0010
0000
0000
,
0001
1000
0002
0003
,
0000
1000
0000
0100
,
0000
0010
0000
0001
,
0000
0100
0000
0010
,
0000
1000
0000
0010
,
0000
0100
0000
0001
,
0000
0010
0000
0100
,
0000
1000
0100
0010
,
0002
0000
0003
0000
,
0010
0001
0010
0001
,
1000
0001
1000
0001
,
0100
0001
0100
0001
,
1000
0001
1000
0001
,
0010
0010
0010
0010
,
0010
0010
0010
MM00
,
0020
0000
0000
0030
,
0000
0000
0001
0100
,
0001
0000
1000
0100
,
1000
0000
0001
0010
,
0001
0000
1000
0010
,
2000
0000
0000
0000
,
3000
0000
0000
0000
;

//--------------- dance-single - LinkDude10 ----------------
#NOTEDATA:;
#STEPSTYPE:dance-single;
#DESCRIPTION:LinkDude10;
#DIFFICULTY:Hard;
#METER:7;
#RADARVALUES:0.310624,0.43976,0.037228,0.146587,0.020941,1869,1837,32,126,96,0,0.310624,0.43976,0.037228,0.146587,0.020941,1869,1837,32,126,96,0;
#NOTES:
0000
0000
0000
0000
,
0000
0000
0000
0000
,
0000
0000
0000
0000
,
0000
0000
0000
0000
,
0M00
0000
M000
0000
,
00M0
0000
M000
0000
,
0100
0000
1000
0000
,
0010
0000
1000
0001
,
1000
0000
0010
0000
,
0200
0000
0300
0000
,
0001
0000
0100
0000
,
0010
0000
1000
0001
,
1000
0000
0100
0000
,
0010
0000
0001
1000
,
0001
0000
0010
0000
,
0100
0000
1000
0001
,
1000
0000
0010
0000
,
0200
0000
0300
0000
,
0001
0001
0100
0100
,
0010
0100
0010
0000
,
1000
1000
0100
0100
,
0020
0000
0030
0000
,
0001
0001
0010
0010
,
0100
0010
0100
0000
,
1000
1000
0010
0010
,
0200
0000
0300
0000
,
0001
0000
0100
0000
,
0010
0000
0100
0000
,
1000
0000
0100
0000
,
0001
0000
0100
0000
,
0001
0001
0100
0100
,
0010
0010
1000
1000
,
0100
0100
0010
0010
,
0001
0001
MMMM
0000
,
0001
0000
0100
0000
,
0010
0000
1000
0001
,
1000
0000
0010
0000
,
0100
0000
0001
1000
,
0001
0000
0010
0000
,
0100
0000
1000
0001
,
1000
0000
0100
0000
,
0010
0000
0001
1000
,
0001
0000
0100
0000
,
0010
0000
0100
0000
,
1000
0000
0100
0000
,
0001
0000
0100
0000
,
0001
0001
0100
0100
,
0010
0010
1000
1000
,
0100
0100
0010
0010
,
0001
0002
0000
0003
,
1001
1000
1000
0100
,
0100
0000
1000
0001
,
1000
0010
0010
0100
,
0100
0000
0001
1000
,
1001
0001
0001
0100
,
0100
0000
0001
1000
,
0001
0010
0010
0100
,
0100
0000
1000
0100
,
1100
0000
1000
0010
,
1010
0000
0001
0100
,
0101
0000
0001
0010
,
0011
0000
1000
0100
,
2100
0100
0010
0010
,
0001
0001
0100
0100
,
0001
0001
0010
3010
,
MMMM
0000
0000
0000
,
0011
0001
0001
0010
,
0010
0000
0100
1000
,
0100
1000
1000
0010
,
0010
0000
0100
0100
,
0101
0001
0001
1000
,
1000
0000
0010
1000
,
0010
1000
1000
0001
,
0001
0000
1000
0010
,
1010
0010
0010
0100
,
0100
0000
0001
0010
,
0001
0010
0010
0100
,
0100
0000
1000
0100
,
1100
0100
0100
0010
,
0010
0000
0001
0100
,
0001
0100
0100
0010
,
0010
1000
1000
0100
,
0100
0010
0010
0001
,
0001
0000
0100
0001
,
0100
0001
0001
0010
,
0010
0000
0100
1000
,
0100
1000
1000
0010
,
0010
0000
1000
0010
,
1000
0001
0001
0100
,
0100
0000
0001
0100
,
0101
0000
1000
0100
,
1100
0000
0001
0010
,
0011
0000
1000
0010
,
1010
0000
0001
1000
,
2001
0001
0010
0010
,
0001
0001
0100
0100
,
0001
0001
0010
3010
,
MMMM
0000
0000
0000
,
1100
0001
0001
0010
,
0010
0000
0001
0100
,
0001
1000
1000
0010
,
0010
0000
1000
0100
,
1100
0001
0001
0010
,
0010
0000
0001
0100
,
0001
1000
1000
0010
,
0010
0000
1000
0010
,
1010
0001
0001
0100
,
0100
0000
0001
0100
,
0001
1000
1000
0010
,
0010
0000
1000
0100
,
1100
0001
0001
0010
,
0010
0000
0001
0100
,
0001
1000
1000
0010
,
0010
0000
0010
0000
,
0010
0000
0010
0000
,
0010
0000
0010
0000
,
0010
0000
0010
0000
,
0010
0000
2000
0000
,
0000
0000
0000
0000
,
0000
0000
0000
0000
,
0000
0000
0000
0000
,
3000
0000
0001
0010
,
0001
0001
0000
0010
,
0000
1000
0000
0010
,
0000
0001
0000
0100
,
0000
1000
0000
0100
,
0000
0001
0000
0010
,
0000
1000
0000
0010
,
0000
0002
0000
0200
,
0303
0000
0001
1000
,
1001
1000
1000
0001
,
0001
0000
1000
0010
,
1000
0010
0010
0100
,
0100
0000
0001
0010
,
0001
0010
0010
0100
,
0100
0000
1000
0100
,
1000
1000
0010
0010
,
0100
0000
0001
0100
,
0001
0100
0100
0010
,
0010
0000
1000
0010
,
1010
0010
0010
0100
,
0100
0000
0001
0010
,
0011
0010
0010
0100
,
0100
0000
1000
0100
,
1000
1000
0100
0100
,
0010
0000
0001
0001
,
1010
1000
1000
0100
,
0100
0000
1000
0001
,
1000
0100
0100
0010
,
0010
0000
0001
0001
,
1100
1000
1000
0010
,
0010
0000
1000
0100
,
1000
0100
0100
0001
,
0001
0000
0001
0001
,
0101
0100
0100
1000
,
1000
0000
1000
0010
,
1000
0010
0010
0001
,
0001
0000
0001
0001
,
0011
0010
0010
1000
,
1000
0000
1000
0100
,
0010
0100
0100
0001
,
0001
0000
0001
0100
,
0010
0100
0100
1000
,
1000
0001
1000
0001
,
1000
0010
0100
0010
,
0100
0001
1000
0001
,
1000
0100
0010
0100
,
0010
0001
1000
0001
,
1000
0010
0100
0010
,
0100
0001
1000
0001
,
1001
0000
1000
0100
,
1100
0000
1000
0001
,
1001
0000
0001
0100
,
0101
0000
0001
1000
,
2001
0100
0100
0001
,
0001
0010
0010
0001
,
0001
0010
0010
0200
,
0000
0000
3300
0000
,
0001
0010
0010
0000
,
0100
0100
1000
MMMM
,
1000
1000
0000
0001
,
0010
0100
1000
0000
,
0001
0001
0000
1000
,
0010
0100
0001
0000
,
1000
1000
0000
0001
,
0100
0010
1000
0000
,
0001
0001
0000
1000
,
0100
0010
0001
0000
,
1000
1000
0000
0001
,
0010
0100
1000
0000
,
0001
0001
0000
1000
,
0010
0100
0001
0000
,
1000
1000
0000
0001
,
0100
0010
1000
0000
,
0001
0000
0000
0100
0000
0000
0001
0000
,
0000
0100
0000
0000
0001
0000
1000
0000
,
0001
0000
0000
0010
0000
0000
0001
0000
,
0000
0010
0000
0000
0001
0000
1000
0000
,
0001
0000
0000
0100
0000
0000
0001
0000
,
0000
0100
0000
0000
0001
0000
0100
0000
,
0010
0000
1000
0000
1000
0000
0010
1000
,
0000
2000
0000
0000
3000
0000
0000
0000
,
0001
0000
0000
0010
0000
0000
0001
0000
,
0000
0010
0000
0000
0001
0000
1000
0000
,
0001
0000
0000
0100
0000
0000
0001
0000
,
0000
0100
0000
0000
0001
0000
1000
0000
,
0001
0000
0000
0010
0000
0000
0001
0000
,
0000
0010
0000
0000
0001
0000
0010
0000
,
0100
0000
1000
0000
1000
0000
0100
1000
,
0000
1000
0000
0000
0100
0000
1000
0000
,
0010
0000
0100
0001
,
0010
0000
0100
1000
,
0010
0000
1000
0010
,
0001
0000
0001
0010
,
1000
0000
1000
0100
,
0001
0000
0001
0100
,
1000
0000
0100
1000
,
0010
0000
0100
0001
,
0010
0010
0001
0001
,
0100
0100
0010
0010
,
1000
1000
0100
0100
,
0010
0010
0001
0001
,
2000
0000
0000
0000
,
0000
0000
0000
0000
,
0010
0000
0001
0000
,
0100
0200
3300
0000
,
0001
0000
0010
0001
,
0100
0000
0010
1000
,
0100
0000
0010
0001
,
0100
0000
0010
1000
,
0100
0000
1000
0100
,
0001
0000
1000
0010
,
0001
0000
1000
0100
,
0001
0000
1000
0010
,
0001
0000
0010
0001
,
0100
0000
0010
1000
,
0100
0000
0010
0001
,
0100
0000
0010
1000
,
0100
0000
1000
0100
,
0010
0000
0100
0010
,
0001
0001
0100
0100
,
0010
0010
1000
1000
,
0002
0000
0000
0000
,
0000
0003
0000
0000
0000
0100
0000
0000
,
0020
0000
0030
0000
,
1000
0000
0000
0100
0000
0010
0100
0000
,
0020
0000
0000
0000
,
0000
0030
0000
0000
0000
0001
0000
0000
,
0200
0000
0300
0000
,
0010
0000
0000
1000
0000
0100
1000
0000
,
0200
0000
0000
0000
,
0000
0300
0000
0000
0000
0010
0000
0000
,
0002
0000
0003
0000
,
0100
0000
0000
0010
0000
1000
0010
0000
,
2000
0000
0000
0000
,
0000
3000
0000
0000
0000
0100
0000
0000
,
2000
0000
3000
0000
,
0010
0000
0100
0001
,
0010
0000
0100
1000
,
0010
0000
0100
0001
,
0010
0000
0100
1000
,
0010
0000
1000
0010
,
0001
0000
1000
0100
,
0001
0000
1000
0010
,
0001
0000
1000
0100
,
0001
0000
0100
0001
,
0010
0000
0100
1000
,
0010
0000
0100
0001
,
0010
0000
0100
1000
,
0010
0000
1000
0010
,
0001
0000
1000
0100
,
0001
0000
1000
0010
,
0001
0000
1000
0100
,
0001
0000
1000
0001
,
2000
0000
0000
0001
0000
0000
0001
0000
,
0000
0100
0000
0000
0100
0000
0000
0001
,
0000
0000
0001
0000
0000
0010
0000
0000
,
0010
3000
0000
0001
,
0001
0100
0000
1000
,
0000
0100
0000
0001
,
0000
0010
0000
1000
,
0000
0010
0000
0001
,
0001
0100
0000
1000
,
0000
0100
0000
0001
,
0000
0010
0000
1000
,
0000
0010
0000
0001
,
0001
0100
0000
1000
,
0000
0100
0000
0001
,
0000
1000
0000
0001
,
0000
2000
3000
0000
,
1000
0010
1000
0010
,
0100
0010
0100
0001
,
0100
0001
1000
0001
,
1000
0100
1000
0100
,
0010
0100
0010
0001
,
0010
0001
1000
0001
,
1000
0010
1000
0010
,
0100
0010
0100
0001
,
0100
0100
0001
0001
,
0010
0010
0100
0100
,
1000
1000
0010
0010
,
1000
1000
0100
0100
,
0010
0010
0001
0001
,
0100
0100
0010
0010
,
1000
0000
0100
0000
,
0010
0002
0003
0000
,
0001
0000
0100
0001
,
0010
0000
0100
1000
,
0010
0000
0100
0001
,
0010
0000
0100
1000
,
0010
0000
1000
0010
,
0001
0000
1000
0100
,
0001
0000
1000
0010
,
0001
0000
1000
0100
,
0001
0000
0100
0001
,
0010
0000
0100
1000
,
0010
0000
0100
0001
,
0010
0000
0100
1000
,
0010
0000
1000
0010
,
0001
0000
1000
0100
,
0001
0000
0100
0000
,
0010
0000
1000
0001
,
2000
0000
0000
0000
,
0000
3000
0000
0000
0000
0010
0000
0000
,
0200
0000
0300
0000
,
0001
0000
0000
0010
0000
0100
0010
0000
,
0200
0000
0000
0000
,
0000
0300
0000
0000
0000
1000
0000
0000
,
0020
0000
0030
0000
,
0100
0000
0000
0001
0000
0010
0001
0000
,
0020
0000
0000
0000
,
0000
0030
0000
0000
0000
0100
0000
0000
,
2000
0000
3000
0000
,
0010
0000
0000
0100
0000
0001
0100
0000
,
0002
0000
0000
0000
,
0000
0003
0000
0000
0000
0010
0000
0000
,
0002
0000
0003
0000
,
0100
0000
0010
1000
,
0100
1000
0100
0010
,
0100
0010
0001
0010
,
0001
0100
0001
0100
,
0010
0100
0010
1000
,
0010
1000
0100
1000
,
0100
0010
0100
0010
,
0001
0010
0001
0100
,
0001
0100
0010
0100
,
0010
1000
0010
1000
,
0100
1000
0100
0010
,
0100
0010
0001
0010
,
0001
0100
0001
0100
,
0010
0100
0010
1000
,
0010
1000
0100
1000
,
0100
0010
0100
0010
,
0001
0010
0001
0100
,
0002
0000
0000
0000
,
0000
0000
0003
0000
,
0200
0000
0000
0000
,
0000
0000
0300
0000
,
2000
0000
0000
0000
,
0000
0000
3000
0000
,
0200
0000
0000
0000
,
0000
0000
0300
0000
,
0002
0000
0000
0000
,
0000
0000
0003
0000
,
0020
0000
0000
0000
,
0000
0000
0030
0000
,
2000
0000
0000
0000
,
0000
0000
3000
0000
,
0020
0000
0000
0000
,
0000
0000
0030
0000
,
0001
2000
3000
0000
,
0001
0010
0100
0000
,
1000
0002
0003
0000
,
1000
0010
0100
0000
,
0001
2000
3000
0000
,
0001
0100
0010
0000
,
2000
0000
0001
0000
,
0100
0000
3001
0000
,
1000
0100
1000
0100
,
0000
0010
0000
0000
0002
0000
0003
0000
,
0000
0100
0001
0100
,
0000
0010
0000
0000
2000
0000
3000
0000
,
0000
0100
1000
0100
,
0000
0010
0000
0000
0002
0000
0000
0000
,
0000
0000
1000
1000
,
0000
0100
0000
0000
1003
0000
0000
0000
,
1000
0002
0003
0000
,
0100
1000
0100
0000
,
0010
2000
3000
0000
,
0100
0001
0100
0000
,
0010
0002
0003
0000
,
0100
1000
0100
0000
,
0010
2000
3000
0000
,
0100
0001
0100
0000
,
0010
0002
0003
0000
,
0010
1000
0010
0000
,
0100
2000
3000
0000
,
0010
0001
0020
0030
,
0000
1000
0001
1000
,
0000
0010
0000
0000
2000
0000
3000
0000
,
0000
0001
1000
0100
,
0000
0010
0000
0000
0002
0000
0003
0000
,
1000
0010
1000
0010
,
0100
0010
0100
0001
,
0100
0001
0010
0001
,
0010
0100
0010
0100
,
1000
0100
1000
0010
,
1000
0010
0100
0010
,
0100
0001
0100
0001
,
1000
0000
0100
0000
2000
3000
0000
0000
,
0000
0001
0000
0000
1000
0000
0001
0000
,
0000
0010
0000
0000
0001
0000
0010
0000
,
0000
0100
0000
0000
0010
0000
0100
0000
,
0000
1000
0000
0000
0100
0000
1000
0000
,
0000
0010
0000
0000
1000
0000
0010
0000
,
0000
0100
0000
0000
0010
0000
0100
0000
,
0000
0001
0000
0000
0100
0000
0001
0000
,
0000
1000
0000
0000
0100
0000
0000
0000
,
1000
0000
0001
0000
0000
0010
0000
0000
,
0001
0000
1000
0000
0000
0100
0000
0000
,
1000
0000
0001
0000
0000
0100
0000
0000
,
0001
0000
1000
0000
0000
0010
0000
0000
,
1000
0000
0001
0000
0000
0010
0000
0000
,
0001
0000
1000
0000
0000
0100
0000
0000
,
2000
0000
3000
0000
,
0001
0010
0100
0010
,
0001
1000
0100
0010
,
0100
1000
0001
0100
,
0010
0100
0001
1000
,
0010
0100
0010
1000
,
0000
0001
0100
1000
,
0000
0000
0001
0000
0000
0010
0000
0000
1000
0000
0000
0000
0000
0000
0000
0000
,
0000
0001
0100
1000
,
0000
0000
0001
0000
0000
0010
0000
0000
1000
0000
0000
0000
0000
0000
0000
0000
,
0001
0000
0000
0100
0000
0000
0001
0000
,
1000
0000
0000
0100
0000
0000
1000
0000
,
0001
0000
0000
0100
0000
0000
0001
0000
,
1000
0000
0000
0100
0000
0000
1000
0000
,
0001
0000
0000
0100
0000
0000
0010
0000
,
1000
0000
0000
0100
0000
0000
0010
0000
,
0001
0000
0000
0100
0000
0000
0010
0000
,
1000
0000
0000
0100
0000
0000
0010
0000
,
0001
0000
0000
0100
0000
0000
0001
0000
,
1000
0000
0000
0100
0000
0000
1000
0000
,
0001
0000
0000
0100
0000
0000
0001
0000
,
1000
0000
0000
0100
0000
0000
1000
0000
,
0001
0000
0000
0100
0000
0000
0010
0000
,
1000
0000
0000
0100
0000
0000
0010
0000
,
0001
0000
0000
0100
0000
0000
0010
0000
,
1000
0000
0000
0100
0000
0000
0010
0000
,
0002
0000
0000
0000
,
0100
0100
0100
0003
,
MMMM
0002
0000
0000
,
1000
1000
1000
0003
,
MMMM
0002
0000
0000
,
0010
0010
0010
0003
,
MMMM
0002
0000
0000
,
1000
1000
1000
0003
,
MMMM
0002
0100
0100
,
0000
0000
0100
0000
0000
0100
0000
0000
0100
0000
0000
0000
0003
0000
0000
0000
,
MMMM
0002
1000
1000
,
0000
0000
1000
0000
0000
1000
0000
0000
1000
0000
0000
0000
0003
0000
0000
0000
,
MMMM
0001
0010
0001
,
0000
0000
0100
0000
0000
0010
0000
0000
0100
0000
0000
0000
0000
0000
0000
0000
,
0000
1000
0010
1000
,
0000
0000
0010
0000
0000
0100
0000
0000
0010
0000
0000
0000
0000
0000
0000
0000
,
2000
0000
3000
0000
,
0200
0000
0300
0000
,
0002
0000
0003
0000
,
0200
0000
0300
MMMM
,
0100
2000
3000
0000
,
0001
0010
0100
0000
,
1000
0020
0030
0000
,
1000
0010
0100
0000
,
0001
0200
0300
0000
,
0001
0100
0010
0000
,
1000
0200
0300
0000
,
1000
0010
1000
MMMM
,
0000
1000
0100
0001
,
0000
0000
1000
0000
0000
0010
0000
0000
0002
0000
0000
0000
0003
0000
0000
0000
,
0000
1000
0100
0001
,
0000
0000
1000
0000
0000
0010
0000
0000
0001
0000
0000
0000
0000
0000
0000
0000
,
2000
0000
3000
0000
,
0001
0100
0010
0000
,
0200
0000
0300
0000
,
0010
1000
MMMM
0000
,
1000
0002
0003
0000
,
1000
0100
0001
0000
,
0100
2000
3000
0000
,
0001
0010
1000
0000
,
0010
0002
0000
2003
,
0000
3002
0000
0023
,
0000
2030
0000
3020
,
0000
0032
0000
0203
,
0000
2300
0000
3200
,
0000
0302
0000
0023
,
0000
0032
0000
2003
,
0000
3001
MMMM
0000
,
2000
0001
0000
0100
,
3200
1000
0000
0010
,
0320
0100
0000
0001
,
0032
0100
0203
0010
,
0320
0100
0000
1000
,
2030
0010
0000
0001
,
3002
1000
0000
0100
,
0203
0301
MMMM
0001
,
0200
0001
0000
0010
,
0320
0100
0000
1030
,
2000
0010
0000
0001
,
3002
1000
2003
0100
,
3200
1000
0000
0010
,
0320
0100
0000
0001
,
0032
0000
0000
0000
,
1000
0003
MMMM
0000
,
0001
1000
0100
1000
,
0001
0010
0001
1000
,
0010
1000
0001
0100
,
0001
1000
0100
0010
,
0100
1000
0001
0100
,
0010
0100
0001
1000
,
0010
0100
0010
1000
,
0001
0100
0010
0100
,
0001
0010
0100
1000
,
0010
0000
0100
0000
0001
0000
1000
0002
,
0000
1000
0000
0100
,
0000
0010
0000
1003
,
0001
2000
0001
0000
,
0010
0000
0000
0000
3001
0000
1000
0002
,
0000
0100
0000
0010
,
0000
0100
0000
1003
,
0001
2000
0001
0000
,
0010
0000
0100
0000
,
3001
0000
1000
0001
,
1000
0000
0010
0000
,
1000
0100
1000
0001
,
0100
0001
1000
0010
,
0100
0010
1000
0010
,
0100
0010
0001
0010
,
0100
0010
1000
0010
,
0100
0010
1000
0001
,
0010
0100
0010
0001
,
0100
0010
1000
0100
,
1000
0001
0010
0001
,
1000
0100
0010
0100
,
1000
0001
0100
0010
,
0200
0000
0300
0000
,
0001
1000
0100
0010
,
0020
0000
0030
0001
,
1000
0001
0010
0100
,
0200
0000
0300
1000
,
0001
1000
0100
0010
,
0010
0001
0010
0100
,
0100
1000
0001
0100
,
0100
0010
1000
0000
,
0010
0000
0000
1000
0000
0000
0010
0000
,
0100
0000
0000
0001
0000
0000
0010
0000
,
0100
0000
0000
1000
0000
0000
0010
0000
,
0100
0002
0003
0000
,
0020
0001
0001
0100
,
0100
0001
0031
MMMM
,
0010
0010
0010
0010
0001
0001
0001
0001
,
0020
0000
0030
0000
,
0001
1000
0001
0010
,
0010
0001
1000
0010
,
0010
1000
0001
0100
,
0100
0001
1000
1000
,
MMMM
0000
0000
0000
1000
0000
0000
0100
0000
0000
1000
0000
0000
0100
0000
0000
,
1000
0000
0000
0010
0000
0000
1000
0000
0000
0010
0000
0000
1000
0000
0000
0000
,
0000
0000
0000
0000
0001
0000
0000
0010
0000
0000
0001
0000
0000
0010
0000
0000
,
0001
0000
0000
0100
0000
0000
0001
0000
0000
0100
0000
0000
0001
0000
0000
0000
,
0000
1000
0100
0010
,
0001
0100
0010
1000
,
0001
1000
0000
0100
0000
0010
0000
0001
,
1000
0010
0100
0001
,
MMMM
0000
0000
0000
0001
0000
0000
0010
0000
0000
0001
0000
0000
0010
0000
0000
,
0001
0000
0000
0100
0000
0000
0001
0000
0000
0100
0000
0000
0001
0000
0000
0000
,
0000
0000
0000
0000
1000
0000
0000
0100
0000
0000
1000
0000
0000
0100
0000
0000
,
1000
0100
0010
0001
,
MMMM
0010
0001
0010
,
0100
0010
0001
0010
,
0000
0100
1000
0100
,
0010
0100
1000
0100
,
0000
0010
0001
0010
,
0100
0010
0001
0010
,
0000
0100
1000
0100
,
0020
0000
0030
0000
,
0001
0010
0001
0010
,
0100
0010
0100
1000
,
0100
1000
0010
1000
,
0010
0100
0010
0100
,
0010
0010
0010
0010
,
0010
0010
0010
MMMM
,
0020
0000
0000
0030
,
0000
1000
0001
0010
,
0010
0001
1000
0100
,
0100
1000
0001
0100
,
0100
0001
1000
0010
,
0010
2000
0000
3000
,
0000
0000
0000
0000
0001
0000
0000
0100
0000
0000
0001
0000
0000
0100
0000
0000
,
0001
0000
0000
0010
0000
0000
0001
0000
0000
0010
0000
0000
0001
0000
0000
0000
,
0000
0000
0000
0000
1000
0000
0000
0010
0000
0000
1000
0000
0000
0010
0000
0000
,
1000
0000
0000
0100
0000
0000
1000
0000
0000
0100
0000
0000
1000
0000
0000
0000
,
0000
0001
1000
0100
,
0100
1000
0001
MMMM
,
0001
1000
0000
0100
0000
0010
0000
0001
,
1000
0010
0100
0001
,
1000
0000
0000
0000
0001
0000
0000
0010
0000
0000
0001
0000
0000
0010
0000
0000
,
0001
0000
0000
0100
0000
0000
0001
0000
0000
0100
0000
0000
0001
0000
0000
0000
,
0000
0000
0000
0000
1000
0000
0000
0001
0000
0000
1000
0000
0000
0001
0000
0000
,
1000
0100
1000
0001
,
1000
0010
1000
0010
,
0001
0010
1000
0010
,
0000
0100
0001
0100
,
1000
0100
0001
0100
,
0000
0010
1000
0010
,
0001
0010
1000
0010
,
0000
1000
0010
0100
,
0002
0000
0003
0000
,
1000
0010
1000
0010
,
0100
0010
0100
0001
,
0100
0001
0010
0001
,
0010
0100
0010
0100
,
0010
0010
0010
0010
,
0010
0010
0010
MMMM
,
0020
0000
0000
0030
,
0000
0001
0100
0100
,
0001
1000
0100
0100
,
1000
0001
0010
0010
,
0001
1000
0010
0010
,
2000
0000
0000
0000
,
3000
0000
0000
0000
;

//--------------- dance-single - LinkDude14 ----------------
#NOTEDATA:;
#STEPSTYPE:dance-single;
#DESCRIPTION:LinkDude14;
#DIFFICULTY:Challenge;
#METER:9;
#RADARVALUES:0.48962,0.622994,0.037228,0.114012,0.024431,2946,2914,32,98,96,0,0.48962,0.622994,0.037228,0.114012,0.024431,2946,2914,32,98,96,0;
#NOTES:
0000
0000
0000
0000
,
0000
0000
0000
0000
,
0000
0000
0000
0000
,
0000
0000
0000
0000
,
0M00
0000
M000
0000
,
00M0
0000
M000
0000
,
0100
0000
1000
0000
,
0010
0000
1000
0001
,
1000
0000
0010
0000
,
0200
0000
0300
0000
,
0001
0000
0100
0000
,
0010
0000
1000
0001
,
1000
0000
0100
0000
,
0010
0000
0001
1000
,
0001
0000
0010
0000
,
0100
0000
1000
0001
,
1000
0000
0010
0000
,
0200
0300
0000
0000
0000
0001
0100
0001
,
0100
0001
1000
0001
0010
0001
0010
0001
,
1000
0000
1000
0000
1000
0000
0001
0010
,
0001
0010
0001
1000
0001
1000
0001
0100
,
0002
0003
0000
0000
0000
1000
0010
1000
,
0010
1000
0001
1000
0100
1000
0100
1000
,
0001
0000
0001
0000
0001
0000
1000
0100
,
1000
0100
1000
0001
1000
0010
1000
0010
,
2000
3000
0000
0000
0000
0001
0010
0001
,
0100
0001
0100
0010
0100
0010
1000
0010
,
1000
0100
1000
0100
0010
0100
0010
0001
,
0010
0001
0100
0001
0100
0010
0100
0010
,
1000
0010
1000
0100
1000
0100
0010
0100
,
1000
1000
0010
0010
,
0100
0100
0001
0001
,
0010
0010
0100
0100
,
1000
0000
1000
0000
MMMM
1000
0100
1000
,
0100
0100
0001
0001
,
0100
0100
1000
1000
,
0010
0010
0001
0001
,
0010
0010
1000
1000
,
0100
0100
0001
0001
,
0100
0100
1000
1000
,
0010
0010
0001
0001
,
0010
0000
0010
0000
1000
0010
1000
0100
,
1000
0100
0010
0100
0010
0001
0010
0001
,
0100
0001
0100
0010
0100
0010
1000
0010
,
1000
0100
1000
0100
0010
0100
0010
0001
,
0010
0001
0100
0001
0100
0010
0100
0010
,
1000
1000
0100
0100
,
0010
0010
0001
0001
,
1000
0010
0100
0001
0100
0010
1000
0000
,
0010
0000
0100
0001
1000
0001
1000
0000
,
1001
0000
1000
0001
1000
0000
0001
0010
,
0001
0000
0000
1000
0100
1000
0100
1000
,
0100
0000
1000
0010
1000
0000
0001
0100
,
0001
0000
0000
1000
0100
1000
0100
0000
,
1100
0000
0001
0010
0001
0000
0100
0001
,
0100
0000
0000
0010
1000
0010
1000
0010
,
1000
0000
0100
1000
0100
0000
0010
0001
,
0010
0000
0000
0001
0100
0001
0100
0000
,
0101
0000
0000
1000
0010
1000
0010
0000
,
1010
0000
0000
0001
0010
0001
0010
0000
,
0011
0000
0000
1000
0100
1000
0100
0000
,
1100
0000
0000
0001
0100
0001
0100
0000
,
0102
0100
0010
0010
,
1000
1000
0100
0103
,
1000
0001
1000
0001
1000
0010
1000
0010
,
MMMM
0000
0000
0010
1000
0010
1000
0000
,
1010
0000
0001
0100
0001
0000
1000
0100
,
1000
0000
0000
0001
0010
0001
0010
0001
,
0010
0000
0100
1000
0100
0000
1000
0010
,
1000
0000
0000
0001
0100
0001
0100
0000
,
0101
0000
1000
0010
1000
0000
0001
0010
,
0001
0000
0000
1000
0100
1000
0100
1000
,
0100
0000
0010
0001
0010
0000
0001
0100
,
0001
0000
0000
1000
0010
1000
0010
0000
,
1010
0000
0001
0100
0001
0000
1000
0100
,
1000
0000
0000
0001
0010
0001
0010
0001
,
0010
0000
0100
1000
0100
0000
1000
0010
,
1000
0000
0000
0001
0100
0001
0100
0000
,
0101
0000
1000
0010
1000
0000
0001
0010
,
0001
0000
0000
1000
0100
1000
0100
1000
,
0100
0000
0010
0001
0010
0000
0001
0100
,
0001
0000
1000
0100
1000
0000
0001
0010
,
0001
0000
1000
0010
1000
0000
0001
0100
,
0001
0000
0000
1000
0100
1000
0100
1000
,
0100
0000
0010
0001
0010
0000
0001
0100
,
0001
0000
0000
1000
0010
1000
0010
1000
,
0010
0000
0100
0001
0100
0000
0001
0010
,
0001
0000
0000
1000
0100
1000
0100
1000
,
0100
0000
0010
0001
0010
0000
0001
0100
,
0001
0000
0000
1000
0010
1000
0010
0000
,
1010
0000
0000
0001
0010
0001
0010
0000
,
0011
0000
0000
1000
0100
1000
0100
0000
,
1100
0000
0000
0001
0100
0001
0100
0000
,
0101
0000
0000
1000
0001
1000
0001
0000
,
1002
1000
0010
0010
,
1000
1000
0100
0103
,
1000
1000
1000
1000
0010
0010
0010
0010
,
MMMM
0000
0000
0001
0100
0001
0100
0000
,
0101
0000
1000
0010
1000
0000
0001
0010
,
0001
0000
0000
1000
0100
1000
0100
1000
,
0100
0000
0010
0001
0010
0000
0001
0100
,
0001
0000
0000
1000
0010
1000
0010
0000
,
1010
0000
0001
0100
0001
0000
1000
0100
,
1000
0000
0000
0001
0010
0001
0010
0001
,
0010
0000
0100
1000
0100
0000
1000
0010
,
1000
0000
0000
0001
0100
0001
0100
0000
,
0101
0000
1000
0010
1000
0000
0001
0010
,
0001
0000
0000
1000
0100
1000
0100
1000
,
0100
0000
0010
0001
0010
0000
0001
0100
,
0001
0000
0000
1000
0010
1000
0010
0000
,
1010
0000
0001
0100
0001
0000
1000
0100
,
1000
0000
0000
0001
0010
0001
0010
0001
,
0010
0000
0100
1000
0100
0000
1000
0010
,
1000
0000
0001
0100
0001
0000
1000
0100
,
1000
0000
0001
0010
0001
0000
1000
0010
,
1000
0000
0001
0100
0001
0000
1000
0100
,
1000
0000
0001
0010
0001
0000
1000
0010
,
1000
0000
0001
0100
0001
0000
0000
0000
,
1000
0000
0000
0010
0000
0000
0001
0000
,
0000
0010
0000
0000
1000
0000
0100
0000
,
0001
0000
0100
0000
1000
0000
0001
1000
,
0000
1000
0000
0000
0001
1000
0001
1000
,
0001
1000
0000
0010
,
0000
0001
0000
0010
,
0000
1000
0000
0100
,
0000
0001
0000
0100
,
0000
1000
0000
0010
,
0000
0001
0000
0010
,
0000
0000
1000
0000
0000
0000
0000
0100
,
1000
0100
1000
0000
0001
1000
0001
0000
,
1001
0000
1000
0010
1000
0000
0001
0100
,
0001
1000
0001
0000
1000
0000
0010
0000
,
1000
0000
0010
0100
0010
0000
1000
0010
,
1000
0010
1000
0000
0001
0000
0100
0000
,
0001
0000
0010
0001
0010
0000
0100
1000
,
0100
1000
0100
0000
1000
0000
0100
0000
,
0010
0000
0010
0000
0001
0000
0001
1000
,
0001
1000
0100
0000
1000
0000
0100
0000
,
1000
0000
0010
0000
0010
0000
0100
0010
,
0100
0001
0100
0000
0001
0000
0010
0000
,
0011
0000
0001
0010
0001
0000
1000
0100
,
1000
0100
1000
0000
0001
0000
0100
0000
,
0101
0000
0001
0100
0001
0000
1000
0010
,
1000
0010
1000
0000
0001
0000
0100
0000
,
0001
0001
0010
0010
,
0100
0000
0000
0010
0100
0010
0100
0000
,
0110
0000
0100
1000
0100
0000
1000
0010
,
1000
0000
0000
0001
0100
0001
0100
0001
,
0100
0000
0010
1000
0010
0000
1000
0100
,
1000
0000
0000
0001
0010
0001
0010
0000
,
0011
0000
1000
0100
1000
0000
0001
0100
,
0001
0000
0000
1000
0010
1000
0010
1000
,
0010
0000
0100
0001
0100
0000
0001
0010
,
0001
0000
0000
1000
0100
1000
0100
0000
,
1100
0000
0001
0010
0001
0000
1000
0010
,
1000
0000
0000
0001
0100
0001
0100
0001
,
0100
0000
0010
1000
0010
0000
1000
0100
,
1000
0000
0000
0001
0010
0001
0010
0000
,
0011
0000
1000
0100
1000
0000
0001
0100
,
0001
0000
0000
1000
0010
1000
0010
1000
,
0010
0000
0100
0001
0100
0000
0001
0010
,
0001
0010
0001
0000
1000
0000
0001
0000
,
0010
0000
0010
0000
0100
0000
0100
1000
,
0100
1000
0100
0000
1000
0000
0001
0000
,
1000
0000
0010
1000
0010
0000
1000
0100
,
1000
0100
1000
0000
0001
0000
0010
0000
,
0001
0000
0100
0001
0100
0000
0010
1000
,
0010
1000
0010
0000
1000
0000
0001
0000
,
0010
0000
0010
0000
0100
0000
0100
1000
,
0100
1000
0100
0000
1000
0000
0001
0000
,
1001
0000
0000
1000
0100
1000
0100
0000
,
1100
0000
0000
0001
1000
0001
1000
0000
,
1001
0000
0000
0001
0100
0001
0100
0000
,
0101
0000
0000
1000
0001
1000
0001
0000
,
1001
0000
0001
0010
0001
0000
0100
0001
,
0100
0000
0010
1000
0010
0000
1000
0100
,
1000
0000
0001
0100
0001
0000
1000
0010
,
1000
0010
1000
0000
0001
0000
0100
0000
,
0001
0000
0010
0000
0010
0000
0100
0010
,
0100
0010
0100
0000
1000
0000
MMMM
0000
,
1000
0000
0100
0000
0000
1000
0100
1000
,
0001
1000
0001
1000
0001
1000
0010
0000
,
1000
0000
0010
0000
0000
1000
0010
1000
,
0001
1000
0001
1000
0001
1000
0100
0000
,
1000
0000
0100
0010
0100
0000
0010
0001
,
0010
0001
0010
0000
0001
0000
1000
0000
,
0001
0000
0100
0000
0000
0001
0100
0001
,
1000
0001
1000
0001
1000
0001
0010
0000
,
0001
0000
0010
0000
0000
0001
0010
0001
,
1000
0001
1000
0001
1000
0001
0100
0000
,
0001
0000
0100
0000
0000
0001
0100
0001
,
1000
0001
1000
0001
1000
0001
0010
0001
,
0010
0000
0010
0000
0001
0000
0001
0100
,
0001
0100
0001
0000
1000
0000
0000
0000
,
0001
0000
0000
0100
0000
0000
0001
0000
,
0000
0100
0000
0000
0001
0000
1000
0000
,
0001
0000
0000
0010
0000
0000
0001
0000
,
0000
0010
0000
0000
0001
0000
1000
0000
,
0001
0000
0000
0100
0000
0000
0001
0000
,
0000
0100
0000
0000
0001
0000
0100
0000
,
0010
0000
1000
0000
1000
0000
0010
1000
,
0000
1000
0000
0000
0001
1000
0100
0010
,
0001
0000
0000
0010
0000
0000
0001
0000
,
0000
0010
0000
0000
0001
0000
1000
0000
,
0001
0000
0000
0100
0000
0000
0001
0000
,
0000
0100
0000
0000
0001
0000
1000
0000
,
0001
0000
0000
0010
0000
0000
0001
0000
,
0000
0010
0000
0000
0001
0000
0010
0000
,
0100
0000
1000
0000
1000
0000
0010
1000
,
0010
1000
0010
0000
1000
0001
1000
0001
,
1000
0000
0000
0000
0010
0100
0001
0100
,
0010
0000
0000
1000
0010
1000
0001
1000
,
0010
0000
0000
1000
0100
1000
0001
1000
,
0100
0000
0000
0000
0010
0001
1000
0001
,
0010
0000
0000
0000
0100
1000
0001
1000
,
0100
0000
0000
1000
0010
1000
0001
1000
,
0010
0000
0000
1000
0001
1000
0100
1000
,
0001
0000
0000
0000
1000
0001
1000
0001
,
0010
0001
0010
0000
0100
0010
0100
0000
,
1000
0100
1000
0000
0001
1000
0001
0000
,
0100
0001
0100
0000
0010
0100
0010
0000
,
1000
0010
1000
0000
0001
1000
0001
0000
,
0002
0000
0000
0000
,
0000
0000
0000
0000
,
0010
0000
1000
1000
1000
0000
0100
0100
,
0100
0000
0013
0000
0001
0010
0001
1000
,
0001
0000
0000
0000
0100
0001
1000
0001
,
0010
0000
0000
0001
1000
0001
0100
0001
,
1000
0000
0000
0001
0010
0001
1000
0001
,
0100
0000
0000
0000
0001
1000
0001
0010
,
0001
0000
0000
0000
1000
0001
1000
0100
,
1000
0000
0000
0001
1000
0010
1000
0001
,
1000
0000
0000
0100
1000
0001
1000
0010
,
1000
0000
0000
0000
0001
1000
0100
1000
,
0001
0000
0000
0000
1000
0010
1000
0001
,
1000
0000
0000
0001
0100
0001
1000
0001
,
0010
0000
0000
0001
1000
0001
0100
0001
,
1000
0000
0000
0000
0001
0010
0001
1000
,
0001
0000
0000
0000
0100
0001
1000
0001
,
0010
0000
0000
0001
1000
0001
0100
0001
,
1000
0000
0000
0001
0100
0000
0000
0100
,
0010
0000
0000
0010
1000
0000
0001
0000
,
2000
0000
0000
0000
,
0000
3000
0000
0000
0000
0100
0000
0000
,
0020
0000
0030
0000
,
0001
0000
0000
0100
0000
0010
0100
0000
,
0020
0000
0000
0000
,
0000
0030
0000
0000
0000
1000
0000
0000
,
0200
0000
0300
0000
,
0010
0000
0000
0001
0000
0100
0001
0000
,
0200
0000
0000
0000
,
0000
0300
0000
0000
0000
0010
0000
0000
,
2000
0000
3000
0000
,
0100
0000
0000
0010
0000
0001
0010
0000
,
0002
0000
0000
0000
,
0000
0003
0000
0000
0000
0100
0000
0000
,
0002
0000
0003
0000
,
0010
0000
0000
0000
0100
0010
0100
1000
,
0100
0000
0000
0000
0010
0100
0010
0001
,
0010
0000
0000
0001
0010
0001
1000
0001
,
0100
0000
0000
0010
0100
0001
0100
0010
,
0100
0000
0000
0000
0010
0100
0010
1000
,
0010
0000
0000
1000
0010
1000
0001
1000
,
0100
0000
0000
1000
0100
0010
0100
1000
,
0100
0000
0000
1000
0010
0100
0010
1000
,
0010
0000
0000
0000
0100
0001
1000
0001
,
0010
0000
0000
0000
0100
1000
0100
0010
,
0100
0000
0000
0010
0100
0010
0001
0010
,
0100
0000
0000
1000
0100
1000
0001
1000
,
0010
0000
0000
0000
1000
0010
0100
0010
,
1000
0000
0000
0000
0001
0100
0010
0100
,
0001
0000
0000
0010
0001
0010
0100
0010
,
0001
0000
0000
0100
0001
0100
0010
0100
,
0001
0000
0000
0000
1000
0001
0010
0001
,
2000
0000
0000
0001
0000
0000
0100
0000
,
0000
0001
0000
0000
0010
0000
0000
0001
,
0000
0000
0100
0000
0000
0001
0000
0000
,
0010
0000
3001
0000
0000
0000
0001
0100
,
0001
0100
0000
1000
,
0000
0100
0000
0001
,
0000
0010
0000
1000
,
0000
0000
0010
0000
0000
0000
0001
0100
,
0001
0100
0000
1000
,
0000
0100
0000
0001
,
0000
0010
0000
1000
,
0000
0000
0010
0000
0000
0000
0001
0100
,
0001
0100
0000
1000
,
0000
0100
0000
0001
,
0000
1000
0000
0001
,
0000
0000
1000
0000
0010
1000
0100
1000
,
0001
1000
0001
0010
,
0100
0010
0100
1000
,
0100
1000
0001
1000
,
0001
0000
0100
0000
0001
1000
0100
1000
,
0010
0100
0010
1000
,
0010
1000
0001
1000
,
0001
0010
0001
0010
,
0100
0000
0010
0000
0001
0010
0001
0010
,
0100
0010
0100
0000
1000
0100
1000
0000
,
0010
1000
0010
0000
0100
0010
0100
0000
,
0001
0100
0001
0000
0010
0001
0010
0000
,
0001
0010
0001
0000
0100
0001
0100
0000
,
0001
1000
0001
1000
0010
1000
0010
1000
,
0010
0100
0010
0100
0001
0100
0001
0100
,
0001
0000
0100
0001
0100
0000
0010
1000
,
0010
0000
1000
0000
0001
0010
0100
0010
,
0001
0000
0000
0000
1000
0010
0100
0010
,
1000
0000
0000
0001
0100
0001
1000
0001
,
0010
0000
0000
0000
0001
0100
0010
0100
,
0001
0000
0000
0000
1000
0100
0010
0100
,
1000
0000
0000
0000
0001
0010
0100
0010
,
0001
0000
0000
1000
0010
1000
0001
1000
,
0100
0000
0000
0000
1000
0100
0001
0100
,
1000
0000
0000
0000
0001
0010
1000
0010
,
0001
0000
0000
0000
1000
0100
0001
0100
,
1000
0000
0000
0001
1000
0010
0001
0010
,
1000
0000
0000
0000
0001
0100
1000
0100
,
0001
0000
0000
1000
0001
0010
1000
0010
,
0001
0000
0000
0000
1000
0100
0001
0100
,
1000
0000
0000
0001
1000
0010
0001
0010
,
1000
0000
0100
0000
,
0010
0000
0000
0000
0001
0000
1000
1000
,
0002
0000
0000
0000
,
0000
0003
0000
0000
0000
0010
0000
0000
,
0200
0000
0300
0000
,
1000
0000
0000
0010
0000
0100
0010
0000
,
0200
0000
0000
0000
,
0000
0300
0000
0000
0000
0001
0000
0000
,
0020
0000
0030
0000
,
0100
0000
0000
1000
0000
0010
1000
0000
,
0020
0000
0000
0000
,
0000
0030
0000
0000
0000
0100
0000
0000
,
0002
0000
0003
0000
,
0010
0000
0000
0100
0000
1000
0100
0000
,
2000
0000
0000
0000
,
0000
3000
0000
0000
0000
0100
0000
0000
,
0020
0000
0030
0000
,
0100
0000
0000
0000
0010
0001
0010
0001
,
0100
0001
0100
0010
0100
0010
1000
0010
,
1000
0100
1000
0100
0010
0100
0010
0001
,
0010
0001
0100
0001
0100
0010
0100
0010
,
1000
0010
1000
0100
1000
0100
0010
0100
,
0010
0001
0010
0001
0100
0001
0100
0010
,
0100
0010
1000
0010
1000
0100
1000
0100
,
0010
0100
0010
0001
0010
0001
0100
0001
,
0100
0010
0100
0010
1000
0010
1000
0100
,
1000
0100
0010
0100
0010
0001
0010
0001
,
0100
0001
0100
0010
0100
0010
1000
0010
,
1000
0100
1000
0100
0010
0100
0010
0001
,
0010
0001
0100
0001
0100
0010
0100
0010
,
1000
0010
1000
0100
1000
0100
0010
0100
,
0010
0001
0010
0001
0100
0001
0100
0010
,
0100
0010
1000
0010
1000
0100
1000
0100
,
0010
0100
0010
0001
0010
0001
1000
0001
,
2000
0000
0000
0100
0000
0000
0010
0000
,
0100
0000
0000
0010
3000
0000
1000
0000
,
0020
0000
0000
0100
0000
0000
1000
0000
,
0100
0000
0000
1000
0030
0000
0010
0000
,
0200
0000
0000
0001
0000
0000
0010
0000
,
0001
0000
0000
0010
0300
0000
0100
0000
,
0002
0000
0000
0010
0000
0000
0100
0000
,
0010
0000
0000
0100
0003
0000
0001
0000
,
2000
0000
0000
0010
0000
0000
0100
0000
,
0010
0000
0000
0100
3000
0000
1000
0000
,
0200
0000
0000
0010
0000
0000
1000
0000
,
0010
0000
0000
1000
0300
0000
0100
0000
,
0020
0000
0000
0001
0000
0000
0100
0000
,
0001
0000
0000
0100
0030
0000
0010
0000
,
0002
0000
0000
0100
0000
0000
0010
0000
,
0100
0000
0000
0010
0003
0000
0000
0000
,
1000
0002
0003
0000
,
1000
0001
0010
0001
0100
0000
0000
0000
,
0001
2000
3000
0000
,
0001
1000
0010
1000
0100
0000
0000
0000
,
1000
0002
0003
0000
,
1000
0001
0100
0001
0010
0000
0000
0000
,
0002
1000
0000
0000
,
0100
0000
1003
0000
,
0001
0000
0100
0001
0100
0001
0100
0000
,
0000
0000
0010
0000
0000
1000
0000
0000
0010
0000
0000
0000
1000
0000
0000
0000
,
0000
0000
0100
1000
0100
1000
0100
0000
,
0000
0000
0010
0000
0000
0001
0000
0000
0010
0000
0000
0000
0001
0000
0000
0000
,
0000
0000
0010
0001
0010
0001
0010
0000
,
0000
0000
0001
0000
0000
0100
0000
0000
0002
0000
0000
0000
0100
0000
0000
0000
,
0000
1000
1000
1000
,
0000
0000
0100
0000
0000
0100
0000
0000
0103
0000
0000
0000
0100
0000
0000
0000
,
0010
0000
1000
0200
0300
0000
0000
0000
,
0010
1000
0001
1000
0100
0000
0000
0000
,
0010
0000
1000
0200
0300
0000
0000
0000
,
0010
0001
1000
0001
0000
0000
0000
0000
,
1000
0000
0100
0002
0003
0000
0000
0000
,
0100
1000
0100
1000
0001
0000
0000
0000
,
1000
0000
0010
0002
0003
0000
0000
0000
,
0010
1000
0010
1000
0001
0000
0000
0000
,
1000
0000
0100
0002
0003
0000
0000
0000
,
0100
1000
0100
1000
0001
0000
0000
0000
,
1000
0000
0010
0002
0003
0000
0000
0000
,
0010
1000
0010
1000
0002
0000
0003
0000
,
0000
0000
0010
0001
0010
0001
0010
0000
,
0000
0000
0100
0000
0000
1000
0000
0000
0100
0000
0000
0000
1000
0000
0000
0000
,
0000
0000
0010
1000
0010
1000
0010
0000
,
0000
0000
0100
0000
0000
0001
0000
0000
0100
0000
0000
0000
0001
0000
0000
0000
,
0010
0001
0010
0001
0100
0001
0100
0010
,
0100
0010
1000
0010
1000
0100
1000
0100
,
0010
0100
0010
0001
0010
0001
0100
0001
,
0100
0010
0100
0010
1000
0010
1000
0100
,
1000
0100
0010
0100
0010
0001
0010
0001
,
0100
0001
0100
0010
0100
0010
1000
0010
,
1000
0100
1000
0100
0010
0100
0010
0001
,
0010
0001
0100
0001
0100
0010
0100
0010
,
0000
1000
0000
0000
0001
0000
1000
0000
,
0000
0010
0000
0000
1000
0000
0010
0000
,
0000
0100
0000
0000
0010
0000
0100
0000
,
0000
0001
0000
0000
0100
0000
0001
0000
,
0000
0010
0000
0000
0001
0000
0010
0000
,
0000
0100
0000
0000
0010
0000
0100
0000
,
0000
1000
0000
0000
0100
0000
1000
0000
,
0000
0001
0000
0000
0100
0000
0000
0000
,
0001
0000
0100
0001
0000
1000
0000
0000
,
0001
0010
0001
1000
0001
0100
0000
0000
,
0001
0000
1000
0010
0000
1000
0000
0000
,
0001
1000
0100
1000
0000
0001
0000
0000
,
0010
0000
0001
1000
0000
0001
0000
0000
,
1000
0010
1000
0010
0100
0010
0100
0000
,
0010
2000
0000
0000
3000
0000
0000
0000
,
0010
1000
0010
1000
0010
0000
1000
0000
,
0001
0000
1000
0001
0000
0010
0000
0000
,
0100
1000
0100
1000
0100
1000
0000
0000
,
0001
0000
1000
0001
0000
0100
0000
0000
,
0010
1000
0010
1000
0000
0010
1000
0000
,
0000
0000
0001
0100
1000
0100
0001
0000
,
0000
0000
1000
0000
0000
0010
0000
0000
0100
0000
0000
0000
0001
0000
0000
0000
,
0000
0000
1000
0100
0001
0100
1000
0000
,
0000
0000
0001
0000
0000
0010
0000
0000
0100
0000
0000
0000
1000
0000
0000
0000
,
0001
0000
0000
0100
0000
0000
0000
0010
,
1000
0000
0000
0100
0000
0010
0001
0000
,
1000
0000
0000
0100
0000
0000
0010
0001
,
1000
0000
0000
0100
0000
0010
0001
0000
,
1000
0000
0000
0100
0000
0000
0010
0001
,
1000
0000
0000
0100
0000
0010
0001
0000
,
1000
0000
0000
0100
0000
0000
0010
0001
,
0010
0000
0000
0100
0000
1000
0001
0000
,
1000
0000
0000
0100
0000
0000
0010
0001
,
1000
0000
0000
0100
0000
1000
0001
0000
,
1000
0000
0000
0100
0000
0000
0010
0001
,
0010
0000
0000
0100
0000
0010
0001
0000
,
1000
0000
0000
0100
0000
0000
0010
0001
,
1000
0000
0000
0100
0000
0010
0001
0000
,
1000
0000
0000
0100
0000
0000
0010
0001
,
0010
0000
0000
0100
0000
1000
0001
0000
,
2000
0000
3000
0000
,
0001
0010
0100
0010
0001
0000
0000
0000
,
MMMM
2000
3000
0000
,
0001
0100
0010
0100
0001
0000
0000
0000
,
MMMM
0200
0300
0000
,
0010
1000
0001
1000
0010
0000
0000
0000
,
MMMM
0020
0030
0000
,
1000
0001
0100
0001
1000
0000
0000
0000
,
MMMM
0000
1000
0100
0001
0100
1000
0000
,
0000
0000
0001
0000
0000
0010
0000
0000
0100
0000
0000
0000
1000
0000
0000
0000
,
MMMM
0000
1000
0100
0001
0100
1000
0000
,
0000
0000
0001
0000
0000
0100
0000
0000
0010
0000
0000
0000
1000
0000
0000
0000
,
MMMM
0000
1000
0010
0001
0010
1000
0000
,
0000
0000
0001
0000
0000
0100
0000
0000
0010
0000
0000
0000
1000
0000
0000
0000
,
0000
0000
0001
0010
1000
0010
0001
0000
,
0000
0000
1000
0000
0000
0100
0000
0000
0010
0000
0000
0000
0001
0000
0000
0000
,
2000
0000
3000
0000
,
0200
0000
0300
0000
,
0002
0000
0003
0000
,
0200
0000
0300
MMMM
,
0100
0000
1000
0200
0300
0000
0000
0000
,
0010
0001
0010
0001
0010
0000
0001
0000
,
1000
0000
0001
0200
0300
0000
0000
0000
,
0010
1000
0010
1000
0010
0000
1000
0000
,
0001
0000
1000
0020
0030
0000
0000
0000
,
0100
0001
0100
0001
0100
0000
0001
0000
,
1000
0000
0001
0020
0030
0000
0000
0000
,
0100
1000
0100
1000
0100
0000
MMMM
0000
,
0100
0000
1000
0100
0001
0100
1000
0000
,
0000
0000
0001
0000
0000
0010
0000
0000
0100
0000
0000
0000
1000
0000
0000
0000
,
0000
0000
0001
0100
1000
0100
0001
0000
,
0000
0000
1000
0000
0000
0010
0000
0000
0100
0000
0000
0000
0001
0000
0000
0000
,
2000
0000
3000
0000
,
0001
0100
0010
0000
,
1000
0002
0003
0000
,
0010
0001
MMMM
0000
,
0001
0200
0300
0000
,
0001
0100
1000
0000
,
0100
0002
0003
0000
,
1000
0010
0001
0000
,
0010
2000
0000
3002
,
0000
2003
0000
3020
,
0000
0032
0000
0023
,
0000
2030
0000
3200
,
0000
0302
0000
0203
,
0000
2300
0000
3020
,
0000
2030
0000
3002
,
0000
1003
MMMM
0000
,
0002
1000
0000
0100
,
0203
0001
0000
0010
,
0320
0100
0000
1000
,
2030
0100
3200
0010
,
0320
0100
0000
0001
,
0032
0010
0000
1000
,
2003
0001
0000
0100
,
3200
1300
MMMM
1000
,
0200
1000
0000
0010
,
0320
0100
0000
0031
,
0002
0010
0000
1000
,
2003
0001
3002
0100
,
0203
0001
0000
0010
,
0320
0100
0000
1000
,
2030
0000
0000
0000
,
0001
3000
MMMM
0000
,
1000
0000
0100
1000
0010
1000
0010
0100
,
0010
0100
0001
0100
0001
0010
0001
0010
,
0100
0010
0100
1000
0100
1000
0010
1000
,
0010
0100
0010
0100
0001
0100
0001
0010
,
0001
0010
0100
0010
0100
1000
0100
1000
,
0010
1000
0010
0100
0010
0100
0001
0100
,
0001
0010
0001
0010
0100
0010
0100
1000
,
0100
1000
0010
1000
0010
0100
0010
0100
,
0002
0100
0000
0010
,
0000
0000
1000
0000
0003
0000
0001
2000
,
0000
0001
0000
0100
,
0000
0010
0000
3001
,
1000
0002
1000
0000
,
0010
0000
0000
0000
1003
0000
0001
2000
,
0000
0100
0000
0010
,
0000
0100
0000
3001
,
1000
0002
1000
0000
,
0010
0000
0100
0000
,
1003
0000
0001
0000
1000
0100
1000
0100
,
0010
0100
0010
0100
1000
0100
1000
0000
,
0100
0010
0001
0010
0001
0010
0100
0010
,
0100
0010
0001
0010
0001
0000
0010
0000
,
0100
0000
1000
0000
0010
0100
0010
0000
,
0100
0000
0010
1000
0000
0010
1000
0000
,
0100
0000
0010
0001
0010
0001
1000
0001
,
1000
0001
0100
0001
0100
0001
1000
0000
,
0000
0000
0010
1000
0010
1000
0001
1000
,
0001
1000
0100
1000
0100
1000
0001
0000
,
1000
0000
0001
0010
0000
0001
0010
0000
,
0001
0000
1000
0010
0000
1000
0010
0000
,
1000
0010
1000
0000
0001
0010
0001
0000
,
0000
0000
1000
0100
1000
0001
1000
0000
,
0010
0000
1000
0000
0001
0000
0010
0100
,
0010
0000
0001
0000
1000
0000
0100
0010
,
0100
0000
1000
0000
0001
0000
0100
0010
,
0100
0000
0001
0100
0001
1000
0001
0010
,
0001
0000
1000
0100
1000
0001
1000
0010
,
1000
0000
0001
0000
1000
0000
0100
0010
,
0100
0000
1000
0000
0001
0000
0100
0010
,
1000
0010
1000
0000
0001
0010
0001
0000
,
1000
0000
0100
1000
0000
0100
1000
0000
,
0001
0000
0100
0001
0000
0100
0001
0000
,
1000
0000
0010
1000
0000
0010
1000
0000
,
0001
0000
0000
0010
0001
0010
0001
0000
,
0010
0100
0010
0100
0010
0001
0010
0001
,
0010
0100
0010
0100
0010
0000
MMMM
0000
,
0010
0010
0100
0100
0010
0010
0001
0001
,
0010
0000
0001
0010
0001
0010
0001
0000
,
0100
0000
0001
0000
1000
0000
0010
0100
,
0010
0000
1000
0000
0001
0000
0010
0100
,
0010
0000
0001
0000
1000
0000
0100
0010
,
0100
1000
0001
0001
,
MMMM
0000
0000
0000
0001
0000
0000
0100
0000
0000
0001
0000
0000
0100
0000
0000
,
0001
0000
0000
0010
0000
0000
0001
0000
0000
0010
0000
0000
0001
0000
0000
0000
,
0000
0000
0000
0000
1000
0000
0000
0010
0000
0000
1000
0000
0000
0010
0000
0000
,
1000
0000
0000
0100
0000
0000
1000
0000
0000
0100
0000
0000
1000
0000
0000
0000
,
0001
0000
1000
0000
0100
0000
0010
0100
,
0010
0100
1000
0001
,
1000
0001
0000
0100
0000
0010
0000
1000
,
0001
0000
1000
0100
1000
0100
1000
0000
,
MMMM
0000
0000
0000
1000
0000
0000
0010
0000
0000
1000
0000
0000
0010
0000
0000
,
1000
0000
0000
0100
0000
0000
1000
0000
0000
0100
0000
0000
1000
0000
0000
0000
,
0000
0000
0000
0000
0001
0000
0000
0100
0000
0000
0001
0000
0000
0100
0000
0000
,
0001
0000
0100
0001
0010
0001
1000
0000
,
MMMM
1000
0001
0100
,
0010
1000
0001
1000
0100
0000
1000
0000
,
0000
0000
0001
0010
0001
0000
0010
0001
,
1000
0001
0100
0001
1000
0000
0010
0000
,
0000
0000
1000
0000
0001
1000
0010
1000
,
0001
1000
0100
1000
0001
0000
0010
0000
,
0000
0000
0001
1000
0100
1000
0001
1000
,
0010
0000
0100
0001
0000
0100
0001
0000
,
1000
0000
0100
1000
0000
0100
1000
0000
,
0001
0000
1000
0010
0000
1000
0010
0000
,
1000
0000
0001
0100
0000
0001
0100
0000
,
0001
0000
0100
0010
0100
0010
0100
0000
,
0010
1000
0010
1000
0010
0100
0010
0100
,
0010
1000
0010
1000
0010
0000
MMMM
0000
,
0010
0010
1000
1000
0010
0010
0100
0100
,
0010
0000
1000
0010
1000
0010
1000
0000
,
0010
0000
1000
0000
0001
0000
0100
0010
,
0100
0000
0001
0000
1000
0000
0100
0010
,
0100
1000
0001
0010
,
0010
0000
0001
1000
0001
0100
0001
0000
,
1000
0000
0000
0000
0001
0000
0000
0100
0000
0000
0001
0000
0000
0100
0000
0000
,
0001
0000
0000
0010
0000
0000
0001
0000
0000
0010
0000
0000
0001
0000
0000
0000
,
0000
0000
0000
0000
1000
0000
0000
0010
0000
0000
1000
0000
0000
0010
0000
0000
,
1000
0000
0000
0100
0000
0000
1000
0000
0000
0100
0000
0000
1000
0000
0000
0000
,
0001
0000
1000
0000
0100
0000
0010
0100
,
0010
0001
1000
MMMM
,
1000
0001
0000
0010
0000
0100
0000
1000
,
0100
0000
1000
0100
1000
0001
1000
0000
,
0010
0000
0000
0000
1000
0000
0000
0001
0000
0000
1000
0000
0000
0001
0000
0000
,
1000
0000
0000
0100
0000
0000
1000
0000
0000
0100
0000
0000
1000
0000
0000
0000
,
0000
0000
0000
0000
1000
0000
0000
0100
0000
0000
1000
0000
0000
0100
0000
0000
,
1000
0000
0100
1000
0010
1000
0010
0000
,
1000
0100
0001
0100
,
1000
0100
1000
0100
0001
0000
0100
0000
,
1000
0000
0001
0010
0100
0010
1000
0010
,
0100
0010
0001
0010
0100
0000
0010
0000
,
0001
0000
1000
0100
1000
0100
0001
0100
,
0001
0100
1000
0100
1000
0000
0010
0000
,
0000
0000
0001
1000
0010
1000
0100
0000
,
1000
0000
0001
0100
0000
0001
0100
0000
,
0001
0000
0010
0001
0000
0010
0001
0000
,
1000
0000
0010
1000
0000
0010
1000
0000
,
0001
0000
0100
0001
0000
0100
0001
0000
,
1000
0000
0000
0010
1000
0010
1000
0000
,
0010
1000
0010
1000
0010
0100
0010
0100
,
0010
1000
0010
1000
0010
0000
MMMM
0000
,
0010
0010
1000
1000
0010
0010
0100
0100
,
0010
0000
1000
0010
0100
0010
0100
0000
,
0001
0000
1000
0100
0010
0100
0010
0000
,
0001
0000
1000
0010
0100
0010
0100
0000
,
0001
0000
1000
0100
0010
0100
0010
0000
,
0002
0000
0000
0000
,
0003
0000
0000
0000
;

//--------------- dance-single - LinkDude17 ----------------
#NOTEDATA:;
#STEPSTYPE:dance-single;
#DESCRIPTION:LinkDude17;
#DIFFICULTY:Edit;
#METER:11;
#RADARVALUES:0,0,0,0,0;
#NOTES:
0000
0000
0000
0000
,
0000
0000
0000
0000
,
0000
0000
0000
0000
,
0000
0000
0000
0000
,
0M00
0000
M000
0000
,
00M0
0000
M000
0000
,
0100
0000
1000
0000
,
0010
0000
0000
0000
1000
0100
0001
0100
,
1000
0000
0010
0000
,
0200
0000
0300
0000
,
0001
0001
0000
0000
0100
0100
0000
0000
,
0010
0010
0000
0000
1000
0010
0001
0010
,
1000
0000
0100
0000
,
0010
0000
0000
0000
0001
0100
1000
0100
,
0001
0000
0010
0000
,
0100
0000
0000
0000
1000
0010
0001
0010
,
1000
0000
0010
0000
,
0200
0300
0000
0000
0000
0001
0100
0010
,
0100
0010
1000
0001
1000
0001
0010
0100
,
1000
0000
1000
0000
1000
0000
0001
0010
,
0100
0010
0001
1000
0100
0010
0100
1000
,
0002
0003
0000
0000
0000
1000
0010
0100
,
0010
1000
0001
0100
0010
0100
0001
1000
,
0001
0000
0001
0000
0001
0000
1000
0100
,
0010
0001
0100
0010
1000
0100
0010
0001
,
0200
0300
0000
0000
0000
0001
0010
0001
,
1000
0100
1000
0001
0100
0001
1000
0010
,
1000
0001
0010
0100
0010
0001
1000
0010
,
0100
0010
1000
0001
0100
0001
1000
0100
,
1000
0001
0010
0001
1000
0010
1000
0001
,
0100
0100
1000
1000
,
0100
0100
0001
0001
,
0010
0010
0100
0100
,
1000
0000
1000
0000
MMMM
1000
0100
0010
,
0001
0010
1000
1000
,
0010
0010
0001
0001
,
1000
1000
0100
0100
,
0001
0001
0010
0010
,
1000
1000
0001
0001
,
0100
0100
1000
1000
,
0100
0100
0001
0001
,
0010
0000
0010
0000
0001
0010
0001
1000
,
0100
0010
0100
1000
0001
0010
0001
0100
,
0010
1000
0010
0100
0001
0010
0001
1000
,
0100
0010
0100
1000
0001
0010
0001
0100
,
0010
1000
0010
0100
0001
0010
0001
1000
,
0100
0100
0010
0010
,
0001
0001
1000
1000
,
0001
0010
0100
0010
1000
0010
0001
0000
,
0010
0000
0100
1000
0001
1000
0001
1000
,
1001
0000
0001
1000
0001
0000
1000
0100
,
0010
0000
0000
0001
1000
0010
1000
0100
,
1000
0000
0001
0010
0001
0000
1000
0100
,
0010
0000
0000
0001
0100
0010
0100
0001
,
0101
0000
1000
0010
1000
0000
0001
0100
,
0010
0000
0000
1000
0001
0100
0001
0010
,
0001
0000
0100
0001
0100
0000
0001
0100
,
0010
0000
0000
1000
0100
0010
0100
1000
,
1100
0000
0000
0001
0010
0100
0010
0001
,
0011
0000
0000
1000
0010
0100
0010
1000
,
1010
0000
0000
0001
0100
0010
0100
0001
,
0101
0000
0000
1000
0100
0010
0100
1000
,
2100
0100
0010
0010
,
0001
0001
0100
3100
,
0001
0001
0010
0010
1000
1000
0010
0010
,
MMMM
0000
0000
0010
0001
0100
0001
0010
,
0011
0000
1000
0100
1000
0000
0001
0100
,
0010
0000
0000
1000
0001
0100
1000
0100
,
0001
0000
0010
0001
0010
0000
0001
0100
,
0010
0000
0000
1000
0100
0010
0100
1000
,
1100
0000
0001
0010
0001
0000
1000
0100
,
0010
0000
0000
0001
1000
0010
0001
0010
,
1000
0000
0100
1000
0100
0000
1000
0100
,
0010
0000
0000
0001
0010
0100
0010
0001
,
0011
0000
1000
0100
1000
0000
0001
0100
,
0010
0000
0000
1000
0001
0010
1000
0010
,
0001
0000
0100
0001
0100
0000
0001
0100
,
0010
0000
0000
1000
0100
0010
0100
1000
,
1100
0000
0001
0010
0001
0000
1000
0100
,
0010
0000
0000
0001
1000
0100
0001
0100
,
1000
0000
0010
1000
0010
0000
1000
0100
,
0010
0000
0001
0100
0010
0000
1000
0100
,
0010
0000
0001
0100
0010
0000
1000
0100
,
0010
0000
0000
0001
1000
0010
0001
0010
,
1000
0000
0001
0100
0010
0000
1000
0100
,
0010
0000
0000
0001
1000
0100
0001
0100
,
1000
0000
0001
0100
0010
0000
1000
0100
,
0010
0000
0000
0001
1000
0010
0001
0010
,
1000
0000
0001
0100
0010
0000
1000
0100
,
0010
0000
0000
0001
0010
0100
0010
0001
,
0011
0000
0000
1000
0010
0100
0010
1000
,
1010
0000
0000
0001
0100
0010
0100
0001
,
0101
0000
0000
1000
0100
0010
0100
1000
,
1100
0000
0000
0100
1000
0010
1000
0100
,
2100
0001
0010
0001
,
0100
0001
0010
3001
,
0001
0001
0010
0010
0100
0100
1000
1000
,
MMMM
0000
0000
1000
0100
0001
0100
1000
,
1100
0000
0001
0010
0001
0000
1000
0100
,
0010
0000
0000
0001
0100
1000
0100
0001
,
1000
0000
0001
0100
0010
0000
1000
0100
,
0010
0000
0000
0001
0010
1000
0010
0001
,
0011
0000
1000
0100
0010
0000
0001
0100
,
0010
0000
0000
1000
0010
0001
0010
1000
,
0001
0000
1000
0100
0010
0000
0001
0100
,
0010
0000
0000
1000
0100
0001
0100
1000
,
1100
0000
0001
0100
0010
0000
1000
0100
,
0010
0000
0000
0001
0100
1000
0100
0001
,
1000
0000
0001
0100
0010
0000
1000
0100
,
0010
0000
0000
0001
0010
1000
0010
0001
,
0011
0000
1000
0100
0010
0000
0001
0100
,
0010
0000
0000
1000
0010
0001
0010
1000
,
0001
0000
1000
0100
0010
0000
0001
0100
,
0010
0000
0100
0001
0010
0000
0100
1000
,
0010
0000
0100
0001
0010
0000
0100
1000
,
0010
0000
0100
0001
0010
0000
0001
0100
,
1000
0000
0001
0010
1000
0000
0001
0100
,
1000
0000
0001
0010
1000
0000
0000
0000
,
0001
0000
0000
0100
0000
0000
1000
0000
,
0000
0100
0000
0000
0001
0000
0010
0000
,
1000
0000
0010
0000
0001
0000
1000
0001
,
0000
0001
0000
0000
1000
0010
0100
0001
,
1000
0000
0001
0000
0000
0001
0010
0000
,
1000
0000
0010
0000
0000
0001
0100
0000
,
1000
0000
0100
0000
0000
0001
0010
0000
,
1000
0000
0010
0000
0000
0001
0100
0000
,
1000
0000
0100
0000
0000
0001
0010
0000
,
1000
0000
0010
0000
0000
0001
0100
0000
,
1000
0000
0100
0000
0000
0001
0100
0001
,
1000
0010
0100
0001
0100
0010
1000
0001
,
1001
0000
1000
0001
0100
0000
0001
0010
,
0100
1000
0010
0000
1000
0000
0010
0000
,
1000
0000
0010
0100
0010
0000
1000
0100
,
0010
0001
0100
0000
0010
0000
1000
0000
,
0001
0000
0100
0001
0010
0000
0001
0010
,
1000
0010
0001
0000
1000
0000
0100
0000
,
0010
0000
0010
0000
0001
0000
0001
0010
,
1000
0010
0001
0000
1000
0000
0001
0000
,
0100
0000
0010
0000
0010
0000
0100
0010
,
0100
0010
1000
0000
0001
0000
0010
0000
,
0011
0000
0001
0010
0100
0000
1000
0100
,
0001
0100
1000
0000
0001
0000
0100
0000
,
0101
0000
0001
0100
0010
0000
1000
0010
,
0001
0010
1000
0000
0001
0000
0010
0000
,
0001
0001
1000
1000
,
0100
0001
0100
0010
0100
1000
0100
0010
,
0110
0000
0001
1000
0100
0000
1000
0001
,
0010
0000
0000
0001
0010
1000
0010
0001
,
0010
0000
0001
1000
0100
0000
1000
0001
,
0010
0000
0000
0001
0010
1000
0010
0001
,
0011
0000
1000
0001
0100
0000
0001
1000
,
0010
0000
0000
1000
0010
0001
0010
1000
,
0010
0000
1000
0001
0100
0000
0001
1000
,
0010
0000
0000
1000
0100
0001
0100
1000
,
1100
0000
0001
1000
0100
0000
1000
0001
,
0010
0000
0000
0001
0100
1000
0100
0001
,
0100
0000
0001
1000
0100
0000
1000
0001
,
0010
0000
0000
0001
0010
1000
0010
0001
,
0011
0000
1000
0001
0100
0000
0001
1000
,
0010
0000
0000
1000
0010
0001
0010
1000
,
0010
0000
1000
0010
1000
0000
0001
0100
,
0010
1000
0001
0000
1000
0000
0100
0000
,
0010
0000
0010
0000
0001
0000
0001
0010
,
0100
1000
0001
0000
1000
0000
0100
0000
,
1000
0000
0010
0001
0010
0000
1000
0100
,
0001
0100
1000
0000
0001
0000
0010
0000
,
0001
0000
0100
1000
0100
0000
0001
0010
,
1000
0010
0001
0000
1000
0000
0100
1000
,
0010
0000
0010
0000
0100
0000
0100
0001
,
0100
0001
0100
0000
0010
0000
1000
0000
,
1001
0000
0000
0001
0100
0010
0100
0001
,
0101
0000
0000
1000
0010
0100
0001
1000
,
1001
0000
0000
0001
0100
0010
0100
0001
,
0101
0000
0000
1000
0010
0100
0001
1000
,
1001
0000
0001
0010
0100
0000
1000
0001
,
0100
0000
0010
1000
0001
0000
1000
0010
,
0100
0000
0001
1000
0010
0000
1000
0010
,
0001
0010
1000
0000
0001
0000
0100
0000
,
0001
0000
0010
0000
0010
0000
0100
0010
,
0001
0010
0100
0000
1000
0000
MMMM
0000
,
1000
0000
0100
0000
0000
1000
0010
1000
,
0001
0100
0001
1000
0100
1000
0001
0000
,
1000
0000
0010
0000
0000
1000
0100
1000
,
0001
0010
0001
1000
0010
1000
0001
0000
,
1000
0000
0100
0010
0001
0000
0010
1000
,
0010
0001
0010
0000
0001
0000
1000
0000
,
0001
0000
0100
0000
0000
0001
1000
0100
,
0001
1000
0010
0001
1000
0100
0001
0000
,
0100
0000
1000
0000
0000
0001
1000
0010
,
0001
1000
0100
0001
1000
0010
0001
0000
,
0010
0000
1000
0000
0000
0001
1000
0100
,
0001
1000
0010
0001
1000
0100
0001
0100
,
1000
0000
1000
0000
0001
0000
0001
0100
,
0010
1000
0100
0000
1000
0000
0000
0000
,
0001
0000
0000
0100
0000
0000
0010
0000
,
0000
0100
0000
0000
0001
0000
1000
0000
,
0100
0000
0000
0010
0000
0000
0100
0000
,
0000
1000
0000
0000
0001
0000
0010
0000
,
0100
0000
0000
0010
0000
0000
0001
0000
,
0000
1000
0000
0000
0010
0000
0100
0000
,
0010
0000
1000
0000
1000
0000
0010
0010
,
0000
1000
0000
0000
0001
0100
1000
0100
,
0001
0000
0000
0010
0000
0000
0100
0000
,
0000
0010
0000
0000
0001
0000
0010
0000
,
0100
0000
0000
1000
0000
0000
0001
0000
,
0000
0100
0000
0000
0010
0000
1000
0000
,
0100
0000
0000
0010
0000
0000
0001
0000
,
0000
0100
0000
0000
0010
0000
1000
0000
,
0100
0000
0010
0000
0010
0000
0001
1000
,
0010
1000
0100
0000
1000
0001
0100
0001
,
0010
0001
0010
0000
0000
0000
0000
0000
0001
0000
0010
0000
0100
0000
1000
0000
,
0100
0000
0000
0010
0001
0100
0010
1000
,
0100
1000
0100
0000
0000
0000
1000
0000
0010
0000
0100
0000
0001
0000
0100
0000
,
0010
0000
0000
0000
0100
0001
1000
0100
,
0010
0100
0010
0000
0000
0000
0000
0000
0100
0000
1000
0000
0001
0000
0100
0000
,
0010
0000
0000
1000
0010
0100
0001
0010
,
0100
0010
0100
0000
0000
0000
1000
0000
0001
0000
0100
0000
0010
0000
0100
0000
,
0001
0000
0000
0000
1000
0010
1000
0001
,
0010
0001
1000
0000
0001
0010
0100
0000
,
1000
0100
0010
0000
0001
0100
0010
0000
,
1000
0100
0010
0000
0001
0100
1000
0000
,
0001
0010
1000
0000
0010
1000
0100
0000
,
1000
0100
1000
0100
1000
0001
1000
0001
1000
0001
1000
0001
1000
0010
1000
0010
,
1000
0010
1000
0010
1000
0001
1000
0001
1000
0001
1000
0001
1000
0100
1000
0100
,
1000
0100
1000
0000
0001
0000
0001
0000
1000
0100
1000
0000
0001
0000
0001
0000
,
1000
0010
1000
0000
0010
1000
0010
0000
1000
0000
0100
0000
0010
0000
0001
0000
,
0100
0001
0100
0000
0000
0000
0000
0000
0001
0000
0010
0000
0100
0000
1000
0000
,
0010
0000
0000
1000
0100
0010
0001
1000
,
0010
1000
0010
0000
0000
0000
1000
0000
0001
0000
0100
0000
0010
0000
0100
0000
,
0001
0000
0000
0000
0100
0001
0010
0100
,
1000
0100
1000
0000
0000
0000
0000
0000
0100
0000
0010
0000
0001
0000
1000
0000
,
0010
0000
0000
1000
0010
0001
0010
1000
,
0001
1000
0001
0000
0000
0000
1000
0000
0001
0000
0100
0000
1000
0000
0100
0000
,
0001
0000
0000
0000
0100
0001
1000
0100
,
0010
0100
0010
0000
0000
0000
0000
0000
0100
0000
1000
0000
0001
0000
0100
0000
,
0010
0000
0000
1000
0010
0100
0001
0010
,
0100
0010
0100
0000
0000
0000
1000
0000
0100
0000
0010
0000
0001
0000
1000
0000
,
0100
0000
0000
0000
1000
0010
0001
0010
,
1000
0010
1000
0000
0000
0000
0000
0000
0100
0000
1000
0000
0010
0000
0001
0000
,
0010
0000
0000
1000
0100
0001
0100
1000
,
0001
1000
0001
0000
0000
0000
1000
0000
0010
1000
0010
0000
0000
0000
1000
0000
,
0001
1000
0001
0000
0000
0000
1000
0000
0100
1000
0100
0000
1000
0000
1000
0000
,
0002
0000
0000
0000
,
0000
0003
0000
0000
0000
0100
0000
0000
,
0020
0000
0030
0000
,
1000
0000
0000
0100
0000
0010
0001
0000
,
0200
0000
0000
0000
,
0000
0300
0000
0000
0000
0010
0000
0000
,
2000
0000
3000
0000
,
0100
0000
0000
0010
0000
0001
0100
0000
,
0020
0000
0000
0000
,
0000
0030
0000
0000
0000
1000
0000
0000
,
0200
0000
0300
0000
,
0010
0000
0000
0001
0000
0100
0010
0000
,
2000
0000
0000
0000
,
0000
3000
0000
0000
0000
0100
0000
0000
,
0020
0000
0030
0000
,
0001
0000
0000
0000
1000
0010
0100
0001
,
0010
0001
0010
0000
0000
0000
0000
0000
0001
0000
0010
0000
1000
0000
0010
0000
,
0001
0000
0000
1000
0001
0100
1000
0100
,
0001
0100
0001
0000
0000
0000
1000
0000
0010
0000
0001
0000
0010
0000
1000
0000
,
0001
0000
0000
0000
0010
0100
1000
0001
,
0010
0001
0010
0000
0000
0000
0001
0000
0100
0000
0010
0000
1000
0000
0001
0000
,
0100
0000
0000
0001
0010
0100
0010
0001
,
1000
0001
1000
0000
0000
0000
0001
0000
0010
0000
0100
0000
1000
0000
0001
0000
,
0100
0000
0000
0000
0010
1000
0100
0010
,
0001
0010
0001
0000
0000
0000
0000
0000
1000
0000
0001
0000
0100
0000
0010
0000
,
1000
0000
0000
0001
0100
0010
0100
0001
,
1000
0001
1000
0000
0000
0000
0001
0000
0100
0000
1000
0000
0100
0000
0001
0000
,
0010
0000
0000
0000
0001
0010
1000
0010
,
0001
1000
0001
0000
0000
0000
0000
0000
0100
0000
0001
0000
1000
0000
0010
0000
,
0100
0000
0000
0010
1000
0001
0100
0010
,
1000
0010
1000
0000
0000
0000
0100
0000
1000
0000
0001
0000
0010
0000
0100
0000
,
1000
0000
0000
0000
0001
1000
0010
0100
,
0002
0000
0000
1000
0000
0000
0100
0000
,
0000
1000
0000
0000
0010
0000
0000
1000
,
0000
0000
0100
0000
0000
1000
0000
0000
,
0010
0000
0000
0000
1003
0000
0000
0000
0000
0000
0000
0000
1000
0100
1000
0100
,
1000
0100
0000
0001
,
0000
0100
0000
1000
,
0000
0010
0000
0001
,
0000
0000
0000
0000
0010
0000
0000
0000
0000
0000
0000
0000
1000
0100
1000
0100
,
1000
0100
0000
0001
,
0000
0100
0000
1000
,
0000
0010
0000
0001
,
0000
0000
0000
0000
0010
0000
0000
0000
0000
0000
0000
0000
1000
0100
1000
0100
,
1000
0100
0000
0001
,
0000
0100
0000
1000
,
0000
0001
0000
1000
,
0000
0000
0001
0000
0010
0001
0100
0010
,
1000
0001
0010
0100
1000
0001
0010
0100
,
0010
0001
1000
0010
0100
0010
1000
0001
,
0100
0001
1000
0100
1000
0001
0010
0001
,
1000
0010
1000
0100
0010
0001
0100
0010
,
1000
0100
0010
0001
0100
0001
1000
0100
,
0010
0100
1000
0001
0100
0001
0100
0010
,
1000
0010
0100
0001
0010
0001
0100
0010
,
1000
0010
0100
0001
1000
0010
1000
0001
,
0010
0001
1000
0000
0100
1000
0001
0000
,
0100
0001
1000
0000
0010
1000
0001
0000
,
0010
0001
1000
0000
0100
1000
0001
0000
,
0100
0001
1000
0000
0010
0100
0001
0000
,
0100
0001
0100
0001
1000
0001
1000
0001
1000
0001
1000
0001
0010
0001
0010
0001
,
0010
0001
0010
0001
1000
0001
1000
0001
1000
0001
1000
0001
0100
0001
0100
0001
,
0100
0001
0100
0000
0001
0000
0100
0000
0001
0100
0001
0000
0100
0000
0010
0000
,
1000
0010
1000
0000
0010
1000
0010
0000
1000
0000
0010
0000
0100
0000
0010
0000
,
1000
0010
1000
0000
0000
0000
0000
0000
0001
0000
0010
0000
0100
0000
0010
0000
,
0001
0000
0000
1000
0100
1000
0001
1000
,
0010
1000
0010
0000
0000
0000
0000
0000
1000
0000
0100
0000
0010
0000
0100
0000
,
1000
0000
0000
0000
0001
0100
0010
0100
,
0001
0100
0001
0000
0000
0000
0000
0000
1000
0000
0010
0000
0100
0000
0010
0000
,
1000
0000
0000
0001
0010
0001
1000
0001
,
0100
0001
0100
0000
0000
0000
0000
0000
0001
0000
0100
0000
1000
0000
0100
0000
,
0001
0000
0000
0000
1000
0010
0001
0010
,
1000
0010
1000
0000
0000
0000
0000
0000
0001
0000
0100
0000
1000
0000
0100
0000
,
0001
0000
0000
1000
0001
0010
1000
0010
,
0001
0010
0001
0000
0000
0000
0000
0000
1000
0000
0100
0000
0001
0000
0100
0000
,
1000
0000
0000
0001
1000
0010
0001
0010
,
1000
0010
1000
0000
0000
0000
0000
0000
0001
0000
0100
0000
1000
0000
0100
0000
,
0001
0000
0000
1000
0001
0010
1000
0010
,
0001
0010
0001
0000
0000
0000
0000
0000
0100
0001
0100
0000
0000
0000
0000
0000
,
0010
0100
0010
0000
0000
0000
0000
0000
1000
0010
1000
0000
0001
0000
0001
0000
,
2000
0000
0000
0000
,
0000
3000
0000
0000
0000
0010
0000
0000
,
0200
0000
0300
0000
,
0001
0000
0000
0010
0000
0100
0010
0000
,
0200
0000
0000
0000
,
0000
0300
0000
0000
0000
1000
0000
0000
,
0020
0000
0030
0000
,
0100
0000
0000
0001
0000
0010
0001
0000
,
0020
0000
0000
0000
,
0000
0030
0000
0000
0000
0100
0000
0000
,
2000
0000
3000
0000
,
0010
0000
0000
0100
0000
0001
0100
0000
,
0002
0000
0000
0000
,
0000
0003
0000
0000
0000
0100
0000
0000
,
0020
0000
0030
0000
,
0100
0000
0000
0000
0001
1000
0010
1000
,
0100
0010
0001
0010
0100
1000
0100
0010
,
0001
0100
0001
1000
0010
0100
0001
1000
,
0010
1000
0100
0010
0001
0010
0100
1000
,
0100
0010
0001
0100
0001
1000
0010
0100
,
0001
1000
0010
1000
0100
0010
0001
0010
,
0100
1000
0100
0010
0001
0100
0001
1000
,
0010
0100
0001
1000
0010
1000
0100
0010
,
0001
0010
0100
1000
0100
0010
0001
0100
,
0001
1000
0010
0100
0001
1000
0010
1000
,
0100
0010
0001
0010
0100
1000
0100
0010
,
0001
0100
0001
1000
0010
0100
0001
1000
,
0010
1000
0100
0010
0001
0010
0100
1000
,
0100
0010
0001
0100
0001
1000
0010
0100
,
0001
1000
0010
1000
0100
0010
0001
0010
,
0100
1000
0100
0010
0001
0100
0001
1000
,
0010
0100
0001
1000
0010
1000
0100
0010
,
0002
0010
0000
0100
0000
0010
0010
0000
,
0100
0000
0000
0010
0003
0001
0001
0000
,
0020
0001
0000
0100
0000
0001
0001
0000
,
0100
0000
0000
0001
0030
0010
0010
0000
,
0200
0010
0000
1000
0000
0010
0010
0000
,
1000
0000
0000
0010
0300
0100
0100
0000
,
2000
0100
0000
0010
0000
0100
0100
0000
,
0010
0000
0000
0100
3000
1000
1000
0000
,
0002
0100
0000
0010
0000
0100
0100
0000
,
0010
0000
0000
0100
0003
0001
0001
0000
,
0200
0001
0000
0010
0000
0001
0001
0000
,
0010
0000
0000
0001
0300
0100
0100
0000
,
0020
0100
0000
1000
0000
0100
0100
0000
,
1000
0000
0000
0100
0030
0010
0010
0000
,
2000
0010
0000
0100
0000
0010
0010
0000
,
0100
0000
0000
0010
3000
0000
1000
0000
,
0001
2000
3000
0000
,
0001
0100
0010
1000
0100
0000
0000
0000
,
1000
0002
0003
0000
,
1000
0001
0010
0001
0100
0000
0000
0000
,
0001
2000
3000
0000
,
0001
1000
0100
1000
0010
0000
0000
0000
,
2000
0000
0001
0001
0000
0000
0000
0000
,
0010
0001
3100
0000
,
1000
0000
0100
1000
0010
1000
0100
0000
,
0000
0000
0010
0000
0000
0001
0000
0000
0100
0000
0000
0000
0010
0000
0000
0000
,
0000
0000
0100
0001
0010
0001
0100
0000
,
0000
0000
0010
0000
0000
1000
0000
0000
0010
0000
0000
0000
0100
0000
0000
0000
,
0000
0000
0010
1000
0100
1000
0001
0000
,
0000
0000
0010
0000
0000
0100
0000
0000
2000
0000
0000
0000
0100
0000
0000
0000
,
0000
0000
0001
0001
0001
0001
0001
0000
,
0000
0000
0100
0000
0000
0100
0000
0000
3100
0000
0000
0000
0100
0000
0000
0000
,
0010
0000
0001
0200
0300
0000
0000
0000
,
0010
1000
0001
1000
0100
0000
0000
0000
,
0010
0000
1000
0200
0300
0000
0000
0000
,
0010
0001
1000
0100
0000
0000
0000
0000
,
1000
0000
0100
0002
0003
0000
0000
0000
,
0100
1000
0001
1000
0010
0000
0000
0000
,
1000
0000
0010
0002
0003
0000
0000
0000
,
0010
1000
0001
1000
0100
0000
0000
0000
,
1000
0000
0100
0002
0003
0000
0000
0000
,
0100
1000
0001
1000
0010
0000
0000
0000
,
1000
0000
0010
0002
0003
0000
0000
0000
,
0010
1000
0001
1000
0200
0000
0300
0000
,
0000
0000
0010
0001
1000
0100
0010
0000
,
0000
0000
0001
0000
0000
1000
0000
0000
0100
0000
0000
0000
0010
0000
0000
0000
,
0000
0000
0100
1000
0001
0010
0100
0000
,
0000
0000
1000
0000
0000
0001
0000
0000
0010
0000
0000
0000
0100
0000
0000
0000
,
1000
0100
0010
0001
0100
0001
1000
0010
,
0100
0001
1000
0010
1000
0100
0010
0001
,
0010
0100
1000
0100
0010
0001
0100
0001
,
1000
0010
0100
0001
1000
0010
1000
0100
,
0010
0001
0010
0100
1000
0100
0010
0001
,
0100
0001
1000
0010
0100
0001
1000
0010
,
1000
0100
0010
0001
0010
0100
1000
0100
,
0010
0001
0100
0001
1000
0010
0100
0001
,
0000
1000
0000
1000
0001
0000
1000
0000
,
0000
0010
0000
0010
1000
0000
0010
0000
,
0000
0100
0000
0100
0010
0000
0100
0000
,
0000
0001
0000
0001
0100
0000
0001
0000
,
0000
0010
0000
0010
0001
0000
0010
0000
,
0000
0100
0000
0100
0010
0000
0100
0000
,
0000
1000
0000
1000
0100
0000
1000
0000
,
0000
0001
0000
0001
0100
0000
0000
0000
,
0001
0000
1000
1000
0000
0010
0000
0000
,
1000
1000
0001
0001
0100
0100
0000
0000
,
0001
0000
1000
1000
0000
0100
0000
0000
,
1000
1000
0001
0001
0000
0010
0000
0000
,
0001
0000
1000
1000
0000
0010
0000
0000
,
1000
1000
0001
0001
0100
0100
0001
0000
,
0100
0100
0010
2000
3000
0000
0000
0000
,
0001
0001
0010
0100
0100
0000
1000
0000
,
0010
0000
1000
1000
0000
0010
0000
0000
,
0100
0100
0001
0001
0100
0100
0000
0000
,
1000
0000
0100
0100
0000
0001
0000
0000
,
0010
0010
1000
1000
0000
0010
0001
0000
,
0000
0000
1000
0100
0001
0100
1000
0000
,
0000
0000
0001
0000
0000
0010
0000
0000
0100
0000
0000
0000
1000
0000
0000
0000
,
0000
0000
0001
0100
1000
0100
0001
0000
,
0000
0000
1000
0000
0000
0010
0000
0000
0100
0000
0000
0000
0001
0000
0000
0000
,
1000
0000
0000
0100
0000
0000
0000
0010
,
0001
0000
0000
0100
0000
0010
1000
0000
,
0001
0000
0000
0100
0000
0000
0010
1000
,
0001
0000
0000
0100
0000
0010
1000
0000
,
0001
0000
0000
0100
0000
0000
0010
1000
,
0001
0000
0000
0100
0000
0010
1000
0000
,
0001
0000
0000
0100
0000
0000
1000
0100
,
0001
0000
0000
0100
0000
0001
1000
0000
,
0001
0000
0000
0100
0000
0000
0010
1000
,
0001
0000
0000
0100
0000
0001
1000
0000
,
0001
0000
0000
0100
0000
0000
1000
0100
,
0001
0000
0000
0100
0000
0010
1000
0000
,
0001
0000
0000
0100
0000
0000
0010
1000
,
0001
0000
0000
0100
0000
0010
1000
0000
,
0001
0000
0000
0100
0000
0000
1000
0100
,
0001
0000
0000
0100
0000
0001
1000
0000
,
0002
0000
0003
0000
,
1000
1000
0100
0100
0001
0002
0003
0000
,
MMMM
0002
0003
0000
,
0001
0001
0100
0100
1000
2000
3000
0000
,
MMMM
2000
3000
0000
,
1000
1000
0010
0010
0001
0002
0003
0000
,
MMMM
0002
0003
0000
,
0001
0001
0010
0010
1000
2000
3000
0000
,
MMMM
0000
0001
0100
1000
0100
0001
0000
,
0000
0000
1000
0000
0000
0010
0000
0000
0100
0000
0000
0000
0001
0000
0000
0000
,
MMMM
0000
0001
0100
1000
0100
0001
0000
,
0000
0000
1000
0000
0000
0100
0000
0000
0010
0000
0000
0000
0001
0000
0000
0000
,
MMMM
0000
0001
0010
1000
0010
0001
0000
,
0000
0000
1000
0000
0000
0100
0000
0000
0010
0000
0000
0000
0001
0000
0000
0000
,
0000
0000
1000
0010
0001
0010
1000
0000
,
0000
0000
0001
0000
0000
0100
0000
0000
0010
0000
0000
0000
1000
0000
0000
0000
,
0002
0000
0003
0000
,
0200
0000
0300
0000
,
2000
0000
3000
0000
,
0200
0000
0300
MMMM
,
0100
0000
0001
0200
0300
0000
0000
0000
,
0001
1000
0010
0001
0010
0000
1000
0000
,
0001
0000
1000
0200
0300
0000
0000
0000
,
1000
0001
0010
1000
0010
0000
0001
0000
,
1000
0000
0001
0020
0030
0000
0000
0000
,
0001
1000
0100
0001
0100
0000
1000
0000
,
0001
0000
1000
0020
0030
0000
0000
0000
,
1000
0001
0100
1000
0100
0000
MMMM
0000
,
0100
0000
0001
0100
1000
0100
0001
0000
,
0000
0000
1000
0000
0000
0010
0000
0000
0100
0000
0000
0000
0001
0000
0000
0000
,
0000
0000
1000
0100
0001
0100
1000
0000
,
0000
0000
0001
0000
0000
0010
0000
0000
0100
0000
0000
0000
1000
0000
0000
0000
,
0002
0000
0003
0000
,
1000
0100
0010
0000
,
0001
2000
3000
0000
,
0010
1000
MMMM
0000
,
1000
0001
0010
0100
1000
0001
0010
0100
,
0010
0001
1000
0010
0100
0010
1000
0001
,
0100
0001
1000
0100
1000
0001
0010
0001
,
1000
0010
1000
0100
0010
0001
0100
0010
,
1000
0100
0010
0001
0100
0001
1000
0100
,
0010
0100
1000
0001
0100
0001
0100
0010
,
1000
0010
0100
0001
0010
0001
0100
0010
,
1000
0010
0100
0001
1000
0010
1000
0001
,
0010
0001
1000
0000
0100
1000
0001
0000
,
0100
0001
1000
0000
0010
1000
0001
0000
,
0010
0001
1000
0000
0100
1000
0001
0000
,
0100
0001
MMMM
0000
,
0002
1000
0000
0100
,
0203
0001
0000
0010
,
0320
0100
0000
1000
,
2030
0100
3200
0010
,
0320
0100
0000
0001
,
0032
0010
0000
1000
,
2003
0001
0000
0100
,
3200
1300
MMMM
1000
,
0200
1000
0000
0010
,
0320
0100
0000
0031
,
0002
0010
0000
1000
,
2003
0001
3002
0100
,
0203
0001
0000
0010
,
0320
0100
0000
1000
,
2030
0000
0000
0000
,
0001
3000
MMMM
0000
,
1000
0000
0001
0100
0001
1000
0010
1000
,
0001
0010
0001
1000
0100
1000
0001
0100
,
0010
0100
0001
1000
0100
0010
0100
1000
,
0001
0010
0100
0010
0001
1000
0100
0010
,
0100
1000
0010
0100
0001
0010
0100
1000
,
0001
0100
0001
1000
0010
1000
0001
0010
,
0001
1000
0100
1000
0001
0100
0010
0100
,
0001
1000
0100
0010
0100
1000
0001
0010
,
0002
0010
0000
0100
,
0000
0000
1000
0000
0003
0000
0001
2000
,
0000
0001
0000
0100
,
0000
0010
0000
3001
,
1000
0002
1000
0000
,
0010
0000
0000
0000
1003
0000
0001
2000
,
0000
0100
0000
0010
,
0000
0100
0000
3001
,
1000
0002
1000
0000
,
0010
0000
0100
0000
,
1003
0000
0001
0000
1000
0100
0001
0100
,
0010
1000
0010
0100
0001
0100
1000
0000
,
0001
1000
0001
0100
1000
0100
0010
0001
,
0010
0100
0001
0100
1000
0000
0010
0000
,
0100
0000
1000
0000
0010
0100
0010
0000
,
0100
0000
0010
1000
0000
0010
1000
0000
,
0100
0000
0010
0001
0100
1000
0100
0001
,
0010
1000
0010
0001
0100
1000
0100
0000
,
0000
0000
0001
0010
1000
0010
0001
0100
,
1000
0100
0001
0010
1000
0010
0001
0000
,
1000
0000
0001
0100
0000
0010
1000
0000
,
0001
0000
1000
0010
0000
0100
0001
0000
,
1000
0100
0010
0000
0001
0010
0100
0000
,
0000
0000
1000
0010
0100
0001
0100
0000
,
0010
0000
1000
0000
0001
0000
0010
1000
,
0010
0000
0001
0000
1000
0000
0100
0001
,
0100
0000
1000
0000
0001
0000
0100
1000
,
0100
0000
0001
0100
0010
1000
0100
0010
,
0001
1000
0010
1000
0001
0010
0001
1000
,
0010
0100
0010
1000
0001
0100
0010
0100
,
0001
1000
0100
0010
0100
1000
0001
0010
,
0001
0010
0001
0010
0001
0000
0000
0000
1000
0010
1000
0010
1000
0000
0000
0000
,
0001
0000
0100
0001
0000
0100
0001
0000
,
1000
0000
0100
1000
0000
0100
1000
0000
,
0001
0000
0010
0001
0000
0010
0001
0000
,
1000
0000
0000
0010
1000
0010
1000
0000
,
0010
0100
0010
0100
0010
1000
0010
1000
,
0010
0100
0010
0100
0010
0000
MMMM
0000
,
0010
0100
0010
0100
0010
1000
0010
1000
0010
0100
0010
0100
0010
1000
0010
1000
,
0010
0000
1000
0010
0100
0010
1000
0000
,
0001
0000
1000
0000
0100
0000
0010
0001
,
1000
0000
0001
0000
0100
0000
0010
1000
,
0001
0000
1000
0000
0010
0000
0100
0001
,
0100
0001
1000
1000
,
MMMM
0000
0000
0000
1000
0000
0000
0100
0000
0000
1000
0000
0000
0001
0000
0000
,
1000
0000
0000
0010
0000
0000
1000
0000
0000
0001
0000
0000
1000
0001
1000
0000
,
0001
1000
0001
0000
1000
0000
0000
0010
0000
0000
1000
0000
0000
0001
0000
0000
,
1000
0000
0000
0100
0000
0000
0000
0000
1000
0000
0010
0000
1000
0000
0000
0000
,
0001
0000
0100
0000
0001
0000
0010
1000
,
0010
0001
0010
0001
,
0100
0001
0000
0010
0000
1000
0000
0010
,
0001
0000
0100
1000
0100
0001
1000
0000
,
MMMM
0000
0000
0000
1000
0000
0000
0010
0000
0000
0100
0000
0000
0001
0000
0000
,
0010
0000
0000
0100
0000
0000
1000
0000
0000
0010
0000
0000
0100
0010
0100
0000
,
0010
0100
0010
0000
0100
0000
0000
0001
0000
0000
0010
0000
0000
0100
0000
0000
,
1000
0000
0001
0100
0010
1000
0001
0000
,
MMMM
0001
1000
0100
,
0010
0001
1000
0010
0100
0000
0001
0000
,
0000
0000
1000
0100
0010
0000
0100
1000
,
0010
0100
0001
0100
0010
0000
1000
0000
,
0000
0000
0001
0000
1000
0100
0001
0100
,
1000
0100
0001
0100
1000
0000
0010
0000
,
0000
0000
1000
0010
0001
0010
1000
0010
,
1000
0000
0100
1000
0000
0001
0010
0000
,
0100
0000
1000
0010
0000
0100
0001
0000
,
1000
0000
0010
1000
0000
0001
0100
0000
,
0001
0000
1000
0100
0000
0010
0001
0000
,
1000
0000
0100
0001
0100
1000
0001
0000
,
0010
0001
0010
0001
0010
0100
0010
0100
,
0010
0001
0010
0001
0010
0000
MMMM
0000
,
0010
0001
0010
0001
0010
0100
0010
0100
0010
0001
0010
0001
0010
0100
0010
0100
,
0010
0000
0001
0010
0001
0010
0001
0000
,
0010
0000
0001
0000
1000
0000
0100
0010
,
0100
0000
1000
0000
0001
0000
0100
0010
,
0100
0001
1000
0010
,
0010
0000
1000
0001
1000
0100
0010
0000
,
0001
0000
0000
0000
0100
0000
0000
1000
0000
0000
0100
0000
0000
0001
0000
0000
,
0010
0000
0000
1000
0000
0000
0010
0000
0000
0001
0000
0000
1000
0001
1000
0000
,
0001
1000
0001
0000
0010
0000
0000
0001
0000
0000
0100
0000
0000
1000
0000
0000
,
0100
0000
0000
0001
0000
0000
0010
0000
0000
1000
0000
0000
0010
0000
0000
0000
,
0001
0000
1000
0000
0100
0000
0010
0100
,
1000
0001
1000
MMMM
,
1000
0001
0000
0010
0000
1000
0000
0010
,
0001
0000
1000
0100
0010
0001
0010
0000
,
0100
0000
0000
0000
1000
0000
0000
0100
0000
0000
0001
0000
0000
1000
0000
0000
,
0010
0000
0000
0001
0000
0000
1000
0000
0000
0001
0000
0000
1000
0001
1000
0000
,
0001
1000
0001
0000
1000
0000
0000
0100
0000
0000
1000
0000
0000
0010
0000
0000
,
1000
0000
0001
1000
0010
0100
0010
0000
,
1000
0100
0001
0100
,
1000
1000
0010
0010
0001
0000
0010
0000
,
1000
0000
0001
0001
0100
0100
1000
1000
,
0100
0100
0001
0001
1000
0000
0001
0000
,
1000
0000
0100
0100
0001
0001
0100
0100
,
1000
1000
0010
0010
0001
0000
0010
0000
,
0000
0000
1000
0100
0010
0001
0100
0000
,
0001
0000
1000
0100
0000
0010
0001
0000
,
1000
0000
0001
0100
0000
0010
1000
0000
,
0001
0000
1000
0010
0000
0100
0001
0000
,
1000
0000
0001
0100
0000
0010
1000
0000
,
0001
0000
0000
0010
0001
0010
0001
0000
,
0010
0001
0010
0001
0010
0100
0010
0100
,
0010
0001
0010
0001
0010
0000
MMMM
0000
,
0010
0001
0010
0001
0010
0100
0010
0100
0010
0001
0010
0001
0010
0100
0010
0100
,
0010
0000
0001
0010
0100
0010
0001
0000
,
1000
0000
0001
0100
1000
0100
0001
0000
,
1000
0000
0001
0100
0010
0100
0001
0000
,
1000
0000
0001
0010
1000
0010
0001
0000
,
2000
0000
0000
0000
,
3000
0000
0000
0000
;
