#VERSION:0.83;
#TITLE:Dirty Little Secret;
#SUBTITLE:Sensibility Validation;
#ARTIST:The All-American Rejects;
#TITLETRANSLIT:;
#SUBTITLETRANSLIT:;
#ARTISTTRANSLIT:;
#GENRE:Pop-Punk;
#CREDIT:;
#MUSIC:Dirty Little Secret.ogg;
#BANNER:secret bn.png;
#BACKGROUND:secret bg.png;
#CDTITLE:;
#SAMPLESTART:85.147;
#SAMPLELENGTH:20.009;
#SELECTABLE:YES;
#OFFSET:-0.015;
#BPMS:0.000=143.798;
#STOPS:;
#BGCHANGES:;
#FGCHANGES:;

//--------------- dance-single - LinkDude03 ----------------
#NOTEDATA:;
#STEPSTYPE:dance-single;
#DESCRIPTION:LinkDude03;
#DIFFICULTY:Beginner;
#METER:2;
#RADARVALUES:0,0,0,0,0;
#NOTES:
0000
0000
0000
0000
,
0000
0000
0000
0000
,
0001
0000
0100
0000
,
0001
0000
0001
0000
,
1000
0000
0010
0000
,
1000
0000
1000
0000
,
0010
0000
0100
0000
,
0010
0000
0010
0000
,
1000
0000
1000
0000
,
1000
0000
0001
0000
,
1000
0000
0020
0000
,
0030
0000
1000
0000
,
0001
0000
0020
0000
,
0030
0000
0001
0000
,
1000
0000
0200
0000
,
0300
0000
1000
0000
,
0001
0000
0200
0000
,
0300
0000
0010
0020
,
0000
0000
0000
0000
,
0030
0000
0100
0200
,
0000
0000
0000
0000
,
0300
0000
0001
0002
,
0000
0000
0003
0000
,
1000
0000
0010
0000
,
0200
0000
0300
0000
,
0001
0000
0100
0000
,
0010
0010
0020
0000
,
0000
0000
0000
0000
,
0030
0000
1000
0000
,
0100
0000
1000
0000
,
0001
0001
0002
0000
,
0000
0000
0003
0000
,
0100
0100
0200
0000
,
0000
0000
0000
0000
,
0300
0000
0001
0000
,
1000
0000
0010
0000
,
1000
0000
0100
0000
,
0010
0000
0100
0000
,
1000
0000
0001
0000
,
0200
0000
1000
0000
,
0001
0000
1000
0000
,
0301
0000
0100
0000
,
0001
0000
2000
0000
,
3000
0000
0010
0000
,
0100
0000
0002
0000
,
0003
0000
0010
0000
,
0100
0000
2000
0000
,
3000
0000
0001
0002
,
0000
0000
0003
0000
,
0100
0000
0010
0000
,
2000
0000
3000
0000
,
0100
0000
0010
0000
,
0001
0001
0002
0000
,
0000
0000
0000
0000
,
0003
0000
1000
0000
,
0100
0000
0010
0000
,
0001
0001
0002
0000
,
0000
0000
0003
0000
,
1000
1000
2000
0000
,
0000
0000
0000
0000
,
3000
0000
0100
0000
,
0010
0000
0001
0000
,
0100
0000
0020
0000
,
0030
0000
1000
0000
,
0100
0000
0020
0000
,
0030
0000
0001
0000
,
0100
0000
0020
0000
,
0030
0000
1000
0000
,
0100
0000
0010
0000
,
0001
0000
0000
0010
0000
0000
0000
0002
,
0000
0000
0003
0000
,
1000
0000
0000
0100
0000
0000
1000
0000
,
0000
0200
0000
0000
0300
0000
0000
0000
,
1000
0000
0001
0000
,
0100
0000
0100
0000
,
0001
0000
1000
0000
,
0010
0000
0010
0000
,
1000
0000
0001
0000
,
0010
0000
0010
0000
,
0001
0000
1000
0000
,
0100
0000
0100
0000
,
1000
0000
0001
0000
,
1000
1000
2000
0000
,
0000
0000
0000
0000
,
3000
0000
0010
0000
,
1000
0000
0010
0000
,
0100
0100
0200
0000
,
0000
0000
0000
0000
,
0000
0000
0300
0000
,
0001
0000
0100
0000
,
0010
0010
0020
0000
,
0000
0000
0000
0000
,
0030
0000
0100
0000
,
0010
0000
1000
0000
,
0001
0001
0002
0000
,
0000
0000
0003
0000
,
1000
1000
2000
0000
,
0000
0000
3000
0000
,
0010
0010
0020
0000
,
0000
0000
0000
0000
,
0030
0000
0100
0000
,
0010
0000
1000
0000
,
0001
0000
0001
0000
,
0100
0000
0010
0000
,
1000
0000
2002
0000
,
0000
0000
0000
3003
;

//--------------- dance-single - LinkDude08 ----------------
#NOTEDATA:;
#STEPSTYPE:dance-single;
#DESCRIPTION:LinkDude08;
#DIFFICULTY:Easy;
#METER:5;
#RADARVALUES:0,0,0,0,0;
#NOTES:
0000
0000
0000
0000
,
0000
0000
0000
0000
,
0001
1000
0001
0100
,
0001
0010
0002
0003
,
1000
0001
1000
0010
,
1000
0100
2000
3000
,
0001
0010
0100
0010
,
0001
1000
0020
0030
,
0100
0010
2000
0000
,
0000
3000
0001
1000
,
0001
0100
0010
0100
,
0002
0003
1000
0010
,
0100
0010
1000
0001
,
2000
3000
0001
1000
,
0100
0001
0100
1000
,
0002
0003
0010
0001
,
1000
0001
0010
0100
,
0020
0030
1001
0001
,
1000
0100
0010
0002
,
0000
0003
0110
0100
,
1000
0100
0001
0200
,
0000
0300
1001
1001
,
0000
0001
0010
0100
,
1000
0100
0010
0001
,
0020
0000
0000
0030
,
0001
1000
0100
0010
,
0100
0010
0100
0010
0100
0000
1000
0000
,
0001
1000
0001
1000
0001
0000
0200
0000
,
0300
0010
1000
0001
,
0010
0001
1000
0001
,
0100
0001
0100
0001
0100
0000
0010
0000
,
1000
0010
1000
0010
1000
0000
0001
0000
,
0100
0001
0100
0001
0100
0000
0010
0000
,
1000
0010
1000
0010
1000
0000
0002
0000
,
0003
0010
0001
1000
,
0200
0300
0010
0100
,
1000
0001
0100
0010
,
2000
3000
0100
0010
,
0001
1000
0001
0010
,
0200
0300
1000
0001
,
0100
1000
0100
0001
,
2000
3000
0001
1000
,
0010
0100
0001
1000
,
0002
0003
0110
0100
,
1000
0100
0001
0200
,
0000
0300
0110
0100
,
0001
0100
1000
0200
,
0000
0300
1001
1001
,
0000
0001
0100
0010
,
1000
0010
0100
0001
,
0200
0000
0000
0300
,
0001
1000
0100
1000
,
0010
1000
0010
1000
0010
0000
0100
0000
,
0001
0100
0001
0100
0001
0000
2000
0000
,
3000
0010
1000
0001
,
0100
0010
1000
0001
,
1000
0001
1000
0001
1000
0000
0010
0000
,
1000
0010
1000
0010
1000
0000
0100
0000
,
1000
0100
1000
0100
1000
0000
0001
0000
,
0010
0001
0010
0001
0010
0000
0200
0000
,
0300
1000
0100
0010
,
0100
1000
0001
0010
,
0100
0010
0002
0000
,
0003
0100
0001
0010
,
0001
1000
0020
0000
,
0030
1000
0001
1000
,
0010
0100
0020
0000
,
0030
1000
0001
1000
,
0010
0100
0010
1000
,
0002
0003
0000
1000
0000
0100
0000
0020
,
0000
0000
0000
0030
,
0002
0003
0000
2000
3000
0000
0020
0030
,
0000
0200
0000
0000
0000
0000
0300
0000
,
0001
1000
0001
0010
,
0100
0010
0002
0003
,
0010
0001
1000
0100
,
1000
0001
0200
0300
,
0001
0010
0100
0010
,
0001
1000
0020
0030
,
0100
0010
1000
0010
,
0100
0001
2000
3000
,
0001
1000
0100
0010
,
0100
0010
0100
0010
0100
0000
1000
0000
,
0010
1000
0010
1000
0010
0000
0200
0000
,
0300
0001
0100
0010
,
1000
0001
1000
0100
,
0010
0100
0010
0100
0010
0000
0001
0000
,
1000
0001
1000
0001
1000
0000
0020
0000
,
0000
0000
0000
0030
,
1000
0010
0100
0001
,
0100
0001
0100
0001
0100
0000
0010
0000
,
1000
0010
1000
0010
1000
0000
0200
0000
,
0300
0010
0001
1000
,
0001
0010
0100
1000
,
0100
1000
0100
1000
0100
0000
0010
0000
,
0001
0010
0001
0010
0001
0000
0100
0000
,
0010
0100
0010
0100
0010
0000
1000
0000
,
0010
1000
0010
1000
0010
0000
0100
0000
,
0001
0100
0001
0100
0001
0000
0010
0000
,
0100
0010
0100
0010
0100
0000
2000
0000
,
3000
0100
0010
0001
,
0100
0001
0010
0100
,
1000
0100
0020
0030
,
0001
0010
0100
0010
,
0001
1000
0001
2002
,
0000
0000
0000
3003
;

//--------------- dance-single - LinkDude10 ----------------
#NOTEDATA:;
#STEPSTYPE:dance-single;
#DESCRIPTION:LinkDude10;
#DIFFICULTY:Medium;
#METER:7;
#RADARVALUES:0,0,0,0,0;
#NOTES:
0000
0000
0000
0000
,
0000
0000
0000
0000
,
0001
1001
1000
1001
,
0001
0000
0010
0001
0010
0001
0010
0000
,
0001
0101
0100
0101
,
0001
0000
1000
0001
1000
0001
1000
0000
,
0001
0011
0010
0011
,
0001
0000
0100
0001
0100
0001
0100
0000
,
1001
0000
0001
1000
0001
1000
0001
0000
,
2002
3003
0001
0100
,
0010
0000
1000
0010
0000
0100
0000
0002
,
0000
0003
1000
0100
,
0010
0000
0001
0000
0010
0000
0100
2000
,
0000
3000
0000
0100
1000
0000
0100
0002
,
0003
0000
0100
1000
0000
0010
0000
2000
,
0000
3000
0001
1000
,
0100
0000
0010
0000
0100
0000
1000
0002
,
0000
0003
1000
0100
,
1000
0000
0010
0100
0010
0100
0020
0000
,
0000
0030
1000
0001
,
1000
0000
0100
0010
0100
0010
0200
0000
,
0000
0300
0110
0110
,
0000
0001
0100
0001
,
1000
0000
0100
0000
0010
0000
0001
0020
,
0000
0000
0000
0030
,
0001
0100
0001
0010
,
0100
0010
0100
1000
0100
0000
1000
0000
,
0010
1000
0010
0100
0010
0000
0200
0000
,
0300
0000
0001
0000
1000
0010
1000
0000
,
0001
0100
0010
1000
,
0001
0100
0001
0010
0001
0000
0010
0000
,
0100
0010
0100
1000
0100
0000
1000
0000
,
0010
1000
0010
0100
0010
0000
0100
0000
,
0001
0100
0001
1000
0001
0000
2000
0000
,
3000
0000
0100
0000
0010
0000
0001
2000
,
0000
3000
0010
0100
,
0001
0000
1000
0000
0001
1000
0000
0020
,
0000
0000
0030
0000
0100
0000
0010
1000
,
0000
0002
0003
0000
1000
0000
0100
2000
,
0000
3000
0000
0100
1000
0000
0100
0002
,
0003
0000
0100
1000
0000
0010
0000
2000
,
0000
3000
0001
0001
,
0100
0000
0100
0000
0010
0000
0010
0200
,
0000
0300
0001
1000
,
0100
0000
1000
0010
1000
0010
2000
0000
,
0000
3000
0001
0100
,
0010
0000
1000
0010
1000
0010
2000
0000
,
0000
3000
0110
0110
,
0000
0100
1000
0010
,
1000
0000
0100
0000
0010
0000
0001
2000
,
0000
0000
0000
3000
,
0001
1000
0100
1000
,
0010
1000
0010
0100
0010
0000
0100
0000
,
0001
0100
0001
1000
0001
0000
2000
0000
,
3000
0000
0001
0000
0100
0010
0100
0000
,
0010
1000
0010
0100
,
0001
0100
0001
1000
0001
0000
1000
0000
,
0010
1000
0010
0100
0010
0000
0100
0000
,
0001
0100
0001
1000
0001
0000
1000
0001
,
1000
0100
1000
0010
1000
0000
0002
0000
,
0003
0000
0100
0000
0010
0000
1000
0002
,
0003
0100
0010
1000
,
0001
0100
0220
0000
,
0330
0100
0010
1000
,
0001
0100
0220
0000
,
0330
1000
0100
0010
,
0001
0010
0220
0000
,
0330
0001
0010
0100
,
0010
0001
1000
0100
,
0020
0030
0000
0100
0000
1000
0000
0020
,
0000
0000
0000
0030
,
0200
0300
0000
0002
0003
0000
0200
0300
,
0000
0020
0000
0000
0000
0000
0030
0000
,
1000
1010
0010
1010
,
1000
0000
0001
1000
0001
1000
0001
0000
,
0010
0011
0001
0011
,
0010
0000
0100
0010
0100
0010
0100
0010
,
0100
1100
1000
1100
,
0100
0000
1000
0100
1000
0100
1000
0000
,
0001
1001
1000
1001
,
0001
0000
0100
0001
0100
0001
0100
0000
,
0010
1000
0001
0010
,
0100
0010
0100
1000
0100
0000
1000
0000
,
0010
1000
0010
0100
0010
0000
0200
0000
,
0300
0000
0001
0000
0100
0010
0100
0000
,
0001
0100
0010
1000
,
0010
0100
0010
1000
0010
0000
1000
0000
,
0001
0010
0100
2000
,
3000
0001
0010
0100
,
1000
0010
0100
0001
,
0100
0001
0100
0010
0100
0000
0010
0000
,
1000
0010
1000
0100
1000
0000
0200
0000
,
0300
0000
0010
0000
0001
1000
0001
0000
,
0100
0010
1000
0010
,
0100
0010
0100
0001
0100
0000
0001
0000
,
0010
0001
0010
0100
0010
0000
0100
0000
,
1000
0100
1000
0010
1000
0000
0010
0000
,
0100
0010
0100
0001
0100
0000
0001
0000
,
0010
0001
0010
0100
0010
0000
0100
0000
,
1000
0100
1000
0001
1000
0000
0002
0000
,
0003
0000
0100
0000
0001
0000
1000
0020
,
0030
1010
1000
1010
,
0001
0000
0100
0001
0100
0001
0100
0000
,
0010
1010
1000
1010
,
0010
0000
1000
0010
1000
0010
2000
0000
,
0000
0000
0000
3000
;

//--------------- dance-single - Cut from J. Twerkowitz ----------------
#NOTEDATA:;
#STEPSTYPE:dance-single;
#DESCRIPTION:Cut from J. Twerkowitz;
#DIFFICULTY:Hard;
#METER:9;
#RADARVALUES:0,0,0,0,0;
#NOTES:
0000
0000
0000
0000
,
0000
0000
0000
0000
,
0001
0000
0000
0000
0011
0000
0000
0010
0100
0000
1000
0000
1001
0000
0000
0000
,
0001
0000
0000
0000
0101
0000
0000
0100
0010
0000
1000
0000
1002
0000
0000
0000
,
0013
0000
0000
0000
0110
0000
0000
0100
1000
0000
0010
0000
0110
0000
0000
0000
,
0100
0000
0000
0000
0101
0000
0000
0001
1000
0000
0100
0000
0110
0000
0000
0000
,
0011
0000
0000
0000
1001
0000
0000
1000
0010
0000
0100
0000
0101
0000
0000
0000
,
1001
0000
0000
0000
1100
0000
0000
0100
0010
0000
0001
0000
0101
0000
0000
0000
,
0110
0000
0000
0000
1010
0000
0000
1000
0001
0000
0011
0000
0011
0000
0000
0000
,
0010
0110
0100
1000
,
0001
0000
0100
0010
0000
1000
0000
0200
,
0000
0000
0310
0001
1000
0000
0010
0000
,
0100
0000
0001
0000
1000
0000
0100
0020
,
0000
0000
0031
1000
0010
0000
0100
0020
,
0000
0000
1030
0100
0000
0010
0000
0002
,
0000
0000
0103
0010
1000
0000
0100
0000
,
0020
0000
0032
0000
0203
0000
0310
1000
,
1001
0000
0010
1001
1001
0000
0010
0000
,
0101
0000
1000
0100
0010
0001
0100
0000
,
1010
0000
0001
1010
1010
0000
0001
0000
,
0011
0000
0010
0100
1000
0010
0100
0000
,
0101
0000
1000
0101
0101
0000
1000
0000
,
1100
0000
0000
0000
0200
0000
0000
0000
0320
0000
0000
0000
0032
0000
0000
0003
,
0101
0000
0100
0101
0101
0000
0100
0000
,
1001
0010
0100
1001
1001
1000
0100
0010
,
0001
0010
0100
1000
0001
0010
0001
1000
,
0001
0100
0010
1000
0100
0010
0001
1000
0010
2000
0000
0000
,
3010
0100
0001
0010
0100
0010
0001
1000
0010
2000
0000
0000
,
3001
0010
0100
1000
0100
0010
0001
1000
,
0010
0100
0001
1000
0100
0010
0100
1000
,
0100
0010
0001
0100
0010
1000
0001
0010
0001
2000
0000
0000
,
3100
0010
0001
0100
0010
0100
0001
1000
0100
2000
0000
0000
,
3001
1000
0010
0100
0001
0010
0100
0010
0001
1000
0010
0100
,
0002
0000
0000
0003
0202
0000
0000
0303
0220
0000
0000
0330
2020
0000
0000
0000
,
0000
0000
0000
3030
1000
0000
0000
0000
0001
0000
0010
0000
0110
0000
0000
0000
,
0100
0000
1100
1000
0001
0000
0100
0000
,
0010
0000
0000
0000
1000
0000
0000
0000
0100
0000
0000
0010
0000
0000
0001
0000
,
0000
1000
0010
0000
0200
0000
0302
2003
,
0000
3200
0300
0000
0020
0000
0032
0203
,
0310
1000
0010
1000
0010
1000
0010
1000
,
0001
0010
0001
0010
0001
0010
0001
0010
,
0100
1000
0100
1000
0100
1000
0100
1000
,
0010
0100
0010
0100
0010
0100
0010
0100
,
0101
0000
1000
0101
0101
0000
1000
0000
,
0011
0000
1000
0010
0100
0001
0010
0000
,
0110
0000
1000
0110
0110
0000
1000
0000
,
1001
0000
0001
0100
0010
1000
0100
0000
,
0011
0000
1000
0011
0011
0000
1000
0000
,
1010
0000
0000
0000
0020
0000
0000
0000
0230
0000
0000
0000
0302
0000
0000
0003
,
1001
0000
0100
1001
1001
0000
0100
0000
,
1001
1000
0010
0110
0110
0100
0001
0100
,
0010
1000
0001
0010
0100
0010
0001
1000
,
0001
0010
0100
1000
0010
0100
0001
1000
0100
2000
0000
0000
,
3100
0010
0001
0100
0010
0100
0001
1000
0100
2000
0000
0000
,
3010
0100
0001
1000
0100
0010
0100
1000
,
0010
0100
0001
1000
0100
1000
0001
0100
,
0010
0100
0001
0010
0100
1000
0001
0100
0001
2000
0000
0000
,
3010
0100
0001
0010
0100
0010
0001
1000
0010
2000
0000
0000
,
3001
1000
0100
0010
0001
0100
0010
0100
0001
1000
0100
0010
,
0002
0000
0000
0003
0022
0000
0000
0033
0220
0000
0000
0330
2200
0000
0000
0000
,
0000
0000
0000
3300
1000
0000
0000
0000
0001
0000
0000
0000
0100
0000
0010
0000
,
1010
0000
1000
0000
1001
0000
0001
0010
,
0100
0100
1100
1000
,
1001
0000
0101
0000
1010
0000
1000
0001
,
0010
0010
0110
0100
,
1100
0000
1000
0000
1001
0000
0001
0100
,
0010
0010
1010
1000
,
1001
0000
0011
0000
1100
0000
1000
0001
,
0100
0000
0000
0000
0010
0000
0000
0000
1010
0000
0000
0000
1000
0000
0001
0010
,
0100
1000
1001
0000
0001
0100
0110
0000
,
0010
1000
1100
0000
0100
0010
0011
0000
,
0001
1000
1010
0000
0010
0100
0101
0000
,
0001
1000
1100
0000
0100
0010
0001
1000
,
0001
0010
0100
1000
0100
0010
0001
0100
0010
1000
0010
0100
,
0002
0000
2003
3020
0230
0302
0023
0000
,
0031
0100
0010
1000
0010
0100
0001
0010
0100
1000
0100
0010
,
0002
0000
0000
0000
2003
0000
3020
0000
0230
0000
0320
0000
2030
3002
2003
0000
,
3100
0010
0001
1000
0010
0100
0010
1000
0001
0010
0100
1000
,
0020
0000
0230
0302
2003
3200
0320
0000
,
0130
0010
0100
1000
0010
0100
0001
0010
0100
0010
0001
1000
,
0020
0000
0230
0302
2003
3200
0320
0000
,
0032
0203
0320
2030
,
3100
0010
0100
0010
0200
0000
2300
0000
,
3001
0100
0001
0100
0001
0000
1000
0000
,
0100
0000
0020
0000
0031
0100
0020
0000
,
1030
0001
0010
0001
0010
0001
1000
0000
,
0010
0100
0001
0100
0001
0100
0010
0000
,
1000
0100
0010
0100
0010
0100
1000
0000
,
1001
0001
0100
0110
0110
0010
1000
0001
,
0010
0001
1000
0010
0100
0001
0010
0100
,
0010
0001
0100
0010
1000
0100
0010
0100
1000
0002
0000
0000
,
1003
0100
0010
0001
0100
0010
0100
0001
0010
0002
0000
0000
,
0013
0001
1000
0100
1000
0001
0100
0010
,
1000
0100
0010
0001
1000
0010
0100
0001
,
0100
0010
1000
0100
0010
0001
1000
0010
0100
0020
0000
0000
,
1030
0010
0100
0001
0010
0100
1000
0001
0100
0002
0000
0000
,
1003
0100
0010
0100
1000
0001
0100
0010
1000
0200
0000
0000
,
1300
0010
0000
1000
0100
0000
1000
0010
0000
1000
0100
0000
,
0010
0001
0000
0100
0001
0000
0010
0001
0000
0100
0001
0000
,
0010
0010
0000
0100
0100
0000
1000
1000
0000
0001
0001
0000
,
0200
0000
0320
0000
2030
0000
3200
0320
,
0031
0000
0000
0000
1001
0000
0000
1000
0010
0000
0100
0000
0101
0000
0000
0000
,
0001
0000
0000
0000
0011
0000
0000
0010
0100
0000
1000
0000
1010
0000
0000
0000
,
0010
0000
0000
0000
0110
0000
0000
0100
0001
0000
1000
0000
1100
0000
0000
0000
,
0011
0000
1001
1000
1001
0001
1001
0000
;

//--------------- dance-single - J. Twerkowitz ----------------
#NOTEDATA:;
#STEPSTYPE:dance-single;
#DESCRIPTION:J. Twerkowitz;
#DIFFICULTY:Challenge;
#METER:13;
#RADARVALUES:0.872,0.461,0.502,0.45,0.965;
#NOTES:
0000
0000
0000
0000
,
0000
0000
0000
0000
,
0001
0000
0000
0000
0011
0000
0000
0010
0100
0000
1000
0000
1001
0000
0000
0000
,
0001
0000
0000
0000
0101
0000
0000
0100
0010
0000
1000
0000
1002
0000
0000
0000
,
0013
0000
0000
0000
0110
0000
0000
0100
1000
0000
0010
0000
0110
0000
0000
0000
,
0100
0000
0000
0000
0101
0000
0000
0001
1000
0000
0100
0000
0110
0000
0000
0000
,
0011
0000
0000
0000
1001
0000
0000
1000
0010
0000
0100
0000
0101
0000
0000
0000
,
1001
0000
0000
0000
1100
0000
0000
0100
0010
0000
0001
0000
0101
0000
0000
0000
,
0110
0000
0000
0000
1010
0000
0000
1000
0001
0000
0011
0000
0011
0000
0000
0000
,
0010
0110
0100
1000
,
0001
0000
0100
0010
0000
1000
0000
0200
,
0000
0000
0310
0001
1000
0000
0010
0000
,
0100
0000
0001
0000
1000
0000
0100
0020
,
0000
0000
0031
1000
0010
0000
0100
0020
,
0000
0000
1030
0100
0000
0010
0000
0002
,
0000
0000
0103
0010
1000
0000
0100
0000
,
0020
0000
0032
0000
0203
0000
0310
1000
,
1001
0000
0010
1001
1001
0000
0010
0000
,
0101
0000
1000
0100
0010
0001
0100
0000
,
1010
0000
0001
1010
1010
0000
0001
0000
,
0011
0000
0010
0100
1000
0010
0100
0000
,
0101
0000
1000
0101
0101
0000
1000
0000
,
1100
0000
0000
0000
0200
0000
0000
0000
0320
0000
0000
0000
0032
0000
0000
0003
,
0101
0000
0100
0101
0101
0000
0100
0000
,
1001
0000
0010
0000
0100
0000
1001
0000
1001
0000
1000
0100
0010
0001
0010
0100
,
1000
0001
0010
0001
1000
0010
0100
0001
0010
0100
1000
0001
1000
0001
0010
0100
,
1000
0100
0010
0001
0100
0010
1000
0001
0010
0100
0010
0001
1000
0010
0100
0001
0010
0100
2000
0000
0000
0000
0000
0000
,
3010
0100
0001
0010
0100
0010
0001
1000
0010
0100
0001
1000
0100
0010
0100
1000
0010
0100
0002
0000
0000
0000
0000
0000
,
1003
0010
0100
0001
0100
0010
1000
0001
0010
0100
1000
0001
0100
0010
0100
0001
,
0010
0100
1000
0001
1000
0010
0100
0001
1000
0100
0010
0100
1000
0001
0100
0001
,
0100
0010
1000
0100
0010
0001
1000
0010
1000
0001
0010
0001
0100
0010
1000
0100
0010
0001
2000
0000
0000
0000
0000
0000
,
3100
0010
0001
0100
0010
0100
0001
1000
0100
0010
0100
1000
0010
0100
0001
0010
0100
0010
0002
0000
0000
0000
0000
0000
,
1003
0001
0010
0100
1000
0010
0100
0010
1000
0001
0010
0100
1000
0001
0100
0010
1000
0100
0010
0100
1000
0001
0100
0010
,
2000
0000
0000
3000
2200
0000
0000
3300
0220
0000
0000
0330
0022
0000
0000
0000
,
0000
0000
0000
0033
0001
0000
0000
0000
1000
0000
0010
0000
0110
0000
0000
0000
,
0100
0000
0101
0001
1000
0000
0100
0000
,
0010
0000
0000
0000
0001
0000
0000
0000
0100
0000
0000
0010
0000
0000
1000
0000
,
0000
0001
0010
0000
0200
0000
2300
3002
,
0000
0203
0300
0000
0020
0000
2030
3200
,
0310
0001
0010
0001
0010
0001
0010
0001
,
1000
0010
1000
0010
1000
0010
1000
0010
,
0100
0001
0100
0001
0100
0001
0100
0001
,
0010
0100
0010
0100
0010
0100
0010
0100
,
1100
0000
0001
1100
1100
0000
0001
0000
,
1010
0000
0001
0010
0100
1000
0010
0000
,
0110
0000
0001
0110
0110
0000
0001
0000
,
1001
0000
1000
0100
0010
0001
0100
0000
,
1010
0000
0001
1010
1010
0000
0001
0000
,
0011
0000
0000
0000
0020
0000
0000
0000
0230
0000
0000
0000
2300
0000
0000
3000
,
1001
0000
0100
1001
1001
0000
0100
0000
,
1001
0000
0001
0000
0010
0000
0110
0000
0110
0000
0100
1000
0100
0010
0001
1000
,
0010
0100
0010
1000
0001
0010
0100
1000
0010
0100
0001
1000
0100
0010
0100
1000
,
0001
0010
0100
1000
0010
0100
0001
1000
0100
0010
0100
1000
0001
0100
0010
1000
0100
0010
0002
0000
0000
0000
0000
0000
,
0103
0010
1000
0100
0010
0100
1000
0001
0100
0010
1000
0001
0010
0100
0010
0001
0100
0010
2000
0000
0000
0000
0000
0000
,
3010
0100
0001
1000
0100
0010
0100
1000
0010
0100
0001
1000
0100
1000
0001
0100
,
0010
0100
0001
1000
0100
0010
0001
1000
0001
0100
0010
1000
0010
0100
0001
1000
,
0010
0100
0001
0010
0100
1000
0001
0100
0001
1000
0100
1000
0010
0100
0001
0010
0100
1000
0002
0000
0000
0000
0000
0000
,
0013
0100
1000
0010
0100
0010
1000
0001
0010
0100
0010
0001
0100
0010
1000
0100
0010
0100
2000
0000
0000
0000
0000
0000
,
3001
1000
0100
0010
0001
0100
0010
0100
0001
1000
0100
0010
0001
1000
0010
0100
0001
0010
0100
0010
0001
1000
0010
0100
,
0002
0000
0000
0003
0022
0000
0000
0033
0220
0000
0000
0330
2200
0000
0000
0000
,
0000
0000
0000
3300
1000
0000
0000
0000
0001
0000
0000
0000
0100
0000
0010
0000
,
1010
0000
1000
0000
1001
0000
0001
0010
,
0100
0100
1100
1000
,
1001
0000
0101
0000
1010
0000
1000
0001
,
0010
0010
0110
0100
,
1100
0000
1000
0000
1001
0000
0001
0100
,
0010
0010
1010
1000
,
1001
0000
0011
0000
1100
0000
1000
0001
,
0100
0000
0000
0000
0010
0000
0000
0000
1010
0000
0000
0000
1000
0000
0001
0010
,
0100
1000
1001
0000
0001
0100
0110
0000
,
0010
1000
1100
0000
0100
0010
0011
0000
,
0001
1000
1010
0000
0010
0100
0101
0000
,
0001
0000
1000
0000
1100
0000
0000
0000
0100
0000
0010
0001
1000
0010
0100
0010
,
1000
0010
0100
0001
0100
0010
1000
0100
0010
0001
0010
0100
1000
0010
0100
0001
0100
0010
1000
0100
0010
0001
0010
0100
,
2000
0000
3002
0023
0230
2300
3020
0000
,
1030
0100
0010
0001
0010
0100
1000
0010
0100
0001
0100
0010
1000
0100
0010
0001
0010
0100
1000
0010
0100
0001
0100
0010
,
2000
0000
0000
0000
3002
0000
0023
0000
0230
0000
0320
0000
0032
2003
3002
0000
,
0103
0010
1000
0001
0010
0100
0010
0001
1000
0010
0100
0001
0100
0010
1000
0001
0010
0100
0010
0001
1000
0010
0100
0001
,
0020
0000
0230
2300
3002
0203
0320
0000
,
0130
0010
0100
0001
0010
0100
1000
0010
0100
0010
1000
0001
0100
0010
0100
0001
0010
0100
1000
0010
0100
0010
1000
0001
,
0020
0000
0230
2300
3002
0203
0320
0000
,
2030
3200
0320
0032
,
0103
0010
0100
0010
0200
0000
0302
0000
,
1003
0100
1000
0100
1000
0000
0001
0000
,
0100
0000
0020
0000
1030
0100
0020
0000
,
0031
1000
0010
1000
0010
1000
0001
0000
,
0010
0100
1000
0100
1000
0100
0010
0000
,
0001
0100
0010
0100
0010
0100
0001
0000
,
1001
0000
1000
0000
0100
0000
0110
0000
0110
0000
0010
0001
1000
0010
1000
0001
,
0010
0100
1000
0010
0100
0001
1000
0100
1000
0001
0100
0010
1000
0100
1000
0001
,
0010
0001
0100
0010
1000
0100
0010
0100
1000
0010
0100
0001
1000
0100
0010
0001
1000
0001
2000
0000
0000
0000
0000
0000
,
3001
0100
0010
1000
0100
0010
0100
1000
0010
0100
0001
0010
0100
0010
0001
1000
0010
1000
0002
0000
0000
0000
0000
0000
,
0013
0001
1000
0100
1000
0001
0100
0010
1000
0100
0010
0001
1000
0010
0100
0001
,
0010
0100
1000
0001
0100
0010
0100
0001
0010
0100
1000
0001
1000
0010
0100
0010
,
0100
0010
1000
0100
0010
0001
1000
0010
0100
0010
1000
0100
0010
0001
1000
0010
1000
0001
0020
0000
0000
0000
0000
0000
,
0031
0010
0100
1000
0010
0100
0001
1000
0100
0010
0100
1000
0010
0100
0001
1000
0100
0010
0002
0000
0000
0000
0000
0000
,
1003
0100
0010
0100
1000
0001
0100
0010
1000
0001
1000
0010
1000
0001
0010
0100
0010
0001
0200
0000
0000
0000
0000
0000
,
0301
0100
0010
1000
0000
0000
0001
0010
0100
1000
0000
0000
0001
0100
0010
1000
0000
0000
0001
0010
0100
1000
0000
0000
,
0010
0100
0001
1000
0000
0000
0100
0010
0001
1000
0000
0000
0010
0100
0001
1000
0000
0000
0100
0010
0001
1000
0000
0000
,
0010
0100
0010
1000
0000
0000
0100
0010
0100
1000
0000
0000
0010
0100
0010
1000
0000
0000
0100
0010
0100
1000
0000
0000
,
0200
0000
0320
0000
0032
0000
0203
0320
,
1030
0000
0000
0000
1001
0000
0000
0001
0010
0000
0100
0000
1100
0000
0000
0000
,
1000
0000
0000
0000
1010
0000
0000
0010
0100
0000
0001
0000
0011
0000
0000
0000
,
0010
0000
0000
0000
0110
0000
0000
0100
1000
0000
0001
0000
0101
0000
0000
0000
,
1010
0000
1001
0001
1001
1000
1001
0000
;

//--------------- dance-single - J. Twerkowitz ----------------
#NOTEDATA:;
#STEPSTYPE:dance-single;
#DESCRIPTION:J. Twerkowitz;
#DIFFICULTY:Edit;
#METER:15;
#RADARVALUES:1,0.461,0.502,0.248,1;
#NOTES:
0000
0000
0000
0000
,
0000
0000
0000
0000
,
1000
0000
0000
0000
1100
0000
0000
0100
0010
0000
0001
0000
1001
0000
0000
0000
,
1000
0000
0000
0000
1010
0000
0000
0010
0100
0000
0001
0000
2001
0000
0000
0000
,
3100
0000
0000
0000
0110
0000
0000
0010
0001
0000
0100
0000
0110
0000
0000
0000
,
0010
0000
0000
0000
1010
0000
0000
1000
0001
0000
0010
0000
0110
0000
0000
0000
,
1100
0000
0000
0000
1001
0000
0000
0001
0100
0000
0010
0000
1010
0000
0000
0000
,
1001
0000
0000
0000
0011
0000
0000
0010
0100
0000
1000
0000
1010
0000
0000
0000
,
0110
0000
0000
0000
0101
0000
0000
0001
1000
0000
1100
0000
1100
0000
0000
0000
,
0100
0110
0010
0001
,
1000
0000
0010
0100
0000
0001
0000
0020
,
0000
0000
0130
1000
0001
0000
0100
0000
,
0010
0000
1000
0000
0001
0000
0010
0200
,
0000
0000
1300
0001
0100
0000
0010
0200
,
0000
0000
0301
0010
0000
0100
0000
2000
,
0000
0000
3010
0100
0001
0000
0010
0000
,
0200
0000
2300
0000
3020
0000
0130
0001
,
1001
0000
0100
1001
1001
0000
0100
0000
,
1010
0000
0001
0010
0100
1000
0010
0000
,
0101
0000
1000
0101
0101
0000
1000
0000
,
1100
0000
0100
0010
0001
0100
0010
0000
,
1010
0000
0001
1010
1010
0000
0001
0000
,
0011
0000
0000
0000
0020
0000
0000
0000
0230
0000
0000
0000
2300
0000
0000
3000
,
1010
0000
0010
1010
1010
0000
0010
0000
,
1001
0000
0100
0000
0010
0000
1001
0000
1001
0000
0001
0010
0100
1000
0100
0010
,
0001
1000
0010
0100
0010
1000
0001
0010
0100
1000
0001
1000
0010
0100
0001
1000
0100
0010
0100
1000
0001
0100
0010
1000
,
0001
0010
0100
1000
0010
0100
0001
1000
0100
0010
0100
1000
0001
0100
0010
1000
0100
0010
0001
0010
0100
1000
0001
1000
,
0010
0100
0001
0010
0100
0010
0001
1000
0010
0100
0001
1000
0100
0010
0100
1000
0010
0100
0001
1000
0100
0010
0001
1000
,
0010
0100
0001
1000
0100
0010
0001
1000
0010
0100
0010
1000
0001
0010
0100
1000
0001
1000
0010
0100
0001
1000
0100
1000
,
0010
0100
0010
1000
0001
0010
0100
0010
0001
1000
0100
1000
0001
0100
0010
0100
0001
1000
0100
0010
0001
0010
0100
1000
,
0010
0100
0001
0010
0100
1000
0001
0100
0001
1000
0100
1000
0010
0100
0001
0010
0100
1000
0001
0010
0001
1000
0010
1000
,
0100
0010
0001
0100
0010
0100
0001
1000
0100
0010
0100
1000
0010
0100
0001
0010
0100
0010
0001
1000
0010
0100
0010
1000
,
0001
1000
0100
0010
0001
0100
0010
0100
0001
1000
0100
0010
0001
1000
0010
0100
0001
0010
0100
0010
0001
1000
0010
0100
,
0002
0000
0000
0003
0022
0000
0000
0033
0220
0000
0000
0330
2200
0000
0000
0000
,
0000
0000
0000
3300
1000
0000
0000
0000
0001
0000
0100
0000
0110
0000
0000
0000
,
0010
0000
1010
1000
0001
0000
0010
0000
,
0100
0000
0000
0000
1000
0000
0000
0000
0010
0000
0000
0100
0000
0000
0001
0000
,
0000
1000
0100
0000
0020
0000
0032
2003
,
0000
3020
0030
0000
0200
0000
0302
0023
,
0130
1000
0100
1000
0100
1000
0100
1000
,
0001
0100
0001
0100
0001
0100
0001
0100
,
0010
1000
0010
1000
0010
1000
0010
1000
,
0100
0010
0100
0010
0100
0010
0100
0010
,
0011
0000
1000
0011
0011
0000
1000
0000
,
0101
0000
1000
0100
0010
0001
0100
0000
,
0110
0000
1000
0110
0110
0000
1000
0000
,
1001
0000
0001
0010
0100
1000
0010
0000
,
0101
0000
1000
0101
0101
0000
1000
0000
,
1100
0000
0000
0000
0200
0000
0000
0000
0320
0000
0000
0000
0032
0000
0000
0003
,
1001
0000
0010
1001
1001
0000
0010
0000
,
1001
0000
1000
0000
0100
0000
0110
0000
0110
0000
0010
0001
0010
0100
1000
0001
,
1000
0001
0100
0010
0100
0001
1000
0100
0010
0001
1000
0001
0100
0010
1000
0001
0010
0100
0010
0001
1000
0010
0100
0001
,
1000
0100
0010
0001
0100
0010
1000
0001
0010
0100
0010
0001
1000
0010
0100
0001
0010
0100
1000
0100
0010
0001
1000
0001
,
0100
0010
1000
0100
0010
0100
1000
0001
0100
0010
1000
0001
0010
0100
0010
0001
0100
0010
1000
0001
0010
0100
1000
0001
,
0100
0010
1000
0001
0010
0100
1000
0001
0100
0010
0100
0001
1000
0100
0010
0001
1000
0001
0100
0010
1000
0001
0010
0001
,
0100
0010
0100
0001
1000
0100
0010
0100
1000
0001
0010
0001
1000
0010
0100
0010
1000
0001
0010
0100
1000
0100
0010
0001
,
0100
0010
1000
0100
0010
0001
1000
0010
1000
0001
0010
0001
0100
0010
1000
0100
0010
0001
1000
0100
1000
0001
0100
0001
,
0010
0100
1000
0010
0100
0010
1000
0001
0010
0100
0010
0001
0100
0010
1000
0100
0010
0100
1000
0001
0100
0010
0100
0001
,
1000
0001
0010
0100
1000
0010
0100
0010
1000
0001
0010
0100
1000
0001
0100
0010
1000
0100
0010
0100
1000
0001
0100
0010
,
2000
0000
0000
3000
2200
0000
0000
3300
0220
0000
0000
0330
0022
0000
0000
0000
,
0000
0000
0000
0033
0001
0000
0000
0000
1000
0000
0000
0000
0010
0000
0100
0000
,
0101
0000
0001
0000
1001
0000
1000
0100
,
0010
0010
0011
0001
,
1001
0000
1010
0000
0101
0000
0001
1000
,
0100
0100
0110
0010
,
0011
0000
0001
0000
1001
0000
1000
0010
,
0100
0100
0101
0001
,
1001
0000
1100
0000
0011
0000
0001
1000
,
0010
0000
0000
0000
0100
0000
0000
0000
0101
0000
0000
0000
0001
0000
1000
0100
,
0010
0001
1001
0000
1000
0010
0110
0000
,
0100
0001
0011
0000
0010
0100
1100
0000
,
1000
0001
0101
0000
0100
0010
1010
0000
,
1000
0000
0001
0000
0011
0000
0000
0000
0010
0000
0100
1000
0001
0100
0010
0100
,
0001
0100
0010
1000
0010
0100
0001
0010
0100
1000
0100
0010
0001
0100
0010
1000
0010
0100
0001
0010
0100
1000
0100
0010
,
0001
1000
0010
0100
0001
1000
0100
0010
0001
0100
0010
1000
0001
0010
0100
1000
0001
1000
0010
0100
0001
0010
0100
0010
,
0001
0010
0100
1000
0100
0010
0001
0100
0010
1000
0010
0100
0001
0010
0100
1000
0100
0010
0001
0100
0010
1000
0010
0100
,
0001
1000
0100
0010
0100
1000
0001
0100
0010
0100
0001
0010
0100
1000
0001
0100
0010
1000
0100
0010
0001
0100
0010
1000
,
0010
0100
0001
1000
0100
0010
0100
1000
0001
0100
0010
1000
0010
0100
0001
1000
0100
0010
0100
1000
0001
0100
0010
1000
,
0001
0010
0100
1000
0010
0100
0001
1000
0100
0010
0100
1000
0001
0010
0100
1000
0010
0100
0001
1000
0100
0010
0100
1000
,
0010
0100
0010
1000
0100
0010
0001
0100
0010
0100
0001
1000
0010
0100
0010
1000
0100
0010
0001
0100
0010
0100
0001
1000
,
0100
0010
0100
1000
0001
1000
0010
0100
0001
1000
0100
0010
0100
0010
0100
1000
0001
1000
0010
0100
0001
0100
0010
1000
,
0002
0023
0230
2300
,
3010
0100
0010
0100
0020
0000
2030
0000
,
3001
0010
0001
0010
0001
0000
1000
0000
,
0010
0000
0200
0000
0301
0010
0200
0000
,
1300
0001
0100
0001
0100
0001
1000
0000
,
0100
0010
0001
0010
0001
0010
0100
0000
,
1000
0010
0100
0010
0100
0010
1000
0000
,
1001
0000
0001
0000
0010
0000
0110
0000
0110
0000
0100
1000
0001
0100
0001
1000
,
0100
0010
0001
0100
0010
1000
0001
0010
0100
1000
0010
0100
0001
1000
0100
0010
0100
1000
0001
0100
0010
1000
0001
0010
,
0100
1000
0010
0100
0001
0010
0100
0010
0001
0100
0010
1000
0001
0010
0100
1000
0001
1000
0010
0100
0001
1000
0100
0010
,
0001
0100
0010
1000
0100
0010
0100
1000
0010
0100
0001
0010
0100
0010
0001
1000
0010
1000
0001
0010
0100
1000
0001
1000
,
0010
0100
0001
1000
0100
0010
0001
0100
0010
1000
0001
1000
0100
0010
0001
0010
0100
1000
0010
0100
0001
0100
0010
1000
,
0001
0010
0100
1000
0010
0100
0001
0100
0010
1000
0100
0010
0001
1000
0010
0100
0001
1000
0100
0010
0100
1000
0001
1000
,
0010
0100
0001
0010
0100
1000
0001
0100
0010
0100
0001
0010
0100
1000
0001
0100
0001
1000
0100
0010
0001
1000
0010
1000
,
0001
0010
0100
1000
0010
0100
0001
1000
0100
0010
0100
1000
0010
0100
0001
1000
0100
0010
0100
1000
0001
0100
0010
1000
,
0001
0010
0100
0010
0001
1000
0010
0100
0001
1000
0001
0100
0001
1000
0100
0010
0100
1000
0010
0100
0001
1000
0100
0010
,
0001
0010
0100
1000
0010
0100
0010
1000
0001
1000
0100
0010
0001
0100
0010
1000
0100
0010
0001
0010
0100
1000
0001
1000
,
0010
0100
0001
0010
0100
1000
0010
0100
0001
0100
0010
1000
0100
0010
0001
0100
0010
1000
0100
0010
0100
1000
0001
1000
,
0010
0100
0001
0010
0100
1000
0010
0100
0001
0010
0100
1000
0100
0010
0001
0100
0010
1000
0100
0010
0001
0100
0010
1000
,
0200
0000
0320
0000
0032
0000
0203
0320
,
1030
0000
0000
0000
1001
0000
0000
0001
0010
0000
0100
0000
1100
0000
0000
0000
,
1000
0000
0000
0000
1010
0000
0000
0010
0100
0000
0001
0000
0011
0000
0000
0000
,
0010
0000
0000
0000
0110
0000
0000
0100
1000
0000
0001
0000
0101
0000
0000
0000
,
1010
0000
1001
0001
1001
1000
1001
0000
;

//--------------- dance-double - LinkDubs03 ----------------
#NOTEDATA:;
#STEPSTYPE:dance-double;
#DESCRIPTION:LinkDubs03;
#DIFFICULTY:Beginner;
#METER:2;
#RADARVALUES:0,0,0,0,0;
#NOTES:
00000000
00000000
00000000
00000000
,
00000000
00000000
00000000
00000000
,
00010000
00000000
01000000
00000000
,
00010000
00000000
00010000
00000000
,
10000000
00000000
00100000
00000000
,
10000000
00000000
10000000
00000000
,
00010000
00000000
01000000
00000000
,
00010000
00000000
00010000
00000000
,
00100000
00000000
00100000
00000000
,
00100000
00000000
00001000
00000000
,
00010000
00000000
00002000
00000000
,
00003000
00000000
00010000
00000000
,
00000100
00000000
00000020
00000000
,
00000030
00000000
00000001
00000000
,
00001000
00000000
00000200
00000000
,
00000300
00000000
00000010
00000000
,
00000100
00000000
00020000
00000000
,
00030000
00000000
00001000
00002000
,
00000000
00000000
00000000
00000000
,
00003000
00000000
01000000
02000000
,
00000000
00000000
00000000
00000000
,
03000000
00000000
00010000
00020000
,
00000000
00000000
00030000
00000000
,
10000000
00000000
00100000
00000000
,
02000000
00000000
03000000
00000000
,
00010000
00000000
01000000
00000000
,
00100000
00100000
00200000
00000000
,
00000000
00000000
00000000
00000000
,
00300000
00000000
01000000
00000000
,
00001000
00000000
01000000
00000000
,
00001000
00001000
00002000
00000000
,
00000000
00000000
00003000
00000000
,
00010000
00010000
00020000
00000000
,
00000000
00000000
00000000
00000000
,
00030000
00000000
00000100
00000000
,
00001000
00000000
00000010
00000000
,
00001000
00000000
00000100
00000000
,
00000010
00000000
00000100
00000000
,
00001000
00000000
00000001
00000000
,
00000200
00000000
00001000
00000000
,
00000001
00000000
00001000
00000000
,
00000301
00000000
00000100
00000000
,
00000010
00000000
00020000
00000000
,
00030000
00000000
00000010
00000000
,
00010000
00000000
00002000
00000000
,
00003000
00000000
01000000
00000000
,
00100000
00000000
20000000
00000000
,
30000000
00000000
00010000
00020000
,
00000000
00000000
00030000
00000000
,
01000000
00000000
00100000
00000000
,
20000000
00000000
30000000
00000000
,
01000000
00000000
00100000
00000000
,
00010000
00010000
00020000
00000000
,
00000000
00000000
00000000
00000000
,
00030000
00000000
10000000
00000000
,
01000000
00000000
00100000
00000000
,
00001000
00001000
00002000
00000000
,
00000000
00000000
00003000
00000000
,
00010000
00010000
00020000
00000000
,
00000000
00000000
00000000
00000000
,
00030000
00000000
00000100
00000000
,
00000010
00000000
00000001
00000000
,
00000100
00000000
00000020
00000000
,
00000030
00000000
00001000
00000000
,
00000100
00000000
00000020
00000000
,
00000030
00000000
00000001
00000000
,
00000100
00000000
00000020
00000000
,
00000030
00000000
00010000
00000000
,
00001000
00000000
00010000
00000000
,
00001000
00000000
00000000
01000000
00000000
00000000
00000000
00002000
,
00000000
00000000
00003000
00000000
,
00100000
00000000
00000000
01000000
00000000
00000000
00100000
00000000
,
00000000
02000000
00000000
00000000
03000000
00000000
00000000
00000000
,
10000000
00000000
00010000
00000000
,
01000000
00000000
01000000
00000000
,
00010000
00000000
10000000
00000000
,
00100000
00000000
00100000
00000000
,
10000000
00000000
00010000
00000000
,
00100000
00000000
00100000
00000000
,
00001000
00000000
00010000
00000000
,
00001000
00000000
00001000
00000000
,
00010000
00000000
00000010
00000000
,
00001000
00001000
00002000
00000000
,
00000000
00000000
00000000
00000000
,
00003000
00000000
00000010
00000000
,
00001000
00000000
00000010
00000000
,
00000100
00000100
00000200
00000000
,
00000000
00000000
00000000
00000000
,
00000000
00000000
00000300
00000000
,
00000001
00000000
00000100
00000000
,
00000010
00000010
00000020
00000000
,
00000000
00000000
00000000
00000000
,
00000030
00000000
00000100
00000000
,
00000010
00000000
00010000
00000000
,
00001000
00001000
00002000
00000000
,
00000000
00000000
00003000
00000000
,
01000000
01000000
02000000
00000000
,
00000000
00000000
03000000
00000000
,
00100000
00100000
00200000
00000000
,
00000000
00000000
00000000
00000000
,
00300000
00000000
10000000
00000000
,
00100000
00000000
01000000
00000000
,
00001000
00000000
00001000
00000000
,
01000000
00000000
00001000
00000000
,
00010000
00000000
00022000
00000000
,
00000000
00000000
00000000
00033000
;

//--------------- dance-double - LinkDubs08 ----------------
#NOTEDATA:;
#STEPSTYPE:dance-double;
#DESCRIPTION:LinkDubs08;
#DIFFICULTY:Easy;
#METER:5;
#RADARVALUES:0,0,0,0,0;
#NOTES:
00000000
00000000
00000000
00000000
,
00000000
00000000
00000000
00000000
,
00010000
10000000
00010000
01000000
,
00010000
00100000
00002000
00003000
,
00010000
00000100
00001000
00000010
,
00001000
00000001
00002000
00003000
,
00000001
00000010
00000100
00000010
,
00000001
00001000
00000020
00000030
,
00000100
00000010
00020000
00000000
,
00000000
00030000
00001000
00010000
,
00001000
00100000
00001000
01000000
,
00020000
00030000
10000000
00100000
,
01000000
00100000
10000000
00010000
,
20000000
30000000
00010000
10000000
,
01000000
00010000
01000000
10000000
,
00020000
00030000
00100000
00010000
,
01000000
00010000
00100000
00001000
,
00200000
00300000
00011000
00001000
,
00010000
00000100
00000010
00000002
,
00000000
00000003
00000110
00000100
,
00001000
00000100
00000001
00000200
,
00000000
00000300
00001001
00001001
,
00000000
00000001
00000010
00000100
,
00010000
00000100
00000010
00000100
,
00020000
00000000
00000000
00030000
,
00001000
00100000
00001000
00100000
,
00010000
00100000
00010000
00100000
00010000
00000000
10000000
00000000
,
00010000
10000000
00010000
10000000
00010000
00000000
02000000
00000000
,
03000000
00100000
01000000
00001000
,
00100000
00001000
00010000
00000010
,
00000100
00000010
00000100
00000010
00000100
00000000
00000001
00000000
,
00001000
00000001
00001000
00000001
00001000
00000000
00000100
00000000
,
00010000
00000100
00010000
00000100
00010000
00000000
00001000
00000000
,
00010000
00001000
00010000
00001000
00010000
00000000
00002000
00000000
,
00003000
00100000
00010000
10000000
,
02000000
03000000
00100000
00010000
,
00100000
00001000
01000000
00100000
,
02000000
03000000
00001000
00100000
,
00001000
00010000
00001000
00000010
,
00000200
00000300
00001000
00000001
,
00000100
00001000
00000100
00000001
,
00002000
00003000
00000100
00010000
,
00001000
00010000
00001000
00100000
,
00020000
00030000
01100000
01000000
,
10000000
01000000
00010000
02000000
,
00000000
03000000
01100000
01000000
,
00010000
01000000
10000000
02000000
,
00000000
03000000
10010000
10010000
,
00000000
00010000
01000000
00001000
,
00100000
00001000
01000000
00001000
,
00020000
00000000
00000000
00030000
,
00000010
00001000
00000100
00001000
,
00000010
00001000
00000010
00001000
00000010
00000000
00010000
00000000
,
00000100
00010000
00000100
00010000
00000100
00000000
00002000
00000000
,
00003000
00000010
00001000
00000001
,
00000100
00000010
00001000
00000001
,
00001000
00000001
00001000
00000001
00001000
00000000
00000010
00000000
,
00010000
00000010
00010000
00000010
00010000
00000000
00000100
00000000
,
00010000
00000100
00010000
00000100
00010000
00000000
00001000
00000000
,
00010000
00001000
00010000
00001000
00010000
00000000
00002000
00000000
,
00003000
00100000
01000000
00100000
,
01000000
10000000
00010000
00100000
,
01000000
00100000
00002000
00000000
,
00003000
01000000
00010000
00100000
,
00001000
00010000
00002000
00000000
,
00003000
00010000
00000100
00010000
,
00000010
00000100
00000020
00000000
,
00000030
00001000
00000001
00001000
,
00000010
00000100
00000010
00010000
,
00002000
00003000
00000000
00100000
00000000
01000000
00000000
00200000
,
00000000
00000000
00000000
00300000
,
00020000
00030000
00000000
20000000
30000000
00000000
00200000
00300000
,
00000000
02000000
00000000
00000000
00000000
00000000
03000000
00000000
,
00010000
10000000
00010000
00100000
,
01000000
00100000
00002000
00003000
,
01000000
00100000
01000000
00001000
,
00010000
00001000
00020000
00030000
,
00000100
00000010
00000100
00001000
,
00000001
00001000
00000020
00000030
,
00000100
00000010
00010000
00000010
,
00010000
00001000
00200000
00300000
,
00001000
00100000
01000000
10000000
,
01000000
10000000
01000000
10000000
01000000
00000000
00100000
00000000
,
01000000
00100000
01000000
00100000
01000000
00000000
20000000
00000000
,
30000000
00010000
01000000
00100000
,
10000000
00010000
01000000
00001000
,
00100000
00001000
00100000
00001000
00100000
00000000
00001000
00000000
,
00010000
00001000
00010000
00001000
00010000
00000000
00000020
00000000
,
00000000
00000000
00000000
00000030
,
00001000
00000010
00001000
00000001
,
00000100
00000001
00000100
00000001
00000100
00000000
00000010
00000000
,
00010000
00000010
00010000
00000010
00010000
00000000
00002000
00000000
,
00003000
00100000
00010000
10000000
,
00010000
00100000
01000000
10000000
,
01000000
10000000
01000000
10000000
01000000
00000000
00100000
00000000
,
00001000
00100000
00001000
00100000
00001000
00000000
00010000
00000000
,
00001000
00010000
00001000
00010000
00001000
00000000
00010000
00000000
,
00000010
00010000
00000010
00010000
00000010
00000000
00000100
00000000
,
00000001
00000100
00000001
00000100
00000001
00000000
00001000
00000000
,
00000010
00001000
00000010
00001000
00000010
00000000
00020000
00000000
,
00030000
00001000
00100000
00010000
,
01000000
00010000
00100000
01000000
,
10000000
01000000
00200000
00300000
,
00001000
00100000
01000000
00100000
,
00001000
00010000
00001000
00022000
,
00000000
00000000
00000000
00033000
;

//--------------- dance-double - LinkDubs10 ----------------
#NOTEDATA:;
#STEPSTYPE:dance-double;
#DESCRIPTION:LinkDubs10;
#DIFFICULTY:Medium;
#METER:7;
#RADARVALUES:0,0,0,0,0;
#NOTES:
00000000
00000000
00000000
00000000
,
00000000
00000000
00000000
00000000
,
00010000
00110000
00100000
00110000
,
00010000
00000000
01000000
00010000
01000000
00010000
01000000
00000000
,
00100000
10100000
10000000
10100000
,
00100000
00000000
01000000
00100000
01000000
00100000
01000000
00000000
,
00001000
00011000
00010000
00011000
,
00001000
00000000
00010000
00001000
00010000
00001000
00010000
00000000
,
00010010
00000000
00000010
00000100
00000010
00000100
00000010
00000000
,
00002002
00003003
00000001
00000100
,
00000010
00000000
00001000
00000010
00000000
00000100
00000000
00000002
,
00000000
00000003
00000010
00000100
,
00010000
00000000
00000100
00000000
00010000
00000000
00001000
00200000
,
00000000
00300000
00000000
00001000
00100000
00000000
00001000
00000020
,
00000030
00000000
00001000
00100000
00000000
00001000
00000000
00020000
,
00000000
00030000
00000100
00001000
,
00000001
00000000
00000010
00000000
00000100
00000000
00001000
00000200
,
00000000
00000300
00000010
00000100
,
00010000
00000000
00001000
00010000
00001000
00010000
00002000
00000000
,
00000000
00003000
00100000
00001000
,
00100000
00000000
01000000
00100000
01000000
00100000
02000000
00000000
,
00000000
03000000
01100000
01100000
,
00000000
00010000
01000000
00010000
,
00100000
00000000
01000000
00000000
00100000
00000000
00001000
00020000
,
00000000
00000000
00000000
00030000
,
00000100
00000010
00000001
00000010
,
00000100
00000010
00000100
00001000
00000100
00000000
00001000
00000000
,
00000001
00001000
00000001
00000100
00000001
00000000
00000200
00000000
,
00000300
00000000
00000010
00000000
00010000
00000010
00010000
00000000
,
00001000
00010000
00001000
01000000
,
00010000
01000000
00010000
00100000
00010000
00000000
00100000
00000000
,
01000000
00100000
01000000
10000000
01000000
00000000
10000000
00000000
,
00100000
10000000
00100000
01000000
00100000
00000000
01000000
00000000
,
00001000
01000000
00001000
00010000
00001000
00000000
00020000
00000000
,
00030000
00000000
00000100
00000000
00000010
00000000
00000001
00002000
,
00000000
00003000
00000010
00000100
,
00000001
00000000
00001000
00000000
00000010
00010000
00000000
00002000
,
00000000
00000000
00003000
00000000
00010000
00000000
00001000
00100000
,
00000000
00020000
00030000
00000000
10000000
00000000
01000000
20000000
,
00000000
30000000
00000000
01000000
10000000
00000000
01000000
00020000
,
00030000
00000000
01000000
10000000
00000000
00100000
00000000
20000000
,
00000000
30000000
00010000
00010000
,
00100000
00000000
00100000
00000000
00001000
00000000
00001000
00020000
,
00000000
00030000
00000100
00001000
,
00000001
00000000
00000010
00000001
00000010
00000001
00000020
00000000
,
00000000
00000030
00000100
00010000
,
00000100
00000000
00000010
00000100
00000010
00000100
00000020
00000000
,
00000000
00000030
00000110
00000110
,
00000000
00000001
00000010
00000100
,
00010000
00000000
00000010
00000000
00010000
00000000
00001000
00020000
,
00000000
00000000
00000000
00030000
,
00001000
00100000
01000000
10000000
,
00100000
10000000
00100000
01000000
00100000
00000000
01000000
00000000
,
00010000
01000000
00010000
10000000
00010000
00000000
20000000
00000000
,
30000000
00000000
00010000
00000000
01000000
00010000
01000000
00000000
,
00010000
10000000
01000000
00100000
,
00010000
00100000
00010000
01000000
00010000
00000000
01000000
00000000
,
00001000
01000000
00001000
00010000
00001000
00000000
00010000
00000000
,
00000100
00010000
00000100
00001000
00000100
00000000
00001000
00000100
,
00001000
00000001
00001000
00000010
00001000
00000000
00000020
00000000
,
00000030
00000000
00000100
00000000
00000001
00000000
00000010
00000002
,
00000003
00001000
00000010
00010000
,
00000100
00010000
00022000
00000000
,
00033000
00001000
00100000
01000000
,
10000000
01000000
02200000
00000000
,
03300000
00001000
01000000
00100000
,
10000000
00100000
02200000
00000000
,
03300000
00001000
00100000
01000000
,
00100000
00010000
10000000
01000000
,
00200000
00300000
00000000
01000000
00000000
10000000
00000000
00200000
,
00000000
00000000
00000000
00300000
,
02000000
03000000
00000000
00002000
00003000
00000000
00020000
00030000
,
00000000
00000020
00000000
00000000
00000000
00000000
00000030
00000000
,
00001000
00001001
00000001
00001001
,
00001000
00000000
00000010
00001000
00000010
00001000
00000010
00000000
,
00010000
00010010
00000010
00010010
,
00010000
00000000
00001000
00010000
00001000
00010000
00001000
00010000
,
00001000
00101000
00100000
00101000
,
00001000
00000000
01000000
00001000
01000000
00001000
01000000
00000000
,
00010000
01010000
01000000
01010000
,
00010000
00000000
10000000
00010000
10000000
00010000
10000000
00000000
,
01000000
00100000
00010000
00100000
,
01000000
00100000
01000000
10000000
01000000
00000000
10000000
00000000
,
00100000
10000000
00100000
01000000
00100000
00000000
02000000
00000000
,
03000000
00000000
00001000
00000000
01000000
00010000
01000000
00000000
,
00001000
01000000
00001000
00100000
,
00001000
00100000
00001000
00010000
00001000
00000000
00010000
00000000
,
00000100
00000010
00000100
00002000
,
00003000
00000001
00000010
00000100
,
00001000
00000010
00000100
00000001
,
00000100
00000001
00000100
00000010
00000100
00000000
00000010
00000000
,
00001000
00000010
00001000
00000100
00001000
00000000
00000200
00000000
,
00000300
00000000
00010000
00000000
00000100
00001000
00000100
00000000
,
00010000
00001000
00010000
00001000
,
01000000
00001000
01000000
00010000
01000000
00000000
00010000
00000000
,
00100000
00010000
00100000
01000000
00100000
00000000
01000000
00000000
,
10000000
01000000
10000000
00100000
10000000
00000000
00100000
00000000
,
01000000
00100000
01000000
00010000
01000000
00000000
00010000
00000000
,
00100000
00010000
00100000
00001000
00100000
00000000
00001000
00000000
,
00010000
00001000
00010000
00000100
00010000
00000000
00000200
00000000
,
00000300
00000000
00000010
00000000
00000001
00000000
00001000
00000020
,
00000030
00001010
00001000
00001010
,
00000010
00000000
00010000
00000010
00010000
00000010
00010000
00000000
,
00000100
00001100
00001000
00001100
,
00000100
00000000
00010000
00000100
00010000
00000100
00020000
00000000
,
00000000
00000000
00000000
00030000
;

//--------------- dance-double - Cut from J. Twerkowitz ----------------
#NOTEDATA:;
#STEPSTYPE:dance-double;
#DESCRIPTION:Cut from J. Twerkowitz;
#DIFFICULTY:Hard;
#METER:9;
#RADARVALUES:0,0,0,0,0;
#NOTES:
00000000
00000000
00000000
00000000
,
00000000
00000000
00000000
00000000
,
00010000
00000000
00000000
00000000
00110000
00000000
00000000
00100000
01000000
00000000
10000000
00000000
10010000
00000000
00000000
00000000
,
00010000
00000000
00000000
00000000
01010000
00000000
00000000
01000000
00010000
00000000
00100000
00000000
00102000
00000000
00000000
00000000
,
00013000
00000000
00000000
00000000
00011000
00000000
00000000
00000100
00010000
00000000
00000010
00000000
00000110
00000000
00000000
00000000
,
00000100
00000000
00000000
00000000
00000101
00000000
00000000
00000001
00001000
00000000
00000100
00000000
00000110
00000000
00000000
00000000
,
00010100
00000000
00000000
00000000
00011000
00000000
00000000
00100000
00010000
00000000
01000000
00000000
01010000
00000000
00000000
00000000
,
10010000
00000000
00000000
00000000
11000000
00000000
00000000
01000000
00100000
00000000
00010000
00000000
01010000
00000000
00000000
00000000
,
01100000
00000000
00000000
00000000
10100000
00000000
00000000
10000000
00100000
00000000
01100000
00000000
01100000
00000000
00000000
00000000
,
01000000
01100000
00010000
00100000
,
00001000
00000000
00010000
00001000
00000000
00010000
00000000
00000200
,
00000000
00000000
00000310
00000001
00001000
00000000
00000010
00000000
,
00000100
00000000
00000001
00000000
00001000
00000000
00000100
00000020
,
00000000
00000000
00000130
00010000
00000100
00000000
00010000
00002000
,
00000000
00000000
00103000
01000000
00000000
00100000
00000000
00020000
,
00000000
00000000
01030000
00100000
10000000
00000000
01000000
00000000
,
00200000
00000000
00320000
00000000
02030000
00000000
03100000
10000000
,
10010000
00000000
00010000
01010000
01010000
00000000
01000000
00000000
,
01001000
00000000
00001000
00010000
00001000
00010000
00001000
00000000
,
00011000
00000000
00000010
00010010
00010010
00000000
00010000
00000000
,
00010100
00000000
00000100
00001000
00000010
00001000
00000010
00000000
,
00000101
00000000
00001000
00000101
00000101
00000000
00001000
00000000
,
00001100
00000000
00000000
00000000
00000200
00000000
00000000
00000000
00000320
00000000
00000000
00000000
00000230
00000000
00000000
00000300
,
00010100
00000000
00010000
00011000
00011000
00000000
00001000
00000000
,
01001000
01000000
00010000
01010000
01010000
01000000
00010000
01000000
,
00010000
10000000
01000000
10000000
00100000
10000000
01000000
10000000
,
00010000
01000000
00010000
10000000
01000000
10000000
00010000
01000000
00010000
20000000
00000000
00000000
,
30010000
00100000
00010000
10000000
00100000
10000000
00010000
00100000
00010000
20000000
00000000
00000000
,
30010000
01000000
00010000
01000000
00010000
00100000
00001000
00100000
,
00001000
00010000
00001000
00010000
00000100
00010000
00000100
00001000
,
00000100
00010000
00000100
00001000
00000100
00010000
00000100
00001000
00000100
00020000
00000000
00000000
,
00030010
00001000
00000010
00000100
00000010
00001000
00000010
00000100
00000010
00002000
00000000
00000000
,
00003001
00001000
00000001
00000100
00000001
00001000
00000001
00000100
00000001
00001000
00000001
00000100
,
00000002
00000000
00000000
00000003
00000202
00000000
00000000
00000303
00000220
00000000
00000000
00000330
00020020
00000000
00000000
00000000
,
00000000
00000000
00000000
00030030
00010000
00000000
00000000
00000000
00001000
00000000
00100000
00000000
00110000
00000000
00000000
00000000
,
00010000
00000000
10010000
10000000
01000000
00000000
00100000
00000000
,
00001000
00000000
00000000
00000000
00100000
00000000
00000000
00000000
01000000
00000000
00000000
10000000
00000000
00000000
01000000
00000000
,
00000000
00100000
00001000
00000000
00200000
00000000
00302000
00023000
,
00000000
00032000
00003000
00000000
00020000
00000000
00030020
00000230
,
00000310
00001000
00000010
00001000
00000010
00001000
00000010
00001000
,
00000001
00000010
00000001
00000010
00000001
00000010
00000001
00000010
,
00000100
00001000
00000100
00001000
00000100
00001000
00000100
00001000
,
00000010
00010000
00000010
00010000
00000010
00010000
00000010
00010000
,
00010010
00000000
00010000
00010100
00010100
00000000
00010000
00000000
,
00011000
00000000
01000000
00001000
01000000
00001000
00100000
00000000
,
00110000
00000000
10000000
10010000
10010000
00000000
01000000
00000000
,
10010000
00000000
00010000
01000000
00100000
10000000
01000000
00000000
,
00110000
00000000
10000000
00110000
00110000
00000000
10000000
00000000
,
10100000
00000000
00000000
00000000
00200000
00000000
00000000
00000000
02300000
00000000
00000000
00000000
03002000
00000000
00000000
00003000
,
00011000
00000000
00010000
00011000
00011000
00000000
00000100
00000000
,
00010100
00010000
00000100
00000110
00000110
00000010
00000001
00000100
,
00000010
00001000
00000001
00000010
00000100
00000010
00000001
00001000
,
00000001
00000010
00000100
00001000
00000100
00000010
00000001
00000010
00000100
00002000
00000000
00000000
,
00003001
00000100
00000010
00001000
00000010
00000100
00000001
00000100
00000010
00002000
00000000
00000000
,
00003010
00000100
00000010
00010000
00000100
00000010
00000100
00010000
,
00001000
00010000
00001000
01000000
00001000
01000000
00010000
01000000
,
00100000
01000000
00010000
00100000
01000000
10000000
00010000
01000000
00010000
20000000
00000000
00000000
,
30100000
01000000
00010000
00100000
01000000
00100000
00010000
10000000
00100000
20000000
00000000
00000000
,
30010000
10000000
01000000
00100000
00010000
01000000
00100000
01000000
00010000
10000000
01000000
00100000
,
00020000
00000000
00000000
00030000
00220000
00000000
00000000
00330000
00202000
00000000
00000000
00303000
00022000
00000000
00000000
00000000
,
00000000
00000000
00000000
00033000
00010000
00000000
00000000
00000000
00000010
00000000
00000000
00000000
00000100
00000000
00000010
00000000
,
00001010
00000000
00001000
00000000
00001001
00000000
00000001
00000010
,
00000100
00000100
00010100
00010000
,
00011000
00000000
00011000
00000000
00101000
00000000
00100000
00001000
,
00100000
00100000
01100000
01000000
,
11000000
00000000
10000000
00000000
10010000
00000000
00010000
01000000
,
00100000
00100000
10100000
10000000
,
10010000
00000000
00110000
00000000
11000000
00000000
10000000
00010000
,
01000000
00000000
00000000
00000000
00100000
00000000
00000000
00000000
10100000
00000000
00000000
00000000
10000000
00000000
00010000
00100000
,
01000000
00100000
00101000
00000000
00001000
00010000
00011000
00000000
,
00000010
00010000
00010100
00000000
00000100
00000010
00000011
00000000
,
00000001
00001000
00001010
00000000
00000010
00000100
00000101
00000000
,
00000001
00001000
00001100
00000000
00000100
00000010
00000001
00001000
,
00000001
00000010
00000100
00001000
00000100
00000010
00000001
00000100
00000010
00001000
00000010
00000100
,
00000002
00000000
00002003
00003020
00020030
00032000
00203000
00000000
,
00310000
01000000
00100000
10000000
00100000
01000000
00010000
00100000
01000000
10000000
01000000
00100000
,
00020000
00000000
00000000
00000000
20030000
00000000
30200000
00000000
02300000
00000000
03200000
00000000
20300000
30020000
20030000
00000000
,
31000000
00100000
00010000
10000000
00100000
01000000
00100000
10000000
00010000
00100000
01000000
10000000
,
00200000
00000000
02300000
03002000
00203000
02300000
03200000
00000000
,
01300000
00100000
01000000
10000000
00100000
01000000
00010000
00100000
01000000
00100000
00010000
10000000
,
00200000
00000000
02300000
03020000
00230000
00302000
00023000
00000000
,
00032000
00023000
00030020
00020030
,
00030100
00001000
00000100
00001000
00000200
00000000
00000320
00000000
,
00000031
00000010
00000001
00000010
00000001
00000000
00001000
00000000
,
00000100
00000000
00000020
00000000
00000031
00000100
00000020
00000000
,
00001030
00000100
00001000
00000100
00010000
00001000
00010000
00000000
,
00001000
00010000
00001000
00100000
00010000
00100000
00010000
00000000
,
10000000
01000000
00100000
01000000
00100000
01000000
10000000
00000000
,
10010000
00010000
01000000
01100000
01100000
00100000
10000000
00010000
,
00100000
00001000
00010000
00001000
00010000
00000100
00001000
00000010
,
00001000
00000001
00000100
00000010
00001000
00000100
00000010
00000100
00001000
00000002
00000000
00000000
,
00001003
00000100
00000010
00000001
00000100
00000010
00000100
00000001
00000010
00000002
00000000
00000000
,
00000013
00000100
00010000
00000100
00010000
00001000
00010000
00001000
,
00100000
00010000
00100000
01000000
10000000
00100000
01000000
00010000
,
01000000
00100000
10000000
01000000
00100000
00010000
10000000
00100000
01000000
00200000
00000000
00000000
,
10300000
00100000
01000000
00010000
00100000
01000000
10000000
00010000
01000000
00020000
00000000
00000000
,
01030000
00001000
00010000
00001000
00100000
00001000
01000000
00001000
00100000
00002000
00000000
00000000
,
00103000
00001000
00000000
01000000
00001000
00000000
00010000
00001000
00000000
00010000
00001000
00000000
,
00010000
00000010
00000000
00001000
00000010
00000000
00000100
00000010
00000000
00001000
00000010
00000000
,
00010000
00010000
00000000
00000100
00000100
00000000
00001000
00001000
00000000
00000001
00000001
00000000
,
00000200
00000000
00000320
00000000
00002030
00000000
00003200
00000320
,
00000031
00000000
00000000
00000000
00001001
00000000
00000000
00001000
00000010
00000000
00000100
00000000
00000110
00000000
00000000
00000000
,
00000010
00000000
00000000
00000000
00010010
00000000
00000000
00010000
00000010
00000000
00010000
00000000
00011000
00000000
00000000
00000000
,
00010000
00000000
00000000
00000000
00011000
00000000
00000000
01000000
00001000
00000000
00100000
00000000
00101000
00000000
00000000
00000000
,
00110000
00000000
10010000
10000000
11000000
01000000
11000000
00000000
;
