#TITLE:Death by Glamour;
#SUBTITLE:;
#ARTIST:Toby Fox;
#TITLETRANSLIT:;
#SUBTITLETRANSLIT:;
#ARTISTTRANSLIT:;
#GENRE:;
#CREDIT:;
#MUSIC:Death by Glamour.mp3;
#BANNER:Death by Glamour-bn.png;
#BACKGROUND:Death by Glamour-bg.png;
#CDTITLE:;
#SAMPLESTART:110.295;
#SAMPLELENGTH:13.000;
#SELECTABLE:YES;
#OFFSET:1.576;
#BPMS:0.000=148.000;
#STOPS:;
#BGCHANGES:;
#FGCHANGES:;

//--------------- dance-single - LinkDude03 ----------------
#NOTES:
     dance-single:
     LinkDude03:
     Beginner:
     2:
     0.18353,0.20793,0.074261,0,0,173,163,10,0,0,0,0.18353,0.20793,0.074261,0,0,173,163,10,0,0,0:
0000
0000
0000
0000
,
0000
0000
0000
0000
,
0000
0000
0000
0000
,
0000
0000
0000
0000
,
0000
0000
0000
0000
,
0001
0000
0000
0000
0001
0000
0000
1000
,
0000
0000
1000
0000
,
0001
0000
0000
0000
0001
0000
0000
0010
,
0000
0000
0010
0000
,
0100
0000
0000
0000
0100
0000
0000
1000
,
0000
0000
1000
0000
,
0010
0000
0000
0000
0010
0000
0000
0100
,
0000
0000
0100
0000
,
0010
0000
0000
0000
0100
0000
0000
0010
,
0000
0000
0100
0000
,
0001
0000
0000
0000
0010
0000
0000
0001
,
0000
0000
0010
0000
,
0100
0000
0000
0000
1000
0000
0000
0100
,
0000
0000
1000
0000
,
0010
0000
0000
0000
0100
0000
0000
0010
,
0000
0000
0100
0000
,
0001
0000
0000
0000
0010
0000
0000
0001
,
0000
0000
0010
0000
,
0100
0000
0000
0000
1000
0000
0000
0100
,
0000
0000
1000
0000
,
0001
0001
0000
0000
,
1000
1000
0000
0000
,
0110
0000
0000
0000
,
1000
0001
1000
0000
,
0010
0010
0000
0000
,
0100
0100
0000
0000
,
1001
0000
0000
0000
,
0100
0010
0100
0000
,
0001
0001
0000
0000
,
1000
1000
0000
0000
,
0110
0000
0000
0000
,
1000
0001
1000
0000
,
0010
0010
0000
0000
,
0100
0100
0000
0000
,
1001
0000
0000
0000
,
0110
0000
0000
0000
,
0001
0000
0100
0000
,
0010
0000
1000
0000
,
0100
0000
0010
0000
,
1001
0000
0000
0000
,
1000
0000
0100
0000
,
0010
0000
0001
0000
,
0100
0000
0010
0000
,
1001
0000
0000
0000
,
0001
0000
0010
0000
,
0100
0000
1000
0000
,
0010
0000
0100
0000
,
1001
0000
0000
0000
,
1000
0000
0010
0000
,
0100
0000
0001
0000
,
0010
0000
0100
0000
,
1001
0000
0000
0000
,
1000
0100
1000
0000
,
0001
1000
0001
0000
,
1000
0010
1000
0000
,
0001
1000
0001
0000
,
0100
0001
0100
0000
,
0001
1000
0001
0000
,
0010
0001
0010
0000
,
0001
1000
0001
0000
,
1000
0010
1000
0000
,
0001
1000
0001
0000
,
1000
0100
1000
0000
,
0001
1000
0001
0000
,
0010
0001
0010
0000
,
0001
1000
0001
0000
,
0100
0001
0100
0000
,
0001
1000
0001
0000
,
1000
0000
0000
0000
0010
0000
0000
1000
,
0000
0000
0010
0000
,
0100
0000
0000
0000
0001
0000
0000
0100
,
0000
0000
0001
0000
,
1000
0000
0000
0000
0100
0000
0000
1000
,
0000
0000
0100
0000
,
0010
0000
0000
0000
0001
0000
0000
0010
,
0000
0000
0001
0000
,
0110
0000
0000
0000
;

//--------------- dance-single - LinkDude06 ----------------
#NOTES:
     dance-single:
     LinkDude06:
     Easy:
     4:
     0.248242,0.27068,0.007426,0.415859,0.148521,234,233,1,56,0,0,0.248242,0.27068,0.007426,0.415859,0.148521,234,233,1,56,0,0:
0000
0000
0000
0000
,
0000
0000
0000
0000
,
0000
0000
0000
0000
,
0000
0000
0000
0000
,
0000
0000
0000
0000
,
0001
0000
1000
0000
0002
0003
0000
2000
,
3000
0100
1000
0000
,
0001
0000
0010
0000
0002
0003
0000
0020
,
0030
0100
0010
0000
,
0001
0000
1000
0000
0002
0003
0000
2000
,
3000
0010
1000
0000
,
0001
0000
0100
0000
0002
0003
0000
0200
,
0300
0010
0100
0000
,
0010
0000
1000
0000
0002
0003
0000
0200
,
0300
0001
1000
0000
,
0001
0000
0010
0000
0200
0300
0000
0020
,
0030
0100
1000
0000
,
0100
0000
1000
0000
0002
0003
0000
0020
,
0030
0001
1000
0000
,
0001
0000
0100
0000
0020
0030
0000
0200
,
0300
0010
1000
0000
,
0001
0000
0000
0000
1000
0000
0000
0000
0010
0000
0000
1000
0000
0000
0002
0000
,
0003
0000
0000
0000
1000
0000
0000
0000
0001
0000
0000
0200
0300
0000
0000
0000
,
0001
0000
0000
0000
1000
0000
0000
0000
0010
0000
0000
1000
0000
0000
0002
0000
,
0003
0000
0000
0000
1000
0000
0000
0000
0001
0000
0000
0200
0300
0000
0000
0000
,
0001
0000
0000
0000
0010
0000
0000
0002
0000
0000
0000
0000
0003
0000
0000
0000
,
1000
0000
0000
0000
0100
0000
0000
2000
0000
0000
0000
0000
3000
0000
0000
0000
,
0200
0300
0000
0000
,
1000
0000
0000
0001
0000
0000
1000
0000
0001
0000
0000
0000
0000
0000
0000
0000
,
1000
0000
0000
0000
0010
0000
0000
2000
0000
0000
0000
0000
3000
0000
0000
0000
,
0001
0000
0000
0000
0100
0000
0000
0002
0000
0000
0000
0000
0003
0000
0000
0000
,
0200
0300
0000
0000
,
0001
0000
0000
1000
0000
0000
0001
0000
1000
0000
0000
0000
0000
0000
0000
0000
,
0001
0000
0000
0000
0100
0000
0000
0002
0000
0000
0000
0000
0003
0000
0000
0000
,
1000
0000
0000
0000
0010
0000
0000
2000
0000
0000
0000
0000
3000
0000
0000
0000
,
0020
0030
0000
0000
,
1000
0000
0000
0001
0000
0000
1000
0000
0001
0000
0000
0000
0000
0000
0000
0000
,
1000
0000
0000
0000
0100
0000
0000
2000
0000
0000
0000
0000
3000
0000
0000
0000
,
0001
0000
0000
0000
0010
0000
0000
0002
0000
0000
0000
0000
0003
0000
0000
0000
,
2000
3000
0200
0300
,
0020
0030
0110
0000
,
0001
0000
1000
0000
,
0100
1000
0001
0010
,
0001
0000
1000
0000
,
0010
0010
0010
0000
,
1000
0000
0001
0000
,
0010
0001
1000
0100
,
1000
0000
0001
0000
,
0100
0100
0100
0000
,
0001
0000
1000
0000
,
0010
1000
0010
1000
,
0001
0000
1000
0000
,
0100
0100
0100
0000
,
1000
0000
0001
0000
,
0100
0001
0100
0001
,
1000
0000
0001
0000
,
1000
0000
0000
0001
0000
0000
2000
0000
3000
0000
0000
0000
0001
0000
0000
0000
,
1000
0000
0000
0000
0001
0000
0000
2000
0000
0000
0000
0000
3000
0000
0000
0000
,
0001
0000
0000
0000
1000
0000
0000
0002
0000
0000
0000
0000
0003
0000
0000
0000
,
1000
0000
0000
0020
0030
0000
0000
0000
1000
0000
0000
0000
0000
0000
0000
0000
,
0010
0000
0000
2000
3000
0000
0000
0000
0010
0000
0000
0000
0000
0000
0000
0000
,
0100
0000
0000
0000
0010
0000
0000
0200
0000
0000
0000
0000
0300
0000
0000
0000
,
0010
0000
0000
0000
0100
0000
0000
0020
0000
0000
0000
0000
0030
0000
0000
0000
,
0100
0000
0000
0002
0003
0000
0000
0000
0100
0000
0000
0000
0000
0000
0000
0000
,
0001
0000
0000
0200
0300
0000
0000
0000
0001
0000
0000
0000
0000
0000
0000
0000
,
1000
0000
0000
0000
0001
0000
0000
2000
0000
0000
0000
0000
3000
0000
0000
0000
,
0001
0000
0000
0000
1000
0000
0000
0002
0000
0000
0000
0000
0003
0000
0000
0000
,
1000
0000
0000
0200
0300
0000
0000
0000
1000
0000
0000
0000
0000
0000
0000
0000
,
0100
0000
0000
2000
3000
0000
0000
0000
0100
0000
0000
0000
0000
0000
0000
0000
,
0010
0000
0000
0000
0100
0000
0000
0020
0000
0000
0000
0000
0030
0000
0000
0000
,
0100
0000
0000
0000
0010
0000
0000
0200
0000
0000
0000
0000
0300
0000
0000
0000
,
0010
0000
0000
0002
0003
0000
0000
0000
0010
0000
0000
0000
0000
0000
0000
0000
,
0001
0000
0000
0020
0030
0000
0000
0000
0001
0000
0000
0000
0000
0000
0000
0000
,
1000
0000
0000
0000
0001
0000
0000
0000
0010
0000
0000
0001
0000
0000
2000
0000
,
3000
0000
0000
0000
0001
0000
0000
0000
1000
0000
0000
0100
0000
0000
0000
0000
,
1000
0000
0000
0000
0001
0000
0000
0000
0010
0000
0000
0001
0000
0000
2000
0000
,
3000
0000
0000
0000
0001
0000
0000
0000
1000
0000
0000
0100
0000
0000
0000
0000
,
1000
0000
0000
0000
0001
0000
0000
0000
0100
0000
0000
0001
0000
0000
2000
0000
,
3000
0000
0000
0000
0001
0000
0000
0000
1000
0000
0000
0010
0000
0000
0000
0000
,
1000
0000
0000
0000
0001
0000
0000
0000
0100
0000
0000
0001
0000
0000
2000
0000
,
3000
0000
0000
0000
0001
0000
0000
0000
1000
0000
0000
0010
0000
0000
0000
0000
,
2000
0000
0000
0000
,
3000
0000
0000
0000
;

//--------------- dance-single - LinkDude09 ----------------
#NOTES:
     dance-single:
     LinkDude09:
     Medium:
     6:
     0.352207,0.386155,0.074261,0.170799,0.237634,332,322,10,23,0,0,0.352207,0.386155,0.074261,0.170799,0.237634,332,322,10,23,0,0:
0000
0000
0000
0000
,
0000
0000
0000
0000
,
0000
0000
0000
0000
,
0000
0000
0000
0000
,
0000
0000
0000
0000
,
0001
0000
0000
0000
1000
0000
0000
0000
0010
0000
0000
1000
0000
0000
0001
0000
,
0000
0000
0000
0000
1000
0000
0000
0000
0001
0000
0000
0100
0000
0000
0000
0000
,
0001
0000
0000
0000
1000
0000
0000
0000
0010
0000
0000
1000
0000
0000
0001
0000
,
0000
0000
0000
0000
1000
0000
0000
0000
0001
0000
0000
0100
0000
0000
0000
0000
,
0001
0000
0000
0000
1000
0000
0000
0000
0100
0000
0000
1000
0000
0000
0001
0000
,
0000
0000
0000
0000
1000
0000
0000
0000
0001
0000
0000
0010
0000
0000
0000
0000
,
0001
0000
0000
0000
1000
0000
0000
0000
0100
0000
0000
1000
0000
0000
0001
0000
,
0000
0000
0000
0000
1000
0000
0000
0000
0001
0000
0000
0010
0000
0000
0000
0000
,
0001
0000
0000
0000
1000
0000
0000
0000
0010
0000
0000
1000
0000
0000
0001
0000
,
0000
0000
0100
0000
0001
0000
0000
0000
1000
0000
0000
0010
0000
0000
0000
0000
,
1000
0000
0000
0000
0001
0000
0000
0000
0100
0000
0000
0001
0000
0000
1000
0000
,
0000
0000
0010
0000
1000
0000
0000
0000
0001
0000
0000
0100
0000
0000
0000
0000
,
0001
0000
0000
0000
1000
0000
0000
0000
0100
0000
0000
1000
0000
0000
0001
0000
,
0000
0000
0010
0000
0001
0000
0000
0000
1000
0000
0000
0100
0000
0000
0000
0000
,
1000
0000
0000
0000
0001
0000
0000
0000
0010
0000
0000
0001
0000
0000
1000
0000
,
0000
0000
0100
0000
1000
0000
0000
0000
0001
0000
0000
0010
0000
0000
0000
0000
,
0001
0000
0000
0000
1000
0000
0000
0000
0010
0000
0000
1000
0000
0000
0001
0000
,
0000
0000
0100
0000
0001
0000
0000
0000
1000
0000
0000
0010
0000
0000
0000
0000
,
1000
0000
0000
0000
0001
0000
0000
0000
0100
0000
0000
0001
0000
0000
1000
0000
,
0000
0000
0010
0000
1000
0000
0000
0000
0001
0000
0000
0100
0000
0000
0000
0000
,
0011
0000
0000
0000
0010
0000
0000
0001
0000
0010
0000
0000
0001
0000
0000
0000
,
1100
0000
0000
0000
0100
0000
0000
1000
0000
0100
0000
0000
1000
0000
0000
0000
,
0200
0300
0000
0000
,
1000
0000
0000
0001
0000
0000
1000
0000
0001
0000
0000
0000
1000
0000
0000
0000
,
0101
0000
0000
0000
0100
0000
0000
0001
0000
0100
0000
0000
0001
0000
0000
0000
,
1010
0000
0000
0000
0010
0000
0000
1000
0000
0010
0000
0000
1000
0000
0000
0000
,
0020
0030
0000
0000
,
1000
0000
0000
0001
0000
0000
1000
0000
0001
0000
0000
0000
1000
0000
0000
0000
,
0011
0000
0000
0000
0010
0000
0000
0001
0000
0010
0000
0000
0001
0000
0000
0000
,
1100
0000
0000
0000
0100
0000
0000
1000
0000
0100
0000
0000
1000
0000
0000
0000
,
0200
0300
0000
0000
,
1000
0000
0000
0001
0000
0000
1000
0000
0001
0000
0000
0000
1000
0000
0000
0000
,
1010
0000
0000
0000
0010
0000
0000
1000
0000
0010
0000
0000
1000
0000
0000
0000
,
0101
0000
0000
0000
0100
0000
0000
0001
0000
0100
0000
0000
0001
0000
0000
0000
,
2000
3000
0002
0003
,
0020
0000
0030
0000
0011
0000
0001
0010
,
0002
0003
2000
3000
,
0010
1000
0100
0010
,
0002
0003
0100
0001
,
1000
1000
0001
0001
2000
0000
3000
0000
,
0020
0030
2000
3000
,
0010
1000
0001
1000
,
0020
0030
0200
0300
,
0001
0001
1000
1000
0020
0000
0030
0000
,
0200
0300
0002
0003
,
0100
0001
0010
0100
,
2000
3000
0010
1000
,
0100
0100
1000
1000
0002
0000
0003
0000
,
0200
0300
0002
0003
,
0100
0001
1000
0001
,
0200
0000
0300
0000
0020
0000
0030
1000
,
0001
0000
0000
1000
0000
0000
0001
0000
1000
0000
0000
0000
0001
0000
0000
0000
,
1000
0000
0000
0000
0001
0000
0000
1000
0000
0000
0000
0000
0100
0000
0010
0000
,
0001
0000
0000
0000
1000
0000
0000
0001
0000
0000
0000
0000
0100
0000
0010
0000
,
1000
0000
0000
0001
0000
0000
1000
0000
0000
0000
0000
0000
0100
0000
0010
0000
,
0001
0000
0000
1000
0000
0000
0001
0000
0000
0000
0000
0000
0100
0000
0010
0000
,
0000
0000
1000
0000
0001
0000
0000
1000
0000
0000
0000
0000
0100
0000
0010
0000
,
0001
0000
0000
0000
1000
0000
0000
0001
0000
0000
0000
0000
0100
0000
0010
0000
,
1000
0000
0000
0001
0000
0000
1000
0000
0000
0000
0000
0000
0100
0000
0010
0000
,
0001
0000
0000
1000
0000
0000
0001
0000
0000
0000
0000
0000
0100
0000
0010
0000
,
1000
0000
0000
0000
0001
0000
0000
1000
0000
0000
0000
0000
0010
0000
0100
0000
,
0001
0000
0000
0000
1000
0000
0000
0001
0000
0000
0000
0000
0010
0000
0100
0000
,
1000
0000
0000
0001
0000
0000
1000
0000
0000
0000
0000
0000
0010
0000
0100
0000
,
0001
0000
0000
1000
0000
0000
0001
0000
0000
0000
0000
0000
0010
0000
0100
0000
,
0000
0000
1000
0000
0001
0000
0000
1000
0000
0000
0000
0000
0010
0000
0100
0000
,
0001
0000
0000
0000
1000
0000
0000
0001
0000
0000
0000
0000
0010
0000
0100
0000
,
1000
0000
0000
0001
0000
0000
1000
0000
0000
0000
0000
0000
0010
0000
0100
0000
,
0001
0000
0000
1000
0000
0000
0001
0000
0000
0000
0000
0000
0010
0000
0100
0000
,
1000
0000
0000
0000
0001
0000
0000
0000
0100
0000
0000
0001
0000
0000
1000
0000
,
0000
0000
0010
0000
1000
0000
0000
0000
0001
0000
0000
0100
0000
0000
0000
0000
,
0001
0000
0000
0000
1000
0000
0000
0000
0010
0000
0000
1000
0000
0000
0001
0000
,
0000
0000
0100
0000
0001
0000
0000
0000
1000
0000
0000
0010
0000
0000
0000
0000
,
1000
0000
0000
0000
0001
0000
0000
0000
0010
0000
0000
0001
0000
0000
1000
0000
,
0000
0000
0100
0000
1000
0000
0000
0000
0001
0000
0000
0010
0000
0000
0000
0000
,
0001
0000
0000
0000
1000
0000
0000
0000
0100
0000
0000
1000
0000
0000
0001
0000
,
0000
0000
0010
0000
0001
0000
0000
0000
1000
0000
0000
0100
0000
0000
0000
0000
,
2002
0000
0000
0000
,
3003
0000
0000
0000
;

//--------------- dance-single - LinkDude12 ----------------
#NOTES:
     dance-single:
     LinkDude12:
     Hard:
     8:
     0.45405,0.594084,0.066834,0.148521,0.345312,428,419,9,20,4,0,0.45405,0.594084,0.066834,0.148521,0.345312,428,419,9,20,4,0:
0000
0000
0000
0000
,
0000
0000
0000
0000
,
0000
0000
0000
0000
,
0000
0000
0000
0000
,
0000
0000
0000
0000
,
0001
0000
0000
0000
1000
0000
0000
0000
0010
0000
0000
1000
0000
0000
0001
0000
,
0000
0000
0100
0000
0001
0000
0000
0000
1000
0000
0000
0010
0000
0000
0000
0000
,
1000
0000
0000
0000
0001
0000
0000
0000
0100
0000
0000
0001
0000
0000
1000
0000
,
0000
0000
0010
0000
1000
0000
0000
0000
0001
0000
0000
0100
0000
0000
0000
0000
,
0001
0000
0000
0000
1000
0000
0000
0000
0100
0000
0000
1000
0000
0000
0001
0000
,
0000
0000
0010
0000
0001
0000
0000
0000
1000
0000
0000
0100
0000
0000
0000
0000
,
1000
0000
0000
0000
0001
0000
0000
0000
0010
0000
0000
0001
0000
0000
1000
0000
,
0000
0000
0100
0000
1000
0000
0000
0000
0001
0000
0000
0010
0000
0000
0000
0000
,
0001
0000
0010
0000
0001
0000
0000
0000
0010
0000
0000
0001
0000
0000
0100
0000
,
0000
0000
0001
0000
0100
0000
0000
0000
0001
0000
0000
0100
0000
0000
0000
0000
,
0010
0000
0100
0000
0010
0000
0000
0000
0100
0000
0000
0010
0000
0000
1000
0000
,
0000
0000
0010
0000
1000
0000
0000
0000
0010
0000
0000
1000
0000
0000
0000
0000
,
0100
0000
1000
0000
0100
0000
0000
0000
1000
0000
0000
0100
0000
0000
0010
0000
,
0000
0000
0100
0000
0010
0000
0000
0000
0100
0000
0000
0010
0000
0000
0000
0000
,
0001
0000
0010
0000
0001
0000
0000
0000
0010
0000
0000
0001
0000
0000
0100
0000
,
0000
0000
0001
0000
0100
0000
0000
0000
0001
0000
0000
0100
0000
0000
0000
0000
,
0010
0000
0100
0000
0010
0000
0000
0000
0100
0000
0000
0010
0000
0000
1000
0000
,
0000
0000
0010
0000
1000
0000
0000
0000
0010
0000
0000
1000
0000
0000
0000
0000
,
0100
0000
1000
0000
0100
0000
0000
0000
1000
0000
0000
0100
0000
0000
0010
0000
,
0000
0000
0100
0000
0010
0000
0000
0000
0100
0000
0000
0010
0000
0000
0000
0000
,
M110
0000
0000
0000
0010
0000
0000
0001
0000
0010
0000
0001
0010
0000
0001
0000
,
0100
0000
0001
0000
0100
0001
0000
0100
0000
0001
0100
0000
0010
0000
1000
0000
,
0010
1000
0010
2000
0000
0000
0000
3000
0000
0000
0000
0000
0000
0000
0000
0000
,
0011
0000
0000
0010
0001
0000
1000
0000
0100
0000
1000
0000
0100
0000
0010
0000
,
011M
0000
0000
0000
0100
0000
0000
1000
0000
0100
0000
1000
0100
0000
1000
0000
,
0010
0000
1000
0000
0010
1000
0000
0010
0000
1000
0010
0000
0100
0000
0001
0000
,
0100
0001
0100
0002
0000
0000
0000
0003
0000
0000
0000
0000
0000
0000
0000
0000
,
1100
0000
0000
0100
1000
0000
0001
0000
0010
0000
0001
0000
0010
0000
0100
0000
,
M110
0000
0000
0000
0010
0000
0000
0001
0000
0010
0000
0001
0010
0000
0001
0000
,
0100
0000
0001
0000
0100
0001
0000
0100
0000
0001
0100
0000
0010
0000
1000
0000
,
0010
1000
0010
2000
0000
0000
0000
3000
0000
0000
0000
0000
0000
0000
0000
0000
,
0011
0000
0000
0010
0001
0000
1000
0000
0100
0000
1000
0000
0100
0000
0010
0000
,
M110
0000
0000
0000
0010
0000
0000
0001
0000
0010
0000
0001
0010
0000
0001
0000
,
0100
0000
0001
0000
0100
0001
0000
0100
0000
0001
0100
0000
0010
0000
1000
0000
,
0010
1000
0010
1000
0000
0000
0000
0000
0001
1000
0001
1000
0000
0000
0000
0000
,
0100
1000
0100
1000
0000
0000
0000
0000
0011
0000
0000
0000
0010
0001
0010
0001
,
0020
0000
0030
0000
0002
0000
0003
0010
,
0100
1000
0010
0100
,
0002
0000
0003
0000
0010
0000
0000
0001
,
0100
0001
0100
0000
0001
0100
0001
0000
2000
0000
0000
0000
3000
0000
0000
0000
,
0020
0000
0030
0000
2000
0000
3000
0100
,
0010
0001
1000
0001
,
0020
0000
0030
0000
0200
0000
0300
0010
,
0001
0000
1000
0001
1000
0000
0001
0000
0020
0000
0000
0000
0030
0000
0000
0000
,
0020
0000
0030
0000
0002
0000
0003
0010
,
0100
1000
0010
0100
,
0002
0000
0003
0000
0010
0000
0000
0001
,
0010
0001
0010
0000
0001
0010
0001
0000
2000
0000
0000
0000
3000
0000
0000
0000
,
0200
0000
0300
0000
2000
0000
3000
0010
,
0100
0001
1000
0001
,
0200
0000
0000
0000
0300
0000
0000
0000
0020
0000
0000
0000
0030
0000
0000
1000
,
0001
0000
0000
1000
0000
0000
0001
0000
1000
0001
0000
1000
0001
0000
0000
0000
,
0010
0000
0000
0000
0001
0000
1000
0001
0000
0000
0000
0000
0100
0000
0010
0000
,
1000
0000
0001
0000
1000
0000
0100
0010
0000
0000
0000
0000
0001
0000
1000
0000
,
0001
0000
0000
0100
0000
0000
0010
0000
1000
0000
0000
0000
0001
0000
1000
0000
,
0100
0000
0000
0010
0000
0000
0001
0000
1000
0000
0000
0000
0001
0000
0100
0000
,
0000
0000
0010
0000
1000
0000
0001
1000
0000
0000
0000
0000
0100
0000
0010
0000
,
0001
0000
1000
0000
0001
0000
0100
0010
0000
0000
0000
0000
1000
0000
0001
0000
,
1000
0000
0000
0100
0000
0000
0010
0000
0001
0000
0000
0000
1000
0000
0001
0000
,
0100
0000
0000
0010
0000
0000
1000
0000
0001
0000
0000
0000
1000
0000
0010
0000
,
0100
0000
0000
0000
0001
0000
1000
0001
0000
0000
0000
0000
0010
0000
0100
0000
,
1000
0000
0001
0000
1000
0000
0010
0100
0000
0000
0000
0000
0001
0000
1000
0000
,
0001
0000
0000
0010
0000
0000
0100
0000
1000
0000
0000
0000
0001
0000
1000
0000
,
0010
0000
0000
0100
0000
0000
0001
0000
1000
0000
0000
0000
0001
0000
0010
0000
,
0000
0000
0100
0000
1000
0000
0001
1000
0000
0000
0000
0000
0010
0000
0100
0000
,
0001
0000
1000
0000
0001
0000
0010
0100
0000
0000
0000
0000
1000
0000
0001
0000
,
1000
0000
0000
0010
0000
0000
0100
0000
0001
0000
0000
0000
1000
0000
0001
0000
,
0010
0000
0000
0100
0000
0000
1000
0000
0001
0000
0000
0000
1000
0000
0100
0000
,
1000
0000
0000
0000
0001
0000
0000
0000
0100
0000
0000
0001
0000
0000
1000
0000
,
0000
0000
0010
0000
1000
0000
0000
0000
0001
0000
0000
0100
0000
0000
0000
0000
,
0001
0000
0000
0000
1000
0000
0000
0000
0010
0000
0000
1000
0000
0000
0001
0000
,
0000
0000
0100
0000
0001
0000
0000
0000
1000
0000
0000
0010
0000
0000
0000
0000
,
1000
0000
0000
0000
0001
0000
0000
0000
0010
0000
0000
0001
0000
0000
1000
0000
,
0000
0000
0100
0000
1000
0000
0000
0000
0001
0000
0000
0010
0000
0000
0000
0000
,
0001
0000
0000
0000
1000
0000
0000
0000
0100
0000
0000
1000
0000
0000
0001
0000
,
0000
0000
0010
0000
0001
0000
0000
0000
1000
0000
0000
0100
0000
0000
0000
0000
,
2002
0000
0000
0000
,
3003
0000
0000
0000
;

//--------------- dance-single - LinkDude14 ----------------
#NOTES:
     dance-single:
     LinkDude14:
     Challenge:
     9:
     0.669406,0.75885,0.20793,0.52725,0.638641,631,603,28,71,0,2,0.669406,0.75885,0.20793,0.52725,0.638641,631,603,28,71,0,2:
0000
0000
0000
0000
,
0000
0000
0000
0000
,
0000
0000
0000
0000
,
0000
0000
0000
0000
,
0000
0000
0000
0000
,
0001
0000
0000
0000
0100
0000
0000
0000
0010
0000
0000
1000
0000
0000
0100
0000
,
0000
0000
0010
0000
0001
0000
0000
0000
0100
0000
0000
0010
0000
0000
0000
0000
,
1000
0000
0000
0000
0010
0000
0000
0000
0100
0000
0000
0001
0000
0000
0010
0000
,
0000
0000
0100
0000
1000
0000
0000
0000
0010
0000
0000
0100
0000
0000
0000
0000
,
0001
0000
0000
0000
0100
0000
0000
0000
1000
0000
0000
0100
0000
0000
0001
0000
,
0000
0000
0010
0000
1000
0000
0000
0000
0010
0000
0000
0001
0000
0000
0000
0000
,
1000
0000
0000
0000
0100
0000
0000
0000
0001
0000
0000
0100
0000
0000
1000
0000
,
0000
0000
0010
0000
0001
0000
0000
0000
0010
0000
0000
1000
0000
0000
0000
0000
,
0001
0000
1000
0000
0001
0000
0000
0000
0010
0000
0000
0001
0000
0000
0010
0000
,
0000
0000
0001
0000
0100
0000
0010
0000
0100
0000
0000
0010
0000
0000
0000
0000
,
1000
0000
0100
0000
1000
0000
0000
0000
0100
0000
0000
0010
0000
0000
0001
0000
,
0000
0000
0010
0000
0001
0000
0100
0000
0010
0000
0000
0100
0000
0000
0000
0000
,
0010
0000
1000
0000
0100
0000
0000
0000
1000
0000
0000
0100
0000
0000
0010
0000
,
0000
0000
0001
0000
0010
0000
0001
0000
0100
0000
0000
0010
0000
0000
0000
0000
,
0100
0000
0010
0000
1000
0000
0000
0000
0100
0000
0000
1000
0000
0000
0100
0000
,
0000
0000
0010
0000
0001
0000
0010
0000
0001
0000
0000
0100
0000
0000
0000
0000
,
0010
0000
0100
0000
0010
0000
0000
0000
1000
0000
0000
0100
0000
0000
1000
0000
,
0000
0000
0100
0000
0010
0000
0001
0000
0010
0000
0000
0001
0000
0000
0000
0000
,
0100
0000
0010
0000
0100
0000
0000
0000
0010
0000
0000
1000
0000
0000
0100
0000
,
0000
0000
1000
0000
0100
0000
0010
0000
0001
0000
0000
0010
0000
0000
0000
0000
,
110M
0000
0000
0000
0011
0000
0000
0010
0000
0100
1000
0010
1000
0000
0100
0000
,
1000
0000
0001
0000
1000
0001
0000
1000
0000
0001
0010
0000
0100
0000
0010
0000
,
0100
1000
0100
2000
0000
0000
0000
3000
0000
0000
0000
0000
0000
0000
1000
0100
,
1000
0000
0000
0100
1000
0000
0001
0000
0010
0000
0001
0000
0010
0000
0100
0000
,
11M0
0000
0000
0000
0011
0000
0000
0001
0000
0010
0100
1000
0100
0000
1000
0000
,
0100
0000
1000
0000
0100
1000
0000
0100
0000
1000
0100
0000
0010
0000
0001
0000
,
0010
0001
0010
0002
0000
0000
0000
0003
0000
0000
0000
0000
0000
0000
0001
0010
,
0001
0000
0000
0010
0001
0000
1000
0000
0100
0000
1000
0000
0100
0000
0010
0000
,
0M11
0000
0000
0000
1100
0000
0000
1000
0000
0001
0010
0001
0100
0000
0001
0000
,
1000
0000
0001
0000
1000
0100
0000
0010
0000
0100
0010
0000
0100
0000
1000
0000
,
0100
1000
0100
2000
0000
0000
0000
3000
0000
0000
0000
0000
0000
0000
1000
0100
,
1000
0000
0001
0100
0010
0000
1000
0000
0010
0000
1000
0000
0010
0000
0100
0000
,
01M1
0000
0000
0000
1001
0000
0000
1000
0000
0100
1000
0100
0010
0000
0001
0000
,
0010
0000
0001
0000
0010
0001
0000
1000
0000
0001
1000
0000
0100
0000
1000
0000
,
0010
1000
0010
1000
0000
0000
0000
0000
0001
0010
0001
0010
0000
0000
0000
0000
,
0001
0100
0001
0100
0000
0000
0000
0000
1001
0000
0000
0000
1000
0001
1000
0001
,
2000
0000
0000
0000
3000
0000
0001
1000
0002
0000
0000
0000
0003
0000
0100
0000
,
0010
1000
0100
0010
,
0002
0000
0000
0000
0003
0000
0100
0001
0100
0000
0000
0000
0000
0000
1000
0000
,
0100
1000
0100
0000
1000
0001
1000
0000
0002
0000
0000
0000
0003
0000
0010
0001
,
0020
0000
0000
0000
0030
0000
0001
0010
0002
0000
0000
0000
0003
0000
0100
0000
,
0010
1000
0001
1000
,
0020
0000
0000
0000
0030
0000
0100
0010
0200
0000
0000
0000
0300
0000
0010
0000
,
1000
0000
0001
1000
0001
0000
0100
0000
0020
0000
0000
0000
0030
0000
0010
0100
,
0020
0000
0000
0000
0030
0000
1000
0010
2000
0000
0000
0000
3000
0000
0010
0000
,
0100
0001
0010
0100
,
2000
0000
0000
0000
3000
0000
0010
1000
0010
0000
0000
0000
0000
0000
0001
0000
,
0010
0001
0010
0000
0001
1000
0001
0000
2000
0000
0000
0000
3000
0000
0100
1000
,
0200
0000
0000
0000
0300
0000
1000
0100
2000
0000
0000
0000
3000
0000
0010
0000
,
0100
0001
1000
0001
,
0200
0000
0000
0000
0300
0000
0010
0100
0020
0000
0000
0000
0030
0000
0000
1000
,
0001
0000
0000
1000
0000
0000
0010
0000
1000
0001
0000
1000
0100
0000
0000
0000
,
0110
0000
0000
0000
0001
0000
1000
0001
0000
0000
0000
0000
0100
0000
0010
0000
,
1000
0000
0001
0000
1000
0000
0100
0010
0000
0000
0000
0000
0001
0000
1000
0000
,
0001
0000
0000
0100
0000
0000
0010
0000
1000
0000
0000
0000
0001
0000
1000
0000
,
0100
0000
0000
0010
0000
0000
0001
0000
1000
0000
0000
0000
0001
0000
0100
0000
,
0000
0000
0010
0000
1000
0000
0001
1000
0000
0000
0000
0000
0100
0000
0010
0000
,
0001
0000
1000
0000
0001
0000
0100
0010
0000
0000
0000
0000
1000
0000
0001
0000
,
1000
0000
0000
0100
0000
0000
0010
0000
0001
0000
0000
0000
1000
0000
0001
0000
,
0100
0000
0000
0010
0000
0000
1000
0000
0001
0000
0000
0000
1000
0000
0010
0000
,
0100
0000
0000
0000
0001
0000
1000
0001
0000
0000
0000
0000
0010
0000
0100
0000
,
1000
0000
0001
0000
1000
0000
0010
0100
0000
0000
0000
0000
0001
0000
1000
0000
,
0001
0000
0000
0010
0000
0000
0100
0000
1000
0000
0000
0000
0001
0000
1000
0000
,
0010
0000
0000
0100
0000
0000
0001
0000
1000
0000
0000
0000
0001
0000
0010
0000
,
0000
0000
0100
0000
1000
0000
0001
1000
0000
0000
0000
0000
0010
0000
0100
0000
,
0001
0000
1000
0000
0001
0000
0010
0100
0000
0000
0000
0000
1000
0000
0001
0000
,
1000
0000
0000
0010
0000
0000
0100
0000
0001
0000
0000
0000
1000
0000
0001
0000
,
0010
0000
0000
0100
0000
0000
1000
0000
0001
0000
0000
0000
1000
0000
0100
0000
,
1100
0000
0000
0000
0101
0000
0000
0000
0100
0000
0000
0001
0000
0000
1010
0000
,
0000
0000
0010
0000
1000
0000
0000
0000
0101
0000
0000
0100
0000
0000
0000
0000
,
1001
0000
0000
0000
1010
0000
0000
0000
0010
0000
0000
1000
0000
0000
0101
0000
,
0000
0000
0100
0000
0001
0000
0000
0000
1010
0000
0000
0010
0000
0000
0000
0000
,
1010
0000
0000
0000
0011
0000
0000
0000
0010
0000
0000
0001
0000
0000
1100
0000
,
0000
0000
0100
0000
1000
0000
0000
0000
0011
0000
0000
0010
0000
0000
0000
0000
,
0011
0000
0000
0000
1100
0000
0000
0000
0100
0000
0000
1000
0000
0000
0011
0000
,
0000
0000
0010
0000
0001
0000
0000
0000
1100
0000
0000
0100
0000
0000
0000
0000
,
1000
0100
1000
0100
1000
0100
1000
0100
0010
0100
0010
0100
0010
0100
0010
0100
,
1000
0000
0000
0001
1000
0000
0001
0000
0010
0000
0100
0000
1000
0000
0000
0000
;
