#VERSION:0.83;
#TITLE:Dano Man;
#SUBTITLE:Robot Tracker;
#ARTIST:8BitDanoOct1;
#TITLETRANSLIT:Dano Man;
#SUBTITLETRANSLIT:;
#ARTISTTRANSLIT:;
#GENRE:;
#ORIGIN:;
#CREDIT:Link AKA Dude;
#BANNER:DanoMan.png;
#BACKGROUND:DanoMan.bg.png;
#PREVIEWVID:;
#JACKET:;
#CDIMAGE:;
#DISCIMAGE:;
#LYRICSPATH:;
#CDTITLE:;
#MUSIC:DanoMan.ogg;
#OFFSET:1.329000;
#SAMPLESTART:37.000000;
#SAMPLELENGTH:12.500000;
#SELECTABLE:YES;
#BPMS:0.000=150.070;
#STOPS:;
#DELAYS:;
#WARPS:;
#TIMESIGNATURES:0.000=4=4;
#TICKCOUNTS:0.000=4;
#COMBOS:0.000=1;
#SPEEDS:0.000=1.000=0.000=0;
#SCROLLS:0.000=1.000;
#FAKES:;
#LABELS:0.000=Song Start;
#BGCHANGES:0.000=DanoMan.bg.png=1.000=0=0=0=StretchNoLoop====,
3.875=DanoMan.mpg=1.000=0=0=0=StretchNoLoop====,
256.000=DanoMan.bg.png=1.000=0=0=0=StretchNoLoop====,
99999=-nosongbg-=1.000=0=0=0 // don't automatically add -songbackground-
;
#KEYSOUNDS:;
#ATTACKS:
;

//---------------dance-single - LinkDude03----------------
#NOTEDATA:;
#CHARTNAME:LinkDude03;
#STEPSTYPE:dance-single;
#DESCRIPTION:LinkDude03;
#CHARTSTYLE:;
#DIFFICULTY:Beginner;
#METER:2;
#RADARVALUES:0.131931,0.125618,0.000000,0.307839,0.000000,93.000000,93.000000,0.000000,31.000000,0.000000,0.000000,0.000000,0.000000,0.000000,0.131931,0.125618,0.000000,0.307839,0.000000,93.000000,93.000000,0.000000,31.000000,0.000000,0.000000,0.000000,0.000000,0.000000;
#CREDIT:LinkDude03;
#NOTES:
// measure 0
0000
0000
0000
0000
,  // measure 1
0000
0000
0000
0000
,  // measure 2
0001
0000
1000
0000
,  // measure 3
2000
3000
0000
0000
,  // measure 4
0010
0000
1000
0000
,  // measure 5
2000
3000
0000
0000
,  // measure 6
0100
0000
1000
0000
,  // measure 7
2000
3000
0000
0000
,  // measure 8
0001
0000
0100
0000
,  // measure 9
0002
0003
0000
0000
,  // measure 10
1000
0000
0100
0000
,  // measure 11
2000
3000
0000
0000
,  // measure 12
0001
0000
0010
0000
,  // measure 13
0002
0003
0000
0000
,  // measure 14
1000
0000
0010
0000
,  // measure 15
2000
3000
0000
0000
,  // measure 16
0001
0000
0010
0000
,  // measure 17
0200
0300
0000
0000
,  // measure 18
1000
0000
0010
0000
,  // measure 19
0200
0300
0000
0000
,  // measure 20
0001
0000
0100
0000
,  // measure 21
0020
0030
0000
0000
,  // measure 22
1000
0000
0100
0000
,  // measure 23
0020
0030
0000
0000
,  // measure 24
0100
0000
0001
0000
,  // measure 25
0002
0003
0000
0000
,  // measure 26
0010
0000
0001
0000
,  // measure 27
0002
0003
0000
0000
,  // measure 28
1000
0000
0010
0000
,  // measure 29
2000
3000
0000
0000
,  // measure 30
0001
0000
0010
0000
,  // measure 31
0002
0003
0000
0000
,  // measure 32
1000
0000
0100
0000
,  // measure 33
2000
3000
0000
0000
,  // measure 34
0001
0000
0100
0000
,  // measure 35
0002
0003
0000
0000
,  // measure 36
1000
0000
0100
0000
,  // measure 37
0020
0030
0000
0000
,  // measure 38
0001
0000
0100
0000
,  // measure 39
0020
0030
0000
0000
,  // measure 40
1000
0000
0010
0000
,  // measure 41
0200
0300
0000
0000
,  // measure 42
0001
0000
0010
0000
,  // measure 43
0200
0300
0000
0000
,  // measure 44
0001
0000
0010
0000
,  // measure 45
0020
0030
0000
0000
,  // measure 46
1000
0000
0010
0000
,  // measure 47
0020
0030
0000
0000
,  // measure 48
0100
0000
1000
0000
,  // measure 49
0200
0300
0000
0000
,  // measure 50
0010
0000
1000
0000
,  // measure 51
0020
0030
0000
0000
,  // measure 52
0100
0000
0001
0000
,  // measure 53
0200
0300
0000
0000
,  // measure 54
0010
0000
0001
0000
,  // measure 55
0020
0030
0000
0000
,  // measure 56
0100
0000
0001
0000
,  // measure 57
2000
3000
0000
0000
,  // measure 58
0010
0000
0001
0000
,  // measure 59
2000
3000
0000
0000
,  // measure 60
0100
0000
1000
0000
,  // measure 61
0002
0003
0000
0000
,  // measure 62
0010
0000
1000
0000
,  // measure 63
0002
0003
0000
0000
;

//---------------dance-single - LinkDude06----------------
#NOTEDATA:;
#CHARTNAME:LinkDude06;
#STEPSTYPE:dance-single;
#DESCRIPTION:LinkDude06;
#CHARTSTYLE:;
#DIFFICULTY:Easy;
#METER:4;
#RADARVALUES:0.252513,0.252229,0.000000,0.000000,0.000000,178.000000,178.000000,0.000000,0.000000,0.000000,0.000000,0.000000,0.000000,0.000000,0.252513,0.252229,0.000000,0.000000,0.000000,178.000000,178.000000,0.000000,0.000000,0.000000,0.000000,0.000000,0.000000,0.000000;
#CREDIT:LinkDude06;
#NOTES:
0000
0000
0000
0000
,
0000
0000
0000
0000
,
0001
0000
1000
0001
,
1000
0001
1000
0001
,
0100
0000
0001
0100
,
0001
0100
0010
0000
,
1000
0000
0100
1000
,
0100
1000
0010
0000
,
1000
0000
0010
0000
,
1000
1000
1000
0000
,
0001
0000
0010
0000
,
0001
0001
0001
0000
,
1000
0000
0001
0010
,
0100
0010
0001
0000
,
1000
0000
0010
0100
,
0001
0100
0010
0000
,
1000
0000
0100
0010
,
0100
0001
0100
0000
,
1000
0100
0010
0001
,
0010
0100
1000
0000
,
0001
0000
0100
0000
,
0010
1000
0001
0000
,
1000
0000
0100
0000
,
0010
0001
1000
0000
,
0100
0000
1000
0010
,
1000
0010
0100
0000
,
0001
0000
0010
0001
,
0010
0001
0100
0000
,
0001
0000
0100
0000
,
0001
0001
0001
0000
,
1000
0000
0100
0000
,
1000
1000
1000
0000
,
0001
0000
1000
0100
,
0010
0100
1000
0000
,
0001
0000
0100
0010
,
1000
0010
0100
0000
,
0001
0000
0010
0100
,
0010
1000
0010
0000
,
0001
0010
0100
1000
,
0100
0010
0001
0000
,
1000
0000
0010
0000
,
0100
0001
1000
0000
,
0001
0000
0010
0000
,
0100
1000
0001
0000
,
1000
0000
0001
0100
,
1000
0100
0001
0000
,
1000
0000
0001
0010
,
1000
0010
0001
0000
,
1000
0000
0100
0000
,
0010
0010
0010
0000
,
0001
0000
0010
0000
,
0100
0100
0100
0000
,
1000
0000
0001
0100
,
1000
0010
0001
0000
,
1000
0000
0001
0010
,
1000
0100
0001
0000
,
0010
0000
0001
1000
,
0100
1000
0001
0000
,
0010
0001
1000
0010
,
1000
0001
0010
0000
,
0100
0000
1000
0000
,
0001
0100
0010
0000
,
0100
0000
0001
0000
,
1000
0010
0100
0000
;

//---------------dance-single - LinkDude09----------------
#NOTEDATA:;
#CHARTNAME:LinkDude09;
#STEPSTYPE:dance-single;
#DESCRIPTION:LinkDude09;
#CHARTSTYLE:;
#DIFFICULTY:Medium;
#METER:6;
#RADARVALUES:0.375932,0.378344,0.009930,0.000000,0.158885,265.000000,264.000000,1.000000,0.000000,0.000000,0.000000,0.000000,0.000000,0.000000,0.375932,0.378344,0.009930,0.000000,0.158885,265.000000,264.000000,1.000000,0.000000,0.000000,0.000000,0.000000,0.000000,0.000000;
#CREDIT:LinkDude09;
#NOTES:
0000
0000
0000
0000
,
0000
0000
0000
0000
,
0011
0000
0000
0000
0000
0000
0000
0000
0001
0000
0000
1000
0000
0000
0001
0000
,
1000
0000
0000
0001
0000
0000
1000
0000
0001
0000
0000
0000
1000
0000
0000
0000
,
0001
0000
0000
0000
1000
0100
1000
0100
,
1000
0100
1000
0100
0000
0000
0000
0000
,
1000
0000
0000
0000
0100
0010
0100
0010
,
0100
0010
0100
0010
0000
0000
0000
0000
,
0100
0000
0000
0000
0000
0000
0000
0000
0010
0000
0000
0001
0000
0000
0010
0000
,
0001
0000
0000
0010
0000
0000
0001
0000
0000
0000
0000
0000
0000
0000
0000
0000
,
0010
0000
0000
0000
0001
1000
0001
1000
,
0001
0000
0000
1000
0000
0000
0001
0000
1000
0000
0000
0000
0000
0000
0000
0000
,
0001
0000
0000
0000
1000
0010
1000
0010
,
1000
0010
1000
0010
0000
0000
0000
0000
,
1000
0000
0000
0000
0010
0100
0010
0100
,
0010
0100
0010
0100
0000
0000
0000
0000
,
0010
0000
0000
0000
0000
0000
0000
0000
0100
0000
0000
0001
0000
0000
0100
0000
,
0001
0000
0000
0100
0000
0000
0001
0000
0000
0000
0000
0000
0000
0000
0000
0000
,
1000
0000
0000
0001
0000
0000
1000
0000
0001
0000
0000
1000
0000
0000
0001
0000
,
1000
0000
0000
0000
0000
0000
0000
0001
,
0010
0000
0000
0001
1000
0000
0000
0001
,
0100
0000
0000
0001
0000
0000
0100
0000
0001
0000
0000
0100
0000
0000
0001
0000
,
0100
0000
0000
0010
1000
0000
0000
0010
,
1000
0000
0000
0010
0000
0000
1000
0000
0010
0000
0000
0000
0000
0000
0000
0000
,
1000
0000
0000
0000
0001
0100
0001
0100
,
0001
0100
0001
0100
0000
0000
0000
0000
,
0001
0000
0000
0000
0100
0010
0100
0010
,
0100
0010
0100
0010
0000
0000
0000
0000
,
0100
0000
0000
0000
0000
0000
0000
0000
0010
0000
0000
1000
0000
0000
0010
0000
,
1000
0000
0000
0010
0000
0000
1000
0000
0000
0000
0000
0000
0000
0000
0000
0000
,
0010
0000
0000
0000
1000
0001
1000
0001
,
1000
0000
0000
0001
0000
0000
1000
0000
0001
0000
0000
0000
0000
0000
0000
0000
,
1000
0000
0000
0000
0001
0010
0001
0010
,
0001
0010
0001
0010
0000
0000
0000
0000
,
0001
0000
0000
0000
0010
0100
0010
0100
,
0010
0100
0010
0100
0000
0000
0000
0000
,
0010
0000
0000
0000
0000
0000
0000
0000
0100
0000
0000
1000
0000
0000
0100
0000
,
1000
0000
0000
0100
0000
0000
1000
0000
0000
0000
0000
0000
0000
0000
0000
0000
,
0001
0000
0000
1000
0000
0000
0001
0000
1000
0000
0000
0001
0000
0000
1000
0000
,
0001
0000
0000
0000
0000
0000
0000
1000
,
0010
0000
0000
1000
0001
0000
0000
1000
,
0100
0000
0000
1000
0000
0000
0100
0000
1000
0000
0000
0100
0000
0000
1000
0000
,
0100
0000
0000
0010
0001
0000
0000
0010
,
0001
0000
0000
0010
0000
0000
0001
0000
0010
0000
0000
0000
0000
0000
0000
0000
,
0001
0000
0000
0000
1000
0001
1000
0001
,
1000
0100
1000
0100
0000
0000
0000
0000
,
1000
0000
0000
0000
0100
1000
0100
1000
,
0100
0010
0100
0010
0000
0000
0000
0000
,
0100
0000
0000
0000
0000
0000
0000
0000
0010
0000
0000
0100
0000
0000
0010
0000
,
0100
0000
0000
0010
0000
0000
0001
0000
0000
0000
0000
0000
0000
0000
0000
0000
,
0010
0000
0000
0000
0001
0010
0001
0010
,
0001
0000
0000
1000
0000
0000
0001
0000
1000
0000
0000
0000
0000
0000
0000
0000
,
0001
0000
0000
0000
1000
0001
1000
0001
,
1000
0010
1000
0010
0000
0000
0000
0000
,
1000
0000
0000
0000
0010
1000
0010
1000
,
0010
0100
0010
0100
0000
0000
0000
0000
,
0010
0000
0000
0000
0000
0000
0000
0000
0100
0000
0000
0010
0000
0000
0100
0000
,
0010
0000
0000
0100
0000
0000
0001
0000
0000
0000
0000
0000
0000
0000
0000
0000
,
1000
0000
0000
0100
0000
0000
0010
0000
0001
0000
0000
1000
0000
0000
0100
0000
,
0010
0000
0000
0000
0000
0000
0000
0001
,
1000
0000
0000
0010
0100
0000
0000
0001
,
1000
0000
0000
0100
0000
0000
0010
0000
0001
0000
0000
0010
0000
0000
0100
0000
,
1000
0000
0000
0001
0100
0000
0000
0010
,
1000
0000
0000
0100
0000
0000
1000
0000
0010
0000
0000
0000
0000
0000
0000
0000
;

//---------------dance-single - LinkDude12----------------
#NOTEDATA:;
#CHARTNAME:LinkDude12;
#STEPSTYPE:dance-single;
#DESCRIPTION:LinkDude12;
#CHARTSTYLE:;
#DIFFICULTY:Hard;
#METER:8;
#RADARVALUES:0.540491,0.540208,0.367421,0.000000,0.446863,381.000000,344.000000,37.000000,0.000000,66.000000,0.000000,0.000000,0.000000,0.000000,0.540491,0.540208,0.367421,0.000000,0.446863,381.000000,344.000000,37.000000,0.000000,66.000000,0.000000,0.000000,0.000000,0.000000;
#CREDIT:LinkDude12;
#NOTES:
0000
0000
0000
0000
,
0M00
M000
00M0
M000
,
0101
0000
0000
0000
0000
0000
0001
1000
0001
0000
0000
1000
0000
0000
0001
0000
,
1000
0000
0000
0001
0000
0000
1000
0000
0001
0000
0000
0000
1000
0000
0000
0000
,
M11M
0000
0000
0000
0000
0000
1000
0100
1000
0000
0100
0000
1000
0000
0100
0000
,
1000
0100
0000
0100
1000
0000
0100
0000
0000
0000
0000
0000
0000
0000
0000
0000
,
MM11
0000
0000
0000
0000
0000
0100
0010
0100
0000
0010
0000
0100
0000
0010
0000
,
0100
0010
0000
0010
0100
0000
0010
0000
0000
0000
0000
0000
0000
0000
0000
0000
,
1MM1
0000
0000
0000
0000
0000
0010
0001
0010
0000
0000
0001
0000
0000
0010
0000
,
0001
0000
0000
0010
0000
0000
0001
0000
0000
0000
0000
0000
0000
0000
0000
0000
,
11MM
0000
0000
0000
0000
0000
0001
1000
0001
0000
1000
0000
0001
0000
1000
0000
,
0001
0000
0000
1000
0000
0000
0001
0000
1000
0000
0000
0000
0001
0000
1000
0000
,
M11M
0000
0000
0000
0000
0000
1000
0010
1000
0000
0010
0000
1000
0000
0010
0000
,
1000
0010
0000
0010
1000
0000
0010
0000
0000
0000
0000
0000
0000
0000
0000
0000
,
M1M1
0000
0000
0000
0000
0000
0010
0100
0010
0000
0100
0000
0010
0000
0100
0000
,
0010
0100
0000
0100
0010
0000
0100
0000
0000
0000
0000
0000
0000
0000
0000
0000
,
1MM1
0000
0000
0000
0000
0000
0100
0001
0100
0000
0000
0001
0000
0000
0100
0000
,
0001
0000
0000
0100
0000
0000
0001
0000
0000
0000
0000
0000
0000
0000
0000
0000
,
1M1M
0000
0000
0010
0000
0000
1000
0000
1001
0000
0000
1000
0000
0000
0100
0000
,
1100
0000
0000
0000
0000
0100
0010
0100
,
1MM1
0000
0000
0000
0000
0000
0001
0100
0001
0000
0000
0000
0000
0000
0100
0001
,
0100
0000
0000
0001
0000
0000
0100
0000
0001
0000
0000
0100
0000
0000
0001
0000
,
1M1M
0000
0000
0000
0000
0000
0010
0100
0010
0000
0000
0000
0000
0000
0100
0001
,
0100
0000
0000
0010
0000
0000
1000
0000
0001
0000
0000
0000
0000
0000
0000
0000
,
M11M
0000
0000
0000
0000
0000
1000
0100
1000
0000
0001
0000
1000
0000
0100
0000
,
1000
0001
0000
0001
1000
0000
0100
0000
0000
0000
0000
0000
0000
0000
0000
0000
,
MM11
0000
0000
0000
0000
0000
0100
0010
0100
0000
1000
0000
0100
0000
0010
0000
,
0100
1000
0000
1000
0100
0000
0010
0000
0000
0000
0000
0000
0000
0000
0000
0000
,
1MM1
0000
0000
0000
0000
0000
0010
0001
0010
0000
0000
1000
0000
0000
0010
0000
,
0001
0000
0000
0010
0000
0000
1000
0000
0000
0000
0000
0000
0000
0000
0000
0000
,
M11M
0000
0000
0000
0000
0000
0001
1000
0001
0000
0100
0000
0001
0000
1000
0000
,
0001
0000
0000
0100
0000
0000
0001
0000
1000
0000
0000
0000
0001
0000
0100
0000
,
1M1M
0000
0000
0000
0000
0000
1000
0010
1000
0000
0001
0000
1000
0000
0010
0000
,
1000
0001
0000
0001
1000
0000
0010
0000
0000
0000
0000
0000
0000
0000
0000
0000
,
M1M1
0000
0000
0000
0000
0000
0010
1000
0010
0000
0100
0000
0010
0000
1000
0000
,
0010
0100
0000
0100
0010
0000
1000
0000
0000
0000
0000
0000
0000
0000
0000
0000
,
M1M1
0000
0000
0000
0000
0000
0100
0001
0100
0000
0000
1000
0000
0000
0100
0000
,
0001
0000
0000
0100
0000
0000
1000
0000
0000
0000
0000
0000
0000
0000
0000
0000
,
M11M
0000
0000
0010
0000
0000
0100
0000
1001
0000
0000
0010
0000
0000
0100
0000
,
0110
0000
0000
0000
0000
0001
0010
0100
,
1MM1
0000
0000
0000
0000
0000
0100
1000
0100
0000
0000
0000
0000
0000
0010
0001
,
0010
0000
0000
0001
0000
0000
0100
0000
0010
0000
0000
0100
0000
0000
0001
0000
,
MM11
0000
0000
0000
0000
0000
1000
0100
0010
0000
0000
0000
0000
0000
0100
0010
,
0001
0000
0000
1000
0000
0000
0001
0000
1000
0000
0000
0000
0000
0000
0000
0000
,
M11M
0000
0000
0000
0000
0000
1000
0001
0100
0000
0001
0000
0100
0000
0001
0000
,
0010
0100
0000
0100
0010
0000
0001
0000
0000
0000
0000
0000
0000
0000
0000
0000
,
11MM
0000
0000
0000
0000
0000
0010
0001
1000
0000
0001
0000
1000
0000
0001
0000
,
0100
1000
0000
1000
0100
0000
0001
0000
0000
0000
0000
0000
0000
0000
0000
0000
,
1M1M
0000
0000
0000
0000
0000
0100
0001
0010
0000
0000
0100
0000
0000
1000
0000
,
0010
0000
0000
0100
0000
0000
0001
0000
0000
0000
0000
0000
0000
0000
0000
0000
,
1M1M
0000
0000
0000
0000
0000
0001
0100
0010
0000
1000
0000
0100
0000
0010
0000
,
0001
0000
0000
0100
0000
0000
0010
0000
1000
0000
0000
0000
0001
0000
0100
0000
,
1M1M
0000
0000
0000
0000
0000
0001
0100
0001
0000
1000
0000
0100
0000
1000
0000
,
0001
0100
0000
0001
1000
0000
0010
0000
0000
0000
0000
0000
0000
0000
0000
0000
,
M1M1
0000
0000
0000
0000
0000
1000
0010
1000
0000
0001
0000
0010
0000
0001
0000
,
1000
0010
0000
1000
0001
0000
0100
0000
0000
0000
0000
0000
0000
0000
0000
0000
,
1M1M
0000
0000
0000
0000
0000
0100
0001
0100
0000
0000
1000
0000
0000
0100
0000
,
0001
0000
0000
1000
0000
0000
0010
0000
0000
0000
0000
0000
0000
0000
0000
0000
,
M1M1
0000
0000
1000
0000
0000
0010
0000
0101
0000
0000
1000
0000
0000
0010
0000
,
0101
0000
0000
0000
0000
1000
0001
0010
,
11MM
0000
0000
0000
0000
0000
1000
0100
0001
0000
0000
0000
0000
0000
0001
0100
,
1000
0000
0000
0001
0000
0000
0010
0000
0001
0000
0000
0100
0000
0000
0001
0000
,
1M1M
0000
0000
0000
0000
0000
0001
0100
0010
0000
0000
0000
0000
0000
1000
0100
,
0010
0000
0000
0001
0000
0000
0100
0000
0010
0000
0000
0000
0000
0000
0000
0000
,
0MM0
0000
0000
0000
;

//---------------dance-single - LinkDude15----------------
#NOTEDATA:;
#CHARTNAME:LinkDude15;
#STEPSTYPE:dance-single;
#DESCRIPTION:LinkDude15;
#CHARTSTYLE:;
#DIFFICULTY:Challenge;
#METER:10;
#RADARVALUES:0.791586,0.921531,0.387281,0.079442,1.166809,558.000000,519.000000,39.000000,8.000000,66.000000,0.000000,0.000000,0.000000,0.000000,0.791586,0.921531,0.387281,0.079442,1.166809,558.000000,519.000000,39.000000,8.000000,66.000000,0.000000,0.000000,0.000000,0.000000;
#CREDIT:LinkDude15;
#NOTES:
0000
0000
0000
0000
,
0M00
M000
00M0
M000
,
0202
0000
0000
0303
0000
0000
0001
1000
0001
1000
0100
1000
0100
1000
0001
1000
,
0001
1000
0010
1000
0010
1000
0001
1000
0001
1000
0100
1000
0100
1000
0010
1000
,
M01M
0000
0000
0000
0000
0000
1000
0100
1000
0001
0100
0001
1000
0100
1000
0001
,
0100
0001
1000
0100
1000
0001
0100
0000
0000
0000
0000
0000
0000
0000
0000
0000
,
M10M
0000
0000
0000
0000
0000
0001
0010
0001
1000
0010
1000
0001
0010
0001
1000
,
0010
1000
0001
0010
0001
1000
0010
0000
0000
0000
0000
0000
0000
0000
0000
0000
,
M01M
0000
0000
0000
0000
0000
0010
1000
0010
0100
0001
0100
0010
1000
0010
0100
,
0001
0100
0010
1000
0010
0100
0001
0000
0000
0000
0000
0000
0000
0000
0000
0000
,
M10M
0000
0000
0000
0000
0000
0001
0010
0100
1000
0100
0010
0001
0010
0100
1000
,
0100
0000
0000
0000
0000
0000
0000
1000
0000
0001
0000
0000
0000
0000
0000
0000
1000
0000
0001
0000
0000
0000
0000
0000
1000
0000
0000
0000
0000
0000
0000
0000
0000
0000
0000
0000
1001
0000
0000
0000
0000
0000
0100
0000
0000
0000
0000
0000
,
M01M
0000
0000
0000
0000
0000
1000
0010
1000
0001
0100
0001
1000
0010
1000
0001
,
0100
0001
1000
0010
1000
0001
0100
0000
0000
0000
0000
0000
0000
0000
0000
0000
,
M10M
0000
0000
0000
0000
0000
0001
0010
0001
1000
0100
1000
0001
0010
0001
1000
,
0100
1000
0001
0010
0001
1000
0100
0000
0000
0000
0000
0000
0000
0000
0000
0000
,
M01M
0000
0000
0000
0000
0000
0000
0000
0000
0000
0000
0000
0000
0000
0000
0000
0000
0000
0100
0000
0000
0001
0000
0000
0100
0000
0000
0000
0000
0000
0000
0010
0000
0100
0000
0000
0000
0000
0000
0000
1000
0000
0100
0000
0000
0000
0000
0000
,
0001
0000
0000
0000
0000
0000
0000
0010
0000
0100
0000
0000
0000
0000
0000
0000
0010
0000
0100
0000
0000
0000
0000
0000
0000
0000
0000
0000
0000
0000
0000
0000
0000
0000
0000
0000
0000
0000
0000
0000
0000
0000
0000
0000
0000
0000
0000
0000
,
1MM1
0000
0000
0101
0000
0000
0110
0000
1010
0000
0000
1001
0000
0000
1100
0000
,
0220
0000
0330
0000
0000
0011
0010
0001
,
1MM1
0000
0000
0000
0000
0000
0000
0000
0000
1000
0100
0010
0001
0000
0000
0000
0000
0000
0000
0000
0000
1000
0100
0010
,
0001
0000
0000
0000
0000
0000
0000
1000
0000
0001
0000
0000
0000
0000
0000
0000
1000
0000
0001
0000
0000
0000
0000
0000
1000
0000
0000
0000
0000
0000
0000
0001
0000
1000
0000
0000
0000
0000
0000
0000
0001
0000
1000
0000
0000
0000
0000
0000
,
M10M
0000
0000
0000
0000
0000
0000
0000
0000
1000
0010
0100
0001
0000
0000
0000
0000
0000
0000
0000
0000
1000
0010
0100
,
0001
0000
0000
0000
0000
0000
0000
1000
0000
0001
0000
0000
0000
0000
0000
0000
1000
0000
0001
0000
0000
0000
0000
0000
1000
0000
0000
0000
0000
0000
0000
0000
0000
0000
0000
0000
0000
0000
0000
0000
0000
0000
0000
0000
0000
0000
0000
0000
,
M01M
0000
0000
0000
0000
0000
1000
0010
1000
0001
0010
0001
1000
0010
1000
0001
,
0010
0001
1000
0010
1000
0001
0010
0000
0000
0000
0000
0000
0000
0000
0000
0000
,
M10M
0000
0000
0000
0000
0000
0001
0100
0001
1000
0100
1000
0001
0100
0001
1000
,
0100
1000
0001
0100
0001
1000
0100
0000
0000
0000
0000
0000
0000
0000
0000
0000
,
M01M
0000
0000
0000
0000
0000
0100
1000
0100
0010
0001
0010
0100
1000
0100
0010
,
0001
0010
0100
1000
0100
0010
0001
0000
0000
0000
0000
0000
0000
0000
0000
0000
,
M10M
0000
0000
0000
0000
0000
0001
0100
0010
1000
0010
0100
0001
0100
0010
1000
,
0010
0000
0000
0000
0000
0000
0000
0100
0000
0001
0000
0000
0000
0000
0000
0000
0100
0000
0010
0000
0000
0000
0000
0000
1000
0000
0000
0000
0000
0000
0000
0000
0000
0000
0000
0000
1001
0000
0000
0000
0000
0000
1100
0000
0000
0000
0000
0000
,
M11M
0000
0000
0000
0000
0000
1000
0100
1000
0001
0010
0001
1000
0100
1000
0001
,
0010
0001
1000
0100
1000
0001
0010
0000
0000
0000
0000
0000
0000
0000
0000
0000
,
M10M
0000
0000
0000
0000
0000
0001
0100
0001
1000
0010
1000
0001
0100
0001
1000
,
0010
1000
0001
0100
0001
1000
0010
0000
0000
0000
0000
0000
0000
0000
0000
0000
,
M01M
0000
0000
0000
0000
0000
0000
0000
0000
0000
0000
0000
0000
0000
0000
0000
0000
0000
0100
0000
0000
0010
0000
0000
1000
0000
0000
0000
0000
0000
0000
0010
0000
0001
0000
0000
0000
0000
0000
0000
0010
0000
0100
0000
0000
0000
0000
0000
,
0010
0000
0000
0000
0000
0000
0000
0100
0000
0010
0000
0000
0000
0000
0000
0000
0100
0000
0010
0000
0000
0000
0000
0000
0000
0000
0000
0000
0000
0000
0000
0000
0000
0000
0000
0000
0000
0000
0000
0000
0000
0000
0000
0000
0000
0000
0000
0000
,
1MM1
0000
0000
0011
0000
0000
1010
0000
1100
0000
0000
0101
0000
0000
0011
0000
,
2002
0000
3003
0000
0000
0110
1001
0110
,
1MM1
0000
0000
0000
0000
0000
0000
0000
0000
1000
0010
0001
0010
0000
0000
0000
0000
0000
0000
0000
0000
1000
0100
0001
,
0100
0000
0000
0000
0000
0000
0000
1000
0000
0100
0000
0000
0000
0000
0000
0000
1000
0000
0001
0000
0000
0000
0000
0000
1000
0000
0000
0000
0000
0000
0000
0010
0000
1000
0000
0000
0000
0000
0000
0000
0001
0000
1000
0000
0000
0000
0000
0000
,
M10M
0000
0000
0000
0000
0000
0000
0000
0000
1000
0100
0001
0100
0000
0000
0000
0000
0000
0000
0000
0000
1000
0010
0001
,
0010
0000
0000
0000
0000
0000
0000
1000
0000
0001
0000
0000
0000
0000
0000
0000
0100
0000
0001
0000
0000
0000
0000
0000
1000
0000
0000
0000
0000
0000
0000
0000
0000
0000
0000
0000
0000
0000
0000
0000
0000
0000
0000
0000
0000
0000
0000
0000
,
1MM0
0000
0000
0000
0000
0000
0100
1000
0100
0010
1000
0010
0100
1000
0100
0010
,
1000
0010
0100
1000
0100
0010
1000
0000
0000
0000
0000
0000
0000
0000
0000
0000
,
0MM1
0000
0000
0000
0000
0000
0010
0001
0010
0100
0001
0100
0010
0001
0010
0100
,
0001
0100
0010
0001
0010
0100
0001
0000
0000
0000
0000
0000
0000
0000
0000
0000
,
1MM0
0000
0000
0000
0000
0000
0001
0100
0001
1000
0010
1000
0001
0100
0001
1000
,
0010
1000
0001
0100
0001
1000
0010
0000
0000
0000
0000
0000
0000
0000
0000
0000
,
0MM1
0000
0000
0000
0000
0000
0010
0001
1000
0100
1000
0001
0010
0001
1000
0100
,
1000
0000
0000
0000
0000
0000
0000
0001
0000
0010
0000
0000
0000
0000
0000
0000
0001
0000
1000
0000
0000
0000
0000
0000
0100
0000
0000
0000
0000
0000
0000
0000
0000
0000
0000
0000
0110
0000
0000
0000
0000
0000
0101
0000
0000
0000
0000
0000
,
1MM1
0000
0000
0000
0000
0000
0100
0001
0100
0010
1000
0010
0100
0001
0100
0010
,
1000
0010
0100
0001
0100
0010
1000
0000
0000
0000
0000
0000
0000
0000
0000
0000
,
0MM1
0000
0000
0000
0000
0000
0010
0001
0010
0100
1000
0100
0010
0001
0010
0100
,
1000
0100
0010
0001
0010
0100
1000
0000
0000
0000
0000
0000
0000
0000
0000
0000
,
1MM0
0000
0000
0000
0000
0000
0000
0000
0000
0000
0000
0000
0000
0000
0000
0000
0000
0000
0001
0000
0000
1000
0000
0000
0100
0000
0000
0000
0000
0000
0000
1000
0000
0010
0000
0000
0000
0000
0000
0000
1000
0000
0001
0000
0000
0000
0000
0000
,
1000
0000
0000
0000
0000
0000
0000
0001
0000
1000
0000
0000
0000
0000
0000
0000
0001
0000
1000
0000
0000
0000
0000
0000
0000
0000
0000
0000
0000
0000
0000
0000
0000
0000
0000
0000
0000
0000
0000
0000
0000
0000
0000
0000
0000
0000
0000
0000
,
M11M
0000
0000
1010
0000
0000
1100
0000
0101
0000
0000
0011
0000
0000
1010
0000
,
0220
0000
0330
0000
0000
1001
0110
1001
,
M11M
0000
0000
0000
0000
0000
0000
0000
0000
0100
1000
0010
1000
0000
0000
0000
0000
0000
0000
0000
0000
0100
0001
0010
,
0001
0000
0000
0000
0000
0000
0000
0100
0000
0001
0000
0000
0000
0000
0000
0000
0100
0000
0010
0000
0000
0000
0000
0000
0100
0000
0000
0000
0000
0000
0000
1000
0000
0100
0000
0000
0000
0000
0000
0000
0010
0000
0100
0000
0000
0000
0000
0000
,
0MM1
0000
0000
0000
0000
0000
0000
0000
0000
0100
0001
0010
0001
0000
0000
0000
0000
0000
0000
0000
0000
0100
1000
0010
,
1000
0000
0000
0000
0000
0000
0000
0100
0000
0010
0000
0000
0000
0000
0000
0000
0001
0000
0010
0000
0000
0000
0000
0000
0100
0000
0000
0000
0000
0000
0000
0000
0000
0000
0000
0000
0000
0000
0000
0000
0000
0000
0000
0000
0000
0000
0000
0000
,
0MM0
0000
0000
0000
;

//---------------dance-double - LinkDubs03----------------
#NOTEDATA:;
#CHARTNAME:LinkDubs03;
#STEPSTYPE:dance-double;
#DESCRIPTION:LinkDubs03;
#CHARTSTYLE:;
#DIFFICULTY:Beginner;
#METER:2;
#RADARVALUES:0.131931,0.125618,0.000000,0.307839,0.000000,93.000000,93.000000,0.000000,31.000000,0.000000,0.000000,0.000000,0.000000,0.000000,0.131931,0.125618,0.000000,0.307839,0.000000,93.000000,93.000000,0.000000,31.000000,0.000000,0.000000,0.000000,0.000000,0.000000;
#CREDIT:LinkDubs03;
#NOTES:
00000000
00000000
00000000
00000000
,
00000000
00000000
00000000
00000000
,
00001000
00000000
00010000
00000000
,
00020000
00030000
00000000
00000000
,
00001000
00000000
00100000
00000000
,
00200000
00300000
00000000
00000000
,
00001000
00000000
01000000
00000000
,
02000000
03000000
00000000
00000000
,
00001000
00000000
00010000
00000000
,
00002000
00003000
00000000
00000000
,
00010000
00000000
00001000
00000000
,
00020000
00030000
00000000
00000000
,
00000100
00000000
00010000
00000000
,
00000200
00000300
00000000
00000000
,
00010000
00000000
00000010
00000000
,
00020000
00030000
00000000
00000000
,
00001000
00000000
00010000
00000000
,
00000020
00000030
00000000
00000000
,
00010000
00000000
00001000
00000000
,
02000000
03000000
00000000
00000000
,
00001000
00000000
00010000
00000000
,
00000200
00000300
00000000
00000000
,
00010000
00000000
00001000
00000000
,
00200000
00300000
00000000
00000000
,
00001000
00000000
01000000
00000000
,
02000000
03000000
00000000
00000000
,
00001000
00000000
00100000
00000000
,
00200000
00300000
00000000
00000000
,
00001000
00000000
00010000
00000000
,
00002000
00003000
00000000
00000000
,
00010000
00000000
00001000
00000000
,
00020000
00030000
00000000
00000000
,
00000010
00000000
00010000
00000000
,
00000020
00000030
00000000
00000000
,
00010000
00000000
00000100
00000000
,
00020000
00030000
00000000
00000000
,
00001000
00000000
00010000
00000000
,
00000200
00000300
00000000
00000000
,
00010000
00000000
00001000
00000000
,
00200000
00300000
00000000
00000000
,
00001000
00000000
00010000
00000000
,
00000020
00000030
00000000
00000000
,
00010000
00000000
00001000
00000000
,
02000000
03000000
00000000
00000000
,
00100000
00000000
00001000
00000000
,
00002000
00003000
00000000
00000000
,
01000000
00000000
00001000
00000000
,
00002000
00003000
00000000
00000000
,
00010000
00000000
00001000
00000000
,
00020000
00030000
00000000
00000000
,
00001000
00000000
00010000
00000000
,
00002000
00003000
00000000
00000000
,
00010000
00000000
00000100
00000000
,
00020000
00030000
00000000
00000000
,
00000010
00000000
00010000
00000000
,
00000020
00000030
00000000
00000000
,
00000010
00000000
00010000
00000000
,
00002000
00003000
00000000
00000000
,
01000000
00000000
00001000
00000000
,
00020000
00030000
00000000
00000000
,
00000100
00000000
00010000
00000000
,
00002000
00003000
00000000
00000000
,
00100000
00000000
00001000
00000000
,
00020000
00030000
00000000
00000000
;

//---------------dance-double - LinkDubs06----------------
#NOTEDATA:;
#CHARTNAME:LinkDubs06;
#STEPSTYPE:dance-double;
#DESCRIPTION:LinkDubs06;
#CHARTSTYLE:;
#DIFFICULTY:Easy;
#METER:4;
#RADARVALUES:0.252513,0.252229,0.000000,0.000000,0.000000,178.000000,178.000000,0.000000,0.000000,0.000000,0.000000,0.000000,0.000000,0.000000,0.252513,0.252229,0.000000,0.000000,0.000000,178.000000,178.000000,0.000000,0.000000,0.000000,0.000000,0.000000,0.000000,0.000000;
#CREDIT:LinkDubs06;
#NOTES:
00000000
00000000
00000000
00000000
,
00000000
00000000
00000000
00000000
,
00000100
00000000
00010000
00000100
,
00010000
00000100
00010000
00000100
,
00001000
00000000
00000001
00001000
,
00000001
00001000
00000010
00000000
,
00010000
00000000
00001000
00010000
,
00001000
00010000
00000010
00000000
,
00010000
00000000
00000010
00000000
,
00010000
00010000
00010000
00000000
,
00000100
00000000
00000010
00000000
,
00000100
00000100
00000100
00000000
,
00010000
00000000
00000100
00001000
,
00000010
00001000
00000100
00000000
,
00010000
00000000
00001000
00100000
,
00010000
00100000
00001000
00000000
,
01000000
00000000
00100000
01000000
,
00100000
00010000
00100000
00000000
,
01000000
00001000
00100000
00010000
,
00100000
00001000
01000000
00000000
,
00010000
00000000
00100000
00000000
,
00001000
01000000
00010000
00000000
,
00100000
00000000
00001000
00000000
,
00010000
00001000
00010000
00000000
,
00000010
00000000
00010000
00001000
,
00010000
00001000
00010000
00000000
,
00000010
00000000
00001000
00000001
,
00001000
00000001
00000100
00000000
,
00000001
00000000
00000100
00000000
,
00000010
00000010
00000010
00000000
,
00010000
00000000
00000100
00000000
,
00010000
00010000
00010000
00000000
,
00000010
00000000
00010000
00000100
,
00001000
00000100
00010000
00000000
,
00001000
00000000
00100000
00010000
,
01000000
00010000
00100000
00000000
,
00010000
00000000
10000000
00100000
,
10000000
01000000
10000000
00000000
,
00010000
00100000
01000000
10000000
,
01000000
00100000
00010000
00000000
,
10000000
00000000
00100000
00000000
,
01000000
00001000
00010000
00000000
,
00001000
00000000
00010000
00000000
,
00000100
00001000
00000001
00000000
,
00001000
00000000
00000001
00000100
,
00010000
00000100
00000001
00000000
,
00001000
00000000
00000001
00000010
,
00010000
00000010
00000001
00000000
,
00001000
00000000
00000100
00000000
,
00010000
00010000
00010000
00000000
,
00001000
00000000
01000000
00000000
,
00100000
00100000
00100000
00000000
,
01000000
00000000
00001000
00100000
,
10000000
01000000
00001000
00000000
,
00010000
00000000
00001000
00100000
,
10000000
01000000
00001000
00000000
,
00010000
00000000
00001000
01000000
,
00100000
01000000
00001000
00000000
,
00010000
00001000
00100000
10000000
,
00100000
00001000
00010000
00000000
,
00000100
00000000
00001000
00000000
,
00000001
00000100
00000010
00000000
,
00000100
00000000
00000001
00000000
,
00001000
00000010
00010000
00000000
;

//---------------dance-double - LinkDubs09----------------
#NOTEDATA:;
#CHARTNAME:LinkDubs09;
#STEPSTYPE:dance-double;
#DESCRIPTION:LinkDubs09;
#CHARTSTYLE:;
#DIFFICULTY:Medium;
#METER:6;
#RADARVALUES:0.375932,0.378344,0.009930,0.000000,0.158885,265.000000,264.000000,1.000000,0.000000,0.000000,0.000000,0.000000,0.000000,0.000000,0.375932,0.378344,0.009930,0.000000,0.158885,265.000000,264.000000,1.000000,0.000000,0.000000,0.000000,0.000000,0.000000,0.000000;
#CREDIT:LinkDubs09;
#NOTES:
00000000
00000000
00000000
00000000
,
00000000
00000000
00000000
00000000
,
00011000
00000000
00000000
00000000
00000000
00000000
00000000
00000000
00010000
00000000
00000000
00001000
00000000
00000000
00010000
00000000
,
00001000
00000000
00000000
00010000
00000000
00000000
00001000
00000000
00010000
00000000
00000000
00000000
00001000
00000000
00000000
00000000
,
00010000
00000000
00000000
00000000
00001000
01000000
00001000
01000000
,
00001000
01000000
00001000
01000000
00000000
00000000
00000000
00000000
,
00001000
00000000
00000000
00000000
01000000
00100000
01000000
00100000
,
01000000
00100000
01000000
00100000
00000000
00000000
00000000
00000000
,
01000000
00000000
00000000
00000000
00000000
00000000
00000000
00000000
00100000
00000000
00000000
10000000
00000000
00000000
00100000
00000000
,
10000000
00000000
00000000
00100000
00000000
00000000
10000000
00000000
00000000
00000000
00000000
00000000
00000000
00000000
00000000
00000000
,
00100000
00000000
00000000
00000000
10000000
00010000
10000000
00010000
,
10000000
00000000
00000000
00010000
00000000
00000000
10000000
00000000
00010000
00000000
00000000
00000000
00000000
00000000
00000000
00000000
,
10000000
00000000
00000000
00000000
00010000
00100000
00010000
00100000
,
00010000
00100000
00010000
00100000
00000000
00000000
00000000
00000000
,
00010000
00000000
00000000
00000000
00100000
01000000
00100000
01000000
,
00100000
01000000
00100000
01000000
00000000
00000000
00000000
00000000
,
00100000
00000000
00000000
00000000
00000000
00000000
00000000
00000000
00001000
00000000
00000000
01000000
00000000
00000000
00001000
00000000
,
01000000
00000000
00000000
00001000
00000000
00000000
01000000
00000000
00000000
00000000
00000000
00000000
00000000
00000000
00000000
00000000
,
00001000
00000000
00000000
00010000
00000000
00000000
00001000
00000000
00010000
00000000
00000000
00001000
00000000
00000000
00010000
00000000
,
00001000
00000000
00000000
00000000
00000000
00000000
00000000
00100000
,
00001000
00000000
00000000
00100000
00001000
00000000
00000000
01000000
,
00001000
00000000
00000000
01000000
00000000
00000000
00001000
00000000
01000000
00000000
00000000
00001000
00000000
00000000
01000000
00000000
,
00001000
00000000
00000000
00010000
00001000
00000000
00000000
00010000
,
00001000
00000000
00000000
00010000
00000000
00000000
00001000
00000000
00010000
00000000
00000000
00000000
00000000
00000000
00000000
00000000
,
00001000
00000000
00000000
00000000
00010000
00000010
00010000
00000010
,
00010000
00000010
00010000
00000010
00000000
00000000
00000000
00000000
,
00010000
00000000
00000000
00000000
00000010
00000100
00000010
00000100
,
00000010
00000100
00000010
00000100
00000000
00000000
00000000
00000000
,
00000010
00000000
00000000
00000000
00000000
00000000
00000000
00000000
00000100
00000000
00000000
00000001
00000000
00000000
00000100
00000000
,
00000001
00000000
00000000
00000100
00000000
00000000
00000001
00000000
00000000
00000000
00000000
00000000
00000000
00000000
00000000
00000000
,
00000100
00000000
00000000
00000000
00000001
00001000
00000001
00001000
,
00000001
00000000
00000000
00001000
00000000
00000000
00000001
00000000
00001000
00000000
00000000
00000000
00000000
00000000
00000000
00000000
,
00000001
00000000
00000000
00000000
00001000
00000100
00001000
00000100
,
00001000
00000100
00001000
00000100
00000000
00000000
00000000
00000000
,
00001000
00000000
00000000
00000000
00000010
00000100
00000010
00000100
,
00000010
00000100
00000010
00000100
00000000
00000000
00000000
00000000
,
00000010
00000000
00000000
00000000
00000000
00000000
00000000
00000000
00010000
00000000
00000000
00000010
00000000
00000000
00010000
00000000
,
00000010
00000000
00000000
00010000
00000000
00000000
00000010
00000000
00000000
00000000
00000000
00000000
00000000
00000000
00000000
00000000
,
00010000
00000000
00000000
00001000
00000000
00000000
00010000
00000000
00001000
00000000
00000000
00010000
00000000
00000000
00001000
00000000
,
00010000
00000000
00000000
00000000
00000000
00000000
00000000
00000100
,
00010000
00000000
00000000
00001000
00010000
00000000
00000000
00000010
,
00010000
00000000
00000000
00000010
00000000
00000000
00010000
00000000
00000010
00000000
00000000
00010000
00000000
00000000
00000010
00000000
,
00010000
00000000
00000000
00001000
00010000
00000000
00000000
00001000
,
00010000
00000000
00000000
00001000
00000000
00000000
00010000
00000000
00001000
00000000
00000000
00000000
00000000
00000000
00000000
00000000
,
01000000
00000000
00000000
00000000
00100000
01000000
00100000
10000000
,
00100000
10000000
00100000
01000000
00000000
00000000
00000000
00000000
,
00100000
00000000
00000000
00000000
01000000
00100000
01000000
00001000
,
01000000
00001000
01000000
00100000
00000000
00000000
00000000
00000000
,
01000000
00000000
00000000
00000000
00000000
00000000
00000000
00000000
00001000
00000000
00000000
01000000
00000000
00000000
00001000
00000000
,
01000000
00000000
00000000
00001000
00000000
00000000
00010000
00000000
00000000
00000000
00000000
00000000
00000000
00000000
00000000
00000000
,
00001000
00000000
00000000
00000000
00010000
00001000
00010000
00001000
,
00010000
00000000
00000000
00000100
00000000
00000000
00010000
00000000
00000100
00000000
00000000
00000000
00000000
00000000
00000000
00000000
,
00001000
00000000
00000000
00000000
00000010
00000100
00000010
00010000
,
00000010
00010000
00000010
00000100
00000000
00000000
00000000
00000000
,
00000001
00000000
00000000
00000000
00000010
00000001
00000010
00000100
,
00000010
00010000
00000010
00000100
00000000
00000000
00000000
00000000
,
00001000
00000000
00000000
00000000
00000000
00000000
00000000
00000000
00000100
00000000
00000000
00010000
00000000
00000000
00001000
00000000
,
00100000
00000000
00000000
00010000
00000000
00000000
01000000
00000000
00000000
00000000
00000000
00000000
00000000
00000000
00000000
00000000
,
00010000
00000000
00000000
10000000
00000000
00000000
00100000
00000000
01000000
00000000
00000000
00010000
00000000
00000000
10000000
00000000
,
00100000
00000000
00000000
00000000
00000000
00000000
00000000
01000000
,
00001000
00000000
00000000
00010000
00001000
00000000
00000000
00010000
,
00000100
00000000
00000000
00000010
00000000
00000000
00000001
00000000
00000010
00000000
00000000
00000100
00000000
00000000
00010000
00000000
,
00000100
00000000
00000000
00010000
00001000
00000000
00000000
00100000
,
00010000
00000000
00000000
01000000
00000000
00000000
00100000
00000000
10000000
00000000
00000000
00000000
00000000
00000000
00000000
00000000
;

//---------------dance-double - LinkDubs12----------------
#NOTEDATA:;
#CHARTNAME:LinkDubs12;
#STEPSTYPE:dance-double;
#DESCRIPTION:LinkDubs12;
#CHARTSTYLE:;
#DIFFICULTY:Hard;
#METER:8;
#RADARVALUES:0.540491,0.540208,0.367421,0.000000,0.446863,381.000000,344.000000,37.000000,0.000000,66.000000,0.000000,0.000000,0.000000,0.000000,0.540491,0.540208,0.367421,0.000000,0.446863,381.000000,344.000000,37.000000,0.000000,66.000000,0.000000,0.000000,0.000000,0.000000;
#CREDIT:LinkDubs12;
#NOTES:
00000000
00000000
00000000
00000000
,
0M000000
M0000000
00M00000
M0000000
,
00011000
00000000
00000000
00000000
00000000
00000000
00001000
00010000
00001000
00000000
00000000
00010000
00000000
00000000
00001000
00000000
,
00010000
00000000
00000000
00001000
00000000
00000000
00010000
00000000
00001000
00000000
00000000
00000000
00010000
00000000
00000000
00000000
,
0001MM10
00000000
00000000
00000000
00000000
00000000
00010000
00000100
00010000
00000000
00000100
00000000
00010000
00000000
00000100
00000000
,
00010000
00000100
00000000
00000100
00010000
00000000
00000100
00000000
00000000
00000000
00000000
00000000
00000000
00000000
00000000
00000000
,
000M1M10
00000000
00000000
00000000
00000000
00000000
00001000
00000001
00001000
00000000
00000001
00000000
00001000
00000000
00000001
00000000
,
00001000
00000001
00000000
00000001
00001000
00000000
00000001
00000000
00000000
00000000
00000000
00000000
00000000
00000000
00000000
00000000
,
0000M11M
00000000
00000000
00000000
00000000
00000000
00010000
00000010
00010000
00000000
00000000
00000010
00000000
00000000
00010000
00000000
,
00000010
00000000
00000000
00010000
00000000
00000000
00000010
00000000
00000000
00000000
00000000
00000000
00000000
00000000
00000000
00000000
,
000M11M0
00000000
00000000
00000000
00000000
00000000
00010000
00001000
00010000
00000000
00001000
00000000
00010000
00000000
00001000
00000000
,
00010000
00000000
00000000
00001000
00000000
00000000
00010000
00000000
00001000
00000000
00000000
00000000
00010000
00000000
00001000
00000000
,
00M11M00
00000000
00000000
00000000
00000000
00000000
01000000
00001000
01000000
00000000
00001000
00000000
01000000
00000000
00001000
00000000
,
01000000
00001000
00000000
00001000
01000000
00000000
00001000
00000000
00000000
00000000
00000000
00000000
00000000
00000000
00000000
00000000
,
0M11M000
00000000
00000000
00000000
00000000
00000000
10000000
00010000
10000000
00000000
00010000
00000000
10000000
00000000
00010000
00000000
,
10000000
00010000
00000000
00010000
10000000
00000000
00010000
00000000
00000000
00000000
00000000
00000000
00000000
00000000
00000000
00000000
,
M11M0000
00000000
00000000
00000000
00000000
00000000
00100000
00001000
00100000
00000000
00000000
00001000
00000000
00000000
00100000
00000000
,
00001000
00000000
00000000
00100000
00000000
00000000
00001000
00000000
00000000
00000000
00000000
00000000
00000000
00000000
00000000
00000000
,
0M1M1000
00000000
00000000
00100000
00000000
00000000
00001000
00000000
00011000
00000000
00000000
00010000
00000000
00000000
00000100
00000000
,
00010100
00000000
00000000
00000000
00000000
00000100
00000010
00000100
,
00001MM1
00000000
00000000
00000000
00000000
00000000
00000001
00000100
00000001
00000000
00000000
00000000
00000000
00000000
00001000
00000100
,
00001000
00000000
00000000
00000100
00000000
00000000
00010000
00000000
00001000
00000000
00000000
01000000
00000000
00000000
00010000
00000000
,
0M1M1000
00000000
00000000
00000000
00000000
00000000
00100000
01000000
00100000
00000000
00000000
00000000
00000000
00000000
00010000
10000000
,
00010000
00000000
00000000
00100000
00000000
00000000
00001000
00000000
00010000
00000000
00000000
00000000
00000000
00000000
00000000
00000000
,
01MM1000
00000000
00000000
00000000
00000000
00000000
00001000
00100000
00001000
00000000
00100000
00000000
00001000
00000000
00100000
00000000
,
00001000
00100000
00000000
00100000
00001000
00000000
00100000
00000000
00000000
00000000
00000000
00000000
00000000
00000000
00000000
00000000
,
01M1M000
00000000
00000000
00000000
00000000
00000000
00010000
10000000
00010000
00000000
10000000
00000000
00010000
00000000
10000000
00000000
,
00010000
10000000
00000000
10000000
00010000
00000000
10000000
00000000
00000000
00000000
00000000
00000000
00000000
00000000
00000000
00000000
,
M11M0000
00000000
00000000
00000000
00000000
00000000
00001000
01000000
00001000
00000000
00000000
01000000
00000000
00000000
00001000
00000000
,
01000000
00000000
00000000
00001000
00000000
00000000
01000000
00000000
00000000
00000000
00000000
00000000
00000000
00000000
00000000
00000000
,
0M11M000
00000000
00000000
00000000
00000000
00000000
00001000
00010000
00001000
00000000
00010000
00000000
00001000
00000000
00010000
00000000
,
00001000
00000000
00000000
00010000
00000000
00000000
00001000
00000000
00010000
00000000
00000000
00000000
00001000
00000000
00010000
00000000
,
00M11M00
00000000
00000000
00000000
00000000
00000000
00000010
00010000
00000010
00000000
00010000
00000000
00000010
00000000
00010000
00000000
,
00000010
00010000
00000000
00010000
00000010
00000000
00010000
00000000
00000000
00000000
00000000
00000000
00000000
00000000
00000000
00000000
,
000M11M0
00000000
00000000
00000000
00000000
00000000
00000001
00001000
00000001
00000000
00001000
00000000
00000001
00000000
00001000
00000000
,
00000001
00001000
00000000
00001000
00000001
00000000
00001000
00000000
00000000
00000000
00000000
00000000
00000000
00000000
00000000
00000000
,
0000M11M
00000000
00000000
00000000
00000000
00000000
00000100
00010000
00000100
00000000
00000000
00010000
00000000
00000000
00000100
00000000
,
00010000
00000000
00000000
00000100
00000000
00000000
00010000
00000000
00000000
00000000
00000000
00000000
00000000
00000000
00000000
00000000
,
0001M1M0
00000000
00000000
00000100
00000000
00000000
00010000
00000000
00011000
00000000
00000000
00001000
00000000
00000000
00100000
00000000
,
00101000
00000000
00000000
00000000
00000000
00100000
01000000
00100000
,
1MM10000
00000000
00000000
00000000
00000000
00000000
10000000
00100000
10000000
00000000
00000000
00000000
00000000
00000000
00010000
00100000
,
00010000
00000000
00000000
00100000
00000000
00000000
00001000
00000000
00010000
00000000
00000000
00000010
00000000
00000000
00001000
00000000
,
0001M1M0
00000000
00000000
00000000
00000000
00000000
00000100
00000010
00000100
00000000
00000000
00000000
00000000
00000000
00001000
00000001
,
00001000
00000000
00000000
00000100
00000000
00000000
00010000
00000000
00001000
00000000
00000000
00000000
00000000
00000000
00000000
00000000
,
011MM000
00000000
00000000
00000000
00000000
00000000
00100000
00010000
01000000
00000000
00010000
00000000
01000000
00000000
00010000
00000000
,
00100000
01000000
00000000
01000000
00100000
00000000
00010000
00000000
00000000
00000000
00000000
00000000
00000000
00000000
00000000
00000000
,
11MM0000
00000000
00000000
00000000
00000000
00000000
00100000
00010000
10000000
00000000
00010000
00000000
10000000
00000000
00010000
00000000
,
01000000
10000000
00000000
10000000
01000000
00000000
00010000
00000000
00000000
00000000
00000000
00000000
00000000
00000000
00000000
00000000
,
0M1M1000
00000000
00000000
00000000
00000000
00000000
01000000
00010000
00100000
00000000
00000000
01000000
00000000
00000000
00001000
00000000
,
00100000
00000000
00000000
01000000
00000000
00000000
00010000
00000000
00000000
00000000
00000000
00000000
00000000
00000000
00000000
00000000
,
1M1M0000
00000000
00000000
00000000
00000000
00000000
00010000
01000000
00100000
00000000
10000000
00000000
01000000
00000000
00100000
00000000
,
00010000
00000000
00000000
01000000
00000000
00000000
00001000
00000000
00010000
00000000
00000000
00000000
00001000
00000000
01000000
00000000
,
0M11M000
00000000
00000000
00000000
00000000
00000000
00001000
00100000
00001000
00000000
00010000
00000000
00001000
00000000
00010000
00000000
,
00000100
00010000
00000000
00000010
00001000
00000000
00000001
00000000
00000000
00000000
00000000
00000000
00000000
00000000
00000000
00000000
,
0000M1M1
00000000
00000000
00000000
00000000
00000000
00001000
00000010
00001000
00000000
00000001
00000000
00000010
00000000
00000001
00000000
,
00001000
00000010
00000000
00001000
00000001
00000000
00000100
00000000
00000000
00000000
00000000
00000000
00000000
00000000
00000000
00000000
,
00001M1M
00000000
00000000
00000000
00000000
00000000
00000100
00010000
00000100
00000000
00000000
00001000
00000000
00000000
00000100
00000000
,
00010000
00000000
00000000
00000100
00000000
00000000
00000010
00000000
00000000
00000000
00000000
00000000
00000000
00000000
00000000
00000000
,
000M11M0
00000000
00000000
00010000
00000000
00000000
00000010
00000000
00001100
00000000
00000000
00010000
00000000
00000000
00000010
00000000
,
00001100
00000000
00000000
00000000
00000000
00001000
00000100
00010000
,
001M1M00
00000000
00000000
00000000
00000000
00000000
00001000
01000000
00010000
00000000
00000000
00000000
00000000
00000000
01000000
10000000
,
01000000
00000000
00000000
00100000
00000000
00000000
01000000
00000000
00010000
00000000
00000000
01000000
00000000
00000000
00001000
00000000
,
0M11M000
00000000
00000000
00000000
00000000
00000000
00010000
01000000
00100000
00000000
00000000
00000000
00000000
00000000
10000000
01000000
,
00100000
00000000
00000000
00001000
00000000
00000000
00100000
00000000
00010000
00000000
00000000
00000000
00000000
00000000
00000000
00000000
,
00MM0000
00000000
00000000
00000000
;

//---------------dance-double - LinkDubs15----------------
#NOTEDATA:;
#CHARTNAME:LinkDubs15;
#STEPSTYPE:dance-double;
#DESCRIPTION:LinkDubs15;
#CHARTSTYLE:;
#DIFFICULTY:Challenge;
#METER:10;
#RADARVALUES:0.791586,0.921531,0.387281,0.079442,1.166809,558.000000,519.000000,39.000000,8.000000,66.000000,0.000000,0.000000,0.000000,0.000000,0.791586,0.921531,0.387281,0.079442,1.166809,558.000000,519.000000,39.000000,8.000000,66.000000,0.000000,0.000000,0.000000,0.000000;
#CREDIT:LinkDubs15;
#NOTES:
00000000
00000000
00000000
00000000
,
0M000000
M0000000
00M00000
M0000000
,
00020020
00000000
00000000
00030030
00000000
00000000
00000010
00010000
00000010
00010000
00000100
00010000
00000100
00010000
00001000
01000000
,
00001000
01000000
00010000
01000000
00010000
01000000
00100000
10000000
00100000
10000000
01000000
10000000
01000000
10000000
00100000
01000000
,
M01M0000
00000000
00000000
00000000
00000000
00000000
01000000
00010000
01000000
00001000
00010000
00001000
01000000
00010000
01000000
00001000
,
00010000
00001000
01000000
00010000
01000000
00001000
00010000
00000000
00000000
00000000
00000000
00000000
00000000
00000000
00000000
00000000
,
0M01M000
00000000
00000000
00000000
00000000
00000000
00001000
00100000
00001000
01000000
00100000
01000000
00001000
00100000
00001000
01000000
,
00100000
01000000
00001000
00100000
00001000
01000000
00100000
00000000
00000000
00000000
00000000
00000000
00000000
00000000
00000000
00000000
,
0M10M000
00000000
00000000
00000000
00000000
00000000
10000000
00100000
01000000
00001000
01000000
00100000
10000000
00100000
01000000
00001000
,
01000000
00100000
10000000
00100000
01000000
00001000
01000000
00000000
00000000
00000000
00000000
00000000
00000000
00000000
00000000
00000000
,
00M01M00
00000000
00000000
00000000
00000000
00000000
00001000
01000000
00010000
00100000
01000000
10000000
00100000
01000000
00001000
00010000
,
00001000
00000000
00000000
00000000
00000000
00000000
00000000
00010000
00000000
00000100
00000000
00000000
00000000
00000000
00000000
00000000
00010000
00000000
00000010
00000000
00000000
00000000
00000000
00000000
00001000
00000000
00000000
00000000
00000000
00000000
00000000
00000000
00000000
00000000
00000000
00000000
00001001
00000000
00000000
00000000
00000000
00000000
00000100
00000000
00000000
00000000
00000000
00000000
,
0000M01M
00000000
00000000
00000000
00000000
00000000
00010000
00000010
00010000
00000100
00001000
00000100
00010000
00000010
00010000
00000100
,
00001000
00000100
00010000
00000010
00010000
00000100
00001000
00000000
00000000
00000000
00000000
00000000
00000000
00000000
00000000
00000000
,
000M10M0
00000000
00000000
00000000
00000000
00000000
00000010
00000100
00000010
00010000
00001000
00010000
00000010
00000100
00000010
00010000
,
00001000
00010000
00000010
00000100
00000010
00010000
00001000
00000000
00000000
00000000
00000000
00000000
00000000
00000000
00000000
00000000
,
0000M01M
00000000
00000000
00000000
00000000
00000000
00000000
00000000
00000000
00000000
00000000
00000000
00000000
00000000
00000000
00000000
00000000
00000000
00000100
00000000
00000000
00000001
00000000
00000000
00000100
00000000
00000000
00000000
00000000
00000000
00000000
00000010
00000000
00000100
00000000
00000000
00000000
00000000
00000000
00000000
00010000
00000000
00000100
00000000
00000000
00000000
00000000
00000000
,
00000001
00000000
00000000
00000000
00000000
00000000
00000000
00000010
00000000
00000100
00000000
00000000
00000000
00000000
00000000
00000000
00000010
00000000
00000100
00000000
00000000
00000000
00000000
00000000
00000000
00000000
00000000
00000000
00000000
00000000
00000000
00000000
00000000
00000000
00000000
00000000
00000000
00000000
00000000
00000000
00000000
00000000
00000000
00000000
00000000
00000000
00000000
00000000
,
00001MM1
00000000
00000000
00000101
00000000
00000000
00000110
00000000
00010010
00000000
00000000
00011000
00000000
00000000
01001000
00000000
,
02200000
00000000
03300000
00000000
00000000
10100000
10000000
00010000
,
1MM10000
00000000
00000000
00000000
00000000
00000000
00000000
00000000
00000000
10000000
01000000
00100000
00001000
00000000
00000000
00000000
00000000
00000000
00000000
00000000
00000000
10000000
01000000
00100000
,
00001000
00000000
00000000
00000000
00000000
00000000
00000000
00100000
00000000
00001000
00000000
00000000
00000000
00000000
00000000
00000000
00100000
00000000
00010000
00000000
00000000
00000000
00000000
00000000
01000000
00000000
00000000
00000000
00000000
00000000
00000000
00100000
00000000
01000000
00000000
00000000
00000000
00000000
00000000
00000000
00100000
00000000
10000000
00000000
00000000
00000000
00000000
00000000
,
M01M0000
00000000
00000000
00000000
00000000
00000000
00000000
00000000
00000000
10000000
00100000
01000000
00001000
00000000
00000000
00000000
00000000
00000000
00000000
00000000
00000000
10000000
00100000
01000000
,
00001000
00000000
00000000
00000000
00000000
00000000
00000000
01000000
00000000
00001000
00000000
00000000
00000000
00000000
00000000
00000000
01000000
00000000
00001000
00000000
00000000
00000000
00000000
00000000
00010000
00000000
00000000
00000000
00000000
00000000
00000000
00000000
00000000
00000000
00000000
00000000
00000000
00000000
00000000
00000000
00000000
00000000
00000000
00000000
00000000
00000000
00000000
00000000
,
00M01M00
00000000
00000000
00000000
00000000
00000000
00100000
00001000
00100000
00000100
00001000
00000100
00100000
00001000
00100000
00000100
,
00001000
00000100
00100000
00001000
00100000
00000100
00001000
00000000
00000000
00000000
00000000
00000000
00000000
00000000
00000000
00000000
,
00M10M00
00000000
00000000
00000000
00000000
00000000
00000100
00010000
00000100
00100000
00010000
00100000
00000100
00010000
00000100
00100000
,
00010000
00100000
00000100
00010000
00000100
00100000
00010000
00000000
00000000
00000000
00000000
00000000
00000000
00000000
00000000
00000000
,
00M01M00
00000000
00000000
00000000
00000000
00000000
00100000
00001000
00010000
00000100
00010000
00001000
00100000
00001000
00010000
00000100
,
00010000
00001000
00100000
00001000
00010000
00000100
00001000
00000000
00000000
00000000
00000000
00000000
00000000
00000000
00000000
00000000
,
0000M01M
00000000
00000000
00000000
00000000
00000000
00010000
00000010
00000100
00000001
00000100
00000010
00010000
00000010
00000100
00000001
,
00000100
00000000
00000000
00000000
00000000
00000000
00000000
00000010
00000000
00010000
00000000
00000000
00000000
00000000
00000000
00000000
00000010
00000000
00000100
00000000
00000000
00000000
00000000
00000000
00000001
00000000
00000000
00000000
00000000
00000000
00000000
00000000
00000000
00000000
00000000
00000000
00001001
00000000
00000000
00000000
00000000
00000000
00000011
00000000
00000000
00000000
00000000
00000000
,
0000M11M
00000000
00000000
00000000
00000000
00000000
00000001
00000100
00000010
00010000
00000010
00000100
00000001
00000100
00000010
00010000
,
00000010
00000100
00000001
00000100
00000010
00010000
00000010
00000000
00000000
00000000
00000000
00000000
00000000
00000000
00000000
00000000
,
0000M01M
00000000
00000000
00000000
00000000
00000000
00010000
00000010
00010000
00000100
00001000
00000100
00010000
00000010
00010000
00000100
,
00001000
00000100
00010000
00000010
00010000
00000100
00001000
00000000
00000000
00000000
00000000
00000000
00000000
00000000
00000000
00000000
,
00M01M00
00000000
00000000
00000000
00000000
00000000
00000000
00000000
00000000
00000000
00000000
00000000
00000000
00000000
00000000
00000000
00000000
00000000
00000001
00000000
00000000
00000100
00000000
00000000
00000010
00000000
00000000
00000000
00000000
00000000
00000000
00000100
00000000
00010000
00000000
00000000
00000000
00000000
00000000
00000000
00000100
00000000
00000010
00000000
00000000
00000000
00000000
00000000
,
00001000
00000000
00000000
00000000
00000000
00000000
00000000
00000100
00000000
00000010
00000000
00000000
00000000
00000000
00000000
00000000
00000100
00000000
00000001
00000000
00000000
00000000
00000000
00000000
00000000
00000000
00000000
00000000
00000000
00000000
00000000
00000000
00000000
00000000
00000000
00000000
00000000
00000000
00000000
00000000
00000000
00000000
00000000
00000000
00000000
00000000
00000000
00000000
,
0000M11M
00000000
00000000
00010100
00000000
00000000
00011000
00000000
01001000
00000000
00000000
01100000
00000000
00000000
10100000
00000000
,
20020000
00000000
30030000
00000000
00000000
01010000
00110000
00101000
,
00M11M00
00000000
00000000
00000000
00000000
00000000
00000000
00000000
00000000
01000000
00001000
00010000
00001000
00000000
00000000
00000000
00000000
00000000
00000000
00000000
00000000
00010000
00001000
00010000
,
00000010
00000000
00000000
00000000
00000000
00000000
00000000
00010000
00000000
00000100
00000000
00000000
00000000
00000000
00000000
00000000
00001000
00000000
00000100
00000000
00000000
00000000
00000000
00000000
00001000
00000000
00000000
00000000
00000000
00000000
00000000
00000001
00000000
00001000
00000000
00000000
00000000
00000000
00000000
00000000
00000010
00000000
00001000
00000000
00000000
00000000
00000000
00000000
,
0000M10M
00000000
00000000
00000000
00000000
00000000
00000000
00000000
00000000
00010000
00001000
00000010
00001000
00000000
00000000
00000000
00000000
00000000
00000000
00000000
00000000
00010000
00001000
00000100
,
00001000
00000000
00000000
00000000
00000000
00000000
00000000
00010000
00000000
00000010
00000000
00000000
00000000
00000000
00000000
00000000
00001000
00000000
00000010
00000000
00000000
00000000
00000000
00000000
00010000
00000000
00000000
00000000
00000000
00000000
00000000
00000000
00000000
00000000
00000000
00000000
00000000
00000000
00000000
00000000
00000000
00000000
00000000
00000000
00000000
00000000
00000000
00000000
,
000M01M0
00000000
00000000
00000000
00000000
00000000
00001000
00000100
00001000
00000010
00010000
00000010
00001000
00000100
00001000
00000010
,
00010000
00000010
00001000
00000100
00001000
00000010
00010000
00000000
00000000
00000000
00000000
00000000
00000000
00000000
00000000
00000000
,
000M10M0
00000000
00000000
00000000
00000000
00000000
00000001
00000010
00000100
00001000
00000001
00000010
00000100
00010000
00001000
00010000
,
00001000
00100000
01000000
10000000
00010000
00100000
01000000
00000000
00000000
00000000
00000000
00000000
00000000
00000000
00000000
00000000
,
M01M0000
00000000
00000000
00000000
00000000
00000000
10000000
00100000
01000000
00010000
10000000
00100000
01000000
00001000
00010000
00001000
,
00010000
00000010
00000100
00000001
00010000
00000010
00001000
00000000
00000000
00000000
00000000
00000000
00000000
00000000
00000000
00000000
,
000M10M0
00000000
00000000
00000000
00000000
00000000
00000010
00001000
00000010
00010000
00001000
00010000
00001000
00100000
00010000
00100000
,
00001000
00000000
00000000
00000000
00000000
00000000
00000000
00010000
00000000
00001000
00000000
00000000
00000000
00000000
00000000
00000000
00010000
00000000
00000010
00000000
00000000
00000000
00000000
00000000
00001000
00000000
00000000
00000000
00000000
00000000
00000000
00000000
00000000
00000000
00000000
00000000
00000110
00000000
00000000
00000000
00000000
00000000
00000101
00000000
00000000
00000000
00000000
00000000
,
00001MM1
00000000
00000000
00000000
00000000
00000000
00000100
00000001
00000100
00000010
00001000
00000010
00010000
00000100
00010000
00001000
,
00100000
00001000
01000000
00010000
01000000
00100000
10000000
00000000
00000000
00000000
00000000
00000000
00000000
00000000
00000000
00000000
,
1MM00000
00000000
00000000
00000000
00000000
00000000
01000000
10000000
01000000
00100000
00010000
00100000
00001000
01000000
00001000
00010000
,
00000010
00010000
00000100
00001000
00000100
00000010
00000001
00000000
00000000
00000000
00000000
00000000
00000000
00000000
00000000
00000000
,
00000MM1
00000000
00000000
00000000
00000000
00000000
00000000
00000000
00000000
00000000
00000000
00000000
00000000
00000000
00000000
00000000
00000000
00000000
00001000
00000000
00000000
00000100
00000000
00000000
00000010
00000000
00000000
00000000
00000000
00000000
00000000
00000100
00000000
00001000
00000000
00000000
00000000
00000000
00000000
00000000
00000100
00000000
00010000
00000000
00000000
00000000
00000000
00000000
,
00000100
00000000
00000000
00000000
00000000
00000000
00000000
00001000
00000000
00000100
00000000
00000000
00000000
00000000
00000000
00000000
00000010
00000000
00000100
00000000
00000000
00000000
00000000
00000000
00000000
00000000
00000000
00000000
00000000
00000000
00000000
00000000
00000000
00000000
00000000
00000000
00000000
00000000
00000000
00000000
00000000
00000000
00000000
00000000
00000000
00000000
00000000
00000000
,
0000MM11
00000000
00000000
00001100
00000000
00000000
00010010
00000000
00011000
00000000
00000000
00101000
00000000
00000000
01010000
00000000
,
20020000
00000000
00000000
30030000
00000000
00000000
00000000
00000000
00000000
00000000
11000000
00000000
01100000
00000000
00101000
00000000
,
00M11M00
00000000
00000000
00000000
00000000
00000000
00000000
00000000
00000000
00000100
00010000
00000100
00001000
00000000
00000000
00000000
00000000
00000000
00000000
00000000
00000000
00000001
00000010
00000100
,
00010000
00000000
00000000
00000000
00000000
00000000
00000000
00000010
00000000
00010000
00000000
00000000
00000000
00000000
00000000
00000000
00001000
00000000
00010000
00000000
00000000
00000000
00000000
00000000
00000100
00000000
00000000
00000000
00000000
00000000
00000000
00001000
00000000
00000100
00000000
00000000
00000000
00000000
00000000
00000000
00000010
00000000
00000100
00000000
00000000
00000000
00000000
00000000
,
00010MM0
00000000
00000000
00000000
00000000
00000000
00000000
00000000
00000000
00000100
00010000
00001000
00100000
00000000
00000000
00000000
00000000
00000000
00000000
00000000
00000000
00100000
00001000
00010000
,
00000100
00000000
00000000
00000000
00000000
00000000
00000000
00010000
00000000
00000100
00000000
00000000
00000000
00000000
00000000
00000000
00001000
00000000
00000100
00000000
00000000
00000000
00000000
00000000
00000010
00000000
00000000
00000000
00000000
00000000
00000000
00000000
00000000
00000000
00000000
00000000
00000000
00000000
00000000
00000000
00000000
00000000
00000000
00000000
00000000
00000000
00000000
00000000
,
00000MM0
00000000
00000000
00000000
;

//---------------dance-single - LinkDump17----------------
#NOTEDATA:;
#CHARTNAME:LinkDump17;
#STEPSTYPE:dance-single;
#DESCRIPTION:LinkDump17;
#CHARTSTYLE:;
#DIFFICULTY:Edit;
#METER:11;
#RADARVALUES:1.090913,1.048639,0.000000,0.000000,1.578916,769.000000,769.000000,0.000000,0.000000,6.000000,0.000000,0.000000,0.000000,0.000000,1.090913,1.048639,0.000000,0.000000,1.578916,769.000000,769.000000,0.000000,0.000000,6.000000,0.000000,0.000000,0.000000,0.000000;
#CREDIT:LinkDump17;
#NOTES:
0000
0000
0000
0000
,
0M00
M000
00M0
M000
,
0001
0000
0000
0000
0000
0000
1000
0001
0100
0001
1000
0010
0100
0001
1000
0010
,
1000
0100
0010
0001
1000
0100
0010
0001
1000
0001
1000
0001
0100
0010
1000
0001
,
0100
0000
0000
0000
0000
0000
0010
1000
0100
1000
0001
1000
0001
0010
0100
1000
,
0001
0010
0001
1000
0001
1000
0100
0010
0001
1000
0100
0010
0100
1000
0001
1000
,
0010
0000
0000
0000
0000
0000
0100
0001
1000
0001
0010
0001
1000
0100
1000
0001
,
1000
0001
0010
0100
1000
0010
0100
0001
1000
0010
1000
0001
0100
0001
1000
0001
,
0010
0000
0000
0000
0000
0000
0100
1000
0001
1000
0010
0100
0010
1000
0001
0100
,
0010
1000
0001
1000
0001
1000
0001
1000
0100
1000
0001
0010
0100
1000
0001
0010
,
0001
0000
0000
0000
0000
0000
0100
0010
1000
0001
0100
0010
1000
0001
1000
0001
,
1000
0100
0010
0001
1000
0100
0010
0001
0100
0001
1000
0001
1000
0010
0100
0001
,
1000
0000
0000
0000
0000
0000
0010
1000
0001
1000
0001
0100
0010
1000
0001
0100
,
0010
0100
0001
1000
0001
0010
0100
1000
0001
1000
0010
1000
0001
0100
0001
1000
,
0001
0000
0000
0000
0000
0000
1000
0010
0100
0001
0010
0100
1000
0001
0010
0001
,
1000
0100
1000
0001
1000
0010
0100
0001
1000
0001
0010
0100
0010
0001
1000
0100
,
0010
0000
0000
0000
0000
0000
0001
1000
0001
1000
0001
1000
0100
0010
0100
1000
,
0001
0010
0100
1000
0001
1000
0001
0010
0100
1000
0001
0010
0100
1000
0010
1000
,
0100
0010
0001
1000
0100
0010
0001
1000
0001
1000
0001
1000
0100
0010
0001
1000
,
0100
0010
0100
1000
0010
1000
0001
0100
0010
0000
1000
0000
0001
0000
0100
0000
,
0001
1000
0010
1000
0001
0100
0010
1000
,
0100
0010
0100
1000
0001
1000
0001
1000
,
0010
0100
0001
1000
0001
0010
0100
1000
,
0001
1000
0010
0100
0010
1000
0100
0010
,
0001
0000
0000
0000
0000
0000
1000
0100
1000
0001
0010
0001
1000
0100
0010
0001
,
1000
0100
1000
0001
1000
0001
0010
0100
0010
0001
1000
0100
0010
0001
1000
0001
,
1000
0000
0000
0000
0000
0000
0100
0010
0001
1000
0100
0010
0001
0100
0001
0010
,
0100
1000
0001
0010
0100
1000
0001
1000
0001
1000
0001
0010
0100
1000
0001
0010
,
0100
0000
0000
0000
0000
0000
0010
0001
0100
0001
1000
0010
0100
0001
1000
0010
,
1000
0001
0100
0001
1000
0010
0100
0001
0010
0100
0010
0001
1000
0001
1000
0001
,
0100
0000
0000
0000
0000
0000
0010
1000
0001
1000
0100
0010
0001
1000
0001
0100
,
0010
0100
0001
0010
0100
1000
0001
0010
0001
1000
0100
1000
0001
0010
0100
1000
,
0001
0000
0000
0000
0000
0000
0010
0001
1000
0001
0100
0001
1000
0001
0010
0100
,
1000
0001
0010
0100
0010
0100
1000
0001
0010
0100
1000
0001
0010
0001
0100
0001
,
1000
0000
0000
0000
0000
0000
0010
0100
0001
1000
0010
0100
0010
1000
0001
0100
,
0001
1000
0010
0100
0001
1000
0001
0010
0001
0100
0010
1000
0001
0100
0010
1000
,
0100
0000
0000
0000
0000
0000
0010
0001
0100
0010
1000
0001
0100
0001
1000
0001
,
0010
0100
1000
0001
0010
0001
1000
0100
0010
0100
1000
0001
0010
0100
0010
0001
,
1000
0001
0100
0001
1000
0010
0100
0001
0010
0100
1000
0010
0100
0001
1000
0010
,
0100
0001
1000
0001
1000
0010
1000
0001
1000
0000
0100
0000
0010
0000
0001
0000
,
1000
0100
0010
0100
0010
0001
1000
0100
,
0010
0001
1000
0100
1000
0010
1000
0001
,
0100
0010
1000
0001
0100
0010
0100
0001
,
1000
0010
1000
0001
0100
0010
1000
0001
,
1000
0000
0000
0000
0000
0000
0100
1000
0010
0100
0001
1000
0010
0100
0001
0010
,
0100
1000
0010
0100
0001
1000
0010
1000
0001
1000
0100
0010
0001
1000
0100
1000
,
0001
0000
0000
0000
0000
0000
0010
0100
0010
0001
1000
0100
0010
0100
1000
0001
,
1000
0010
1000
0001
0100
0010
1000
0100
0010
0001
0100
0010
1000
0001
0100
0010
,
1000
0000
0000
0000
0000
0000
0001
1000
0001
0100
0010
1000
0100
0010
0001
1000
,
0100
0010
0001
0100
0001
1000
0010
0100
0001
1000
0010
0100
0010
0100
0010
1000
,
0001
0000
0000
0000
0000
0000
0100
0010
1000
0001
0100
0001
1000
0001
0010
0100
,
1000
0001
0010
0100
1000
0010
0100
0010
0100
0001
1000
0010
0100
0001
1000
0001
,
0010
0000
0000
0000
0000
0000
0100
0010
0001
1000
0100
0010
0100
1000
0010
0100
,
0001
1000
0001
0010
0100
1000
0001
0010
0001
1000
0100
0010
0001
0100
0010
1000
,
0100
0000
0000
0000
0000
0000
0010
0100
1000
0001
0010
0100
0010
0001
1000
0001
,
0100
0010
1000
0001
0100
0010
1000
0001
1000
0100
0010
0001
0100
0010
1000
0001
,
0100
0000
0000
0000
0000
0000
0010
1000
0100
1000
0001
0010
0100
1000
0001
0010
,
0100
0010
0100
0010
0001
1000
0100
0010
0001
1000
0100
1000
0001
1000
0010
0100
,
0001
1000
0010
0100
0001
0010
0100
0010
0100
1000
0001
0010
0100
1000
0001
1000
,
0010
0100
0010
1000
0001
0100
0010
0100
,
0001
0010
0100
1000
0001
1000
0010
0100
,
0001
1000
0010
1000
0001
0100
0010
1000
,
0100
0010
0001
0100
0010
0100
0001
1000
,
0010
0100
0010
1000
0001
1000
0100
0000
,
0MM0
0000
0000
0000
;

//---------------dance-double - LinkDump17----------------
#NOTEDATA:;
#CHARTNAME:LinkDump17;
#STEPSTYPE:dance-double;
#DESCRIPTION:LinkDump17;
#CHARTSTYLE:;
#DIFFICULTY:Edit;
#METER:11;
#RADARVALUES:1.090913,1.048639,0.000000,0.000000,1.578916,769.000000,769.000000,0.000000,0.000000,6.000000,0.000000,0.000000,0.000000,0.000000,1.090913,1.048639,0.000000,0.000000,1.578916,769.000000,769.000000,0.000000,0.000000,6.000000,0.000000,0.000000,0.000000,0.000000;
#CREDIT:LinkDump17;
#NOTES:
00000000
00000000
00000000
00000000
,
0M000000
M0000000
00M00000
M0000000
,
00000010
00000000
00000000
00000000
00000000
00000000
00010000
00000010
00001000
00000010
00010000
00000100
00001000
00000010
00010000
00000100
,
00010000
00000100
00001000
00000010
00010000
00000100
00001000
00000010
00010000
00000010
00010000
00000010
00001000
00000100
00010000
00000010
,
00001000
00000000
00000000
00000000
00000000
00000000
00000100
00010000
00000100
00010000
00001000
01000000
00001000
00100000
00010000
01000000
,
00001000
00100000
00001000
01000000
00001000
01000000
00010000
00100000
00001000
01000000
00010000
10000000
00010000
01000000
00001000
01000000
,
00010000
00000000
00000000
00000000
00000000
00000000
00100000
00001000
01000000
00001000
00100000
00001000
01000000
00010000
01000000
00010000
,
10000000
00010000
01000000
00100000
10000000
01000000
00100000
00010000
10000000
01000000
10000000
00010000
00100000
00010000
10000000
00010000
,
01000000
00000000
00000000
00000000
00000000
00000000
00100000
10000000
00010000
10000000
01000000
00100000
01000000
10000000
00010000
00100000
,
01000000
10000000
00010000
10000000
00010000
01000000
00001000
01000000
00010000
01000000
00001000
00100000
00010000
01000000
00001000
00100000
,
00001000
00000000
00000000
00000000
00000000
00000000
00100000
00010000
01000000
00001000
00100000
00010000
01000000
00001000
01000000
00001000
,
01000000
00010000
00100000
00001000
01000000
00010000
00100000
00001000
00100000
00001000
00010000
00000010
00010000
00000100
00001000
00000010
,
00010000
00000000
00000000
00000000
00000000
00000000
00000100
00010000
00000010
00010000
00000010
00001000
00000100
00010000
00000010
00001000
,
00000001
00001000
00000010
00010000
00000010
00001000
00000100
00010000
00000010
00010000
00000100
00010000
00000010
00001000
00000010
00001000
,
00000001
00000000
00000000
00000000
00000000
00000000
00001000
00000010
00000100
00000001
00000010
00000100
00001000
00000001
00000010
00000001
,
00001000
00000100
00001000
00000001
00001000
00000010
00000100
00000001
00001000
00000001
00000010
00000100
00000010
00000001
00001000
00000100
,
00000010
00000000
00000000
00000000
00000000
00000000
00000001
00001000
00000001
00001000
00000010
00010000
00000100
00001000
00000100
00010000
,
00000010
00001000
00000100
00010000
00000010
00010000
00000010
00001000
00000100
00010000
00000010
00001000
00000100
00010000
00000100
00010000
,
00000100
00001000
00000010
00010000
00000100
00001000
00000010
00010000
00000010
00010000
00001000
01000000
00010000
00100000
00001000
01000000
,
00010000
10000000
00010000
10000000
00010000
01000000
00001000
00100000
00010000
00000000
01000000
00000000
00001000
00000000
00100000
00000000
,
00001000
01000000
00010000
01000000
00001000
00100000
00010000
10000000
,
00010000
10000000
00010000
01000000
00001000
01000000
00010000
10000000
,
01000000
00100000
00010000
10000000
00010000
01000000
00100000
10000000
,
00010000
10000000
01000000
00100000
01000000
10000000
00100000
01000000
,
00010000
00000000
00000000
00000000
00000000
00000000
10000000
00100000
10000000
00010000
01000000
00010000
10000000
00100000
01000000
00010000
,
10000000
00100000
10000000
00010000
01000000
00001000
00100000
00010000
00100000
00001000
01000000
00010000
00100000
00001000
01000000
00001000
,
01000000
00000000
00000000
00000000
00000000
00000000
00010000
00100000
00001000
01000000
00010000
00100000
00001000
00100000
00001000
00100000
,
00010000
01000000
00001000
00100000
00010000
01000000
00001000
01000000
00001000
00010000
00000010
00001000
00000100
00010000
00000010
00001000
,
00000001
00000000
00000000
00000000
00000000
00000000
00001000
00000001
00001000
00000010
00010000
00000100
00001000
00000010
00010000
00000100
,
00010000
00000010
00001000
00000010
00010000
00000100
00001000
00000001
00001000
00000001
00001000
00000010
00010000
00000010
00001000
00000001
,
00000100
00000000
00000000
00000000
00000000
00000000
00000010
00001000
00000001
00001000
00000100
00000010
00000001
00001000
00000001
00000100
,
00000010
00000100
00000001
00000010
00000100
00001000
00000001
00000010
00000001
00001000
00000100
00001000
00000001
00000010
00000100
00001000
,
00000001
00000000
00000000
00000000
00000000
00000000
00000010
00000001
00001000
00000010
00001000
00000010
00010000
00000010
00001000
00000100
,
00010000
00000010
00001000
00000001
00001000
00000100
00010000
00000010
00001000
00000100
00010000
00000010
00001000
00000001
00001000
00000010
,
00010000
00000000
00000000
00000000
00000000
00000000
00000100
00001000
00000010
00010000
00000100
00001000
00000100
00010000
00001000
00100000
,
00001000
01000000
00010000
00100000
00001000
01000000
00001000
00100000
00001000
00100000
00010000
01000000
00001000
00100000
00010000
10000000
,
00010000
00000000
00000000
00000000
00000000
00000000
00100000
00001000
00100000
00010000
01000000
00001000
00100000
00001000
01000000
00001000
,
00100000
00010000
01000000
00010000
01000000
00010000
10000000
00100000
01000000
00100000
10000000
00010000
01000000
00100000
01000000
00010000
,
10000000
00010000
00100000
00010000
10000000
01000000
00100000
00001000
01000000
00100000
10000000
01000000
00100000
00010000
10000000
01000000
,
00100000
00010000
10000000
00010000
01000000
00010000
01000000
00001000
01000000
00000000
00010000
00000000
00100000
00000000
00001000
00000000
,
01000000
00010000
00100000
00010000
00100000
00001000
01000000
00010000
,
00100000
00001000
01000000
00010000
01000000
00010000
01000000
00001000
,
00100000
00010000
01000000
00001000
00100000
00010000
00100000
00001000
,
00010000
00000100
00010000
00000010
00001000
00000100
00010000
00000010
,
00010000
00000000
00000000
00000000
00000000
00000000
00000100
00010000
00000100
00001000
00000010
00010000
00000100
00001000
00000001
00001000
,
00000100
00010000
00000100
00001000
00000010
00010000
00000100
00010000
00000010
00010000
00000100
00001000
00000010
00001000
00000100
00001000
,
00000001
00000000
00000000
00000000
00000000
00000000
00000010
00000100
00000010
00000001
00001000
00000100
00000010
00000100
00001000
00000001
,
00001000
00000010
00001000
00000001
00000100
00000010
00010000
00000100
00000010
00000001
00000100
00000010
00001000
00000001
00000100
00000010
,
00001000
00000000
00000000
00000000
00000000
00000000
00000001
00001000
00000010
00001000
00000100
00010000
00000100
00001000
00000010
00010000
,
00000100
00001000
00000001
00001000
00000010
00010000
00000100
00001000
00000010
00010000
00000100
00001000
00000001
00001000
00000100
00010000
,
00000010
00000000
00000000
00000000
00000000
00000000
00001000
00000100
00010000
00000010
00001000
00000010
00010000
00001000
00100000
00010000
,
01000000
00001000
00100000
00010000
10000000
00010000
10000000
00010000
00100000
00001000
01000000
00010000
00100000
00001000
01000000
00001000
,
00100000
00000000
00000000
00000000
00000000
00000000
00010000
00100000
00001000
01000000
00010000
10000000
00010000
10000000
00010000
00100000
,
00001000
01000000
00010000
01000000
00100000
10000000
00010000
01000000
00010000
10000000
00100000
01000000
00001000
00100000
01000000
10000000
,
00100000
00000000
00000000
00000000
00000000
00000000
01000000
00100000
10000000
00010000
01000000
00100000
01000000
00010000
10000000
00010000
,
00100000
01000000
10000000
00010000
00100000
01000000
10000000
00010000
01000000
00010000
00100000
00001000
00100000
00010000
01000000
00001000
,
00100000
00000000
00000000
00000000
00000000
00000000
00010000
10000000
00010000
01000000
00001000
00100000
00010000
01000000
00001000
00100000
,
00010000
10000000
00010000
00100000
00001000
01000000
00010000
00100000
00001000
01000000
00010000
01000000
00001000
00010000
00000100
00001000
,
00000010
00010000
00000100
00001000
00000001
00001000
00000001
00001000
00000100
00010000
00000010
00001000
00000100
00010000
00000010
00010000
,
00000100
00001000
00000100
00010000
00000010
00001000
00000001
00001000
,
00000001
00001000
00000100
00010000
00000010
00001000
00000010
00000100
,
00000001
00001000
00000010
00001000
00000001
00000100
00000010
00010000
,
00000100
00000010
00000001
00000100
00000010
00000100
00000001
00001000
,
00000010
00000100
00000010
00001000
00000001
00001000
00000100
00000000
,
00000MM0
00000000
00000000
00000000
;
