#VERSION:0.83;
#TITLE:California Gurls;
#SUBTITLE:Sensibility Validation;
#ARTIST:Katy Perry feat. Snoop Dogg;
#TITLETRANSLIT:;
#SUBTITLETRANSLIT:;
#ARTISTTRANSLIT:;
#GENRE:;
#CREDIT:;
#MUSIC:California Gurls.ogg;
#BANNER:California Gurls-bn.png;
#BACKGROUND:California Gurls-bg.png;
#CDTITLE:GazeboCD.png;
#SAMPLESTART:53.826;
#SAMPLELENGTH:15.362;
#SELECTABLE:YES;
#OFFSET:-0.069;
#BPMS:0.000=125.000;
#STOPS:;
#BGCHANGES:;
#FGCHANGES:;

//--------------- dance-single - LinkDude03 ----------------
#NOTEDATA:;
#STEPSTYPE:dance-single;
#DESCRIPTION:LinkDude03;
#DIFFICULTY:Beginner;
#METER:2;
#RADARVALUES:0,0,0,0,0;
#NOTES:
0000
0000
0000
0000
,
0000
0000
0000
0000
,
0000
0000
0000
0000
,
0000
0000
0000
0000
,
0001
0000
0000
0000
0000
0000
0000
1000
,
0000
0000
0000
0001
,
0000
0100
0000
0001
,
0000
0000
0000
0000
,
1000
0000
0000
0000
0000
0000
0000
0100
,
0000
0000
0000
1000
,
0000
0010
0000
1000
,
0000
0000
0000
0000
,
0001
0000
0000
0000
0000
0000
0000
0010
,
0000
0000
0000
0001
,
0000
0100
0000
0001
,
0000
0000
0000
0000
,
1000
0000
0000
0000
0000
0000
0000
0100
,
0000
0000
0000
1000
,
0000
0010
0000
1000
,
0000
0000
0000
0000
,
0000
0000
0001
0000
,
0100
0000
0000
0000
,
0010
0000
1000
0000
,
0001
0000
0100
0000
,
0000
0010
0000
1000
,
0000
0000
0000
0001
,
0000
0000
0100
0000
0000
0000
0000
0001
,
0000
1000
1000
0000
,
0001
0000
0100
0000
,
0001
0000
0010
0000
,
0100
0000
1000
0000
,
0001
0000
0010
0000
,
0100
0000
1000
0000
,
0010
0000
1000
0000
,
0000
0000
0100
0000
0100
0000
0000
1000
,
0000
0010
0010
0000
,
1000
0000
0001
0000
,
1000
0000
0100
0000
,
1000
0000
0001
0000
,
0100
0000
0010
0000
,
1000
0000
0100
0000
,
1000
0000
0010
0000
,
0000
0000
1000
0000
1000
0000
0000
0001
,
0000
0100
0100
0000
,
0010
0000
0000
0000
0000
1000
0000
0001
,
0000
0000
0000
1000
,
0000
0010
0000
0100
,
0000
0000
0000
0000
,
0010
0000
0000
0000
0000
1000
0000
0001
,
0000
0000
0000
1000
,
0000
0100
0000
0010
,
0000
0000
0000
0000
,
0000
0000
0001
0000
,
0100
0000
0000
0000
,
0001
0000
1000
0000
,
0010
0000
0100
0000
,
0000
0000
0001
0000
,
1000
0000
0000
0000
,
0100
0000
0000
0000
1000
0000
0000
0001
,
0000
0100
0100
0000
,
0001
0000
1000
0000
,
0100
0000
0010
0000
,
0100
0000
1000
0000
,
0001
0000
0010
0000
,
0100
0000
0010
0000
,
0001
0000
1000
0000
,
0000
0000
0010
0000
0010
0000
0000
1000
,
0000
0001
0001
0000
,
0100
0000
0010
0000
,
1000
0000
0001
0000
,
1000
0000
0100
0000
,
0010
0000
0001
0000
,
1000
0000
0100
0000
,
1000
0000
0010
0000
,
0000
0000
1000
0000
1000
0000
0000
0001
,
0000
0100
0100
0000
,
0001
0000
0100
0000
,
0010
0000
1000
0000
,
0010
0000
0100
0000
,
0010
0000
1000
0000
,
0010
0000
0100
0000
,
1000
0000
0100
0000
,
0010
0000
0001
0000
,
0010
0000
0100
0000
,
1000
0000
0010
0000
,
0100
0000
0001
0000
,
0100
0000
0010
0000
,
1000
0000
0100
0000
,
0010
0000
0001
0000
,
0010
0000
0100
0000
,
1000
0000
0100
0000
,
1000
0000
0001
0000
,
0100
0000
0001
0000
,
1000
0000
0010
0000
,
1000
0000
0001
0000
,
0010
0000
0001
0000
,
0100
0000
0001
0000
,
0000
0000
1000
0000
,
0001
0000
0010
0000
,
0100
0000
1000
0000
,
0001
0000
0000
0000
,
1000
0000
0001
0000
,
0100
0000
0010
0000
,
1000
0000
0001
0000
,
0010
0000
0100
0000
;

//--------------- dance-single - LinkDude06 ----------------
#NOTEDATA:;
#STEPSTYPE:dance-single;
#DESCRIPTION:LinkDude06;
#DIFFICULTY:Easy;
#METER:4;
#RADARVALUES:0,0,0,0,0;
#NOTES:
0000
0000
0000
0000
,
0000
0000
0000
0000
,
0000
0000
0000
0000
,
0000
0000
0000
0000
,
1001
0000
0000
0000
0000
0001
0000
1000
,
0000
0000
0000
0001
,
0010
0100
0010
0001
,
0000
0000
0000
0000
,
1100
0000
0000
0000
0000
1000
0000
0100
,
0000
0000
0000
1000
,
0001
0010
0001
1000
,
0000
0000
0000
0000
,
0011
0000
0000
0000
0000
0001
0000
0010
,
0000
0000
0000
0001
,
0100
0001
1000
0001
,
0000
0000
0000
0000
,
1001
0000
0000
0000
0000
1000
0000
0100
,
0000
0000
0000
1000
,
0001
1000
0010
1000
,
0000
0000
0000
0000
,
0000
0001
0010
0100
,
1000
0000
0000
0000
,
0001
0100
0010
0100
,
0001
0010
0100
1000
,
0000
0100
0010
0001
,
1000
0000
0000
0001
,
0100
0000
0010
0000
0100
0000
0000
0010
,
0000
2000
0001
0000
0001
3000
0001
0000
,
1000
0010
0100
0001
,
1000
0001
0010
0001
,
1000
0100
1000
0001
,
1000
0100
0010
0000
,
0001
0100
0010
1000
,
0010
0100
0001
1000
,
0000
0002
0100
0000
0100
0003
0000
1000
,
0000
0200
0010
0000
0010
0300
0010
0000
,
0001
0010
0100
1000
,
0010
0100
0001
0100
,
0010
1000
0100
0010
,
0001
0010
0100
0000
,
1000
0100
1000
0010
,
0100
0001
1000
0010
,
0000
0200
0010
0000
0010
0300
0000
1000
,
0000
0002
0100
0000
0100
0003
0100
0000
,
0101
0000
0000
0000
0000
0001
0000
0100
,
0000
0000
0000
0001
,
0100
0010
1000
0010
,
0000
0000
0000
0000
,
0220
0000
0330
0000
0000
0100
0000
0010
,
0000
0000
0000
1000
,
0001
0010
0001
0100
,
0000
0000
0000
0000
,
0000
0001
0100
0010
,
1000
0000
0000
0000
,
0010
0100
0001
0100
,
0010
0100
0001
1000
,
0000
0001
0010
0001
,
0100
0000
0000
0001
,
0100
0000
0010
0000
1000
0000
0000
0001
,
0000
2000
0100
0000
0100
3000
0100
0000
,
1000
0100
0010
0001
,
0100
0010
1000
0010
,
0100
0001
0010
0100
,
1000
0100
0010
0000
,
0001
0100
0010
1000
,
0001
0010
0001
0100
,
0000
0002
0010
0000
0010
0003
0000
1000
,
0000
0200
0010
0000
0010
0300
0010
0000
,
0001
1000
0010
0100
,
0010
1000
0001
0010
,
0100
0010
0001
1000
,
0100
0010
0100
0000
,
1000
0010
0100
0010
,
1000
0001
1000
0010
,
0000
2000
0100
0000
0100
3000
0000
0001
,
0000
2000
0010
0000
0010
3000
0010
0000
,
1000
0010
0100
0001
,
0100
0010
1000
0001
,
0010
0100
1000
0100
,
0010
0001
1000
0001
,
0010
0100
0010
0001
,
1000
0010
0100
0010
,
1000
0001
0100
0010
,
0100
0001
1000
0100
,
0010
0100
1000
0001
,
1000
0010
0100
0010
,
1000
0001
1000
0100
,
0010
0100
1000
0100
,
0010
0001
0010
0001
,
1000
0001
0100
0010
,
1000
0010
0100
0010
,
1000
0100
0010
0100
,
1000
0001
0010
0001
,
0100
0001
0100
0010
,
1000
0100
0010
0001
,
1000
0001
0010
0100
,
1000
0000
0000
0001
0000
0000
0000
0000
,
0000
0000
1000
0010
,
0100
0000
0000
0001
0000
0000
0000
1000
,
0000
0000
0001
0100
,
0010
0000
0000
1000
0000
0000
0000
0000
,
0000
0000
0001
0010
,
0100
0000
0000
1000
0000
0000
0000
0001
,
0000
0000
1000
0100
,
0010
0000
0000
0002
0000
0000
0003
0000
;

//--------------- dance-single - LinkDude09 ----------------
#NOTEDATA:;
#STEPSTYPE:dance-single;
#DESCRIPTION:LinkDude09;
#DIFFICULTY:Medium;
#METER:6;
#RADARVALUES:0,0,0,0,0;
#NOTES:
0000
0000
0000
0000
,
0000
0000
0000
0000
,
0000
0000
0000
0000
,
0000
0000
0000
0000
,
1001
0000
0000
0000
0000
0001
0100
0001
,
0000
0000
0000
0000
0000
0000
1000
0010
,
1000
0001
1000
0100
1000
0000
0001
0000
,
0000
0000
0000
0000
1000
0000
0000
0010
0000
0000
1000
0000
0000
0000
0000
0000
,
1001
0000
0000
0000
0000
1000
0100
1000
,
0000
0000
0000
0000
0000
0001
0100
0001
,
1000
0001
0010
0001
1000
0000
0001
0000
,
0000
0000
0000
0000
1000
0000
0000
0100
0000
0000
1000
0000
0000
0000
0000
0000
,
0001
0010
0000
0000
0000
0001
0100
0001
,
0000
0000
0000
0000
1000
0000
0000
0010
0000
0000
1000
0000
0001
0000
1000
0000
,
0100
1000
0001
1000
0010
0000
1000
0000
,
0000
0000
0000
0000
0001
0000
0000
0010
0000
0000
0001
0000
0000
0000
0000
0000
,
1000
0100
0000
0000
0000
1000
0010
1000
,
0000
0000
0000
0000
0001
0000
0000
0100
0000
0000
0001
0000
1000
0000
0001
0000
,
0010
0001
1000
0001
0100
0000
0001
0000
,
0000
0000
0000
0000
1000
0000
0000
0010
0000
0000
1000
0000
0000
0000
0000
0000
,
0000
0000
0001
0100
0001
1000
0001
0010
,
0000
0001
0000
0000
0000
0000
0000
1000
,
0010
1000
0010
0000
0100
0000
0001
0100
,
0001
0010
0100
1000
,
0000
0000
0001
1000
0010
1000
0100
1000
,
0000
0001
0000
0000
0000
0000
1000
0001
,
0100
0001
0010
0000
0001
0000
0000
0100
,
0000
0001
1000
0001
0010
0001
1000
0000
,
0001
0000
0100
0000
0010
0000
1000
0010
,
0000
1000
0010
0100
0010
1000
0001
0000
,
1000
0000
0100
0000
0010
0000
0001
0100
,
0000
0001
0100
0000
0010
0000
0000
0000
,
1000
0000
0100
0000
0010
0000
0001
1000
,
0000
0001
0010
0001
1000
0001
0100
0000
,
0000
0010
0100
0010
1000
0010
0000
1000
,
0000
0100
1000
0100
0010
0100
1000
0000
,
0001
0000
0010
0000
0100
0000
1000
0001
,
0000
1000
0100
1000
0001
1000
0010
0000
,
1000
0000
0001
0000
0100
0000
0010
1000
,
0000
0010
1000
0000
0001
0000
0000
0000
,
1000
0000
0100
0000
1000
0000
0010
0100
,
0000
0010
0100
0010
1000
0000
0010
0000
,
0000
0100
0010
0100
0001
0100
0000
0001
,
0000
0010
0100
0010
0001
0010
0100
0000
,
1001
0000
0000
0000
1000
0000
0000
0100
0000
0000
1000
0000
0010
0000
1000
0000
,
0000
0000
0000
0000
0001
0000
0000
0100
0000
0000
0001
0000
0010
0000
0001
0000
,
1000
0001
0100
0001
1000
0000
0010
0000
,
0000
0000
0000
0000
1000
0000
0000
0010
0000
0000
0100
0000
0000
0000
0000
0000
,
0220
0000
0330
0000
0000
0001
0100
0001
,
0000
0000
0000
0000
1000
0000
0000
0010
0000
0000
1000
0000
0100
0000
1000
0000
,
0001
0000
1000
0010
0100
0010
1000
0000
,
0000
0000
0000
0000
0001
0000
0000
0100
0000
0000
0001
0000
0000
0000
0000
0000
,
0000
0000
1000
0100
0010
0100
1000
0001
,
0000
0100
0000
0000
0000
0000
0000
0001
,
0010
0100
1000
0000
0001
0000
1000
0100
,
1000
0001
0010
0001
,
0000
0000
1000
0010
1000
0001
1000
0100
,
0000
1000
0000
0000
0000
0000
0001
0010
,
0100
0010
0001
0000
1000
0000
0000
0001
,
0000
0010
0001
0010
0100
0010
0001
0000
,
1000
0000
0100
0000
0010
0000
0001
0010
,
0000
0001
0010
0001
1000
0001
0100
0000
,
0001
0000
0010
0000
0100
0000
1000
0100
,
0000
1000
0100
0000
0010
0000
0000
0000
,
0001
0000
0100
0000
0010
0000
1000
0010
,
0000
1000
0010
1000
0001
1000
0100
0000
,
0000
0010
0100
0010
0001
0010
0000
0001
,
0000
0100
0010
0100
0001
0100
0010
0000
,
1000
0000
0001
0000
1000
0000
0100
1000
,
0000
0001
0010
0001
1000
0001
0100
0000
,
0001
0000
0010
0000
0001
0000
0100
0001
,
0000
0100
0001
0000
0101
0000
0000
0000
,
1000
0000
0100
0000
0010
0000
0001
0010
,
0000
0001
1000
0001
0100
0000
0010
0000
,
0000
0100
0001
0100
0010
0100
0000
0001
,
0000
0010
0100
0010
0001
0010
0100
0000
,
1000
0000
0001
0000
1000
0100
1000
0000
,
0000
0001
0010
0001
0010
0100
1000
0000
,
0001
0001
1000
1000
,
0010
1000
0010
1000
0000
0100
0000
1000
,
0100
0000
1000
0100
0010
0001
1000
0000
,
0001
0010
0001
0010
0100
0010
0100
0000
,
1001
0000
0000
0000
1000
0100
0000
1000
,
0001
0000
0000
0000
1000
0010
0000
0000
,
0000
1000
0001
1000
0001
0100
0001
0100
,
0010
0100
0010
1000
0010
1000
0100
0000
,
1000
0001
0000
1000
0001
0000
0110
0000
,
0000
0000
0001
0100
0001
0100
0010
0100
,
0010
0000
1000
0000
0001
0010
0001
0000
,
1000
0100
1000
0000
0001
0100
0001
0000
,
1000
0010
1000
0010
0100
0010
0100
0001
,
0100
0001
0010
0001
0010
0100
0010
0000
,
0000
0000
0001
1000
0100
1000
0001
0000
,
0000
0000
1000
0010
0100
0010
1000
0010
,
0100
0000
0001
0010
0001
0010
0100
0010
,
0100
1000
0100
1000
0010
0000
1000
0000
,
0010
0000
0000
0100
0000
0000
0000
0000
,
0000
0000
0001
0100
,
0010
0000
0000
1000
0000
0000
0000
0001
,
0000
0000
1000
0100
,
0010
0000
0000
0001
0000
0000
0000
0000
,
0000
0000
1000
0100
,
0010
0000
0000
0001
0000
0000
0000
1000
,
0000
0000
0001
0100
,
0010
0000
0000
2002
0000
0000
3003
0000
;

//--------------- dance-single - Cut from Gazebo ----------------
#NOTEDATA:;
#STEPSTYPE:dance-single;
#DESCRIPTION:Cut from Gazebo;
#DIFFICULTY:Hard;
#METER:9;
#RADARVALUES:0,0,0,0,0;
#NOTES:
0000
0000
0000
0000
,
0000
0000
0000
0000
,
0000
0000
0000
0000
,
0000
0000
0000
0000
,
0001
0000
0000
0000
0100
0000
0000
0010
1000
0000
0100
0000
0010
0000
0001
0000
,
1000
0000
0000
0000
0010
0000
0000
1000
0001
0000
1000
0000
0100
0000
0100
0000
,
0010
0000
0010
0000
0001
0000
0001
1000
0010
0000
1000
0000
0001
0000
0000
0000
,
0010
0000
0000
0000
0001
0000
0000
1000
0100
0000
1000
0000
0001
0000
0001
0000
,
0100
0000
0000
0000
0010
0000
0000
0100
0001
0000
0010
0000
0100
0000
1000
0000
,
0001
0000
0000
0000
0100
0000
0000
0001
1000
0000
0001
0000
0010
0000
0010
0000
,
0100
0000
0100
0000
1000
0000
1000
0001
0100
0000
0001
0000
0010
0000
0000
0000
,
0100
0000
0000
0000
1000
0000
0000
0001
0010
0001
0000
0000
1000
0000
1000
0000
,
0001
0000
0001
0000
0100
0000
0000
0010
1000
0000
0100
0000
0001
0000
0001
0000
,
1000
0000
0000
0000
0010
0000
0000
1000
0001
0000
1000
0000
0100
0000
0100
0000
,
0010
0000
0010
0000
0001
0000
0001
1000
0010
0000
1000
0000
0001
0000
0000
0000
,
0010
0000
0000
0000
0001
0000
0000
1000
0100
0000
1000
0000
0001
0000
0001
0000
,
0100
0000
0000
0000
0010
0000
0000
0100
0001
0000
0010
0000
0100
0000
1000
0000
,
0001
0000
0000
0000
0010
0000
0000
0001
1000
0000
0001
0000
0010
0000
0010
0000
,
0100
0000
0100
0000
1000
0000
1000
0001
0100
0000
0001
0000
0010
0000
0000
0000
,
0100
0000
0000
0000
1000
0000
0000
0001
0010
0001
1000
0000
1000
0000
0001
0000
,
1000
0000
0010
0000
0010
0000
0100
0000
0100
0000
0001
0000
0001
0000
1000
0001
,
0010
0001
0001
0010
0010
0001
0001
0100
,
0010
0000
1000
0000
0010
0000
0100
0010
1000
0000
0001
0000
0001
0000
0100
0001
,
4000
3400
0340
0034
,
1003
0000
0010
0000
0010
0000
0100
0000
0100
0000
0001
0000
0001
0000
1000
0001
,
0010
0001
0001
0010
0010
0001
0010
0100
,
0100
0000
1000
0000
0010
0000
0100
0010
1000
0000
0010
0000
0010
0000
1000
0000
,
1000
0000
0000
0000
0100
0000
0000
1000
0001
1000
0000
0000
0001
0000
0001
0000
,
1000
0100
1000
0000
0100
0000
0010
0000
0001
1000
0001
0000
0100
0000
0001
0000
,
0000
0000
0001
0000
0100
0000
0010
0000
1000
0010
1000
0000
0100
0000
0010
0000
,
0001
0010
0001
0000
0010
0000
0100
0000
1000
0001
0100
0000
0001
0000
2000
0000
,
3000
1000
0200
0000
0310
0001
0010
0001
,
1000
0010
1000
0000
0001
0000
1000
0000
0100
1000
0100
0000
0010
0000
0001
0000
,
0000
0001
0010
0100
1000
1000
0010
0100
,
0001
0020
0230
0320
0230
0320
0031
1000
,
0000
0020
0230
0320
0230
0320
1030
0001
,
1000
0010
1000
0000
0010
0000
0100
0000
0001
0100
0001
0000
0100
0000
0001
0000
,
1000
0100
1000
0000
0100
0000
0010
0000
0001
0010
0001
0000
1000
0000
0010
0000
,
1000
0100
1000
0000
0010
0000
0100
0000
0001
0010
0001
0000
0100
0000
0001
0000
,
1000
0010
1000
0000
0100
0000
0010
0000
0001
0100
0001
0000
0010
0000
0001
0000
,
1000
0100
1000
0000
0010
0000
0100
0000
0001
0010
0001
0000
0100
0000
0001
0000
,
1000
0010
1000
0000
0100
0000
0010
0000
0001
0100
0001
0000
0010
0000
0100
0000
,
1000
0020
0230
0320
0230
0320
1030
0001
,
0000
0020
0230
0320
0230
0320
0031
1000
,
0001
0000
0000
0000
0010
0000
0000
0010
0001
0000
0100
0000
0010
0000
1000
0000
,
0001
0000
0000
0000
1000
0000
0000
1000
0001
0000
1000
0000
0001
0000
0100
0000
,
0010
0000
0010
0000
1000
0000
1000
0001
0010
0000
0001
0000
0100
0000
0000
0000
,
0010
0000
0000
0000
1000
0000
0000
0001
0100
0000
0001
0000
1000
0000
1000
0000
,
0100
0000
0000
0000
0010
0000
0000
0100
1000
0000
0010
0000
0100
0000
0001
0000
,
1000
0000
0000
0000
0001
0000
0000
0001
1000
0000
0001
0000
1000
0000
0010
0000
,
0100
0000
0000
0000
0001
0000
0001
1000
0100
0000
1000
0000
0001
0000
0000
0000
,
0100
0000
0000
0000
0001
0000
0000
0001
0010
0001
0000
0000
1000
0000
1000
0000
,
0001
0000
0010
0000
0010
0000
0100
0000
0100
0000
1000
0000
1000
0000
0001
1000
,
0010
0000
1000
0000
1000
0000
0010
0000
0010
0000
1000
0000
1000
0000
0001
1000
,
0100
0000
1000
0000
0100
0000
0010
0000
0001
0000
1000
0000
1000
0000
0100
1000
,
0004
0403
0340
4030
,
3001
0000
0010
0000
0010
0000
0100
0000
0100
0000
1000
0000
1000
0000
0001
1000
,
0010
1000
1000
0010
0010
1000
0010
0100
,
0001
1000
0100
0010
0001
0010
0010
0001
,
0001
0000
0000
0000
0100
0000
0000
0001
1000
0001
0000
0000
1000
0000
1000
0000
,
0001
0100
0001
0000
0010
0000
0100
0000
1000
0010
1000
0000
0100
0000
0010
0000
,
0000
1000
0100
0010
0001
0001
0100
0010
,
1000
0010
1000
0000
0100
0000
0010
0000
0001
0100
0001
0000
0010
0000
0002
0000
,
0003
0001
0200
0000
0310
1000
0010
1000
,
0001
0010
0001
0000
0100
0000
0010
0000
1000
0100
1000
0000
0010
0000
1000
0000
,
0000
1000
0010
0100
0001
0001
0010
0100
,
1000
0020
0230
0320
0230
0320
1030
0001
,
0000
0020
0230
0320
0230
0320
0031
1000
,
0001
0100
0001
0000
0010
0000
0100
0000
1000
0010
1000
0000
0100
0000
0010
0000
,
0001
1000
0010
0000
1000
0000
0100
0000
0010
0100
0010
0000
0001
0000
1000
0000
,
0001
0010
0001
0000
1000
0000
0100
0000
1000
0100
1000
0000
0010
0000
0100
0000
,
0001
0010
0001
0000
0010
0000
0100
0000
1000
0001
0100
0000
0001
0000
1000
0000
,
0001
0100
0001
0000
0010
0000
0001
0000
1000
0010
0100
0000
0010
0000
1000
0000
,
0001
1000
0010
0000
1000
0000
0100
0000
0010
0100
0010
0000
0001
0000
1000
0000
,
0001
0020
0230
0320
0230
0320
0031
1000
,
0000
0020
0230
0320
0230
0320
1030
0001
,
1000
0000
0000
0000
0010
0000
0000
0000
0100
0000
0100
0000
1000
0001
0000
0000
,
1000
0000
0100
1000
0010
0000
0100
0001
1000
0000
0001
0000
0010
0100
0000
0000
,
1000
0001
0100
0010
,
1000
0000
0010
0000
0010
0000
1000
0001
0000
0100
0001
0000
1000
0100
0000
0100
,
0010
0000
0000
0001
1000
0000
0001
0000
0100
0000
0001
1000
0000
0000
0000
0000
,
0010
1000
0100
1000
0001
0001
0010
0100
,
M22M
M00M
M00M
M33M
0000
0000
0000
1000
0001
0000
1000
0010
0000
1000
0001
0000
,
0001
0100
0000
0000
0001
0000
0000
1000
0100
0000
1000
0001
0000
0000
0001
0000
,
0100
0000
0010
1000
0000
0001
0000
0000
0010
0001
0000
1000
0000
0100
1000
0000
,
0010
0000
0000
1000
0000
0000
0000
0000
0000
0001
0000
0000
1000
0000
0000
0000
0100
0000
0000
0000
0010
0000
0000
0000
0001
0000
0000
0000
0000
0000
1000
0000
0000
0000
0000
0000
0001
0000
0000
0000
0000
0000
0000
0000
0000
0001
0000
0000
,
0100
0010
0000
1000
0002
0003
0002
0003
,
1000
0000
0000
0000
0001
0010
0000
0001
0000
1000
0001
0000
0100
0000
0010
0000
,
1000
0000
0000
1000
0000
0000
0000
0000
0001
0000
0010
0001
0000
0000
0000
0000
,
0200
0000
0320
0000
0230
0000
0300
0000
0020
0000
0230
0302
0000
0003
0000
1000
,
0001
0001
0010
0100
0100
1000
0001
0001
,
0100
0000
0010
0000
0010
1000
0000
0001
1000
0000
0100
0010
0002
0000
0000
0000
,
1003
0000
0000
0000
0000
0000
0001
0000
0100
0000
0001
0000
1000
0000
0000
0100
0000
0000
0020
0000
0000
0030
0000
0000
,
0000
0000
0000
0010
0001
0010
0001
0000
1000
0000
0000
0010
0000
0000
0200
0300
,
0002
0003
0000
0001
1000
0000
0001
0000
1000
0000
0100
0000
0000
0000
1000
0001
,
0010
0000
0000
0001
1000
0000
0010
0000
0100
0000
0100
0000
0100
0000
0010
0000
,
1000
0100
1000
0000
0001
0000
0100
0000
0001
0010
0100
0000
1000
0000
0001
0000
,
1000
0000
0100
0000
0010
0000
0001
0000
0010
0100
0010
0000
0001
0000
0010
0000
,
0100
0010
0001
0000
1000
0000
0010
0000
1000
0100
0010
0000
0001
0000
1000
0000
,
0100
1000
0001
0000
0010
0000
0100
0000
1000
0010
0100
0000
0001
0000
0100
0000
,
0010
0100
0001
0000
1000
0000
0100
0000
0010
0001
0100
0000
0001
0000
1000
0000
,
0010
0100
0010
0000
0100
0000
0001
0000
0100
0010
0100
0000
0001
0000
1000
0000
,
0001
0010
0001
0000
1000
0000
0010
0000
1000
0100
1000
0000
0001
0000
0100
0000
,
0010
1000
0010
0000
1000
0000
0010
0000
1000
0000
0000
0000
0010
0000
0010
0000
,
2000
0000
0000
0200
0000
0000
3300
0000
;

//--------------- dance-single - Gazebo ----------------
#NOTEDATA:;
#STEPSTYPE:dance-single;
#DESCRIPTION:Gazebo;
#DIFFICULTY:Challenge;
#METER:10;
#RADARVALUES:0.791,0.825,0.345,0.315,0.01,991,70,64,8,0,8,0.791,0.825,0.345,0.315,0.01,991,70,64,8,0,8;
#NOTES:
0000
0000
0000
0000
,
0000
0000
0000
0000
,
0000
0000
0000
0000
,
0000
0000
0000
0000
,
1000
0000
0000
0000
0101
0000
0000
0010
1000
0000
0100
0000
0011
0000
0001
0000
,
1000
0000
0000
0000
0110
0000
0000
0001
1000
0000
0001
0000
1100
0000
0100
0000
,
0010
0000
0010
0000
1001
0000
0001
1000
0010
0000
1000
0000
0101
0000
0000
0000
,
0010
0000
0000
0000
1001
0000
0000
1000
0100
0000
1000
0000
0011
0000
0001
0000
,
0100
0000
0000
0000
1010
0000
0000
0100
0001
0000
0010
0000
1100
0000
1000
0000
,
0001
0000
0000
0000
0110
0000
0000
1000
0001
0000
1000
0000
0011
0000
0010
0000
,
0100
0000
0100
0000
1001
0000
1000
0001
0100
0000
0001
0000
1010
0000
0000
0000
,
0100
0000
0000
0000
1001
0000
0000
0001
0010
0001
0000
0000
1100
0000
1000
0000
,
0001
0000
0001
0000
0101
0000
0000
0010
1000
0000
0100
0000
0011
0000
0001
0000
,
1000
0000
0000
0000
0110
0000
0000
0001
1000
0000
0001
0000
1100
0000
0100
0000
,
0010
0000
0010
0000
1001
0000
0001
1000
0010
0000
1000
0000
0101
0000
0000
0000
,
0010
0000
0000
0000
1001
0000
0000
1000
0100
0000
1000
0000
0011
0000
0001
0000
,
0100
0000
0000
0000
1010
0000
0000
0100
0001
0000
0010
0000
1100
0000
1000
0000
,
0001
0000
0000
0000
0110
0000
0000
1000
0001
0000
1000
0000
0011
0000
0010
0000
,
0100
0000
0100
0000
1001
0000
1000
0001
0100
0000
0001
0000
1010
0000
0000
0000
,
0100
0000
0000
0000
1001
0000
0000
0001
0010
0001
1000
0000
1100
0000
0001
0000
,
1000
0000
0010
0100
0010
0000
0100
0010
0100
0000
0001
0100
0001
0000
1000
0001
,
0010
0000
0001
0010
0001
0000
0010
0001
0010
0000
0001
0010
0001
0000
1000
0001
,
0100
0000
0001
0100
0010
0000
0100
0010
1000
0000
0001
0100
0001
0000
0100
0001
,
4000
3400
0340
0034
,
1003
0000
0010
0100
0010
0000
0100
0010
0100
0000
0001
0100
0001
0000
1000
0001
,
0010
0000
0001
0010
0001
0000
0010
0001
0010
0000
0001
0010
0100
0000
1000
0001
,
0100
0000
0001
0100
0010
0000
0100
0010
1000
0000
0010
1000
0010
0000
1000
0001
,
1000
0000
0000
0000
1100
0000
0000
1000
0001
1000
0000
0000
0011
0000
0001
0000
,
1000
0100
1000
0100
0010
0001
0010
0001
1000
0010
1000
0010
0100
0001
1000
0000
,
0000
0001
0100
0010
1000
1000
0100
0010
,
0001
0010
0001
0010
0100
1000
0100
1000
0001
0100
0001
0100
0001
0000
2000
0000
,
3000
1000
0200
0000
0310
0001
0010
0001
,
1000
0010
1000
0010
0100
0001
0100
0001
1000
0100
1000
0100
0010
0001
1000
0000
,
0000
0001
0010
0100
1000
1000
0010
0100
,
0001
0020
0230
0320
0230
0320
0031
1000
,
0000
0020
0230
0320
0230
0320
1030
0001
,
1000
0100
1000
0100
0010
0001
0010
0001
1000
0010
1000
0010
0100
0001
1000
0001
,
1000
0001
0010
0001
1000
0001
0100
0001
0010
0100
0010
0100
1000
0001
1000
0001
,
1000
0010
1000
0010
0100
0001
0100
0001
1000
0100
1000
0100
0010
0001
0100
0001
,
0100
0010
1000
0001
0010
0100
0010
0100
1000
0001
0100
0001
1000
0010
1000
0001
,
1000
0100
1000
0100
0010
0001
0010
0001
1000
0010
1000
0010
0100
0001
1000
0001
,
1000
0001
0010
0001
1000
0001
0100
0001
0010
0100
0010
0100
1000
0001
1000
0001
,
1000
0020
0230
0320
0230
0320
1030
0001
,
0000
0020
0230
0320
0230
0320
0031
1000
,
0001
0000
0000
0000
1100
0000
0000
0010
0001
0000
0100
0000
1010
0000
1000
0000
,
0001
0000
0000
0000
0110
0000
0000
1000
0001
0000
1000
0000
0101
0000
0100
0000
,
0010
0000
0010
0000
1001
0000
1000
0001
0010
0000
0001
0000
1100
0000
0000
0000
,
0010
0000
0000
0000
1001
0000
0000
0001
0100
0000
0001
0000
1010
0000
1000
0000
,
0100
0000
0000
0000
0011
0000
0000
0100
1000
0000
0010
0000
0101
0000
0001
0000
,
1000
0000
0000
0000
0110
0000
0000
0001
1000
0000
0001
0000
1010
0000
0010
0000
,
0100
0000
0000
0000
1001
0000
0001
1000
0100
0000
1000
0000
0011
0000
0000
0000
,
0100
0000
0000
0000
1001
0000
0000
0001
0010
0001
0000
0000
1100
0000
1000
0000
,
0001
0000
0010
0100
0010
0000
0100
0010
0100
0000
1000
0100
1000
0000
0001
1000
,
0010
0000
1000
0010
1000
0000
0010
1000
0010
0000
1000
0010
1000
0000
0001
1000
,
0100
0000
1000
0100
0010
0000
0100
0010
0001
0000
1000
0100
1000
0000
0100
1000
,
0004
0403
0340
4030
,
3001
0000
0010
0100
0010
0000
0100
0010
0100
0000
1000
0100
1000
0000
0001
1000
,
0010
0000
1000
0010
1000
0000
0010
1000
0010
0000
1000
0010
0100
0000
0001
1000
,
0100
0000
1000
0100
0010
0000
0100
0010
0001
0000
0010
0001
0010
0000
0001
1000
,
0001
0000
0000
0000
0101
0000
0000
0001
1000
0001
0000
0000
1010
0000
1000
0000
,
0001
0100
0001
0100
0010
1000
0010
1000
0001
0010
0001
0010
0100
1000
0001
0000
,
0000
1000
0100
0010
0001
0001
0100
0010
,
1000
0010
1000
0010
0100
0001
0100
0001
1000
0100
1000
0100
1000
0000
0002
0000
,
0003
0001
0200
0000
0310
1000
0010
1000
,
0001
0010
0001
0010
0100
1000
0100
1000
0001
0100
0001
0100
0010
1000
0001
0000
,
0000
1000
0010
0100
0001
0001
0010
0100
,
1000
0020
0230
0320
0230
0320
1030
0001
,
0000
0020
0230
0320
0230
0320
0031
1000
,
0001
0100
0001
0100
0010
1000
0010
1000
0001
0010
0001
0010
0100
1000
0001
1000
,
0001
1000
0010
1000
0001
1000
0100
1000
0010
0100
0010
0100
0001
1000
0001
1000
,
0001
0010
0001
0010
0100
1000
0100
1000
0001
0100
0001
0100
0010
1000
0100
1000
,
0100
0010
0001
1000
0010
0100
0010
0100
0001
1000
0100
1000
0001
0010
0001
1000
,
0001
0100
0001
0100
0010
1000
0010
1000
0001
0010
0001
0010
0100
1000
0001
1000
,
0001
1000
0010
1000
0001
1000
0100
1000
0010
0100
0010
0100
0001
1000
0001
1000
,
0001
0020
0230
0320
0230
0320
0031
1000
,
0000
0020
0230
0320
0230
0320
1030
0001
,
1001
0000
0000
0000
0011
0000
0000
0000
0110
0000
0100
0000
1000
0001
0000
0000
,
1000
0000
0100
1000
0010
0000
0100
0001
1000
0000
0001
0000
0010
0100
0000
0000
,
1001
1001
0101
0110
,
1000
0000
0010
1000
0010
0000
1000
0001
0000
0100
0001
0000
1000
0100
1000
0100
,
0010
0000
0000
0001
1000
0000
0001
0000
0100
0000
0001
1000
0000
0000
0000
0000
,
1010
1000
1100
1000
1001
0001
0010
0100
,
M22M
M00M
M00M
M33M
0000
0000
0000
1000
0001
0000
1000
0010
0000
1000
0001
0000
,
0001
0100
0000
0000
1001
0000
0000
1000
0100
0010
0001
1000
0000
0000
0001
0000
,
0100
0000
0010
1000
0000
0001
0000
0000
0010
0001
0000
1000
0000
0100
1000
0000
,
0010
0000
0000
1000
0000
0000
0000
0000
0000
0001
0000
0000
1000
0000
0000
0000
0100
0000
0000
0000
0010
0000
0000
0000
0001
0000
0000
0000
0000
0000
1000
0000
0000
0000
0000
0000
1001
0000
0000
0000
0000
0000
0000
0000
0000
0001
0000
0000
,
0100
0010
0000
1000
0002
0003
2002
3003
,
1000
0000
0000
0000
0001
0010
0000
0001
0000
1000
0001
0000
0100
0000
0010
0000
,
1001
0000
0000
1000
0000
0000
0000
0000
0001
0000
0010
0001
0000
0000
0000
0000
,
0200
0000
0320
0000
0230
0000
0300
0000
0020
0000
0230
0302
0000
0003
0000
1000
,
0001
0001
0010
0100
0100
1000
0001
0001
,
0100
0000
0010
0000
0010
1000
0000
0001
1000
0000
0100
0010
0002
0000
0000
0000
,
1003
0000
0000
0000
0000
0000
0001
0000
0100
0000
0001
0000
1000
0000
0000
0100
0000
0000
0022
0000
0000
0033
0000
0000
,
0000
0000
0000
1000
0001
0010
0001
0000
1000
0000
0000
0010
0000
0000
0202
0303
,
0202
0303
0000
0001
1000
0000
0001
0000
1000
0000
0100
0000
0000
0000
1000
0001
,
0010
0000
0000
0001
1000
0000
0010
0000
0100
0001
0100
0000
0100
0000
0010
1000
,
0001
0100
0001
1000
0001
1000
0100
0010
0001
0010
0100
1000
0001
1000
0001
0010
,
0001
0000
0100
0000
0001
0000
1000
0001
0010
0100
0010
0000
0001
0100
0001
0000
,
1000
0010
1000
0001
1000
0001
0010
0100
1000
0100
0010
0001
1000
0001
1000
0010
,
0100
0001
1000
0001
0010
0100
1000
0001
0100
0010
0100
0000
0001
0010
0001
0000
,
1000
0100
1000
0001
1000
0001
0100
0010
1000
0010
0100
0001
1000
0001
1000
0010
,
1000
0000
0010
0000
0100
0000
0001
1000
0100
0010
0100
0000
1000
0010
1000
0000
,
0001
0010
0001
1000
0001
1000
0010
0100
0001
0100
0010
1000
0001
1000
0001
0010
,
0100
1000
0001
1000
0010
0100
0001
1000
0001
1000
0000
0000
0010
0000
0010
0000
,
2000
0000
0000
0200
0000
0000
3300
0000
;

//--------------- dance-double - LinkDubs03 ----------------
#NOTEDATA:;
#STEPSTYPE:dance-double;
#DESCRIPTION:LinkDubs03;
#DIFFICULTY:Beginner;
#METER:2;
#RADARVALUES:0,0,0,0,0;
#NOTES:
00000000
00000000
00000000
00000000
,
00000000
00000000
00000000
00000000
,
00000000
00000000
00000000
00000000
,
00000000
00000000
00000000
00000000
,
00010000
00000000
00000000
00000000
00000000
00000000
00000000
10000000
,
00000000
00000000
00000000
00100000
,
00000000
10000000
00000000
00010000
,
00000000
00000000
00000000
00000000
,
01000000
00000000
00000000
00000000
00000000
00000000
00000000
00001000
,
00000000
00000000
00000000
00010000
,
00000000
00000010
00000000
00001000
,
00000000
00000000
00000000
00000000
,
00000001
00000000
00000000
00000000
00000000
00000000
00000000
00000010
,
00000000
00000000
00000000
00000100
,
00000000
00010000
00000000
00001000
,
00000000
00000000
00000000
00000000
,
00100000
00000000
00000000
00000000
00000000
00000000
00000000
00010000
,
00000000
00000000
00000000
10000000
,
00000000
01000000
00000000
10000000
,
00000000
00000000
00000000
00000000
,
00000000
00000000
00010000
00000000
,
01000000
00000000
00000000
00000000
,
00001000
00000000
00100000
00000000
,
00001000
00000000
00010000
00000000
,
00000000
00000010
00000000
00001000
,
00000000
00000000
00000000
00000001
,
00000000
00000000
00000100
00000000
00000000
00000000
00000000
00000010
,
00000000
00001000
00001000
00000000
,
00000100
00000000
00010000
00000000
,
00001000
00000000
00100000
00000000
,
00010000
00000000
10000000
00000000
,
01000000
00000000
00100000
00000000
,
01000000
00000000
10000000
00000000
,
00010000
00000000
01000000
00000000
,
00000000
00000000
00010000
00000000
00010000
00000000
00000000
00100000
,
00000000
00001000
00001000
00000000
,
00010000
00000000
00000100
00000000
,
00001000
00000000
00000100
00000000
,
00000010
00000000
00000001
00000000
,
00000100
00000000
00000010
00000000
,
00010000
00000000
00001000
00000000
,
00010000
00000000
00001000
00000000
,
00000000
00000000
00100000
00000000
00100000
00000000
00000000
00010000
,
00000000
01000000
01000000
00000000
,
00100000
00000000
00000000
00000000
00000000
10000000
00000000
00010000
,
00000000
00000000
00000000
10000000
,
00000000
00010000
00000000
01000000
,
00000000
00000000
00000000
00000000
,
00001000
00000000
00000000
00000000
00000000
00010000
00000000
00001000
,
00000000
00000000
00000000
00010000
,
00000000
00000100
00000000
00000010
,
00000000
00000000
00000000
00000000
,
00000000
00000000
00000001
00000000
,
00000100
00000000
00000000
00000000
,
00000001
00000000
00000010
00000000
,
00000100
00000000
00010000
00000000
,
00000000
00000000
00001000
00000000
,
01000000
00000000
00000000
00000000
,
00010000
00000000
00000000
00000000
10000000
00000000
00000000
00010000
,
00000000
00100000
00100000
00000000
,
00010000
00000000
10000000
00000000
,
01000000
00000000
00100000
00000000
,
00010000
00000000
00100000
00000000
,
00001000
00000000
00010000
00000000
,
00001000
00000000
00010000
00000000
,
00000010
00000000
00010000
00000000
,
00000000
00000000
00000010
00000000
00000010
00000000
00000000
00001000
,
00000000
00000001
00000001
00000000
,
00001000
00000000
00000010
00000000
,
00001000
00000000
00000001
00000000
,
00000100
00000000
00000010
00000000
,
00010000
00000000
00001000
00000000
,
01000000
00000000
00010000
00000000
,
10000000
00000000
00100000
00000000
,
00000000
00000000
10000000
00000000
10000000
00000000
00000000
00010000
,
00000000
01000000
01000000
00000000
,
00001000
00000000
00100000
00000000
,
00001000
00000000
00010000
00000000
,
00001000
00000000
00010000
00000000
,
00000010
00000000
00001000
00000000
,
00000010
00000000
00000100
00000000
,
00010000
00000000
00000100
00000000
,
00000010
00000000
00000001
00000000
,
00000010
00000000
00000100
00000000
,
00010000
00000000
00000010
00000000
,
00010000
00000000
00001000
00000000
,
00010000
00000000
00001000
00000000
,
00100000
00000000
00001000
00000000
,
00100000
00000000
00010000
00000000
,
00100000
00000000
01000000
00000000
,
10000000
00000000
00010000
00000000
,
10000000
00000000
00100000
00000000
,
01000000
00000000
00010000
00000000
,
01000000
00000000
00001000
00000000
,
00010000
00000000
00001000
00000000
,
00010000
00000000
00000100
00000000
,
00001000
00000000
00000100
00000000
,
00000000
00000000
00001000
00000000
,
00000001
00000000
00000010
00000000
,
00000001
00000000
00001000
00000000
,
00000100
00000000
00000000
00000000
,
00010000
00000000
00000100
00000000
,
00010000
00000000
00001000
00000000
,
00010000
00000000
00001000
00000000
,
00100000
00000000
01000000
00000000
;

//--------------- dance-double - LinkDubs06 ----------------
#NOTEDATA:;
#STEPSTYPE:dance-double;
#DESCRIPTION:LinkDubs06;
#DIFFICULTY:Easy;
#METER:4;
#RADARVALUES:0,0,0,0,0;
#NOTES:
00000000
00000000
00000000
00000000
,
00000000
00000000
00000000
00000000
,
00000000
00000000
00000000
00000000
,
00000000
00000000
00000000
00000000
,
10010000
00000000
00000000
00000000
00000000
00010000
00000000
01000000
,
00000000
00000000
00000000
00010000
,
00100000
00010000
00100000
00010000
,
00000000
00000000
00000000
00000000
,
00101000
00000000
00000000
00000000
00000000
00010000
00000000
00001000
,
00000000
00000000
00000000
00010000
,
00000010
00010000
00000010
00010000
,
00000000
00000000
00000000
00000000
,
00001010
00000000
00000000
00000000
00000000
00000010
00000000
00000100
,
00000000
00000000
00000000
00000001
,
00000100
00000001
00000010
00000001
,
00000000
00000000
00000000
00000000
,
00001001
00000000
00000000
00000000
00000000
00001000
00000000
00000100
,
00000000
00000000
00000000
00010000
,
00001000
00010000
00001000
00010000
,
00000000
00000000
00000000
00000000
,
00000000
00001000
00100000
01000000
,
10000000
00000000
00000000
00000000
,
00010000
10000000
01000000
00100000
,
00001000
00100000
01000000
10000000
,
00000000
01000000
00100000
00001000
,
00010000
00000000
00000000
00000100
,
00010000
00000000
00000100
00000000
00010000
00000000
00000000
00000100
,
00000000
00002000
00000001
00000000
00000001
00003000
00000001
00000000
,
00001000
00000010
00001000
00000010
,
00010000
00000010
00010000
00001000
,
00010000
00001000
01000000
00001000
,
01000000
00100000
01000000
00000000
,
00010000
10000000
01000000
10000000
,
01000000
00100000
00001000
00100000
,
00000000
00002000
01000000
00000000
01000000
00003000
00000000
01000000
,
00000000
00002000
00100000
00000000
00100000
00003000
00100000
00000000
,
00001000
00010000
00001000
00010000
,
00000010
00010000
00000010
00001000
,
00000010
00001000
00000001
00001000
,
00000001
00000100
00000001
00000000
,
00000100
00000001
00001000
00000001
,
00000010
00000001
00001000
00000010
,
00000000
00020000
00000100
00000000
00000100
00030000
00000000
00000100
,
00000000
00020000
00001000
00000000
00001000
00030000
00001000
00000000
,
00011000
00000000
00000000
00000000
00000000
00001000
00000000
00010000
,
00000000
00000000
00000000
00001000
,
01000000
00010000
01000000
00100000
,
00000000
00000000
00000000
00000000
,
02200000
00000000
03300000
00000000
00000000
01000000
00000000
00100000
,
00000000
00000000
00000000
10000000
,
00100000
01000000
00100000
10000000
,
00000000
00000000
00000000
00000000
,
00000000
00010000
01000000
00100000
,
01000000
00000000
00000000
00000000
,
00001000
01000000
00010000
01000000
,
00001000
00010000
00001000
00010000
,
00000000
00000100
00010000
00000100
,
00001000
00000000
00000000
00000001
,
00000010
00000000
00000001
00000000
00001000
00000000
00000000
00000100
,
00000000
00020000
00000010
00000000
00000010
00030000
00000010
00000000
,
00010000
00000100
00010000
00001000
,
00010000
00001000
01000000
00001000
,
01000000
00010000
01000000
00010000
,
10000000
00010000
00100000
00000000
,
00010000
00100000
01000000
10000000
,
00100000
01000000
00010000
01000000
,
00000000
00020000
00100000
00000000
00100000
00030000
00000000
10000000
,
00000000
02000000
00100000
00000000
00100000
03000000
00100000
00000000
,
00010000
10000000
00100000
01000000
,
00100000
10000000
00010000
00100000
,
01000000
00100000
00010000
10000000
,
01000000
00100000
01000000
00000000
,
10000000
00100000
01000000
00100000
,
10000000
00010000
10000000
00100000
,
00000000
20000000
01000000
00000000
01000000
30000000
00000000
00010000
,
00000000
20000000
00100000
00000000
00100000
30000000
00100000
00000000
,
10000000
00100000
01000000
00010000
,
01000000
00100000
10000000
00010000
,
00100000
01000000
10000000
01000000
,
00100000
00010000
10000000
00010000
,
00100000
01000000
00100000
00010000
,
10000000
00100000
01000000
00100000
,
10000000
00010000
01000000
00100000
,
01000000
00010000
10000000
01000000
,
00100000
01000000
10000000
00010000
,
10000000
00100000
01000000
00100000
,
10000000
00010000
10000000
01000000
,
00100000
01000000
10000000
01000000
,
00100000
00010000
00100000
00010000
,
10000000
00010000
01000000
00100000
,
10000000
00100000
01000000
00100000
,
10000000
01000000
00100000
01000000
,
10000000
00010000
00100000
00010000
,
01000000
00010000
01000000
00100000
,
10000000
01000000
00100000
00010000
,
10000000
00010000
00100000
01000000
,
10000000
00000000
00000000
00010000
00000000
00000000
00000000
00000000
,
00000000
00000000
10000000
00100000
,
01000000
00000000
00000000
00010000
00000000
00000000
00000000
10000000
,
00000000
00000000
00010000
01000000
,
00100000
00000000
00000000
10000000
00000000
00000000
00000000
00000000
,
00000000
00000000
00010000
00100000
,
01000000
00000000
00000000
10000000
00000000
00000000
00000000
00010000
,
00000000
00000000
10000000
01000000
,
00100000
00000000
00000000
00020000
00000000
00000000
00030000
00000000
;

//--------------- dance-double - LinkDubs09 ----------------
#NOTEDATA:;
#STEPSTYPE:dance-double;
#DESCRIPTION:LinkDubs09;
#DIFFICULTY:Medium;
#METER:6;
#RADARVALUES:0,0,0,0,0;
#NOTES:
00000000
00000000
00000000
00000000
,
00000000
00000000
00000000
00000000
,
00000000
00000000
00000000
00000000
,
00000000
00000000
00000000
00000000
,
00011000
00000000
00000000
00000000
00000000
00001000
00100000
00001000
,
00000000
00000000
00000000
00000000
00000000
00000000
01000000
00001000
,
01000000
00010000
01000000
00100000
01000000
00000000
00010000
00000000
,
00000000
00000000
00000000
00000000
10000000
00000000
00000000
00010000
00000000
00000000
10000000
00000000
00000000
00000000
00000000
00000000
,
10010000
00000000
00000000
00000000
00000000
01000000
00010000
01000000
,
00000000
00000000
00000000
00000000
00000000
00001000
00100000
00001000
,
00010000
00001000
01000000
00001000
00010000
00000000
00001000
00000000
,
00000000
00000000
00000000
00000000
00010000
00000000
00000000
00000100
00000000
00000000
00010000
00000000
00000000
00000000
00000000
00000000
,
00000010
00001000
00000000
00000000
00000000
00000001
00000100
00000001
,
00000000
00000000
00000000
00000000
00001000
00000000
00000000
00000010
00000000
00000000
00001000
00000000
00000001
00000000
00001000
00000000
,
00000100
00001000
00000001
00001000
00000010
00000000
00010000
00000000
,
00000000
00000000
00000000
00000000
00001000
00000000
00000000
00010000
00000000
00000000
00001000
00000000
00000000
00000000
00000000
00000000
,
00100000
00010000
00000000
00000000
00000000
10000000
00100000
10000000
,
00000000
00000000
00000000
00000000
00100000
00000000
00000000
10000000
00000000
00000000
00100000
00000000
01000000
00000000
00010000
00000000
,
01000000
00001000
01000000
00010000
01000000
00000000
00001000
00000000
,
00000000
00000000
00000000
00000000
00010000
00000000
00000000
00001000
00000000
00000000
00010000
00000000
00000000
00000000
00000000
00000000
,
00000000
00000000
00000010
00010000
00000010
00001000
00000010
00000100
,
00000000
00000001
00000000
00000000
00000000
00000000
00000000
00001000
,
00000001
00001000
00000001
00000000
00000100
00000000
00000010
00000100
,
00000010
00001000
00000100
00010000
,
00000000
00000000
00001000
00010000
00001000
00100000
00001000
01000000
,
00000000
00010000
00000000
00000000
00000000
00000000
10000000
00010000
,
01000000
00010000
00100000
00000000
00010000
00000000
00000000
01000000
,
00000000
00010000
10000000
00010000
00100000
00010000
10000000
00000000
,
00010000
00000000
01000000
00000000
00001000
00000000
00100000
00001000
,
00000000
00100000
00001000
01000000
00001000
00010000
00001000
00000000
,
00010000
00000000
00000100
00000000
00000010
00000000
00000001
00000100
,
00000000
00000001
00000100
00000000
00000001
00000000
00000000
00000000
,
00001000
00000000
00000010
00000000
00010000
00000000
00001000
00010000
,
00000000
00001000
00010000
00001000
00100000
00001000
01000000
00000000
,
00000000
00100000
01000000
00100000
10000000
00100000
00000000
10000000
,
00000000
01000000
10000000
01000000
00100000
01000000
10000000
00000000
,
00010000
00000000
00100000
00000000
00001000
00000000
00010000
00001000
,
00000000
00010000
00001000
00010000
00000100
00010000
00000010
00000000
,
00001000
00000000
00000001
00000000
00000100
00000000
00000010
00001000
,
00000000
00000010
00001000
00000000
00000001
00000000
00000000
00000000
,
00001000
00000000
00000100
00000000
00001000
00000000
00000001
00000100
,
00000000
00000001
00000010
00000001
00000010
00000000
00000100
00000000
,
00000000
00010000
00000100
00010000
00001000
00010000
00000000
00001000
,
00000000
00100000
00001000
00100000
00010000
00100000
01000000
00000000
,
10010000
00000000
00000000
00000000
10000000
00000000
00000000
01000000
00000000
00000000
10000000
00000000
00100000
00000000
10000000
00000000
,
00000000
00000000
00000000
00000000
00010000
00000000
00000000
01000000
00000000
00000000
00010000
00000000
00100000
00000000
00010000
00000000
,
10000000
00010000
01000000
00010000
10000000
00000000
00100000
00000000
,
00000000
00000000
00000000
00000000
01000000
00000000
00000000
00100000
00000000
00000000
01000000
00000000
00000000
00000000
00000000
00000000
,
02200000
00000000
03300000
00000000
00000000
00010000
01000000
00010000
,
00000000
00000000
00000000
00000000
00100000
00000000
00000000
00001000
00000000
00000000
00100000
00000000
00001000
00000000
00010000
00000000
,
00001000
00000000
00010000
00001000
00010000
00000100
00010000
00000000
,
00000000
00000000
00000000
00000000
00000010
00000000
00000000
00010000
00000000
00000000
00000010
00000000
00000000
00000000
00000000
00000000
,
00000000
00000000
00001000
00000010
00001000
00000001
00001000
00000100
,
00000000
00001000
00000000
00000000
00000000
00000000
00000000
00000001
,
00000010
00000100
00001000
00000000
00000001
00000000
00001000
00000100
,
00001000
00000010
00010000
00001000
,
00000000
00000000
00010000
00001000
01000000
00001000
00100000
00001000
,
00000000
00100000
00000000
00000000
00000000
00000000
00010000
00100000
,
00010000
10000000
00010000
00000000
10000000
00000000
00000000
00010000
,
00000000
00100000
00010000
00100000
01000000
00100000
00010000
00000000
,
10000000
00000000
01000000
00000000
10000000
00000000
00010000
00100000
,
00000000
00001000
00100000
00001000
00010000
00001000
01000000
00000000
,
00001000
00000000
00010000
00000000
00000100
00000000
00001000
00000100
,
00000000
00001000
00000100
00000000
00000010
00000000
00000000
00000000
,
00000001
00000000
00000100
00000000
00000001
00000000
00001000
00000001
,
00000000
00001000
00000010
00001000
00000001
00001000
00000100
00000000
,
00000000
00010000
00000100
00010000
00001000
00010000
00000000
00001000
,
00000000
01000000
00001000
01000000
00010000
01000000
00100000
00000000
,
10000000
00000000
00010000
00000000
10000000
00000000
01000000
10000000
,
00000000
00010000
00100000
00010000
10000000
00010000
01000000
00000000
,
00010000
00000000
00100000
00000000
00001000
00000000
01000000
00001000
,
00000000
01000000
00001000
00000000
01001000
00000000
00000000
00000000
,
00100000
00000000
00001000
00000000
00010000
00000000
00001000
00010000
,
00000000
00000010
00010000
00000010
00010000
00000000
00000010
00000000
,
00000000
00000100
00000001
00000100
00000010
00000100
00000000
00000001
,
00000000
00000010
00000100
00000010
00000001
00000010
00000100
00000000
,
00010000
00000000
00001000
00000000
00010000
00001000
00010000
00000000
,
00000000
00001000
00100000
00010000
00100000
01000000
00100000
00000000
,
00010000
00010000
10000000
10000000
,
00100000
10000000
00100000
10000000
00000000
01000000
00000000
00100000
,
00001000
00000000
00100000
00001000
01000000
00001000
01000000
00000000
,
00001000
00010000
00001000
00010000
00000100
00010000
00000010
00000000
,
00001010
00000000
00000000
00000000
00000001
00000100
00000000
00000010
,
00010000
00000000
00000000
00000000
00001000
00010000
00000000
00000000
,
00000000
00001000
01000000
00001000
01000000
00010000
01000000
00010000
,
00100000
00010000
00100000
01000000
00100000
01000000
10000000
00000000
,
00010000
00100000
00000000
00001000
00100000
00000000
00011000
00000000
,
00000000
00000000
00010000
00001000
00010000
00000100
00010000
00000010
,
00010000
00000000
00000010
00000000
00001000
00000010
00001000
00000000
,
00000001
00000100
00000001
00000000
00001000
00000001
00001000
00000000
,
00000100
00001000
00000100
00001000
00000010
00001000
00000010
00010000
,
00000010
00010000
00001000
00010000
00001000
00100000
00001000
00000000
,
00000000
00000000
00100000
00010000
01000000
00010000
10000000
00000000
,
00000000
00000000
00010000
10000000
01000000
10000000
00100000
10000000
,
00010000
00000000
10000000
00100000
10000000
00100000
01000000
00100000
,
01000000
00001000
01000000
00001000
00010000
00000000
00001000
00000000
,
00010000
00000000
00000000
00000100
00000000
00000000
00000000
00000000
,
00000000
00000000
00001000
00000100
,
00000010
00000000
00000000
00000001
00000000
00000000
00000000
00001000
,
00000000
00000000
00000001
00000100
,
00000010
00000000
00000000
00010000
00000000
00000000
00000000
00000000
,
00000000
00000000
00001000
01000000
,
00100000
00000000
00000000
10000000
00000000
00000000
00000000
00010000
,
00000000
00000000
01000000
00001000
,
00010000
00000000
00000000
00022000
00000000
00000000
00033000
00000000
;

//--------------- dance-double - Cut from Gazebo ----------------
#NOTEDATA:;
#STEPSTYPE:dance-double;
#DESCRIPTION:Cut from Gazebo;
#DIFFICULTY:Hard;
#METER:9;
#RADARVALUES:0,0,0,0,0;
#NOTES:
00000000
00000000
00000000
00000000
,
00000000
00000000
00000000
00000000
,
00000000
00000000
00000000
00000000
,
00000000
00000000
00000000
00000000
,
00010000
00000000
00000000
00000000
01000000
00000000
00000000
00100000
10000000
00000000
01000000
00000000
00100000
00000000
00010000
00000000
,
10000000
00000000
00000000
00000000
00100000
00000000
00000000
10000000
00010000
00000000
10000000
00000000
01000000
00000000
01000000
00000000
,
00100000
00000000
00100000
00000000
00001000
00000000
00001000
00010000
00001000
00000000
00010000
00000000
00000100
00000000
00000000
00000000
,
00000010
00000000
00000000
00000000
00000001
00000000
00000000
00001000
00000100
00000000
00001000
00000000
00000001
00000000
00000001
00000000
,
00000100
00000000
00000000
00000000
00000010
00000000
00000000
00000100
00000010
00000000
00010000
00000000
00000010
00000000
00010000
00000000
,
00001000
00000000
00000000
00000000
00010000
00000000
00000000
00001000
00100000
00000000
00001000
00000000
01000000
00000000
01000000
00000000
,
00100000
00000000
00100000
00000000
10000000
00000000
10000000
00010000
01000000
00000000
00010000
00000000
00100000
00000000
00000000
00000000
,
01000000
00000000
00000000
00000000
10000000
00000000
00000000
00010000
00100000
00010000
00000000
00000000
10000000
00000000
10000000
00000000
,
00010000
00000000
00010000
00000000
01000000
00000000
00000000
00100000
01000000
00000000
00010000
00000000
00001000
00000000
00001000
00000000
,
00010000
00000000
00000000
00000000
00000010
00000000
00000000
00001000
00000001
00000000
00001000
00000000
00000100
00000000
00000100
00000000
,
00000010
00000000
00000010
00000000
00000001
00000000
00000001
00001000
00000010
00000000
00001000
00000000
00000100
00000000
00000000
00000000
,
00010000
00000000
00000000
00000000
00001000
00000000
00000000
00010000
00001000
00000000
00100000
00000000
00010000
00000000
00010000
00000000
,
01000000
00000000
00000000
00000000
00100000
00000000
00000000
10000000
00010000
00000000
00100000
00000000
01000000
00000000
10000000
00000000
,
00010000
00000000
00000000
00000000
00100000
00000000
00000000
00010000
10000000
00000000
00010000
00000000
00100000
00000000
00100000
00000000
,
00001000
00000000
00001000
00000000
00010000
00000000
00010000
00001000
00010000
00000000
00000100
00000000
00000010
00000000
00000000
00000000
,
00000100
00000000
00000000
00000000
00001000
00000000
00000000
00000001
00000010
00000001
00001000
00000000
00001000
00000000
00000001
00000000
,
00001000
00000000
00000010
00000000
00000010
00000000
00000100
00000000
00000100
00000000
00000001
00000000
00000001
00000000
00001000
00000100
,
00000010
00000100
00000100
00010000
00010000
00001000
00001000
01000000
,
00010000
00000000
01000000
00000000
00010000
00000000
10000000
00100000
10000000
00000000
00010000
00000000
00010000
00000000
01000000
00010000
,
40000000
34000000
03400000
00340000
,
01030000
00000000
00001000
00000000
00001000
00000000
00010000
00000000
00010000
00000000
00000010
00000000
00000010
00000000
00001000
00000001
,
00000100
00000001
00000001
00000010
00000010
00000001
00000010
00000100
,
00000100
00000000
00010000
00000000
00001000
00000000
00010000
00001000
00010000
00000000
00001000
00000000
00001000
00000000
00100000
00000000
,
00100000
00000000
00000000
00000000
00010000
00000000
00000000
10000000
01000000
10000000
00000000
00000000
00010000
00000000
00010000
00000000
,
10000000
01000000
10000000
00000000
01000000
00000000
00100000
00000000
00001000
00100000
00001000
00000000
00010000
00000000
00001000
00000000
,
00000000
00000000
00001000
00000000
00010000
00000000
00000010
00000000
00000100
00000010
00000100
00000000
00000001
00000000
00000010
00000000
,
00000001
00000010
00000001
00000000
00000010
00000000
00000100
00000000
00010000
00000100
00010000
00000000
00001000
00000000
00200000
00000000
,
00300000
00100000
00020000
00000000
00130000
01000000
00100000
01000000
,
10000000
00100000
10000000
00000000
00010000
00000000
10000000
00000000
01000000
10000000
01000000
00000000
00100000
00000000
00010000
00000000
,
00000000
00010000
00100000
01000000
10000000
10000000
00100000
01000000
,
00010000
00200000
02300000
03200000
02300000
03200000
00301000
00010000
,
00000000
00000020
00000230
00000320
00000230
00000320
00010030
00001000
,
01000000
00001000
01000000
00000000
00010000
00000000
10000000
00000000
00100000
10000000
00100000
00000000
01000000
00000000
00010000
00000000
,
10000000
00100000
10000000
00000000
01000000
00000000
00100000
00000000
00010000
00100000
00010000
00000000
10000000
00000000
00010000
00000000
,
01000000
00010000
01000000
00000000
00001000
00000000
01000000
00000000
00001000
00010000
00001000
00000000
00010000
00000000
00000100
00000000
,
00010000
00000010
00010000
00000000
00000100
00000000
00001000
00000000
00000001
00000100
00000001
00000000
00000010
00000000
00000001
00000000
,
00001000
00000100
00001000
00000000
00000010
00000000
00000100
00000000
00000001
00000100
00000001
00000000
00001000
00000000
00000010
00000000
,
00010000
00001000
00010000
00000000
00001000
00000000
00100000
00000000
01000000
00100000
01000000
00000000
00100000
00000000
00001000
00000000
,
00010000
00000020
00000230
00000320
00000230
00000320
00010030
00001000
,
00000000
00200000
02300000
03200000
02300000
03200000
00301000
00010000
,
00001000
00000000
00000000
00000000
00100000
00000000
00000000
00100000
00010000
00000000
01000000
00000000
00100000
00000000
10000000
00000000
,
00010000
00000000
00000000
00000000
10000000
00000000
00000000
10000000
00010000
00000000
01000000
00000000
00010000
00000000
01000000
00000000
,
00001000
00000000
00001000
00000000
00010000
00000000
00010000
00001000
00010000
00000000
00000010
00000000
00000100
00000000
00000000
00000000
,
00000010
00000000
00000000
00000000
00001000
00000000
00000000
00000001
00000100
00000000
00000001
00000000
00000010
00000000
00000010
00000000
,
00000001
00000000
00000000
00000000
00000100
00000000
00000000
00000001
00000010
00000000
00000100
00000000
00000010
00000000
00000001
00000000
,
00001000
00000000
00000000
00000000
00000100
00000000
00000000
00000100
00010000
00000000
00001000
00000000
00010000
00000000
00001000
00000000
,
01000000
00000000
00000000
00000000
00010000
00000000
00010000
10000000
00100000
00000000
10000000
00000000
00010000
00000000
00000000
00000000
,
01000000
00000000
00000000
00000000
00010000
00000000
00000000
00010000
00100000
00010000
00000000
00000000
10000000
00000000
10000000
00000000
,
00010000
00000000
00100000
00000000
00100000
00000000
00001000
00000000
00001000
00000000
00010000
00000000
00010000
00000000
00000010
00001000
,
00000010
00000000
00010000
00000000
00010000
00000000
00000100
00000000
00000100
00000000
00001000
00000000
00001000
00000000
00000001
00001000
,
00000100
00000000
00001000
00000000
00000100
00000000
00000010
00000000
00000001
00000000
00001000
00000000
00001000
00000000
00000100
00001000
,
00000004
00000403
00000340
00040030
,
00031000
00000000
00100000
00000000
00100000
00000000
01000000
00000000
01000000
00000000
10000000
00000000
10000000
00000000
00010000
10000000
,
00100000
10000000
10000000
00100000
00100000
01000000
00010000
01000000
,
00001000
00100000
00001000
00010000
00001000
00010000
00010000
00000010
,
00000010
00000000
00000000
00000000
00000100
00000000
00000000
00000001
00001000
00000001
00000000
00000000
00000010
00000000
00000010
00000000
,
00000100
00001000
00000100
00000000
00000010
00000000
00000001
00000000
00000100
00000001
00000100
00000000
00000010
00000000
00001000
00000000
,
00000000
00001000
00000100
00010000
00001000
00001000
01000000
00010000
,
10000000
00100000
10000000
00000000
01000000
00000000
00100000
00000000
00010000
10000000
00010000
00000000
00100000
00000000
00020000
00000000
,
00030000
00010000
02000000
00000000
03100000
10000000
00100000
10000000
,
00010000
00100000
00010000
00000000
01000000
00000000
00100000
00000000
01000000
00010000
01000000
00000000
00001000
00000000
00010000
00000000
,
00000000
00010000
00000010
00000100
00000001
00000001
00001000
00000010
,
00010000
00000020
00000230
00000320
00000230
00000320
00010030
00001000
,
00000000
00200000
02300000
03200000
02300000
03200000
00301000
00010000
,
00001000
00100000
00001000
00000000
00100000
00000000
01000000
00000000
10000000
00010000
10000000
00000000
01000000
00000000
00100000
00000000
,
00010000
10000000
00010000
00000000
00100000
00000000
01000000
00000000
10000000
00010000
10000000
00000000
01000000
00000000
00100000
00000000
,
00001000
00100000
00001000
00000000
00010000
00000000
00001000
00000000
00010000
00001000
00010000
00000000
00000100
00000000
00000010
00000000
,
00000001
00001000
00000001
00000000
00000010
00000000
00000100
00000000
00001000
00000001
00001000
00000000
00000100
00000000
00000010
00000000
,
00000001
00001000
00000001
00000000
00000010
00000000
00000100
00000000
00010000
00000100
00010000
00000000
00001000
00000000
00010000
00000000
,
00001000
00100000
00001000
00000000
00100000
00000000
01000000
00000000
00100000
01000000
00100000
00000000
00001000
00000000
00010000
00000000
,
00001000
00200000
02300000
03200000
02300000
03200000
00301000
00010000
,
00000000
00000020
00000230
00000320
00000230
00000320
00010030
00001000
,
00010000
00000000
00000000
00000000
00001000
00000000
00000000
00000000
00000100
00000000
00000100
00000000
00001000
00000010
00000000
00000000
,
00001000
00000000
00000100
00001000
00000010
00000000
00000100
00000001
00000100
00000000
00000001
00000000
00000010
00000100
00000000
00000000
,
00010000
00001000
00010000
00001000
,
01000000
00000000
00100000
00000000
00100000
00000000
10000000
00010000
00000000
01000000
00010000
00000000
10000000
01000000
00000000
01000000
,
00100000
00000000
00000000
00010000
10000000
00000000
00010000
00000000
01000000
00000000
00010000
10000000
00000000
00000000
00000000
00000000
,
00100000
10000000
01000000
10000000
00010000
00010000
00100000
01000000
,
M22M0000
M00M0000
M00M0000
M33M0000
00000000
00000000
00000000
00100000
00010000
00000000
00100000
00001000
00000000
00010000
00001000
00000000
,
00001000
00010000
00000000
00000000
00000010
00000000
00000000
00001000
00000100
00000000
00001000
00000001
00000000
00000000
00000001
00000000
,
00000100
00000000
00000010
00001000
00000000
00000001
00000000
00000000
00000010
00000001
00000000
00001000
00000000
00000100
00001000
00000000
,
00000010
00000000
00000000
00010000
00000000
00000000
00000000
00000000
00000000
00001000
00000000
00000000
00010000
00000000
00000000
00000000
00001000
00000000
00000000
00000000
00010000
00000000
00000000
00000000
00001000
00000000
00000000
00000000
00000000
00000000
00100000
00000000
00000000
00000000
00000000
00000000
00001000
00000000
00000000
00000000
00000000
00000000
00000000
00000000
00000000
00001000
00000000
00000000
,
01000000
00010000
00000000
10000000
00020000
00030000
00020000
00030000
,
10000000
00000000
00000000
00000000
00010000
00100000
00000000
00010000
00000000
10000000
00010000
00000000
01000000
00000000
00100000
00000000
,
10000000
00000000
00000000
10000000
00000000
00000000
00000000
00000000
00010000
00000000
00100000
00010000
00000000
00000000
00000000
00000000
,
02000000
00000000
03200000
00000000
02300000
00000000
03000000
00000000
00200000
00000000
02300000
03020000
00000000
00030000
00000000
01000000
,
00010000
00010000
00100000
00001000
00001000
00010000
00000100
00000100
,
00001000
00000000
00000010
00000000
00000010
00000100
00000000
00000001
00000100
00000000
00000100
00000010
00000002
00000000
00000000
00000000
,
00001003
00000000
00000000
00000000
00000000
00000000
00000001
00000000
00000100
00000000
00000001
00000000
00000100
00000000
00000000
00000010
00000000
00000000
00020000
00000000
00000000
00030000
00000000
00000000
,
00000000
00000000
00000000
00010000
00001000
00010000
00001000
00000000
01000000
00000000
00000000
00100000
00000000
00000000
02000000
03000000
,
00020000
00030000
00000000
00010000
10000000
00000000
00010000
00000000
10000000
00000000
01000000
00000000
00000000
00000000
10000000
00010000
,
00100000
00000000
00000000
00010000
10000000
00000000
00100000
00000000
01000000
00000000
01000000
00000000
01000000
00000000
00010000
00000000
,
01000000
00010000
01000000
00000000
00001000
00000000
00100000
00000000
00001000
00010000
00001000
00000000
00010000
00000000
00000100
00000000
,
00010000
00000000
00000100
00000000
00000010
00000000
00000001
00000000
00000010
00000100
00000010
00000000
00000001
00000000
00000010
00000000
,
00000100
00000010
00000001
00000000
00001000
00000000
00000010
00000000
00010000
00000010
00010000
00000000
00001000
00000000
00010000
00000000
,
00001000
01000000
00001000
00000000
01000000
00000000
00010000
00000000
10000000
00100000
01000000
00000000
00010000
00000000
10000000
00000000
,
00100000
01000000
00010000
00000000
01000000
00000000
00001000
00000000
00100000
00001000
00100000
00000000
00001000
00000000
00010000
00000000
,
00001000
00010000
00001000
00000000
00010000
00000000
00000010
00000000
00001000
00000010
00001000
00000000
00000001
00000000
00000100
00000000
,
00000001
00000010
00000001
00000000
00001000
00000000
00000010
00000000
00001000
00000100
00001000
00000000
00000001
00000000
00000100
00000000
,
00000010
00001000
00000010
00000000
00010000
00000000
00000100
00000000
00010000
00000000
00000000
00000000
00001000
00000000
00001000
00000000
,
00020000
00000000
00000000
00002000
00000000
00000000
00033000
00000000
;
