#VERSION:0.83;
#TITLE:Baby;
#SUBTITLE:Sensibility Validation;
#ARTIST:Justin Bieber feat. Ludacris;
#TITLETRANSLIT:;
#SUBTITLETRANSLIT:;
#ARTISTTRANSLIT:;
#GENRE:;
#CREDIT:;
#MUSIC:Baby.ogg;
#BANNER:Baby-bn.png;
#BACKGROUND:Baby-bg.png;
#CDTITLE:GazeboCD.png;
#SAMPLESTART:44.642;
#SAMPLELENGTH:15.925;
#SELECTABLE:YES;
#OFFSET:-1.475;
#BPMS:0.000=130.000;
#STOPS:;
#BGCHANGES:;
#FGCHANGES:;

//--------------- dance-single - LinkDude03 ----------------
#NOTEDATA:;
#STEPSTYPE:dance-single;
#DESCRIPTION:LinkDude03;
#DIFFICULTY:Beginner;
#METER:2;
#RADARVALUES:0,0,0,0,0;
#NOTES:
0000
0000
0000
0000
,
0000
0000
0001
0000
,
0001
0000
0000
0000
,
0000
0000
1000
0000
,
1000
0000
0000
0000
,
0000
0000
0001
0000
,
0001
0000
0000
0000
,
0000
0000
0000
1000
,
1000
0000
0000
0001
,
0001
0000
0000
1000
,
1000
0000
0000
0001
,
0001
0000
0000
0010
,
0010
0000
0000
0100
,
0100
0000
0000
0010
,
0010
0000
0000
0100
,
0100
0000
0000
1000
,
1000
0000
0000
0100
,
0100
0000
0000
1000
,
1000
0000
0000
0010
,
0010
0000
0000
0100
,
0100
0000
0000
0001
,
0001
0000
0000
0000
,
0010
0010
0000
0000
,
0100
0100
0000
0000
,
2000
0000
3000
0000
1000
0000
0000
0001
,
0000
0000
0000
0000
,
0002
0000
0003
0000
0001
0000
0000
1000
,
0000
0000
0000
0000
,
2000
0000
3000
0000
1000
0000
0000
0100
,
0000
0000
0000
0000
,
0200
0000
0300
0000
0100
0000
0000
M01M
,
0000
0000
0000
0MM0
0000
0000
0000
0000
,
0020
0000
0030
0000
0010
0000
0000
0001
,
0000
0000
0000
0000
,
0002
0000
0003
0000
0001
0000
0000
0100
,
0000
0000
0000
0000
,
0200
0000
0300
0000
0100
0000
0000
0010
,
0000
0000
0000
0000
,
0020
0000
0030
0000
0010
0000
0000
1M0M
,
0000
0000
0000
M0M0
0000
0000
0000
0000
,
1000
0000
0001
0000
,
1000
0000
0000
0000
,
0001
0000
1000
0000
,
0001
0000
0000
0000
,
1000
1000
0000
0000
,
0100
0100
0000
0000
,
0010
0010
0000
0000
,
0001
0001
0000
0000
,
1000
1000
0000
0000
,
0010
0010
0000
0000
,
0100
0100
0000
0000
,
0001
0001
0000
0000
,
0000
0000
0000
0000
0200
0000
0000
0300
0000
0000
0000
0200
0000
0300
0000
0000
,
0000
0200
0300
0000
0000
0000
0200
0000
0000
0000
0000
0000
0300
0000
0000
0000
,
0010
0000
1000
0000
,
1000
0000
0000
0000
,
0002
0000
0003
0000
1000
0000
0000
0010
,
0000
0000
0000
0000
,
2000
0000
3000
0000
0001
0000
0000
0010
,
0000
0000
0000
0000
,
0002
0000
0003
0000
1000
0000
0000
0100
,
0000
0000
0000
0000
,
2000
0000
3000
0000
0001
0000
0000
M1M0
,
0000
0000
0000
0M0M
0000
0000
0000
0000
,
0002
0000
0003
0000
0010
0000
0000
0100
,
0000
0000
0000
0000
,
2000
0000
3000
0000
0100
0000
0000
0010
,
0000
0000
0000
0000
,
0002
0000
0003
0000
0100
0000
0000
0010
,
0000
0000
0000
0000
,
2000
0000
3000
0000
0010
0000
0000
M10M
,
0000
0000
0000
0MM0
0000
0000
2002
0000
,
3003
0000
1000
0010
,
0000
0000
0100
0001
,
0000
0000
0100
0010
,
0000
0000
1000
0010
,
0000
0000
0100
0001
,
0000
0000
0010
0100
,
0000
0000
0010
0100
,
0000
0000
1000
0001
,
0000
0000
0100
0010
,
0000
0000
1000
0010
,
0000
0000
0100
0001
,
0000
0000
0100
0010
,
0000
0000
1000
0010
,
0000
0000
0100
0001
,
0000
0000
0100
0010
,
0000
0000
1000
0010
,
0200
0000
0300
0000
0010
0000
0000
0100
,
0000
0001
0000
0000
,
2000
0000
3000
0000
0010
0000
0000
1000
,
0000
0010
0000
0000
,
0200
0000
0300
0000
0001
0000
0000
0100
,
0000
0001
0000
0000
,
2000
0000
3000
0000
0100
0000
0000
10MM
,
0000
0000
0000
01MM
0000
0000
0000
0000
,
0020
0000
0030
0000
0001
0000
0000
0010
,
0000
0001
0000
0000
,
0020
0000
0030
0000
0100
0000
0000
0010
,
0000
0100
0000
0000
,
2000
0000
3000
0000
0001
0000
0000
1000
,
0000
0001
0000
0000
,
0020
0000
0030
0000
0001
0000
0000
MM10
,
0000
0000
0000
MM01
0000
0000
0000
0000
,
1000
0000
0000
0001
0000
0000
0000
0000
,
1000
0000
0000
0100
0000
0000
0000
0000
,
1000
0000
0000
0010
0000
0000
0000
0000
,
0100
0000
0000
0001
0000
0000
0000
0000
,
0010
0000
0000
0001
0000
0000
0000
0000
,
0010
0000
0000
0100
0000
0000
0000
0000
,
1000
0000
0000
0010
0000
0000
0000
0100
,
0000
0000
0000
0001
0000
0000
0000
1001
;

//--------------- dance-single - LinkDude06 ----------------
#NOTEDATA:;
#STEPSTYPE:dance-single;
#DESCRIPTION:LinkDude06;
#DIFFICULTY:Easy;
#METER:4;
#RADARVALUES:0,0,0,0,0;
#NOTES:
0000
0000
0000
0000
,
0000
0001
0100
0001
,
0200
0000
0000
0300
,
0000
0001
0010
0001
,
0020
0000
0000
0030
,
0000
0100
1000
0100
,
2000
0000
0000
3000
,
0000
0000
0000
0001
,
0010
0001
0000
0100
,
0001
0100
0000
0010
,
1000
0001
0000
0010
,
0001
1000
0000
0100
,
0010
0001
0000
1000
,
0100
0010
0000
0001
,
1000
0010
0100
0010
,
1000
0000
0000
0100
,
0010
0100
0000
1000
,
0001
1000
0000
0010
,
0100
0001
0000
1000
,
0001
0010
0000
0100
,
1000
0001
1000
0001
,
0100
0000
0000
0010
,
1000
0001
0100
0001
,
1000
0010
0000
0000
,
0100
0001
1000
0010
,
1000
0MM1
0000
0100
,
0010
0100
0001
1000
,
0001
1MM0
0000
0010
,
0100
0001
0100
0010
,
1000
0MM1
0000
0000
,
1000
0000
0100
0000
0010
0000
0000
M10M
,
0100
0000
0000
M01M
0010
0000
0000
0000
,
0001
1000
0001
0100
,
0010
M10M
0000
0001
,
1000
0100
1000
0001
,
0010
M10M
0000
0010
,
0001
1000
0100
1000
,
0001
MM10
0000
0000
,
0100
0000
1000
0000
0001
0000
0000
1MM0
,
1000
0000
0000
0MM1
0001
0000
0000
0000
,
0100
0001
1000
0010
,
1000
0010
0000
0100
,
0001
1000
0100
1000
,
0100
0010
0000
0001
,
1000
0001
0000
0010
,
0100
0010
0000
0001
,
1000
0100
0010
0100
,
1000
0001
1000
0010
,
0100
0001
0000
1000
,
0010
0100
0000
0001
,
1000
0010
0100
0001
,
1000
0010
0000
0000
,
1000
0000
0000
0000
0200
0000
0000
0000
0300
0000
0000
0200
0000
0000
0300
0000
,
0000
0200
0000
0300
0000
0000
0200
0000
0000
0300
0000
0000
0010
0000
0000
0000
,
0001
0100
0001
1000
,
0010
1000
0001
1000
,
0010
1000
0100
1000
,
0001
MM10
0000
0001
,
0100
0001
1000
0010
,
0100
M0M1
0000
0010
,
0100
1000
0001
1000
,
0010
M10M
0000
0000
,
0001
0000
0010
0000
0001
0000
0000
1MM0
,
1000
0000
0000
0MM1
0001
0000
0000
0000
,
0100
0001
1000
0100
,
0010
M10M
0000
1000
,
0010
1000
0001
0010
,
0100
M01M
0000
0001
,
1000
0010
0100
0001
,
1000
0MM1
0000
0000
,
1000
0000
0010
0000
0100
0000
0000
M01M
,
0010
0000
0000
M10M
0200
0000
0300
0000
,
0000
0001
0010
0001
0010
0000
0001
0000
,
0000
1000
0010
1000
0010
0000
1000
0000
,
0000
0001
0100
0001
0100
0001
0100
0010
,
0100
0010
1000
0010
1000
0010
1000
0000
,
0000
0000
0001
1000
0001
0000
1000
0000
,
0000
0000
0100
1000
0100
0000
1000
0000
,
0000
0000
0010
1000
0010
0000
1000
0000
,
0000
0000
0001
0100
0001
0000
0100
0000
,
0000
0000
0001
0010
0001
0000
0010
0000
,
0000
0000
0100
1000
0100
0000
1000
0000
,
0000
0000
0001
1000
0001
0000
1000
0000
,
0000
0000
0100
0010
0100
0000
0010
0000
,
0000
0000
0001
0010
0001
0000
0100
0000
,
0000
0000
0010
1000
0010
0000
0100
0000
,
0000
0000
0001
0100
0001
0000
0010
0000
,
0000
0000
0100
1000
0100
0000
0010
0000
,
0001
1000
0010
0100
,
0010
M10M
0000
0001
,
1000
0001
0010
0100
,
0010
MM01
0000
1000
,
0001
0100
0010
0100
,
0001
1MM0
0000
0000
,
0010
0000
0100
0000
0010
0000
0000
1M0M
,
1000
0000
0000
01MM
0100
0000
0000
0000
,
0010
0001
1000
0001
,
0100
M01M
0000
1000
,
0001
0100
0010
1000
,
0001
1MM0
0000
0100
,
1000
0001
0010
0100
,
1000
0MM1
0000
0000
,
1000
0000
0010
0000
1000
0000
0000
01MM
,
0100
0000
0000
M01M
0010
0000
0000
0000
,
0022
0033
0000
0000
,
2002
3003
0000
0000
,
0202
0303
0000
0000
,
0220
0330
0000
0000
,
2020
3030
0000
0000
,
2002
0000
3003
0000
0000
0000
0000
2200
,
0000
3300
0000
0000
0000
0000
0000
0220
,
0000
0330
0000
0000
0000
0000
0000
0022
,
0000
0033
0000
0000
0000
0000
0000
0000
;

//--------------- dance-single - LinkDude10 ----------------
#NOTEDATA:;
#STEPSTYPE:dance-single;
#DESCRIPTION:LinkDude10;
#DIFFICULTY:Medium;
#METER:7;
#RADARVALUES:0,0,0,0,0;
#NOTES:
0000
0000
0000
0000
,
0000
0000
1000
0010
0100
0010
1000
0010
,
0200
0000
0000
0000
,
0000
0300
0001
1000
0100
1000
0001
1000
,
0200
0000
0000
0000
,
0000
0300
0010
0001
0010
0100
0010
0001
,
0010
0100
0020
0000
0000
0000
0000
0000
,
0000
0000
0000
0000
0030
0001
0010
0100
,
1000
0000
0000
0001
0000
0000
0000
0000
0000
0000
1000
0000
0100
0000
0010
0000
,
0002
0000
0000
0000
0003
1000
0100
0010
,
0001
0000
0000
1000
0000
0000
0000
0000
0000
0000
0001
0000
0100
0000
0010
0000
,
2000
0000
0000
0000
3000
0001
0100
0010
,
2000
0000
0000
0000
3000
0001
0100
0010
,
2000
0000
0000
0000
3000
0001
0010
0100
,
1000
0001
0010
0100
1000
0001
0010
0100
,
2000
0000
0000
0000
3000
0001
0100
0010
,
0100
0000
0000
0002
0000
0000
0000
0000
0000
0000
0003
0000
1000
0000
0100
0000
,
0010
0000
0000
0200
0000
0000
0000
0000
0000
0000
0000
0000
0300
0000
1000
0000
,
0001
0000
0020
0000
0030
0100
0010
0001
,
1000
0000
0000
0020
0000
0000
0000
0000
0030
0000
0100
0000
0010
0000
1000
0000
,
0001
0000
0000
0200
0000
0000
0300
0000
0010
0000
0100
0000
0001
0000
1000
0000
,
0200
0000
0000
0000
0300
0010
0100
0000
,
1000
0000
0001
0010
0100
0010
0001
1000
,
0000
0010
0000
0100
0010
1000
0001
0000
,
0100
0010
0100
0000
0001
1000
0100
0010
,
0100
1000
0002
0000
0000
0003
0010
0000
,
0100
1000
0100
0000
0010
0001
0010
0100
,
1000
0100
0020
0000
0000
0030
0001
0000
,
0100
0010
1000
0000
0010
0100
0001
0100
,
0010
1000
0020
0000
0000
0000
0000
0030
,
1000
0001
0100
0000
0001
0100
0001
MM20
,
0000
0000
0030
MM02
0000
0000
0000
0003
,
1000
0100
1000
0000
0100
1000
0010
1000
,
0010
0100
0002
0000
0000
0003
0100
0000
,
0001
0100
0010
0000
1000
0010
0100
0001
,
0100
0010
2000
0000
0000
3000
0001
0000
,
0010
0100
1000
0000
0100
0010
0001
0010
,
0100
1000
0002
0000
0000
0000
0000
0003
,
1000
0010
0100
0000
0001
0010
0100
20MM
,
0000
0000
3000
0M2M
0000
0000
0030
0100
,
0002
0000
0003
1000
0100
1000
0100
0010
,
0100
0000
0000
0020
0000
0000
0000
0000
0030
0000
0001
0000
0010
0000
0001
0000
,
0010
0100
0010
0100
0000
1000
0010
0100
,
0010
0000
0000
2000
0000
0000
0000
0000
3000
0000
0001
0000
0100
0000
0010
0000
,
1000
0000
0002
0000
0000
0003
1000
0001
,
1000
0000
0000
0001
2000
0000
0000
0000
3000
0000
0001
0000
0010
0000
0001
0000
,
0010
0000
0001
0100
0000
0001
0010
0100
,
1000
0000
0001
0100
0000
0001
0100
0010
,
1000
0000
0010
0200
0000
0300
0001
0010
,
0100
0000
2000
0000
0000
3000
0001
0100
,
0001
0100
1000
0100
1000
0100
0001
0100
,
0001
0000
1000
0002
0000
0000
0000
0003
,
1000
0000
0001
0000
0200
0000
0000
0000
0000
0300
0000
0200
0000
0000
0000
0300
,
0000
0200
0000
0000
0300
0000
0200
0000
0300
0000
0001
0000
1000
0000
0010
0000
,
1000
0000
0001
0100
0000
0010
1000
0001
,
0000
0100
0010
1000
0010
1000
0010
0100
,
0001
0100
0001
0000
0100
0001
0010
0001
,
1000
0010
0200
0000
0000
0300
0001
0000
,
1000
0100
0010
0000
0001
0010
0100
1000
,
0100
0010
0002
0000
0000
0003
1000
0000
,
0001
0100
0010
0000
0100
0010
1000
0010
,
0100
0001
2000
0000
0000
0000
0000
3000
,
0010
0100
0001
0000
1000
0010
0100
0001
,
M2M0
0000
0300
M0M2
0000
0000
0000
0003
,
1000
0001
0100
0000
0010
1000
0100
0010
,
0001
0100
0020
0000
0000
0030
1000
0000
,
0001
0010
0001
0000
1000
0100
1000
0001
,
0010
0001
0200
0000
0000
0300
0001
0000
,
1000
0010
1000
0000
0001
0100
0001
1000
,
0010
1000
0200
0000
0000
0000
0000
0300
,
1000
0100
1000
0000
0001
0010
0001
MM20
,
0000
0000
0030
MM02
0000
0000
0MM0
0000
,
0003
1000
0100
1000
0100
0000
0020
0000
,
0030
0100
0010
0001
1000
0000
0002
0000
,
0003
1000
0100
1000
0100
0010
0100
0010
,
0100
0010
0001
0010
0001
1000
0002
0000
,
0003
1000
0010
1000
0010
0100
0010
0000
,
0100
0001
0100
0001
0100
0000
0002
0000
,
0003
1000
0100
1000
0010
0000
1010
0000
,
0000
0001
0010
0100
1000
0000
1100
0000
,
0000
1000
0100
0010
0001
0000
0011
0000
,
0000
1000
0001
0100
0001
0010
0001
1000
,
0000
0001
0100
0010
0100
0000
0101
0000
,
0000
0010
0001
0100
0001
1000
0001
0010
,
0000
0100
1000
0010
1000
0001
1000
0000
,
0100
1000
0100
0001
0100
1000
0100
0000
,
1100
0000
0001
0010
0001
0100
0001
0000
,
1MM1
0000
0001
0100
0001
0010
0001
0000
,
1000
0100
1000
0000
0010
1000
0001
1000
,
0010
1000
0200
0000
0000
0300
1000
0000
,
0001
0100
0001
0000
0100
0001
0100
1000
,
0100
0001
0200
0000
0000
0300
0001
0000
,
1000
0001
0010
0000
0100
1000
0100
0010
,
0001
0010
0200
0000
0000
0000
0000
0300
,
1000
0010
0100
0000
0010
0100
0001
1000
,
0MM2
0000
0000
M2M3
0000
0000
0000
0300
,
0010
1000
0100
0000
0010
0001
0100
0010
,
1000
0100
2000
0000
0000
3000
0001
0000
,
0100
0001
0010
0000
0100
1000
0010
0100
,
0001
0010
0002
0000
0000
0003
1000
0000
,
0010
1000
0010
0000
0100
0001
1000
0100
,
0010
0100
2000
0000
0000
0000
0000
3000
,
0001
0010
0001
0000
1000
0100
0010
M20M
,
0000
0000
0300
20MM
0000
0000
0000
3000
,
0100
0010
0100
2000
0000
3000
0001
0000
,
0010
0100
0010
0002
0000
0003
1000
0000
,
0010
0100
0010
2000
0000
3000
0001
0000
,
0010
0100
0010
0002
0000
0003
1000
0000
,
0010
0100
0010
2000
0000
3000
0001
0000
,
0100
0001
0100
1000
0100
1000
0100
0002
,
0000
0000
0003
0100
0020
0000
0030
0100
,
2000
0000
3000
0200
0000
0000
0300
1001
;

//--------------- dance-single - Cut from Gazebo ----------------
#NOTEDATA:;
#STEPSTYPE:dance-single;
#DESCRIPTION:Cut from Gazebo;
#DIFFICULTY:Hard;
#METER:8;
#RADARVALUES:0,0,0,0,0;
#NOTES:
0000
0000
0000
0000
,
0000
0000
0001
0100
0010
0100
0001
1000
,
0100
0000
0000
0000
,
0000
0000
1000
0001
0010
0001
1000
0001
,
0100
0000
0000
0000
,
0000
0000
0000
0000
0001
0000
1000
0000
0010
0000
1000
0001
0000
0010
0000
0000
,
0010
0000
0100
1000
0000
0000
0000
0000
0000
0000
0000
0000
0000
0000
0000
0000
,
0000
0000
0000
0000
0000
0001
0010
0100
,
1000
0000
0000
1000
0001
0000
1000
0000
0000
0000
1000
0000
0010
0000
0100
0000
,
0001
0000
0000
0001
1000
0000
0001
0000
0000
0000
0001
0000
0010
0000
0100
0000
,
1000
0000
0000
1000
0001
0000
1000
0000
0000
0000
1000
0000
0010
0000
0100
0000
,
0001
0000
0000
0001
1000
0000
0001
0000
0000
0000
0010
0000
0010
0000
0100
0000
,
1000
0000
0000
1000
0001
0000
1000
0000
0000
0000
0010
0000
0010
0000
0100
0000
,
0001
0000
0000
0001
1000
0000
0001
0000
0000
0000
1000
0000
1000
0000
0100
0000
,
0100
0010
0100
0010
0100
0010
0100
0010
,
0100
0000
0000
0100
1000
0000
0000
0000
0000
0000
0001
0000
0100
0000
0010
0000
,
1000
0000
0000
1000
0001
0000
1000
0000
0000
0000
1000
0000
0100
0000
0010
0000
,
0001
0000
0000
0001
1000
0000
0001
0000
0000
0000
0001
0000
0100
0000
0010
0000
,
1000
0000
0000
1000
0001
0000
1000
0000
0000
0000
0100
0000
0100
0000
0010
0000
,
0001
0000
0000
0001
1000
0000
0001
0000
0000
0000
0100
0000
0100
0000
0010
0000
,
1000
0000
0000
1000
0001
0000
1000
0000
0100
0000
0010
0000
0010
0000
0100
0000
,
1000
0000
0000
1000
0001
0000
1000
0000
0000
0000
0001
0000
0100
0000
0000
0000
,
0110
0000
0010
1000
1000
0001
1000
0100
,
0000
0010
0000
1000
1000
0001
1000
0000
,
0001
0100
0001
1000
0001
0010
0100
1000
,
0001
0100
0001
1000
0100
1000
0010
0000
,
1000
0010
1000
0001
1000
0100
0010
0001
,
1000
0010
1000
0001
0010
0001
0100
0000
,
0001
0100
0001
1000
0001
0010
0100
1000
,
0001
0100
0001
1000
0100
1000
0010
0000
,
1000
0010
1000
0000
0001
0001
1000
0001
,
0010
0000
0000
0100
1000
0000
0000
0000
,
0001
0100
0001
1000
0001
0010
0100
1000
,
0001
0100
0001
1000
0100
1000
0010
0000
,
1000
0010
1000
0001
1000
0100
0010
0001
,
1000
0010
1000
0001
0010
0001
0100
0000
,
0001
0100
0001
1000
0001
0010
0100
1000
,
0001
0100
0001
1000
0100
1000
0010
0000
,
1000
0010
1000
0000
0001
0001
1000
0001
,
0010
0000
0000
0100
1000
0001
0000
1000
,
0001
0000
0000
0001
1000
0000
0100
0000
1000
0000
1000
0000
0010
0000
0100
0000
,
0001
0000
0000
0001
1000
0000
0001
0000
0000
0000
0001
0000
0010
0000
0100
0000
,
1000
0000
0000
1000
0001
0000
1000
0000
0000
0000
1000
0000
0010
0000
0100
0000
,
0001
0000
0000
0001
1000
0000
0001
0000
0000
0000
1000
0000
0010
0000
0100
0000
,
0001
0000
0000
0001
1000
0000
0001
0000
0000
0000
0001
0000
0010
0000
0100
0000
,
1000
0000
0000
1000
0001
0000
1000
0000
0000
0000
0001
0000
0001
0000
0100
0000
,
0010
0000
0000
0010
1000
0000
0010
0000
0000
0000
0010
0000
0100
0000
0001
0000
,
1000
0000
0000
1000
0000
0000
1000
0000
0000
0000
0100
0000
0100
0000
0010
0000
,
0001
0000
0000
0001
1000
0000
0001
0000
0000
0000
0001
0000
0100
0000
0010
0000
,
1000
0000
0000
1000
0001
0000
1000
0000
0000
0000
1000
0000
0100
0000
0010
0000
,
0001
0001
0100
0010
1000
1000
0100
0010
,
0001
0000
0000
1000
0001
0000
0010
0000
0000
0000
0100
0000
1000
0000
0001
0000
,
1000
0000
0010
0000
0200
0000
0000
0000
0000
0000
0300
0200
0000
0000
0000
0000
,
0300
0200
0000
0000
0000
0300
0200
0000
0000
0000
0310
0000
1000
0000
1000
0000
,
1001
0000
1001
0000
,
1001
1001
1001
1001
,
1000
0100
1000
0001
1000
0010
0100
0001
,
1000
0100
1000
0001
0100
0001
0010
0000
,
0001
0010
0001
1000
0001
0100
0010
1000
,
0001
0010
0001
1000
0010
1000
0100
0000
,
1000
0100
1000
0001
1000
0010
0100
0001
,
1000
0100
1000
0001
0100
0001
0010
0000
,
0001
0010
0001
0000
1000
1000
0001
1000
,
0010
0000
0000
0100
0001
0000
0000
0000
,
1000
0100
1000
0001
1000
0010
0100
0001
,
1000
0100
1000
0001
0100
0001
0010
0000
,
0001
0010
0001
1000
0001
0100
0010
1000
,
0001
0010
0001
1000
0010
1000
0100
0000
,
1000
0100
1000
0001
1000
0010
0100
0001
,
1000
0100
1000
0001
0100
0001
0010
0000
,
0001
0010
0001
0000
1000
1000
0001
1000
,
0010
0000
0000
0100
0001
0000
1000
1000
,
0000
0001
0010
0001
1100
0000
1100
0000
,
1000
0001
0100
0010
1010
0000
1001
0000
,
0001
0100
0001
0100
0010
0001
0010
0100
,
1000
0100
1000
0001
0100
0010
0100
0000
,
1000
0000
0100
0000
0010
0000
0001
0000
1000
0000
0001
0000
0100
0000
0000
0010
,
1000
0001
0010
0100
1100
0000
1100
0000
,
0001
0000
0100
0000
0001
0000
1000
0000
0010
0000
0000
0000
1000
0000
0000
0001
,
0010
0100
0010
0001
1100
0000
1001
0000
,
MMMM
0001
0100
0010
1001
0000
1001
0000
,
1000
0100
0010
0001
1000
0100
0010
0001
,
0100
0001
0010
0100
0010
0000
1001
0000
,
1000
0001
0100
0010
0100
0010
0100
0001
,
0100
0000
0001
0000
0010
0000
0100
0000
1000
0000
0100
0000
0010
0000
0000
0001
,
1000
0000
0001
0000
0100
0000
0010
0000
1000
0000
0001
0000
0010
0000
0000
0100
,
1000
0000
0000
0000
0000
0000
0001
0001
,
0000
0000
0000
0000
0000
0000
0000
0000
0000
0000
0000
0000
0000
0000
0000
0000
000M
0M00
00M0
M000
00M0
0M00
000M
0M00
00M0
M000
00M0
0M00
000M
0000
0000
0000
,
1000
0100
1000
0001
1000
0010
0100
0001
,
1000
0100
1000
0001
0100
0001
0010
0000
,
0001
0010
0001
1000
0001
0100
0010
1000
,
0001
0010
0001
1000
0010
1000
0100
0000
,
1000
0100
1000
0001
1000
0010
0100
0001
,
1000
0100
1000
0001
0100
0001
0010
0000
,
0001
0010
0001
0000
1000
1000
0001
1000
,
0010
0000
0000
0100
0001
0000
0000
0000
,
1000
0100
1000
0001
1000
0010
0100
0001
,
1000
0100
1000
0001
0100
0001
0010
0000
,
0001
0010
0001
1000
0001
0100
0010
1000
,
0001
0010
0001
1000
0010
1000
0100
0000
,
1000
0100
1000
0001
1000
0010
0100
0001
,
1000
0100
1000
0001
0100
0001
0010
0000
,
0001
0010
0001
0000
1000
1000
0001
1000
,
0010
0000
0000
0100
0000
0000
0000
0001
,
1000
0010
1000
0010
1000
0001
0010
0001
,
1000
0010
1000
0010
1000
0001
0010
0001
,
1000
0100
1000
0100
1000
0001
0100
0001
,
1000
0100
1000
0100
1000
0001
0100
0001
,
0100
0010
0100
0010
0100
0001
1000
0001
,
0100
0010
0100
0010
0100
0001
1000
0100
,
0110
0000
0000
0010
0100
0000
0000
0010
,
0100
0000
0000
1000
0000
0000
0000
0001
;

//--------------- dance-single - Gazebo ----------------
#NOTEDATA:;
#STEPSTYPE:dance-single;
#DESCRIPTION:Gazebo;
#DIFFICULTY:Challenge;
#METER:10;
#RADARVALUES:0.744,0.847,0.099,0.217,0.014,1037,21,46,17,0,0,0.744,0.847,0.099,0.217,0.014,1037,21,46,17,0,0;
#NOTES:
0000
0000
0000
0000
,
0000
0000
2000
3200
0320
0230
2300
3002
,
0203
0300
0000
0000
0000
0000
0000
0000
,
0000
0000
0002
2003
3020
2030
3002
2003
,
3200
0300
0000
0000
0000
0000
0000
0000
,
0000
0000
0000
0000
2000
0000
3002
0000
0023
0000
0031
1000
0000
0010
0000
0000
,
0020
0000
0130
0002
0000
0000
0000
0000
0000
0000
0003
0000
0000
0000
0000
0000
,
0000
0000
0000
0000
0000
1000
0010
0100
,
0001
0000
0000
0001
1000
0000
0001
0000
0000
0000
0001
0000
0010
0000
0100
0000
,
1000
0000
0000
1000
0001
0000
1000
0000
0000
0000
1000
0000
0010
0000
0100
0000
,
0001
0000
0000
0001
1000
0000
0001
0000
0000
0000
0001
0000
0010
0000
0100
0000
,
1000
0000
0000
1000
0001
0000
1000
0000
0000
0000
0010
0000
0010
0000
0100
0000
,
0001
0000
0000
0001
1000
0000
0001
0000
0000
0000
0010
0000
0010
0000
0100
0000
,
1000
0000
0000
1000
0001
0000
1000
0000
0000
0000
0001
0000
0001
0000
0100
0000
,
0100
0010
0100
0010
0100
0010
0100
0010
,
0100
0000
0000
0100
0001
0000
0000
0000
0000
0000
1000
0000
0100
0000
0010
0000
,
0001
0000
0000
0001
1000
0000
0001
0000
0000
0000
0001
0000
0100
0000
0010
0000
,
1000
0000
0000
1000
0001
0000
1000
0000
0000
0000
1000
0000
0100
0000
0010
0000
,
0001
0000
0000
0001
1000
0000
0001
0000
0000
0000
0100
0000
0100
0000
0010
0000
,
1000
0000
0000
1000
0001
0000
1000
0000
0000
0000
0100
0000
0100
0000
0010
0000
,
0001
0000
0000
0001
1000
0000
0001
0000
0100
0000
0010
0000
0010
0000
0100
0000
,
0001
0000
0000
0001
1000
0000
0001
0000
0000
0000
1000
0000
0100
0000
0000
0000
,
0110
0000
0010
0001
0001
1000
0001
0200
,
0000
0010
0000
0301
0001
1000
0002
0000
,
1003
0100
1000
0001
1000
0010
0100
0001
1000
0100
1000
0001
0100
0001
0010
0100
,
0010
0001
1000
0001
0100
0010
0100
0001
0100
0010
1000
0001
1000
0000
0000
0000
,
0001
0010
0001
1000
0001
0100
0010
1000
0001
0010
0001
1000
0010
1000
0100
0010
,
0100
1000
0001
1000
0010
0100
0010
1000
0010
0100
0001
1000
0001
0000
0000
0000
,
1000
0100
1000
0001
1000
0010
0100
0001
1000
0100
1000
0001
0100
0001
0010
0100
,
0010
0001
1000
0001
0100
0010
0100
0001
0100
0010
1000
0001
1000
0000
0000
0000
,
0001
0010
0002
0000
1003
1000
0001
1000
,
0020
0000
0000
0130
0002
0000
0003
0000
,
1000
0100
1000
0001
1000
0010
0100
0001
1000
0100
1000
0001
0100
0001
0010
0100
,
0010
0001
1000
0001
0100
0010
0100
0001
0100
0010
1000
0001
1000
0000
0000
0000
,
0001
0010
0001
1000
0001
0100
0010
1000
0001
0010
0001
1000
0010
1000
0100
0010
,
0100
1000
0001
1000
0010
0100
0010
1000
0010
0100
0001
1000
0001
0000
0000
0000
,
1000
0100
1000
0001
1000
0010
0100
0001
1000
0100
1000
0001
0100
0001
0010
0100
,
0010
0001
1000
0001
0100
0010
0100
0001
0100
0010
1000
0001
1000
0000
0000
0000
,
0001
0010
0002
0000
1003
1000
0001
1000
,
0020
0000
0000
0130
0002
1000
0003
0001
,
1000
0000
0000
1000
0001
0000
0100
0000
0001
0000
0001
0000
0010
0000
0100
0000
,
1000
0000
0000
1000
0001
0000
1000
0000
0000
0000
1000
0000
0010
0000
0100
0000
,
0001
0000
0000
0001
1000
0000
0001
0000
0000
0000
0001
0000
0010
0000
0100
0000
,
1000
0000
0000
1000
0001
0000
1000
0000
0000
0000
0010
1000
0010
0000
0100
0000
,
0001
0000
0000
0001
1000
0000
0001
0000
0000
0000
0001
0000
0010
0000
0100
0000
,
1000
0000
0000
1000
0001
0000
1000
0000
0000
0000
0001
0000
0001
0000
0100
0000
,
0010
0000
0000
0010
1000
0000
0010
0000
0000
0000
0010
0000
0100
0000
0001
0000
,
1000
0000
0000
1000
0000
0000
1000
0000
0000
0000
0100
0000
0100
0000
0010
0000
,
0001
0000
0000
0001
1000
0000
0001
0000
0000
0000
0001
0000
0100
0000
0010
0000
,
1000
0000
0000
1000
0001
0000
1000
0000
0000
0000
1000
0000
0100
0000
0010
0000
,
0001
0001
0100
0010
1000
1000
0100
0010
,
0001
0000
0000
1000
0001
0000
0010
0000
0000
0000
0100
0000
1000
0000
0001
0000
,
1000
0000
0010
0000
0200
0000
0000
0000
0000
0000
0300
0200
0000
0000
0000
0000
,
0300
0200
0000
0000
0000
0300
0200
0000
0000
0000
0310
0000
1000
0000
1000
0000
,
1001
0000
1001
0000
,
1001
1001
1001
1001
,
1000
0100
1000
0001
1000
0010
0100
0001
1000
0100
1000
0001
0100
0001
0010
0100
,
0010
0001
1000
0001
0100
0010
0100
0001
0100
0010
1000
0001
1000
0000
0000
0000
,
0001
0010
0001
1000
0001
0100
0010
1000
0001
0010
0001
1000
0010
1000
0100
0010
,
0100
1000
0001
1000
0010
0100
0010
1000
0010
0100
0001
1000
0001
0000
0000
0000
,
1000
0100
1000
0001
1000
0010
0100
0001
1000
0100
1000
0001
0100
0001
0010
0100
,
0010
0001
1000
0001
0100
0010
0100
0001
0100
0010
1000
0001
1000
0000
0000
0000
,
0001
0010
0002
0000
1003
1000
0001
1000
,
0020
0000
0000
0130
0002
0000
0003
0000
,
1000
0100
1000
0001
1000
0010
0100
0001
1000
0100
1000
0001
0100
0001
0010
0100
,
0010
0001
1000
0001
0100
0010
0100
0001
0100
0010
1000
0001
1000
0000
0000
0000
,
0001
0010
0001
1000
0001
0100
0010
1000
0001
0010
0001
1000
0010
1000
0100
0010
,
0100
1000
0001
1000
0010
0100
0010
1000
0010
0100
0001
1000
0001
0000
0000
0000
,
1000
0100
1000
0001
1000
0010
0100
0001
1000
0100
1000
0001
0100
0001
0010
0100
,
0010
0001
1000
0001
0100
0010
0100
0001
0100
0010
1000
0001
1000
0000
0000
0000
,
0001
0010
0002
0000
1003
1000
0001
1000
,
0020
0000
0000
0130
0002
0000
1003
1000
,
0000
0001
0010
0001
1100
0000
1100
0000
,
1000
0001
0100
0010
1010
0000
1001
0000
,
0001
0100
0001
0100
0010
1000
0100
0010
0001
0000
0001
0010
0100
1000
0100
1000
,
0001
0100
0010
0100
0001
0010
0100
1000
0001
0100
0001
1000
0020
0000
0000
0000
,
1030
0000
0100
0000
0010
0000
0001
0000
1000
0000
0001
0000
0100
0000
0000
0010
,
1000
0001
0010
0100
1100
0000
1100
0000
,
0001
0000
0100
0000
0001
0000
1000
0000
0010
0000
0000
0000
1000
0000
0000
0001
,
0010
0100
0010
0001
1100
0000
1001
0000
,
MMMM
0001
0100
0010
1001
0000
1001
0000
,
1000
0100
0010
0100
1000
0000
1000
0001
0100
0010
0100
0010
1000
0000
0001
0000
,
0100
0000
0001
0000
0010
0000
0100
0010
0001
0000
0000
0000
1001
0000
0000
0000
,
1000
0000
0001
0100
0010
0100
0010
0100
0001
1000
0100
0010
0001
0000
1000
0000
,
0100
0000
1000
0000
0010
0000
0100
0000
0001
0000
0100
0000
0010
0000
0000
1000
,
0001
0000
1000
0000
0100
0000
0010
0000
0001
0000
1000
0000
0010
0000
0000
0100
,
0001
0000
0000
0000
0000
0000
1010
1001
,
0000
0000
0000
0000
0000
0000
0000
0000
0000
0000
0000
0000
0000
0000
0000
0000
M000
0M00
00M0
000M
00M0
0M00
M000
0M00
00M0
000M
00M0
0M00
M000
0000
0000
0000
,
0001
0100
0001
1000
0001
0010
0100
1000
0001
0100
0001
1000
0100
1000
0010
0100
,
0010
1000
0001
1000
0100
0010
0100
1000
0100
0010
0001
1000
0001
0000
0000
0000
,
1000
0010
1000
0001
1000
0100
0010
0001
1000
0010
1000
0001
0010
0001
0100
0010
,
0100
0001
1000
0001
0010
0100
0010
0001
0010
0100
1000
0001
1000
0000
0000
0000
,
0001
0100
0001
1000
0001
0010
0100
1000
0001
0100
0001
1000
0100
1000
0010
0100
,
0010
1000
0001
1000
0100
0010
0100
1000
0100
0010
0001
1000
0001
0000
0000
0000
,
1000
0010
2000
0000
3001
0001
1000
0001
,
0020
0000
0000
0130
2000
0000
3000
0000
,
0001
0100
0001
1000
0001
0010
0100
1000
0001
0100
0001
1000
0100
1000
0010
0100
,
0010
1000
0001
1000
0100
0010
0100
1000
0100
0010
0001
1000
0001
0000
0000
0000
,
1000
0010
1000
0001
1000
0100
0010
0001
1000
0010
1000
0001
0010
0001
0100
0010
,
0100
0001
1000
0001
0010
0100
0010
0001
0010
0100
1000
0001
1000
0000
0000
0000
,
0001
0100
0001
1000
0001
0010
0100
1000
0001
0100
0001
1000
0100
1000
0010
0100
,
0010
1000
0001
1000
0100
0010
0100
1000
0100
0010
0001
1000
0001
0000
0000
0000
,
1000
0010
2000
0000
3001
0001
1000
0001
,
0020
0000
0000
0230
0000
0000
0000
1300
,
0001
0010
0001
0010
0001
1000
0010
0100
0010
0100
0001
1000
0100
0000
1000
0000
,
0001
0010
0001
0010
0001
1000
0010
0100
0010
0100
0001
1000
0100
0000
1000
0000
,
0001
0100
0001
0100
0001
1000
0100
0010
0100
0010
0001
1000
0010
0000
1000
0000
,
0001
0100
0001
0100
0001
1000
0100
0010
0100
0010
0001
1000
0010
0000
1000
0000
,
0100
0010
0100
0010
0100
1000
0001
0100
0001
0100
0010
1000
0001
0000
1000
0000
,
0100
0010
0100
0010
0100
1000
0001
0100
0001
0100
0010
1000
0001
0000
0100
0000
,
0110
0000
0000
0010
0100
0000
0000
0010
,
0100
0000
0000
0002
0000
0000
0000
2000
,
0000
0000
0000
3003
0000
0000
0000
0000
0000
0000
0000
0000
0000
0000
0000
0000
;

//--------------- dance-double - LinkDubs03 ----------------
#NOTEDATA:;
#STEPSTYPE:dance-double;
#DESCRIPTION:LinkDubs03;
#DIFFICULTY:Beginner;
#METER:2;
#RADARVALUES:0,0,0,0,0;
#NOTES:
00000000
00000000
00000000
00000000
,
00000000
00000000
00100000
00000000
,
00100000
00000000
00000000
00000000
,
00000000
00000000
10000000
00000000
,
10000000
00000000
00000000
00000000
,
00000000
00000000
00100000
00000000
,
00100000
00000000
00000000
00000000
,
00000000
00000000
00000000
01000000
,
01000000
00000000
00000000
00010000
,
00010000
00000000
00000000
10000000
,
10000000
00000000
00000000
00010000
,
00010000
00000000
00000000
01000000
,
01000000
00000000
00000000
00001000
,
00001000
00000000
00000000
00100000
,
00100000
00000000
00000000
00001000
,
00001000
00000000
00000000
00010000
,
00010000
00000000
00000000
00000010
,
00000010
00000000
00000000
00001000
,
00001000
00000000
00000000
00000100
,
00000100
00000000
00000000
00000010
,
00000010
00000000
00000000
00000001
,
00000001
00000000
00000000
00000000
,
00001000
00001000
00000000
00000000
,
00000001
00000001
00000000
00000000
,
00000002
00000000
00000003
00000000
00001000
00000000
00000000
00000001
,
00000000
00000000
00000000
00000000
,
00000020
00000000
00000030
00000000
00000001
00000000
00000000
00000010
,
00000000
00000000
00000000
00000000
,
00000002
00000000
00000003
00000000
00000100
00000000
00000000
00000001
,
00000000
00000000
00000000
00000000
,
00000200
00000000
00000300
00000000
00000001
00000000
00000000
00001MM0
,
00000000
00000000
00000000
00000MM0
00000000
00000000
00000000
00000000
,
00000002
00000000
00000003
00000000
00001000
00000000
00000000
00000010
,
00000000
00000000
00000000
00000000
,
00000200
00000000
00000300
00000000
00000010
00000000
00000000
00000100
,
00000000
00000000
00000000
00000000
,
00000020
00000000
00000030
00000000
00001000
00000000
00000000
00000010
,
00000000
00000000
00000000
00000000
,
00002000
00000000
00003000
00000000
00000100
00000000
00000000
0001M0M0
,
00000000
00000000
00000000
0000M0M0
00000000
00000000
00000000
00000000
,
00000100
00000000
00010000
00000000
,
00001000
00000000
00000000
00000000
,
00010000
00000000
00001000
00000000
,
00010000
00000000
00000000
00000000
,
00001000
01000000
00000000
00000000
,
00001000
01000000
00000000
00000000
,
00010000
00100000
00000000
00000000
,
00010000
00100000
00000000
00000000
,
00010000
10000000
00000000
00000000
,
00010000
10000000
00000000
00000000
,
01000000
00100000
00000000
00000000
,
01000000
00100000
00000000
00000000
,
00000000
00000000
00000000
00000000
02000000
00000000
00000000
03000000
00000000
00000000
00000000
02000000
00000000
03000000
00000000
00000000
,
00000000
02000000
03000000
00000000
00000000
00000000
02000000
00000000
00000000
00000000
00000000
00000000
03000000
00000000
00000000
00000000
,
01000000
00000000
10000000
00000000
,
01000000
00000000
00000000
00000000
,
20000000
00000000
30000000
00000000
00100000
00000000
00000000
01000000
,
00000000
00000000
00000000
00000000
,
00200000
00000000
00300000
00000000
01000000
00000000
00000000
00010000
,
00000000
00000000
00000000
00000000
,
20000000
00000000
30000000
00000000
00010000
00000000
00000000
10000000
,
00000000
00000000
00000000
00000000
,
00020000
00000000
00030000
00000000
01000000
00000000
00000000
M0M10000
,
00000000
00000000
00000000
M0M00000
00000000
00000000
00000000
00000000
,
02000000
00000000
03000000
00000000
00001000
00000000
00000000
00100000
,
00000000
00000000
00000000
00000000
,
00002000
00000000
00003000
00000000
00100000
00000000
00000000
00001000
,
00000000
00000000
00000000
00000000
,
00020000
00000000
00030000
00000000
00001000
00000000
00000000
00010000
,
00000000
00000000
00000000
00000000
,
00000200
00000000
00000300
00000000
00010000
00000000
00000000
0000MM10
,
00000000
00000000
00000000
0000MM00
00000000
00000000
00020020
00000000
,
00030030
00000000
00000010
00001000
,
00000000
00000000
00000100
00001000
,
00000000
00000000
00000100
00000010
,
00000000
00000000
00000100
00000010
,
00000000
00000000
00000001
00001000
,
00000000
00000000
00000001
00001000
,
00000000
00000000
00000001
00000100
,
00000000
00000000
00000001
00000100
,
00000000
00000000
00000001
00000010
,
00000000
00000000
00000001
00000010
,
00000000
00000000
00000001
00001000
,
00000000
00000000
00000001
00001000
,
00000000
00000000
00000100
00000010
,
00000000
00000000
00000100
00000010
,
00000000
00000000
00000100
00001000
,
00000000
00000000
00000100
00001000
,
00000020
00000000
00000030
00000000
00010000
00000000
00000000
00000010
,
00000000
00010000
00000000
00000000
,
00002000
00000000
00003000
00000000
00010000
00000000
00000000
00001000
,
00000000
00010000
00000000
00000000
,
00002000
00000000
00003000
00000000
01000000
00000000
00000000
00001000
,
00000000
01000000
00000000
00000000
,
00020000
00000000
00030000
00000000
00100000
00000000
00000000
0M01M000
,
00000000
00000000
00000000
0M10M000
00000000
00000000
00000000
00000000
,
00020000
00000000
00030000
00000000
10000000
00000000
00000000
00010000
,
00000000
10000000
00000000
00000000
,
02000000
00000000
03000000
00000000
00100000
00000000
00000000
01000000
,
00000000
00100000
00000000
00000000
,
02000000
00000000
03000000
00000000
10000000
00000000
00000000
00100000
,
00000000
10000000
00000000
00000000
,
02000000
00000000
03000000
00000000
10000000
00000000
00000000
01MM0000
,
00000000
00000000
00000000
10MM0000
00000000
00000000
00000000
00000000
,
01000000
00000000
00000000
00100000
00000000
00000000
00000000
00000000
,
01000000
00000000
00000000
00100000
00000000
00000000
00000000
00000000
,
00010000
00000000
00000000
10000000
00000000
00000000
00000000
00000000
,
00010000
00000000
00000000
10000000
00000000
00000000
00000000
00000000
,
00010000
00000000
00000000
00100000
00000000
00000000
00000000
00000000
,
00010000
00000000
00000000
00100000
00000000
00000000
00000000
00000000
,
00001000
00000000
00000000
01000000
00000000
00000000
00000000
00001000
,
00000000
00000000
00000000
01000000
00000000
00000000
00000000
01001000
;

//--------------- dance-double - LinkDubs06 ----------------
#NOTEDATA:;
#STEPSTYPE:dance-double;
#DESCRIPTION:LinkDubs06;
#DIFFICULTY:Easy;
#METER:4;
#RADARVALUES:0,0,0,0,0;
#NOTES:
00000000
00000000
00000000
00000000
,
00000000
00100000
10000000
00100000
,
20000000
00000000
00000000
30000000
,
00000000
01000000
00100000
01000000
,
00200000
00000000
00000000
00300000
,
00000000
00010000
10000000
00010000
,
20000000
00000000
00000000
30000000
,
00000000
00000000
00000000
00010000
,
01000000
00010000
00000000
00100000
,
00001000
00100000
00000000
00001000
,
01000000
00001000
00000000
00010000
,
00001000
00010000
00000000
00000010
,
00010000
00000100
00000000
00010000
,
00000100
00001000
00000000
00000010
,
00001000
00000010
00000100
00000010
,
00000100
00000000
00000000
00000001
,
00001000
00000001
00000000
00001000
,
00000001
00000010
00000000
00000001
,
00000010
00000001
00000000
00000100
,
00000001
00001000
00000000
00000100
,
00000010
00000100
00001000
00000010
,
00010000
00000000
00000000
00001000
,
00010000
00001000
01000000
00010000
,
00100000
00010000
00000000
00000000
,
10000000
00100000
01000000
00100000
,
10000000
01MM0000
00000000
10000000
,
01000000
00100000
00010000
10000000
,
00010000
M1M00000
00000000
00001000
,
01000000
00001000
00010000
00000010
,
00010000
0000M1M0
00000000
00000000
,
00001000
00000000
00000001
00000000
00001000
00000000
00000000
00000MM1
,
00000001
00000000
00000000
00001MM0
00001000
00000000
00000000
00000000
,
00000001
00000100
00000001
00000010
,
00000001
00001MM0
00000000
00000001
,
00001000
00000100
00001000
00000010
,
00000100
0000M01M
00000000
00001000
,
00000100
00001000
00000100
00010000
,
00000010
0001MM00
00000000
00000000
,
00001000
00000000
00010000
00000000
00001000
00000000
00000000
00010MM0
,
00010000
00000000
00000000
00001MM0
00001000
00000000
00000000
00000000
,
00100000
00010000
01000000
00010000
,
01000000
00010000
00000000
10000000
,
00010000
10000000
00100000
01000000
,
00100000
01000000
00000000
00100000
,
10000000
01000000
00000000
10000000
,
00100000
10000000
00000000
00100000
,
10000000
01000000
00100000
01000000
,
00100000
00010000
10000000
00010000
,
10000000
00010000
00000000
01000000
,
00010000
00100000
00000000
00001000
,
00100000
00001000
01000000
00001000
,
00010000
00001000
00000000
00000000
,
00010000
00000000
00000000
00000000
00000200
00000000
00000000
00000000
00000300
00000000
00000000
00000200
00000000
00000000
00000300
00000000
,
00000000
00000200
00000000
00000300
00000000
00000000
00000200
00000000
00000000
00000300
00000000
00000000
00001000
00000000
00000000
00000000
,
00000100
00000010
00000001
00000010
,
00000100
00010000
00001000
00010000
,
00001000
01000000
00010000
10000000
,
00100000
1M0M0000
00000000
00100000
,
10000000
01000000
10000000
00010000
,
01000000
M01M0000
00000000
01000000
,
00010000
00100000
00001000
00010000
,
00001000
0MM10000
00000000
00000000
,
00000100
00000000
00001000
00000000
00000001
00000000
00000000
00001MM0
,
00001000
00000000
00000000
00000MM1
00000001
00000000
00000000
00000000
,
00000010
00000001
00000100
00000001
,
00000100
0000M01M
00000000
00001000
,
00000100
00001000
00000100
00010000
,
00000100
0001M0M0
00000000
00001000
,
00100000
00001000
00100000
00010000
,
00100000
0M01M000
00000000
00000000
,
10000000
00000000
01000000
00000000
10000000
00000000
00000000
01MM0000
,
01000000
00000000
00000000
10MM0000
20000000
00000000
30000000
00000000
,
00000000
00100000
10000000
00010000
10000000
00000000
00010000
00000000
,
00000000
00100000
01000000
00100000
01000000
00000000
00100000
00000000
,
00000000
00010000
01000000
00010000
01000000
00001000
00100000
00001000
,
00010000
00001000
00010000
00001000
00010000
00000010
00010000
00000000
,
00000000
00000000
00000010
00001000
00000100
00000000
00001000
00000000
,
00000000
00000000
00000100
00001000
00000001
00000000
00001000
00000000
,
00000000
00000000
00000001
00000010
00000100
00000000
00000010
00000000
,
00000000
00000000
00000100
00000010
00000001
00000000
00000100
00000000
,
00000000
00000000
00000001
00000010
00000001
00000000
00000010
00000000
,
00000000
00000000
00000001
00000100
00000010
00000000
00000100
00000000
,
00000000
00000000
00000010
00001000
00000001
00000000
00001000
00000000
,
00000000
00000000
00000001
00001000
00000100
00000000
00001000
00000000
,
00000000
00000000
00000010
00010000
00000010
00000000
00010000
00000000
,
00000000
00000000
00000100
00010000
00001000
00000000
00010000
00000000
,
00000000
00000000
00001000
00100000
00001000
00000000
01000000
00000000
,
00000000
00000000
00001000
01000000
00010000
00000000
00100000
00000000
,
00010000
00100000
01000000
00100000
,
01000000
10MM0000
00000000
00010000
,
10000000
00010000
10000000
00100000
,
10000000
0M1M0000
00000000
10000000
,
01000000
10000000
00010000
01000000
,
00100000
M10M0000
00000000
00000000
,
00010000
00000000
00100000
00000000
00001000
00000000
00000000
0MM10000
,
00010000
00000000
00000000
0MM01000
00001000
00000000
00000000
00000000
,
00010000
00000100
00001000
00000100
,
00001000
000M01M0
00000000
00000010
,
00000001
00000010
00000001
00000100
,
00000001
0000M1M0
00000000
00000010
,
00010000
00000010
00010000
00001000
,
00010000
00001MM0
00000000
00000000
,
00100000
00000000
00010000
00000000
01000000
00000000
00000000
00M1M000
,
00010000
00000000
00000000
01M0M000
01000000
00000000
00000000
00000000
,
02020000
03030000
00000000
00000000
,
02200000
03300000
00000000
00000000
,
20200000
30300000
00000000
00000000
,
20020000
30030000
00000000
00000000
,
00220000
00330000
00000000
00000000
,
00202000
00000000
00303000
00000000
00000000
00000000
00000000
00022000
,
00000000
00033000
00000000
00000000
00000000
00000000
00000000
00020020
,
00000000
00030030
00000000
00000000
00000000
00000000
00000000
00002020
,
00000000
00003030
00000000
00000000
00000000
00000000
00000000
00000000
;

//--------------- dance-double - LinkDubs10 ----------------
#NOTEDATA:;
#STEPSTYPE:dance-double;
#DESCRIPTION:LinkDubs10;
#DIFFICULTY:Medium;
#METER:7;
#RADARVALUES:0,0,0,0,0;
#NOTES:
00000000
00000000
00000000
00000000
,
00000000
00000000
00100000
10000000
00100000
10000000
00100000
01000000
,
00200000
00000000
00000000
00000000
,
00000000
00300000
01000000
00010000
10000000
00010000
10000000
00010000
,
02000000
00000000
00000000
00000000
,
00000000
03000000
00010000
01000000
00001000
00100000
00001000
00100000
,
00001000
00010000
00002000
00000000
00000000
00000000
00000000
00000000
,
00000000
00000000
00000000
00000000
00003000
00010000
00000010
00010000
,
00000100
00000000
00000000
00010000
00000000
00000000
00000000
00000000
00000000
00000000
00000100
00000000
00001000
00000000
00000010
00000000
,
00002000
00000000
00000000
00000000
00003000
00000010
00000100
00000010
,
00000100
00000000
00000000
00000001
00000000
00000000
00000000
00000000
00000000
00000000
00001000
00000000
00000001
00000000
00001000
00000000
,
00000002
00000000
00000000
00000000
00000003
00000010
00000001
00000010
,
00000002
00000000
00000000
00000000
00000003
00000100
00000001
00000100
,
00000002
00000000
00000000
00000000
00000003
00001000
00000010
00001000
,
00000010
00000100
00000010
00000100
00000010
00001000
00000010
00001000
,
00000020
00000000
00000000
00000000
00000030
00010000
00000100
00010000
,
00001000
00000000
00000000
00020000
00000000
00000000
00000000
00000000
00000000
00000000
00030000
00000000
00001000
00000000
00010000
00000000
,
00001000
00000000
00000000
02000000
00000000
00000000
00000000
00000000
00000000
00000000
00000000
00000000
03000000
00000000
00001000
00000000
,
01000000
00000000
00020000
00000000
00030000
00100000
00010000
00100000
,
00010000
00000000
00000000
20000000
00000000
00000000
00000000
00000000
30000000
00000000
00010000
00000000
10000000
00000000
01000000
00000000
,
00100000
00000000
00000000
02000000
00000000
00000000
03000000
00000000
00100000
00000000
01000000
00000000
10000000
00000000
00100000
00000000
,
20000000
00000000
00000000
00000000
30000000
01000000
10000000
00000000
,
01000000
00000000
10000000
00100000
01000000
00100000
01000000
00010000
,
00000000
10000000
00000000
00010000
10000000
00010000
01000000
00000000
,
00010000
01000000
00001000
00000000
00100000
00001000
00100000
00001000
,
00010000
00001000
00020000
00000000
00000000
00030000
00000100
00000000
,
00010000
00000010
00010000
00000000
00000010
00001000
00000010
00001000
,
00000001
00001000
00000002
00000000
00000000
00000003
00000100
00000000
,
00000001
00001000
00000001
00000000
00000100
00000001
00000100
00000001
,
00000010
00000001
00000020
00000000
00000000
00000000
00000000
00000030
,
00000001
00000010
00000001
00000000
00001000
00000001
00001000
000002MM
,
00000000
00000000
00000300
0000M02M
00000000
00000000
00000000
00000030
,
00000100
00000010
00000100
00000000
00001000
00000100
00001000
00000100
,
00010000
00000100
00020000
00000000
00000000
00030000
00001000
00000000
,
00010000
00001000
00010000
00000000
00001000
01000000
00001000
01000000
,
00010000
01000000
00020000
00000000
00000000
00030000
00100000
00000000
,
00010000
10000000
00010000
00000000
00100000
01000000
00100000
01000000
,
10000000
01000000
20000000
00000000
00000000
00000000
00000000
30000000
,
00100000
10000000
01000000
00000000
10000000
01000000
10000000
02MM0000
,
00000000
00000000
03000000
M02M0000
00000000
00000000
00300000
01000000
,
00200000
00000000
00300000
00010000
10000000
00010000
10000000
00010000
,
00100000
00000000
00000000
00020000
00000000
00000000
00000000
00000000
00030000
00000000
00100000
00000000
00001000
00000000
00100000
00000000
,
00001000
01000000
00001000
01000000
00000000
00001000
00010000
00000100
,
00010000
00000000
00000000
00000020
00000000
00000000
00000000
00000000
00000030
00000000
00010000
00000000
00000010
00000000
00001000
00000000
,
00000100
00000000
00002000
00000000
00000000
00003000
00000100
00000010
,
00000100
00000000
00000000
00000010
00000002
00000000
00000000
00000000
00000003
00000000
00001000
00000000
00000001
00000000
00001000
00000000
,
00000001
00000000
00000100
00000001
00000000
00000100
00000001
00000010
,
00000001
00000000
00000010
00000001
00000000
00001000
00000001
00001000
,
00000100
00000000
00000010
00000200
00000000
00000300
00000010
00000100
,
00010000
00000000
00002000
00000000
00000000
00003000
00010000
00001000
,
00010000
00001000
01000000
00001000
01000000
00001000
00100000
00001000
,
00100000
00000000
00001000
00200000
00000000
00000000
00000000
00300000
,
00100000
00000000
00010000
00000000
02000000
00000000
00000000
00000000
00000000
03000000
00000000
02000000
00000000
00000000
00000000
03000000
,
00000000
02000000
00000000
00000000
03000000
00000000
02000000
00000000
03000000
00000000
00010000
00000000
10000000
00000000
00100000
00000000
,
01000000
00000000
00100000
01000000
00000000
00100000
10000000
01000000
,
00000000
10000000
00100000
10000000
00100000
10000000
00100000
01000000
,
00100000
01000000
00100000
00000000
10000000
00010000
10000000
00010000
,
00100000
00010000
00200000
00000000
00000000
00300000
00001000
00000000
,
01000000
00001000
01000000
00000000
00001000
00010000
00001000
00010000
,
00000100
00010000
00000200
00000000
00000000
00000300
00010000
00000000
,
00000100
00001000
00000010
00000000
00001000
00000001
00001000
00000001
,
00000100
00000001
00000200
00000000
00000000
00000000
00000000
00000300
,
00000001
00001000
00000001
00000000
00000010
00000001
00000100
00000001
,
0000M2M0
00000000
00000300
0000M0M2
00000000
00000000
00000000
00000003
,
00000100
00000001
00001000
00000000
00000001
00000100
00000001
00000100
,
00000010
00000100
00000020
00000000
00000000
00000030
00001000
00000000
,
00000010
00001000
00000100
00000000
00001000
00000100
00001000
00000100
,
00010000
00000100
00020000
00000000
00000000
00030000
00001000
00000000
,
00100000
00001000
00100000
00000000
00010000
01000000
00010000
01000000
,
00100000
01000000
00200000
00000000
00000000
00000000
00000000
00300000
,
10000000
00100000
01000000
00000000
00100000
01000000
00100000
2M0M0000
,
00000000
00000000
30000000
02MM0000
00000000
00000000
M0M00000
00000000
,
03000000
10000000
00100000
10000000
00100000
00000000
20000000
00000000
,
30000000
00100000
01000000
00100000
01000000
00000000
00020000
00000000
,
00030000
01000000
00001000
01000000
00001000
00100000
00001000
00100000
,
00001000
00100000
00001000
00010000
00001000
00010000
00002000
00000000
,
00003000
00010000
00000010
00010000
00000100
00010000
00000100
00000000
,
00001000
00000010
00001000
00000010
00000100
00000000
00000020
00000000
,
00000030
00000100
00000001
00001000
00000001
00000000
00001001
00000000
,
00000000
00000001
00000010
00000001
00000010
00000000
00000011
00000000
,
00000000
00000100
00000001
00000100
00000001
00000000
00000101
00000000
,
00000000
00000001
00001000
00000001
00001000
00000010
00001000
00000010
,
00000000
00001000
00000010
00001000
00000100
00000000
00001100
00000000
,
00000000
00000100
00010000
00000100
00010000
00001000
00010000
00001000
,
00000000
00100000
00001000
01000000
00001000
00100000
00001000
00000000
,
00100000
00010000
00100000
00010000
10000000
00010000
10000000
00000000
,
11000000
00000000
00100000
01000000
10000000
00100000
10000000
00000000
,
11MM0000
00000000
10000000
01000000
10000000
00100000
01000000
00000000
,
00100000
01000000
00010000
00000000
10000000
00010000
10000000
00010000
,
01000000
00010000
02000000
00000000
00000000
03000000
00001000
00000000
,
00100000
00001000
00100000
00000000
00001000
00010000
00001000
00010000
,
00000100
00010000
00000200
00000000
00000000
00000300
00010000
00000000
,
00000010
00001000
00000100
00000000
00001000
00000100
00001000
00000100
,
00000010
00000100
00000020
00000000
00000000
00000000
00000000
00000030
,
00000001
00001000
00000001
00000000
00000100
00000001
00000100
00000001
,
0000MM20
00000000
00000030
0000MM02
00000000
00000000
00000000
00000003
,
00000010
00000001
00001000
00000000
00000001
00001000
00000001
00001000
,
00000100
00001000
00000200
00000000
00000000
00000300
00001000
00000000
,
00000100
00001000
00000010
00000000
00010000
00001000
00010000
00001000
,
00100000
00001000
00200000
00000000
00000000
00300000
00001000
00000000
,
01000000
00001000
01000000
00000000
00010000
00100000
00010000
00100000
,
01000000
00100000
02000000
00000000
00000000
00000000
00000000
03000000
,
10000000
01000000
00100000
00000000
01000000
00100000
01000000
20MM0000
,
00000000
00000000
30000000
0M2M0000
00000000
00000000
00000000
00300000
,
10000000
01000000
10000000
02000000
00000000
03000000
10000000
00000000
,
01000000
00100000
01000000
00200000
00000000
00300000
00010000
00000000
,
10000000
00010000
10000000
00020000
00000000
00030000
00100000
00000000
,
00010000
00100000
00001000
02000000
00000000
03000000
00001000
00000000
,
01000000
00001000
00010000
00002000
00000000
00003000
00010000
00000000
,
00000010
00010000
00000010
00010000
00000100
00010000
00000100
00020000
,
00000000
00000000
00030000
00000100
00000020
00000000
00000030
00000100
,
00000020
00000000
00000030
00000002
00000000
00000000
00000003
00001001
;

//--------------- dance-double - Cut from Gazebo ----------------
#NOTEDATA:;
#STEPSTYPE:dance-double;
#DESCRIPTION:Cut from Gazebo;
#DIFFICULTY:Hard;
#METER:8;
#RADARVALUES:0,0,0,0,0;
#NOTES:
00000000
00000000
00000000
00000000
,
00000000
00000000
00100000
10000000
01000000
00100000
00010000
10000000
,
00010000
00000000
00000000
00000000
,
00000000
00000000
01000000
00001000
00100000
00001000
00010000
00000010
,
00010000
00000000
00000000
00000000
,
00000000
00000000
00000000
00000000
00000100
00000000
00001000
00000000
00000010
00000000
00000100
00000001
00000000
00001000
00000000
00000000
,
00000001
00000000
00000010
00000001
00000000
00000000
00000000
00000000
00000000
00000000
00000000
00000000
00000000
00000000
00000000
00000000
,
00000000
00000000
00000000
00000000
00000000
00000100
00000001
00001000
,
00000010
00000000
00000000
00000100
00000010
00000000
00001000
00000000
00000000
00000000
00000100
00000000
00010000
00000000
00001000
00000000
,
00010000
00000000
00000000
00001000
01000000
00000000
00010000
00000000
00000000
00000000
00100000
00000000
00010000
00000000
10000000
00000000
,
01000000
00000000
00000000
00100000
01000000
00000000
10000000
00000000
00000000
00000000
01000000
00000000
10000000
00000000
00100000
00000000
,
01000000
00000000
00000000
00010000
10000000
00000000
00010000
00000000
00000000
00000000
00100000
00000000
00001000
00000000
01000000
00000000
,
00001000
00000000
00000000
00010000
00000010
00000000
00010000
00000000
00000000
00000000
00000100
00000000
00001000
00000000
00000010
00000000
,
00000100
00000000
00000000
00000001
00001000
00000000
00000001
00000000
00000000
00000000
00000010
00000000
00000001
00000000
00000100
00000000
,
00000001
00001000
00000010
00000100
00000010
00001000
00000100
00010000
,
00001000
00000000
00000000
00010000
00001000
00000000
00000000
00000000
00000000
00000000
00100000
00000000
00010000
00000000
01000000
00000000
,
00010000
00000000
00000000
10000000
00100000
00000000
01000000
00000000
00000000
00000000
00100000
00000000
10000000
00000000
01000000
00000000
,
10000000
00000000
00000000
00100000
01000000
00000000
00010000
00000000
00000000
00000000
10000000
00000000
00010000
00000000
00100000
00000000
,
00001000
00000000
00000000
01000000
00001000
00000000
00010000
00000000
00000000
00000000
00000100
00000000
00010000
00000000
00000010
00000000
,
00001000
00000000
00000000
00000100
00000010
00000000
00000001
00000000
00000000
00000000
00001000
00000000
00000001
00000000
00000100
00000000
,
00000001
00000000
00000000
00000010
00000001
00000000
00001000
00000000
00000100
00000000
00000010
00000000
00000100
00000000
00001000
00000000
,
00000010
00000000
00000000
00010000
00001000
00000000
00010000
00000000
00000000
00000000
00001000
00000000
00100000
00000000
00000000
00000000
,
00010000
00000000
01000000
00010000
10000000
00100000
01000000
00100000
,
00000000
10000000
00000000
00100000
10000000
01000000
00100000
00000000
,
00010000
10000000
00010000
01000000
00001000
00100000
00001000
00010000
,
00000100
00010000
00000010
00001000
00000100
00000010
00000001
00000000
,
00001000
00000001
00000100
00000001
00000010
00000001
00001000
00000100
,
00000010
00000100
00001000
00000010
00010000
00001000
00010000
00000000
,
00001000
01000000
00010000
00100000
00010000
10000000
01000000
00100000
,
01000000
10000000
00100000
10000000
01000000
00100000
00010000
00000000
,
10000000
00010000
01000000
00000000
00001000
00100000
00001000
00010000
,
00000010
00000000
00000000
00010000
00000100
00000000
00000000
00000000
,
00001000
00000010
00000100
00000001
00001000
00000001
00000010
00000001
,
00000100
00000001
00001000
00000010
00000100
00000010
00001000
00000000
,
00000100
00010000
00001000
00010000
00001000
01000000
00010000
00100000
,
00010000
10000000
01000000
00100000
01000000
10000000
01000000
00000000
,
10000000
00100000
01000000
00010000
10000000
00010000
00100000
00001000
,
01000000
00001000
00010000
00000010
00010000
00000100
00001000
00000000
,
00000010
00000100
00000001
00000000
00001000
00000001
00000010
00000001
,
00000100
00000000
00000000
00000001
00001000
00000010
00000000
00000100
,
00000010
00000000
00000000
00001000
00000100
00000000
00010000
00000000
00001000
00000000
00010000
00000000
00001000
00000000
00100000
00000000
,
00010000
00000000
00000000
01000000
00010000
00000000
10000000
00000000
00000000
00000000
00100000
00000000
01000000
00000000
00100000
00000000
,
10000000
00000000
00000000
01000000
10000000
00000000
00100000
00000000
00000000
00000000
01000000
00000000
00010000
00000000
10000000
00000000
,
00010000
00000000
00000000
00100000
00001000
00000000
01000000
00000000
00000000
00000000
00001000
00000000
00010000
00000000
00000100
00000000
,
00010000
00000000
00000000
00000010
00001000
00000000
00000100
00000000
00000000
00000000
00000010
00000000
00000001
00000000
00001000
00000000
,
00000001
00000000
00000000
00000100
00000001
00000000
00000010
00000000
00000000
00000000
00000001
00000000
00001000
00000000
00000100
00000000
,
00000010
00000000
00000000
00000100
00001000
00000000
00000010
00000000
00000000
00000000
00010000
00000000
00001000
00000000
00010000
00000000
,
00001000
00000000
00000000
00100000
00000000
00000000
00010000
00000000
00000000
00000000
01000000
00000000
00010000
00000000
10000000
00000000
,
00100000
00000000
00000000
01000000
00100000
00000000
10000000
00000000
00000000
00000000
00100000
00000000
10000000
00000000
01000000
00000000
,
00100000
00000000
00000000
00010000
10000000
00000000
00010000
00000000
00000000
00000000
01000000
00000000
00001000
00000000
00100000
00000000
,
00001000
00010000
00000100
00010000
00000010
00001000
00000100
00000010
,
00000001
00000000
00000000
00001000
00000001
00000000
00000100
00000000
00000000
00000000
00000001
00000000
00000010
00000000
00000001
00000000
,
00001000
00000000
00000010
00000000
00000200
00000000
00000000
00000000
00000000
00000000
00000300
00000200
00000000
00000000
00000000
00000000
,
00000300
00000200
00000000
00000000
00000000
00000300
00000200
00000000
00000000
00000300
00010000
00000000
00001000
00000000
00010000
00000000
,
00001000
00000000
01000000
00000000
,
00010000
00100000
00010000
10000000
,
01000000
00100000
01000000
10000000
00100000
10000000
01000000
00100000
,
00010000
10000000
00010000
01000000
00001000
00100000
00001000
00000000
,
00010000
00000010
00010000
00000100
00001000
00000010
00000100
00000001
,
00001000
00000001
00000010
00000001
00000100
00000001
00001000
00000000
,
00000010
00000100
00000010
00001000
00000100
00010000
00001000
00010000
,
00001000
01000000
00010000
00100000
00010000
10000000
01000000
00000000
,
00100000
01000000
10000000
00000000
01000000
10000000
00100000
01000000
,
00010000
00000000
00000000
10000000
00010000
00000000
00000000
00000000
,
00100000
00001000
01000000
00001000
00010000
00000010
00010000
00000100
,
00001000
00000010
00000100
00000001
00001000
00000001
00000010
00000000
,
00000001
00000100
00000001
00001000
00000010
00000100
00000010
00001000
,
00000100
00010000
00001000
00010000
00001000
00100000
00010000
00000000
,
01000000
00010000
10000000
00100000
01000000
00100000
10000000
01000000
,
10000000
00100000
01000000
00010000
10000000
00010000
00100000
00000000
,
00001000
01000000
00001000
00000000
00010000
00000100
00010000
00000010
,
00001000
00000000
00000000
00000100
00000010
00000000
00000001
00001000
,
00000000
00000001
00000100
00000001
00000010
00000000
00000001
00000000
,
00001000
00000100
00000010
00000100
00001000
00000000
00000010
00000000
,
00010000
00001000
00010000
00001000
00100000
00010000
01000000
00010000
,
10000000
00100000
01000000
00100000
10000000
00100000
10000000
00000000
,
01000000
00000000
00100000
00000000
00010000
00000000
10000000
00000000
00010000
00000000
01000000
00000000
00001000
00000000
00000000
00100000
,
00001000
00010000
00000100
00010000
00000010
00000000
00001000
00000000
,
00000100
00000000
00000010
00000000
00000001
00000000
00001000
00000000
00000001
00000000
00000000
00000000
00000100
00000000
00000000
00000001
,
00000010
00000001
00001000
00000100
00000010
00000000
00000100
00000000
,
00000000
00001000
00000010
00010000
00001000
00000000
00010000
00000000
,
00001000
01000000
00010000
00100000
00010000
10000000
01000000
00100000
,
01000000
10000000
00100000
10000000
01000000
00000000
00100000
00000000
,
00010000
10000000
00010000
01000000
00001000
00100000
00001000
00010000
,
00000010
00000000
00010000
00000000
00000100
00000000
00001000
00000000
00000010
00000000
00000100
00000000
00000001
00000000
00000000
00001000
,
00000001
00000000
00000010
00000000
00000001
00000000
00000100
00000000
00000001
00000000
00001000
00000000
00000010
00000000
00000000
00000100
,
00000010
00000000
00000000
00000000
00000000
00000000
00001000
00000100
,
00000000
00000000
00000000
00000000
,
00010000
00001000
00010000
00001000
01000000
00010000
00100000
00010000
,
10000000
01000000
00100000
01000000
10000000
01000000
10000000
00000000
,
00100000
01000000
00010000
10000000
00010000
00100000
00001000
01000000
,
00001000
00010000
00000010
00010000
00000100
00001000
00000010
00000000
,
00000100
00000001
00001000
00000001
00000010
00000001
00000100
00000001
,
00001000
00000010
00000100
00000010
00001000
00000100
00010000
00000000
,
00001000
00010000
00001000
00000000
00100000
00010000
01000000
00010000
,
10000000
00000000
00000000
00100000
01000000
00000000
00000000
00000000
,
00100000
10000000
01000000
10000000
00100000
01000000
00010000
10000000
,
00010000
00100000
00001000
01000000
00001000
00010000
00000100
00000000
,
00010000
00000010
00001000
00000100
00000010
00000001
00001000
00000001
,
00000100
00000001
00000010
00000001
00001000
00000100
00000010
00000000
,
00000100
00001000
00000010
00010000
00001000
00010000
00001000
00100000
,
00010000
01000000
00010000
10000000
00100000
01000000
00100000
00000000
,
10000000
00100000
10000000
00000000
01000000
00100000
00010000
10000000
,
00010000
00000000
00000000
01000000
00000000
00000000
00000000
00001000
,
00100000
00001000
00010000
00000100
00010000
00000010
00001000
00000100
,
00000010
00000001
00001000
00000001
00000100
00000001
00000010
00000001
,
00001000
00000100
00000010
00000100
00001000
00000010
00010000
00001000
,
00010000
00001000
01000000
00010000
00100000
00010000
10000000
01000000
,
00100000
01000000
10000000
00100000
10000000
01000000
00100000
00010000
,
10000000
00010000
01000000
00001000
00100000
00001000
00010000
00000010
,
00010000
00000000
00000000
00000100
00001000
00000000
00000000
00000010
,
00000100
00000000
00000000
00000001
00000000
00000000
00000000
00001000
;
