#TITLE:Turbo Bike;
#SUBTITLE:Battletoads;
#ARTIST:8BitDanoOct1;
#TITLETRANSLIT:;
#SUBTITLETRANSLIT:;
#ARTISTTRANSLIT:;
#GENRE:;
#CREDIT:Link AKA Dude;
#BANNER:BT1TurboBike.png;
#BACKGROUND:BT1TurboBike-bg.png;
#LYRICSPATH:;
#CDTITLE:;
#MUSIC:BT1TurboBike.ogg;
#OFFSET:1.910000;
#SAMPLESTART:40.299999;
#SAMPLELENGTH:12.500000;
#LASTBEATHINT:1.799286;
#SELECTABLE:YES;
#BPMS:0.000000=125.070007;
#STOPS:;
#BGCHANGES:;
#KEYSOUNDS:;
#ATTACKS:;

//---------------dance-single - LinkDude04----------------
#NOTES:
     dance-single:
     LinkDude04:
     Beginner:
     3:
     0.180748,0.210665,0.024931,0.062327,0.000000,203.000000,199.000000,4.000000,10.000000,0.000000,0.000000,0.180748,0.210665,0.024931,0.062327,0.000000,203.000000,199.000000,4.000000,10.000000,0.000000,0.000000:
// measure 0
0000
0000
0000
0000
,  // measure 1
0000
0000
0000
0000
,  // measure 2
0000
0000
0000
0000
,  // measure 3
0001
0000
0001
0000
,  // measure 4
1000
0000
1000
0000
,  // measure 5
0001
0000
0001
0000
,  // measure 6
1000
0000
1000
0000
,  // measure 7
0100
0000
0100
0000
,  // measure 8
0010
0000
0010
0000
,  // measure 9
0100
0000
0100
0000
,  // measure 10
0010
0000
0010
0000
,  // measure 11
0100
0000
0100
0000
,  // measure 12
0010
0000
0010
0000
,  // measure 13
0100
0000
0100
0000
,  // measure 14
0010
0000
0010
0000
,  // measure 15
2002
0000
3003
0000
,  // measure 16
0001
0001
0001
0000
,  // measure 17
1000
1000
1000
0000
,  // measure 18
0001
0001
0001
0000
,  // measure 19
1000
1000
1000
0000
,  // measure 20
0010
0010
0010
0000
,  // measure 21
0100
0100
0100
0000
,  // measure 22
0010
0010
0010
0000
,  // measure 23
0100
0100
0100
0000
,  // measure 24
0010
0010
0010
0000
,  // measure 25
0100
0100
0100
0000
,  // measure 26
0010
0010
0010
0000
,  // measure 27
2002
0000
3003
0000
,  // measure 28
1000
0000
0001
0000
,  // measure 29
1000
0000
0010
0000
,  // measure 30
1000
0000
0100
0000
,  // measure 31
1000
0000
0001
0000
,  // measure 32
0010
0000
0001
0000
,  // measure 33
0100
0000
0001
0000
,  // measure 34
2000
0000
0000
3000
,  // measure 35
0002
0000
0000
0003
,  // measure 36
1000
1000
1000
0000
,  // measure 37
0001
0001
0001
0000
,  // measure 38
1000
1000
1000
0000
,  // measure 39
0100
0100
0100
0000
,  // measure 40
1000
1000
1000
0000
,  // measure 41
0010
0010
0010
0000
,  // measure 42
1000
1000
1000
0000
,  // measure 43
0001
0001
0001
0000
,  // measure 44
0100
0100
0100
0000
,  // measure 45
0001
0001
0001
0000
,  // measure 46
0010
0010
0010
0000
,  // measure 47
0001
0001
0001
0000
,  // measure 48
1000
1000
1000
0000
,  // measure 49
0001
0000
1000
0000
,  // measure 50
0001
0000
0100
0000
,  // measure 51
0001
0000
0010
0000
,  // measure 52
0001
0000
1000
0000
,  // measure 53
0100
0000
1000
0000
,  // measure 54
0010
0000
1000
0000
,  // measure 55
0001
0000
1000
0000
,  // measure 56
2002
0000
3003
0000
,  // measure 57
1000
1000
0001
0000
,  // measure 58
0100
0100
0001
0000
,  // measure 59
0010
0010
0001
0000
,  // measure 60
1000
1000
0001
0000
,  // measure 61
0001
0001
1000
0000
,  // measure 62
0010
0010
1000
0000
,  // measure 63
0100
0100
1000
0000
,  // measure 64
0001
0001
1000
0000
,  // measure 65
1000
1000
0001
0000
,  // measure 66
1000
1000
0010
0000
,  // measure 67
1000
1000
0100
0000
,  // measure 68
1000
1000
0001
0000
,  // measure 69
0001
0001
1000
0000
,  // measure 70
0001
0001
0100
0000
,  // measure 71
0001
0001
0010
0000
,  // measure 72
0001
0001
1000
0000
,  // measure 73
1000
0001
1000
0000
,  // measure 74
0010
0100
0010
0000
,  // measure 75
0200
0000
0000
0300
,  // measure 76
0020
0000
0000
0030
,  // measure 77
1000
0000
0100
0000
,  // measure 78
0001
0000
0010
0000
,  // measure 79
1000
0000
0100
0000
,  // measure 80
0001
0000
0010
0000
,  // measure 81
1000
0000
0100
0000
,  // measure 82
0001
0000
0010
0000
,  // measure 83
1000
0000
0100
0000
,  // measure 84
0001
0000
1001
0000
;

//---------------dance-single - LinkDude06----------------
#NOTES:
     dance-single:
     LinkDude06:
     Easy:
     4:
     0.284033,0.342331,0.168283,0.305403,0.000000,319.000000,292.000000,27.000000,49.000000,0.000000,0.000000,0.284033,0.342331,0.168283,0.305403,0.000000,319.000000,292.000000,27.000000,49.000000,0.000000,0.000000:
0000
0000
0000
0000
,
0000
0000
0000
0000
,
0000
0000
0000
0000
,
0001
0001
0001
0001
,
0100
0100
0100
0100
,
0010
0010
0010
0010
,
1000
1000
1000
1000
,
0100
0100
1000
1000
,
0001
0001
0100
0100
,
0001
0001
1000
1000
,
0010
0010
1000
1000
,
0001
0001
0010
0010
,
0001
0001
2000
3000
,
0001
0001
1000
1000
,
0001
0001
1000
1000
,
2002
0000
0000
3003
,
0001
0001
0001
0001
,
0010
0010
0010
0010
,
0100
0100
0100
0100
,
1000
1000
1000
1000
,
0010
0010
1000
1000
,
0001
0001
0010
0010
,
0001
0001
1000
1000
,
0100
0100
1000
1000
,
0001
0001
0100
0100
,
0001
0001
2000
3000
,
1000
1000
0001
0001
,
2002
0000
0000
3003
,
1000
1000
2002
3003
,
0001
0001
0022
0033
,
1000
1000
2200
3300
,
0001
0001
0202
0303
,
1000
1000
2020
3030
,
0001
0001
2002
3003
,
2000
3020
2030
3000
,
0002
0023
0032
0003
,
1000
1000
1000
1000
,
0100
0100
0100
0100
,
0001
0001
0001
0001
,
0100
0100
0100
0100
,
1100
1000
1100
1000
,
1001
0001
1001
0001
,
1000
1000
0010
0010
,
0100
0100
0010
0010
,
1000
1000
1000
1000
,
0100
0100
0100
0100
,
0010
0010
0010
0010
,
0001
0001
0001
0001
,
0100
0100
0001
0001
,
1000
1000
0100
0100
,
0010
0010
0001
0001
,
0100
0100
0010
0010
,
1000
1000
0001
0001
,
1000
1000
0200
0300
,
1000
1000
0010
0010
,
0200
0000
0000
0300
,
0110
1001
0110
1001
,
1000
1000
1000
1000
,
0100
0100
0100
0100
,
0010
0010
0010
0010
,
0001
0001
0001
0001
,
0100
0100
0010
0010
,
1000
1000
0010
0010
,
0100
0100
0001
0001
,
0100
0100
0010
0010
,
0100
0100
1000
1000
,
0100
0100
0002
0003
,
1000
1000
0010
0010
,
0200
0000
0000
0300
,
0010
0100
2002
3003
,
1000
0001
0220
0330
,
1000
0100
0022
0033
,
0001
0100
2020
3030
,
1000
0010
0202
0303
,
0001
0010
2200
3300
,
0200
2300
3200
0300
,
0020
0032
0023
0030
,
0001
0001
0001
0001
,
0100
0100
0100
0100
,
0010
0010
0010
0010
,
1000
1000
1000
1000
,
0101
0001
0101
0001
,
1010
1000
1010
1000
,
2000
3000
0002
0003
,
0200
0300
1001
0000
;

//---------------dance-single - LinkDude10----------------
#NOTES:
     dance-single:
     LinkDude10:
     Medium:
     7:
     0.454987,0.473997,0.243075,0.211912,0.000000,511.000000,472.000000,39.000000,34.000000,0.000000,0.000000,0.454987,0.473997,0.243075,0.211912,0.000000,511.000000,472.000000,39.000000,34.000000,0.000000,0.000000:
0000
0000
0000
0000
,
0000
0000
0000
0000
,
0000
0000
0000
0000
,
0001
1000
0001
0000
0001
1000
0001
0000
,
1000
0001
1000
0000
1000
0001
1000
0000
,
0010
0100
0010
0000
0010
0100
0010
0000
,
1000
0001
1000
0000
1000
0001
1000
0000
,
0100
0010
0100
0000
1000
0001
1000
0000
,
0001
1000
0001
0000
0100
0010
0100
0000
,
0001
1000
0001
0000
1000
0001
1000
0000
,
0010
0100
0010
0000
1000
0001
1000
0000
,
0001
1000
0001
0000
0010
0100
0010
0000
,
0001
1000
0001
0000
2000
0000
3000
0000
,
0001
1000
0001
0000
1000
0001
1000
0000
,
2002
0000
0000
3003
,
0110
1001
0110
1001
,
0001
0100
0001
0000
0001
0010
0001
0000
,
0010
0001
0010
0000
0010
0100
0010
0000
,
0100
0010
0100
0000
0100
1000
0100
0000
,
1000
0100
1000
0000
1000
0010
1000
0000
,
0010
1000
0010
0000
1000
0001
1000
0000
,
0001
0010
0001
0000
0010
0001
0010
0000
,
0001
1000
0001
0000
1000
0100
1000
0000
,
0100
1000
0100
0000
1000
0001
1000
0000
,
0001
0100
0001
0000
0100
0001
0100
0000
,
0001
1000
0001
0000
2000
0000
3000
0000
,
1000
0010
1000
0000
0001
0010
0001
0000
,
2002
0000
0000
3003
,
1000
0010
1000
0010
2020
0000
3030
0000
,
0001
0100
0001
0100
0202
0000
0303
0000
,
1000
0100
1000
0100
2200
0000
3300
0000
,
0001
0010
0001
0010
0022
0000
0033
0000
,
1000
0001
1000
0001
0220
0000
0330
0000
,
0010
0100
0010
0100
2002
0000
3003
0000
,
1000
1000
1000
1000
1000
1000
1000
0000
,
0001
0001
0001
0001
0001
0001
0001
0000
,
1000
0001
1000
0100
1000
0001
1000
0000
,
0001
1000
0001
0100
0001
1000
0001
0000
,
1000
0010
1000
0001
1000
0010
1000
0000
,
0001
0010
0001
1000
0001
0010
0001
0000
,
0110
1001
0110
1001
,
0101
1010
0101
1010
,
1000
0100
1000
0000
0001
0100
0001
0000
,
1000
0010
1000
0000
0001
0010
0001
0000
,
1000
0001
1000
0001
0100
0001
0100
0001
,
0100
0010
0100
0010
1000
0010
1000
0010
,
1000
0100
1000
0100
0010
0100
0010
0100
,
0010
0001
0010
0001
0100
0001
0100
0000
,
0001
0100
0010
0000
0100
0010
1000
0000
,
1000
0010
0100
0000
0010
0100
0001
0000
,
0001
0010
0100
0000
0010
0100
1000
0000
,
1000
0100
0010
0000
0100
0010
0001
0000
,
0010
0001
1000
0000
0001
1000
0100
0000
,
1000
0001
0010
0000
0200
0000
0300
0000
,
1000
0100
0001
0000
0001
0100
1000
0000
,
0200
0000
0000
0300
,
0110
1001
0110
1001
,
1000
0001
1000
0001
0100
0001
0100
0001
,
0100
0010
0100
0010
1000
0010
1000
0010
,
1000
0100
1000
0100
0010
0100
0010
0100
,
0010
0001
0010
0001
1000
0001
1000
0001
,
1000
0010
0100
0000
0001
1000
0010
0000
,
0100
0001
1000
0000
0010
0100
0001
0000
,
1000
0100
0010
0000
0001
1000
0100
0000
,
0010
0001
1000
0000
0100
0010
0001
0000
,
1000
0001
1000
0000
0001
0010
1000
0000
,
1000
0010
0001
0000
0020
0000
0030
0000
,
1000
0100
0001
0000
0001
0100
1000
0000
,
0200
0000
0000
0300
,
0010
0010
0100
0100
0020
0000
0030
0000
,
1000
1000
0001
0001
2000
0000
3000
0000
,
1000
1000
0100
0100
0022
0000
0033
0000
,
0001
0001
0100
0100
2020
0000
3030
0000
,
1000
1000
0010
0010
0202
0000
0303
0000
,
0001
0001
0010
0010
2200
0000
3300
0000
,
1200
1000
1000
1000
1000
1000
1300
0000
,
0021
0001
0001
0001
0001
0001
0031
0000
,
0001
0010
0001
1000
0010
1000
0001
0100
,
0001
1000
0100
1000
0001
1000
0010
1000
,
0001
0010
0001
1000
0100
1000
0001
0100
,
0001
1000
0010
0100
0001
0010
0001
0100
,
0101
1010
0101
1010
,
0110
1001
0110
1001
,
1000
1000
0100
0100
0010
0010
0001
0001
,
0100
0100
0010
0010
1001
0000
0000
0000
;

//---------------dance-single - LinkDude14----------------
#NOTES:
     dance-single:
     LinkDude14:
     Hard:
     9:
     0.675803,0.789995,0.137119,0.249308,0.906858,759.000000,737.000000,22.000000,40.000000,4.000000,0.000000,0.675803,0.789995,0.137119,0.249308,0.906858,759.000000,737.000000,22.000000,40.000000,4.000000,0.000000:
0000
0000
0000
0000
,
0000
0000
0000
0000
,
0M00
M000
00M0
M000
,
0001
0001
1000
1000
0001
0001
1000
1000
,
0001
0010
0001
0010
0001
0010
0001
0000
1000
0010
1000
0010
1000
0010
1000
0000
,
0100
1000
0100
1000
0100
1000
0100
0000
0010
0001
0010
0001
0010
0001
0010
0000
,
0100
0010
0100
0010
0100
0010
0100
0000
1000
0001
1000
0001
1000
0001
1000
0000
,
0001
1000
0001
0000
1000
0001
0000
0000
1000
0001
0000
1000
0000
0001
1000
0001
,
1000
0001
1000
0000
0001
1000
0000
0000
0001
0100
0000
0001
0000
0100
0001
0100
,
0001
0100
0001
0000
0100
0001
0000
0000
1000
0010
0000
1000
0000
0010
1000
0010
,
1000
0010
1000
0000
0010
1000
0000
0000
0010
0100
0000
0010
0000
0100
0010
0100
,
0010
0100
0010
0000
0100
0010
0000
0000
0100
0001
0000
0100
0000
0001
0100
0001
,
0100
0001
0100
0000
0001
0100
0000
0202
0000
0000
0000
0303
0000
0000
0000
0000
,
0010
1000
0010
0000
1000
0010
0000
0000
1000
0001
0000
1000
0000
0001
1000
0001
,
1000
0001
2000
0000
0000
0000
0000
0000
0010
0000
0010
0000
3010
0000
0010
0000
,
1000
1000
0000
0010
0010
0000
0100
0100
0000
0001
0001
0000
0100
0001
0100
0000
,
0001
0010
0001
0010
0001
0010
0001
0000
1000
0100
1000
0100
1000
0100
1000
0000
,
0001
1000
0001
1000
0010
1000
0010
0000
1000
0001
1000
0001
0010
0001
0010
0000
,
0001
1000
0001
1000
0100
1000
0100
0000
1000
0001
1000
0001
0010
0001
0010
0000
,
0001
0010
0001
0010
0100
0010
0100
0000
0010
0100
0010
0100
1000
0100
1000
0000
,
0100
1000
0100
0000
1000
0100
0000
0000
1000
0010
0000
1000
0000
0010
1000
0010
,
1000
0010
1000
0000
0010
1000
0000
0000
0010
0100
0000
0010
0000
0100
0010
0100
,
0010
0100
0010
0000
0100
0010
0000
0000
0100
0001
0000
0100
0000
0001
0100
0001
,
0100
0001
0100
0000
0001
0100
0000
0000
0001
1000
0000
0001
0000
1000
0001
1000
,
0001
1000
0001
0000
1000
0001
0000
0000
0100
0010
0000
0100
0000
0010
0100
0010
,
0100
0010
0100
0000
0010
0100
0000
0020
0000
0000
0000
0030
0000
0000
0000
0000
,
1000
0010
1000
0000
0010
0100
0000
0000
0001
0100
0000
0001
0000
0100
0001
0100
,
0001
0100
0002
0000
0000
0000
0000
0000
0100
0000
0100
0000
0100
0000
0103
0000
,
1000
1000
0000
0001
0000
0001
0000
0002
0000
0000
0000
0003
0000
0000
0000
0000
,
0010
0010
0000
0100
0000
0100
0000
0200
0000
0000
0000
0300
0000
0000
0000
0000
,
1000
1000
0000
0010
0000
0010
0000
0020
0000
0000
0000
0030
0000
0000
0000
0000
,
0100
0100
0000
0001
0000
0001
0000
0002
0000
0000
0000
0003
0000
0000
0000
0000
,
1000
0100
0000
0001
0000
0100
0000
2000
0000
0000
0000
3000
0000
0000
0000
0000
,
1000
0100
0000
0001
0000
0100
0000
2000
0000
0000
0000
3000
0000
0000
0000
0000
,
1002
1000
1000
1000
1000
1000
1003
0000
,
2001
0001
0001
0001
0001
0001
3001
0000
,
0001
1000
0001
1000
0010
1000
0010
0000
1000
0001
1000
0001
0010
0001
0010
0000
,
0001
1000
0001
1000
0100
1000
0100
0000
1000
0001
1000
0001
0100
0001
0100
0000
,
0001
0010
0001
0010
0100
0010
0100
0000
1000
0100
1000
0100
0010
0100
0010
0000
,
0100
0010
0100
0010
0100
0010
0100
0000
0001
1000
0001
1000
0001
1000
0001
0000
,
0011
1100
0110
1001
,
0101
1010
0110
1001
,
1000
0100
0010
0001
0100
0010
1000
0001
,
1000
0010
0100
0001
0010
0100
1000
0001
,
1000
0100
0010
0100
1000
0001
0010
0001
,
0010
0100
0010
0001
0010
0100
1000
0100
,
1000
0001
0010
0001
1000
0100
1000
0001
,
1000
0010
1000
0001
0010
0001
0100
0001
,
0100
0001
0100
0000
0001
0100
0000
0000
0010
0100
0000
0010
0000
0100
0010
0100
,
0010
0100
0010
0000
0100
0010
0000
0000
1000
0010
0000
1000
0000
0010
1000
0010
,
1000
0010
1000
0000
0010
1000
0000
0000
0001
1000
0000
0001
0000
1000
0001
1000
,
0001
1000
0001
0000
1000
0001
0000
0000
0100
0001
0000
0100
0000
0001
0100
0001
,
0100
0001
0100
0000
0001
0100
0000
0000
0010
0100
0000
0010
0000
0100
0010
0100
,
0010
0100
0010
0000
0100
0010
0000
2000
0000
0000
0000
3000
0000
0000
0000
0000
,
0010
1000
0010
0000
0100
0010
0000
0000
1000
0010
0000
0100
0000
0010
1000
0010
,
0200
0000
0000
0000
0010
0010
0010
0310
,
1000
1000
0000
0100
0100
0000
1000
1000
0000
0100
0100
0000
1000
0100
1000
0000
,
0001
0002
1000
2003
0100
3200
0010
0320
,
0001
0032
0100
0203
0010
0320
0001
0032
,
0010
0023
1000
2030
0010
3020
0001
0032
,
0010
0023
0100
0230
0001
0302
1000
1003
,
0001
1000
0001
0000
1000
0100
0000
0000
1000
0010
0000
1000
0000
0010
0100
0010
,
0100
0010
0100
0000
0010
1000
0000
0000
0010
0001
0000
0010
0000
1000
0001
1000
,
0001
1000
0001
0000
1000
0010
0000
0000
1000
0100
0000
1000
0000
0100
0010
0100
,
0010
0100
0010
0000
0100
1000
0000
0000
0100
0001
0000
0100
0000
1000
0001
1000
,
0001
1000
0001
0000
1000
0100
0000
0000
1000
0010
0000
1000
0000
0010
0100
0010
,
0100
0010
0100
0000
0010
1000
0000
0020
0000
0000
0000
0030
0000
0000
0000
0000
,
1000
0100
0010
0000
0001
1000
0000
0000
0100
0010
0000
0001
0000
1000
0100
0010
,
0002
0000
0000
0000
1000
0100
1003
0100
,
0001
0001
0000
0100
0000
0100
0000
0020
0000
0000
0000
0030
0000
0000
0000
0000
,
1000
1000
0000
0010
0000
0010
0000
0200
0000
0000
0000
0300
0000
0000
0000
0000
,
1000
0100
1000
0100
0000
0010
0000
0002
0000
0000
0000
0003
0000
0000
0000
0000
,
0100
0001
0100
0001
0000
1000
0000
0020
0000
0000
0000
0030
0000
0000
0000
0000
,
1000
0010
1000
0010
0000
0100
0000
0002
0000
0000
0000
0003
0000
0000
0000
0000
,
0010
0001
0010
0001
0000
1000
0000
0200
0000
0000
0000
0300
0000
0000
0000
0000
,
1200
1000
1000
1000
1000
1000
1300
0000
,
0021
0001
0001
0001
0001
0001
0031
0000
,
1000
0010
0001
0100
0010
1000
0001
0010
,
0100
0001
1000
0010
0100
1000
0010
0001
,
0100
0010
0001
0100
0010
1000
0001
0100
,
1000
0010
0001
0100
0010
1000
0001
0000
,
0101
1100
0101
0011
,
0110
1001
0110
1001
,
1000
0001
1000
0001
0100
0001
0100
0000
0010
0100
0010
0100
0001
0100
0001
0000
,
1000
0100
0010
0001
0100
0010
1000
0000
1001
0000
0000
0000
0000
0000
0000
0000
;

//---------------dance-single - LinkDude16----------------
#NOTES:
     dance-single:
     LinkDude16:
     Challenge:
     11:
     0.861894,0.868995,0.043629,0.205679,1.517663,968.000000,961.000000,7.000000,33.000000,33.000000,8.000000,0.861894,0.868995,0.043629,0.205679,1.517663,968.000000,961.000000,7.000000,33.000000,33.000000,8.000000:
0000
0000
0000
0000
,
0000
0000
0000
0000
,
0M00
M000
00M0
M000
,
0001
1000
0001
1000
0010
1000
0010
1000
0001
1000
0001
1000
0001
0010
0001
0010
,
0001
1000
0001
1000
0001
0100
0001
0100
0001
1000
0001
1000
0100
1000
0100
1000
,
0001
0010
0001
0010
0001
0010
0001
0010
001M
1000
0010
1000
0010
1000
0010
1000
,
0001
0010
0001
0010
0001
0010
0001
0010
001M
1000
0010
1000
0010
1000
0010
1000
,
0010
1000
0010
0000
1000
0010
0000
0000
1000
0001
0000
1000
0000
0001
1000
0001
,
1000
0001
1000
0000
0001
1000
0000
0000
0001
0100
0000
0001
0000
0100
0001
0100
,
0001
0100
0001
0000
0100
0001
0000
0000
1000
0010
0000
1000
0000
0010
1000
0010
,
1000
0010
1000
0000
0010
1000
0000
0000
0010
0100
0000
0010
0000
0100
0010
0100
,
0010
0100
0010
0000
0100
0010
0000
0000
0100
0001
0000
0100
0000
0001
0100
0001
,
0100
0001
0100
0000
0001
0100
0000
0010
0000
1000
0010
1000
0010
1000
0010
1000
,
0010
1000
0010
0000
1000
0010
0000
0000
1000
0001
0000
1000
0000
0001
1000
0001
,
1000
0001
1000
0000
0000
0000
0000
0000
0010
1000
0010
1000
0010
1000
0010
1000
,
0010
0010
0000
1000
1000
0000
0001
0001
0000
0100
0100
0000
0001
0100
0001
0000
,
1000
0001
1000
0001
1000
0010
1000
0010
1000
0001
1000
0001
0010
0001
0010
0001
,
1000
0001
1000
0001
1000
0100
1000
0100
1000
0001
1000
0001
0100
0001
0100
0001
,
1000
0010
1000
0010
1000
0010
1000
0010
M010
0001
0010
0001
0010
0001
0010
0001
,
1000
0100
1000
0100
1000
0100
1000
0100
M100
0001
0100
0001
0100
0001
0100
0001
,
0100
0001
0100
0000
0001
0100
0000
0000
0001
0010
0000
0001
0000
0010
0001
0010
,
0001
0010
0001
0000
0010
0001
0000
0000
0010
0100
0000
0010
0000
0100
0010
0100
,
0010
0100
0010
0000
0100
0010
0000
0000
0100
1000
0000
0100
0000
1000
0100
1000
,
0100
1000
0100
0000
1000
0100
0000
0000
1000
0001
0000
1000
0000
0001
1000
0001
,
1000
0001
1000
0000
0001
1000
0000
0000
0010
1000
0000
0010
0000
1000
0010
1000
,
0010
1000
0010
0000
1000
0010
0000
1000
0000
0010
0100
0010
0100
0010
0100
0010
,
0100
0010
0100
0000
0010
0100
0000
0000
0001
0100
0000
0001
0000
0100
0001
0100
,
0001
0100
0001
0000
0000
0000
0000
0000
0100
0010
0100
0010
0100
0010
0100
0010
,
0100
0010
0000
1000
0000
1000
0000
1000
0000
0000
0000
0000
0000
1000
0000
0100
,
0010
0100
0000
0010
0000
0010
0000
0010
0000
0001
0010
0001
0010
0001
0010
0001
,
0010
0001
0000
1000
0000
0100
0000
0010
0000
0000
0000
0000
0000
0010
0000
0100
,
0010
0100
0000
1000
0000
0001
0000
0010
0000
0001
0010
0001
1000
0001
0010
0001
,
1000
0001
0000
1000
0000
0100
0000
0010
0000
0000
0000
0000
0000
0001
0000
0100
,
0001
0100
0000
0010
0000
1000
0000
0100
0000
0010
0100
0010
0001
0010
0100
0010
,
0002
0010
1000
0100
1000
0010
1003
0000
,
2001
0010
0001
0100
0001
0010
3001
0000
,
1000
0000
0010
0000
1000
0000
0010
0000
1000
0000
0010
0000
1000
0000
0010
M000
0010
0000
0001
0000
0010
0000
0001
0000
0010
0000
0001
0000
0010
0000
0001
0000
,
1000
0100
1000
0100
1000
0100
1000
0100
M100
0001
0100
0001
0100
0001
0100
0001
,
1000
0010
1000
0010
M010
0001
0010
0001
1000
0100
1000
0100
M100
0001
0100
0001
,
1000
0010
1000
0010
M010
0001
0010
0001
1000
0100
1000
0100
M100
0001
0100
0001
,
0200
0002
0010
1303
,
2000
0002
0010
3103
,
0001
0100
0010
1000
0001
0100
0010
1000
0001
0010
0100
1000
0001
0010
0100
1000
,
0001
0100
0010
1000
0001
0100
0010
1000
0001
0010
0100
1000
0001
0010
0100
1000
,
0001
0010
0001
0010
0001
0010
0001
0010
001M
1000
0010
1000
0010
1000
0010
1000
,
0001
0100
0001
0100
0001
0100
0001
0100
010M
1000
0100
1000
0100
1000
0100
1000
,
0001
0010
0001
0010
001M
1000
0010
1000
0001
0100
0001
0100
010M
1000
0100
1000
,
0001
0010
0001
0010
001M
1000
0010
1000
0001
0100
0001
0100
010M
1000
0100
1000
,
0100
1000
0100
0000
1000
0100
0000
0000
0010
0100
0000
0010
0000
0100
0010
0100
,
0010
0100
0010
0000
0100
0010
0000
0000
0001
0010
0000
0001
0000
0010
0001
0010
,
0001
0010
0001
0000
0010
0001
0000
0000
1000
0001
0000
1000
0000
0001
1000
0001
,
1000
0001
1000
0000
0001
1000
0000
0000
0100
1000
0000
0100
0000
1000
0100
1000
,
0100
1000
0100
0000
1000
0100
0000
0000
0010
0100
0000
0010
0000
0100
0010
0100
,
0010
0100
0010
0000
0100
0010
0000
0001
0000
0010
0001
0010
0100
0010
1000
0010
,
0001
0010
0100
0000
0010
1000
0000
0000
0010
0001
0000
0010
0000
0100
0010
1000
,
0010
0001
0020
0000
0000
0000
0030
0000
0100
0010
0100
0001
0100
1000
0100
0010
,
0100
0001
0000
0100
1000
0000
0100
0010
0000
0100
0001
0000
0100
1000
0100
0000
,
1000
0001
2000
0000
3001
1000
0002
0000
0013
0100
0020
0000
0130
0010
0200
0000
,
0301
1000
0002
0000
0103
0010
0200
0000
1300
0001
2000
0000
3010
0100
0020
0000
,
0130
0010
0200
0000
1300
0001
2000
0000
3100
0010
0200
0000
0301
1000
0002
0000
,
0103
0010
0200
0000
0310
0100
0020
0000
1030
0001
2000
0000
3001
1000
0002
0000
,
1003
0001
1000
0000
0001
0010
0000
0000
0001
0100
0000
0001
0000
0100
0010
0100
,
0010
0100
0010
0000
0100
0001
0000
0000
0100
1000
0000
0100
0000
0001
1000
0001
,
1000
0001
1000
0000
0001
0100
0000
0000
0001
0010
0000
0001
0000
0010
0100
0010
,
0100
0010
0100
0000
0010
0001
0000
0000
0010
1000
0000
0010
0000
0001
1000
0001
,
1000
0001
1000
0000
0001
0010
0000
0000
0001
0100
0000
0001
0000
0100
0010
0100
,
0010
0100
0010
0000
0100
0001
0000
0100
0000
0001
0100
0001
1000
0001
1000
0100
,
1000
0100
0010
0000
0001
1000
0000
0000
0100
0010
0000
0001
0000
1000
0100
0010
,
0001
0010
0002
0000
0000
0000
0003
0000
1100
0000
0110
0000
0011
0000
1001
0000
,
0001
0001
0000
1000
0000
1000
0000
0020
0000
0000
0000
0030
0000
0010
0000
0100
,
0010
0100
0000
0001
0000
0001
0000
1000
0000
0010
0100
0010
0100
0010
0100
0001
,
1000
0010
0000
0100
0000
0001
0000
2000
0000
0000
0000
3000
0000
0010
0000
0100
,
0001
1000
0000
0100
0000
0010
0000
0001
0000
1000
0100
0010
0001
1000
0100
0010
,
0001
0100
0000
0010
0000
1000
0000
0200
0000
0000
0000
0300
0000
0010
0000
0001
,
0100
0010
0000
1000
0000
0100
0000
0010
0000
0001
0100
0010
1000
0100
0010
0001
,
0200
0001
0010
1000
0010
0001
0310
0000
,
0120
1000
0100
0001
0100
1000
0130
0000
,
0001
0100
0001
0100
010M
1000
0100
1000
0001
0010
0001
0010
001M
1000
0010
1000
,
0001
0100
010M
1000
0001
0100
010M
1000
0001
0100
010M
1000
0001
0010
001M
1000
,
0001
0010
001M
1000
0001
0010
001M
1000
0001
0100
010M
1000
0001
0010
001M
1000
,
0001
0100
010M
1000
0001
0010
001M
1000
0001
0100
010M
1000
0001
0010
0010
1000
,
0002
0200
1000
0313
,
2000
0020
0001
3130
,
0010
0001
0010
0001
0100
0010
0100
0010
1000
0100
1000
0100
0010
0001
0010
0001
,
0100
0010
0100
0010
1000
0100
1000
0100
1001
0000
0000
0000
0000
0000
0000
0000
;

//---------------dance-double - LinkDubs04----------------
#NOTES:
     dance-double:
     LinkDubs04:
     Beginner:
     3:
     0.179858,0.210665,0.018698,0.056094,0.000000,202.000000,199.000000,3.000000,9.000000,0.000000,0.000000,0.179858,0.210665,0.018698,0.056094,0.000000,202.000000,199.000000,3.000000,9.000000,0.000000,0.000000:
00000000
00000000
00000000
00000000
,
00000000
00000000
00000000
00000000
,
00000000
00000000
00000000
00000000
,
00001000
00000000
00001000
00000000
,
00010000
00000000
00010000
00000000
,
00001000
00000000
00001000
00000000
,
00010000
00000000
00010000
00000000
,
01000000
00000000
01000000
00000000
,
00010000
00000000
00010000
00000000
,
00100000
00000000
00100000
00000000
,
00010000
00000000
00010000
00000000
,
00001000
00000000
00001000
00000000
,
00010000
00000000
00010000
00000000
,
00001000
00000000
00001000
00000000
,
00010000
00000000
00010000
00000000
,
00022000
00000000
00033000
00000000
,
00010000
00010000
00010000
00000000
,
00001000
00001000
00001000
00000000
,
00010000
00010000
00010000
00000000
,
00001000
00001000
00001000
00000000
,
00000010
00000010
00000010
00000000
,
00001000
00001000
00001000
00000000
,
00000100
00000100
00000100
00000000
,
00001000
00001000
00001000
00000000
,
00010000
00010000
00010000
00000000
,
00001000
00001000
00001000
00000000
,
00010000
00010000
00010000
00000000
,
00022000
00000000
00033000
00000000
,
00001000
00000000
00010000
00000000
,
00001000
00000000
00010000
00000000
,
01000000
00000000
00010000
00000000
,
00100000
00000000
00010000
00000000
,
00001000
00000000
00010000
00000000
,
00001000
00000000
00010000
00000000
,
00002000
00000000
00003000
00000000
,
00020000
00000000
00030000
00000000
,
00001000
00001000
00001000
00000000
,
00010000
00010000
00010000
00000000
,
00001000
00001000
00001000
00000000
,
00100000
00100000
00100000
00000000
,
00001000
00001000
00001000
00000000
,
01000000
01000000
01000000
00000000
,
00001000
00001000
00001000
00000000
,
00010000
00010000
00010000
00000000
,
00001000
00001000
00001000
00000000
,
00010000
00010000
00010000
00000000
,
00000010
00000010
00000010
00000000
,
00010000
00010000
00010000
00000000
,
00000100
00000100
00000100
00000000
,
00010000
00000000
00001000
00000000
,
00010000
00000000
00001000
00000000
,
01000000
00000000
00001000
00000000
,
00100000
00000000
00001000
00000000
,
00010000
00000000
00001000
00000000
,
00010000
00000000
00000100
00000000
,
00010000
00000000
00000010
00000000
,
00002000
00000000
00003000
00000000
,
00001000
00001000
00000010
00000000
,
00001000
00001000
00000100
00000000
,
00010000
00010000
00001000
00000000
,
00010000
00010000
00000010
00000000
,
00010000
00010000
00001000
00000000
,
00010000
00010000
00000100
00000000
,
00010000
00010000
00001000
00000000
,
00001000
00001000
00010000
00000000
,
00010000
00010000
00100000
00000000
,
00010000
00010000
01000000
00000000
,
00001000
00001000
00100000
00000000
,
00001000
00001000
00010000
00000000
,
00001000
00001000
01000000
00000000
,
00001000
00001000
00010000
00000000
,
00010000
00010000
00001000
00000000
,
00001000
00001000
00010000
00000000
,
00001000
00010000
00001000
00000000
,
00100000
00001000
00100000
00000000
,
02000000
00000000
03000000
00000000
,
00020000
00000000
00030000
00000000
,
01000000
00000000
00010000
00000000
,
00100000
00000000
00001000
00000000
,
00010000
00000000
00000100
00000000
,
00001000
00000000
00000010
00000000
,
00001000
00000000
00000100
00000000
,
00010000
00000000
00001000
00000000
,
00100000
00000000
00010000
00000000
,
01000000
00000000
01100000
00000000
;

//---------------dance-double - LinkDubs06----------------
#NOTES:
     dance-double:
     LinkDubs06:
     Easy:
     4:
     0.284924,0.342331,0.162050,0.261774,0.000000,320.000000,294.000000,26.000000,42.000000,0.000000,0.000000,0.284924,0.342331,0.162050,0.261774,0.000000,320.000000,294.000000,26.000000,42.000000,0.000000,0.000000:
00000000
00000000
00000000
00000000
,
00000000
00000000
00000000
00000000
,
00000000
00000000
00000000
00000000
,
00001000
00001000
00001000
00001000
,
00010000
00010000
00010000
00010000
,
00001000
00001000
00001000
00001000
,
00010000
00010000
00010000
00010000
,
00001000
00001000
00100000
00100000
,
00001000
00001000
00010000
00010000
,
00001000
00001000
00100000
00100000
,
00001000
00001000
00010000
00010000
,
00000010
00000010
00010000
00010000
,
00000100
00000100
00020000
00030000
,
00001000
00001000
00100000
00100000
,
00010000
00010000
01000000
01000000
,
00200000
00300000
01000000
01000000
,
00010000
00010000
00100000
00100000
,
00001000
00001000
00010000
00010000
,
00000100
00000100
00001000
00001000
,
00000010
00000010
00000100
00000100
,
00000010
00000010
00001000
00001000
,
00000001
00000001
00000100
00000100
,
00000001
00000001
00000010
00000010
,
00000001
00000001
00001000
00001000
,
00000100
00000100
00010000
00010000
,
00001000
00001000
00200000
00300000
,
00010000
00010000
01000000
01000000
,
02020000
00000000
00000000
03030000
,
10000000
10000000
20200000
30300000
,
01000000
01000000
02020000
03030000
,
00100000
00100000
00202000
00303000
,
00010000
00010000
00020200
00030300
,
00001000
00001000
00002020
00003030
,
00000100
00000100
00000202
00000303
,
00001000
00000010
00001000
00000000
,
00010000
00000100
00010000
00000000
,
00001000
00001000
00001000
00001000
,
00100000
00100000
00100000
00100000
,
00010000
00010000
00010000
00010000
,
01000000
01000000
01000000
01000000
,
01010000
00010000
01010000
00010000
,
00110000
00100000
00110000
00100000
,
00001000
00001000
00010000
00010000
,
00000100
00000100
00001000
00001000
,
00000100
00000100
00000010
00000010
,
00000001
00000001
00001000
00001000
,
00000010
00000010
00000100
00000100
,
00000001
00000001
00001000
00001000
,
00000100
00000100
00010000
00010000
,
00001000
00001000
00100000
00100000
,
00010000
00010000
10000000
10000000
,
01000000
01000000
00100000
00100000
,
00010000
00010000
10000000
10000000
,
00100000
00100000
02000000
03000000
,
00010000
00010000
00100000
00100000
,
00002000
00000000
00000000
00003000
,
00101000
00110000
00101000
00110000
,
00010000
00010000
00010000
00010000
,
01000000
01000000
01000000
01000000
,
00001000
00001000
00001000
00001000
,
00010000
00010000
00010000
00010000
,
00000010
00000010
00000100
00000100
,
00000001
00000001
00001000
00001000
,
00000010
00000010
00000100
00000100
,
00000001
00000001
00001000
00001000
,
00000100
00000100
00010000
00010000
,
00001000
00001000
00020000
00030000
,
00001000
00001000
00100000
00100000
,
00020000
00000000
00000000
00030000
,
00100000
00010000
00220000
00330000
,
00010000
00001000
00022000
00033000
,
00010000
00000100
00020200
00030300
,
00000010
00010000
00020020
00030030
,
00001000
00010000
00022000
00033000
,
00001000
01000000
02002000
03003000
,
02000000
03200000
02300000
03000000
,
00002000
02003000
03002000
00003000
,
00010000
00010000
00010000
00010000
,
00000100
00000100
00000100
00000100
,
00001000
00001000
00001000
00001000
,
00000010
00000010
00000010
00000010
,
00010010
00010000
00010010
00010000
,
00011000
00001000
00011000
00001000
,
02000000
03000000
00020000
00030000
,
20000000
30000000
10010000
00000000
;

//---------------dance-double - LinkDubs10----------------
#NOTES:
     dance-double:
     LinkDubs10:
     Medium:
     7:
     0.450535,0.473997,0.218145,0.199447,0.000000,506.000000,471.000000,35.000000,32.000000,0.000000,0.000000,0.450535,0.473997,0.218145,0.199447,0.000000,506.000000,471.000000,35.000000,32.000000,0.000000,0.000000:
00000000
00000000
00000000
00000000
,
00000000
00000000
00000000
00000000
,
00000000
00000000
00000000
00000000
,
00001000
00010000
00001000
00000000
00010000
00001000
00010000
00000000
,
00001000
00100000
00001000
00000000
00100000
00001000
00100000
00000000
,
00001000
01000000
00001000
00000000
01000000
00001000
01000000
00000000
,
00001000
00010000
00001000
00000000
00010000
00001000
00010000
00000000
,
00000010
00010000
00000010
00000000
00010000
00000010
00010000
00000000
,
00000100
00010000
00000100
00000000
00010000
00000100
00010000
00000000
,
00001000
00010000
00001000
00000000
00010000
00001000
00010000
00000000
,
00000100
00001000
00000100
00000000
00000010
00000001
00000010
00000000
,
00000100
00000010
00000100
00000000
00001000
00000001
00001000
00000000
,
00000010
00010000
00000010
00000000
00022000
00000000
00033000
00000000
,
00100000
00001000
00100000
00000000
00010000
10000000
00010000
00000000
,
20020000
00000000
00000000
30030000
,
01100000
10010000
01100000
10010000
,
10000000
01000000
10000000
00000000
01000000
00100000
01000000
00000000
,
00100000
00001000
00100000
00000000
00001000
00010000
00001000
00000000
,
00010000
00000100
00010000
00000000
00000100
00000010
00000100
00000000
,
00000010
00000001
00000010
00000000
00000001
00001000
00000001
00000000
,
00001000
00000010
00001000
00000000
00000010
00010000
00000010
00000000
,
00010000
00001000
00010000
00000000
00001000
00100000
00001000
00000000
,
00100000
00010000
00100000
00000000
00010000
01000000
00010000
00000000
,
01000000
00001000
01000000
00000000
00001000
00010000
00001000
00000000
,
00010000
00000100
00010000
00000000
00000100
00001000
00000100
00000000
,
00001000
00000001
00001000
00000000
00002002
00000000
00003003
00000000
,
00001000
00000100
00010000
00000000
00001000
01000000
00010000
00000000
,
20020000
00000000
00000000
30030000
,
10000000
00100000
10000000
00100000
20200000
00000000
30300000
00000000
,
00001000
01000000
00001000
01000000
02002000
00000000
03003000
00000000
,
00010000
00001000
00010000
00001000
00022000
00000000
00033000
00000000
,
00000100
00010000
00000100
00010000
00020200
00000000
00030300
00000000
,
00000010
00000001
00000010
00000001
00000022
00000000
00000033
00000000
,
00000100
00000010
00000100
00000010
00000220
00000000
00000330
00000000
,
00010000
00001000
00010000
00001000
00010000
00001000
00010000
00000000
,
00001000
00010000
00001000
00010000
00001000
00010000
00001000
00000000
,
00010000
00000100
00010000
00001000
00010000
00000100
00010000
00000000
,
00000100
00010000
00000100
00001000
00000100
00010000
00000100
00000000
,
00010000
00000010
00010000
00000100
00010000
00000010
00010000
00000000
,
00000010
00000100
00000010
00001000
00000010
00000100
00000010
00000000
,
00000110
00001001
00000110
00001001
,
00001100
00010100
00011000
01001000
,
01000000
00001000
01000000
00000000
00010000
01000000
00010000
00000000
,
10000000
00010000
10000000
00000000
00100000
10000000
00100000
00000000
,
10000000
00100000
10000000
00100000
01000000
00100000
01000000
00100000
,
01000000
00001000
01000000
00001000
00010000
00001000
00010000
00001000
,
00010000
00000010
00010000
00000010
00001000
00000010
00001000
00000010
,
00001000
00000100
00001000
00000100
00000010
00000100
00000010
00000000
,
00000001
00000010
00000100
00000000
00000010
00000100
00010000
00000000
,
00000100
00010000
00001000
00000000
00010000
00001000
00100000
00000000
,
00001000
00100000
01000000
00000000
00100000
01000000
10000000
00000000
,
10000000
01000000
00100000
00000000
01000000
00100000
00001000
00000000
,
00100000
00001000
00010000
00000000
00001000
00010000
00000100
00000000
,
00010000
00000100
00000010
00000000
00000200
00000000
00000300
00000000
,
00000001
00000100
00001000
00000000
00001000
00000100
00000001
00000000
,
00000200
00000000
00000000
00000300
,
00011000
01000000
00011000
00000100
,
00000001
00000100
00000001
00001000
00000001
00001000
00000001
00001000
,
00000010
00001000
00000010
00010000
00000010
00010000
00000010
00010000
,
00001000
00010000
00001000
01000000
00001000
01000000
00001000
01000000
,
00010000
01000000
00010000
10000000
00010000
10000000
00010000
00000000
,
10000000
00100000
01000000
00000000
00010000
10000000
00100000
00000000
,
01000000
00010000
10000000
00000000
00100000
01000000
00010000
00000000
,
10000000
01000000
00100000
00000000
00010000
10000000
01000000
00000000
,
00100000
00010000
10000000
00000000
01000000
00100000
00010000
00000000
,
00100000
00001000
00010000
00000000
00001000
00100000
00010000
00000000
,
00100000
00010000
10000000
00000000
00200000
00000000
00300000
00000000
,
10000000
00100000
00010000
00000000
00010000
00100000
10000000
00000000
,
00200000
00000000
00000000
00300000
,
01000000
00100000
01000000
00010000
02000000
00000000
03000000
00000000
,
00001000
00010000
00001000
00100000
00002000
00000000
00003000
00000000
,
00010000
00001000
00010000
00000010
00020000
00000000
00030000
00000000
,
00000100
00000010
00000100
00001000
00000200
00000000
00000300
00000000
,
00010000
00000100
00010000
00000010
00020000
00000000
00030000
00000000
,
00001000
00100000
00010000
10000000
02000000
00000000
03000000
00000000
,
12000000
10000000
10000000
10000000
10000000
10000000
13000000
00000000
,
00210000
00010000
00010000
00010000
00010000
00010000
00310000
00000000
,
00010000
00100000
00010000
00100000
00001000
00010000
00001000
00010000
,
00000100
00001000
00000100
00001000
00000010
00000100
00000010
00000100
,
00000001
00000010
00000001
00000010
00000001
00001000
00000001
00001000
,
00000100
00010000
00000100
00010000
00001000
00010000
00001000
00010000
,
00011000
00101000
01001000
00101000
,
00011000
00010010
00010100
00010010
,
00010000
00010000
00000010
00000010
00001000
00001000
00000001
00000001
,
00000100
00000100
00000010
00000010
00001001
00000000
00000000
00000000
;

//---------------dance-double - LinkDubs14----------------
#NOTES:
     dance-double:
     LinkDubs14:
     Hard:
     9:
     0.675803,0.789995,0.137119,0.243075,0.906858,759.000000,737.000000,22.000000,39.000000,4.000000,0.000000,0.675803,0.789995,0.137119,0.243075,0.906858,759.000000,737.000000,22.000000,39.000000,4.000000,0.000000:
00000000
00000000
00000000
00000000
,
00000000
00000000
00000000
00000000
,
0M000000
M0000000
00M00000
M0000000
,
00000001
00000001
00001000
00001000
00000010
00000010
00001000
00001000
,
00000010
00001000
00000010
00001000
00000010
00001000
00000010
00000000
00010000
00000010
00010000
00000010
00010000
00000010
00010000
00000000
,
00000100
00010000
00000100
00010000
00000100
00010000
00000100
00000000
00001000
00000100
00001000
00000100
00001000
00000100
00001000
00000000
,
00000001
00001000
00000001
00001000
00000001
00001000
00000001
00000000
00000100
00000001
00000100
00000001
00000100
00000001
00000100
00000000
,
00000010
00000100
00000010
00000000
00000100
00000010
00000000
00000000
00000100
00000010
00000000
00000100
00000000
00000010
00000100
00000010
,
00000100
00000010
00000100
00000000
00000010
00000100
00000000
00000000
00000010
00010000
00000000
00000010
00000000
00010000
00000010
00010000
,
00000010
00010000
00000010
00000000
00010000
00000010
00000000
00000000
00010000
00001000
00000000
00010000
00000000
00001000
00010000
00001000
,
00010000
00001000
00010000
00000000
00001000
00010000
00000000
00000000
00001000
00100000
00000000
00001000
00000000
00100000
00001000
00100000
,
00001000
00100000
00001000
00000000
00100000
00001000
00000000
00000000
01000000
00001000
00000000
01000000
00000000
00001000
01000000
00001000
,
01000000
00001000
01000000
00000000
00001000
01000000
00000000
02002000
00000000
00000000
00000000
03003000
00000000
00000000
00000000
00000000
,
00010000
01000000
00010000
00000000
01000000
00010000
00000000
00000000
10000000
00010000
00000000
10000000
00000000
00010000
10000000
00010000
,
10000000
00010000
20000000
00000000
00000000
00000000
00000000
00000000
00010000
00000000
00010000
00000000
00010000
00000000
30010000
00000000
,
10000000
10000000
00000000
00010000
00010000
00000000
00100000
00100000
00000000
00010000
00010000
00000000
00100000
00010000
00100000
00000000
,
00010000
00100000
00010000
00100000
00001000
00100000
00001000
00000000
00100000
00001000
00100000
00001000
00010000
00001000
00010000
00000000
,
00001000
00010000
00001000
00010000
00000100
00010000
00000100
00000000
00010000
00000100
00010000
00000100
00001000
00000100
00001000
00000000
,
00000100
00001000
00000100
00001000
00000010
00001000
00000010
00000000
00001000
00000010
00001000
00000010
00000100
00000010
00000100
00000000
,
00000010
00000100
00000010
00000100
00000001
00000100
00000001
00000000
00001000
00000001
00001000
00000001
00000100
00000001
00000100
00000000
,
00000010
00000100
00000010
00000000
00000100
00000010
00000000
00000000
00000100
00000001
00000000
00000100
00000000
00000001
00000100
00000001
,
00000100
00000001
00000100
00000000
00000001
00000100
00000000
00000000
00000001
00001000
00000000
00000001
00000000
00001000
00000001
00001000
,
00000001
00001000
00000001
00000000
00001000
00000001
00000000
00000000
00001000
00000100
00000000
00001000
00000000
00000100
00001000
00000100
,
00001000
00000100
00001000
00000000
00000100
00001000
00000000
00000000
00000100
00010000
00000000
00000100
00000000
00010000
00000100
00010000
,
00000100
00010000
00000100
00000000
00010000
00000100
00000000
00000000
00010000
00001000
00000000
00010000
00000000
00001000
00010000
00001000
,
00010000
00001000
00010000
00000000
00001000
00010000
00000000
00002000
00000000
00000000
00000000
00003000
00000000
00000000
00000000
00000000
,
00001000
01000000
00001000
00000000
01000000
00001000
00000000
00000000
00100000
00001000
00000000
00100000
00000000
00001000
00100000
00001000
,
00100000
00001000
00200000
00000000
00000000
00000000
00000000
00000000
00001000
00000000
00001000
00000000
00001000
00000000
00301000
00000000
,
00100000
00100000
00000000
00001000
00000000
00001000
00000000
00002000
00000000
00000000
00000000
00003000
00000000
00000000
00000000
00000000
,
00010000
00010000
00000000
00000010
00000000
00000010
00000000
00000020
00000000
00000000
00000000
00000030
00000000
00000000
00000000
00000000
,
00001000
00001000
00000000
00000001
00000000
00000001
00000000
00000002
00000000
00000000
00000000
00000003
00000000
00000000
00000000
00000000
,
00010000
00010000
00000000
00001000
00000000
00001000
00000000
00002000
00000000
00000000
00000000
00003000
00000000
00000000
00000000
00000000
,
00010000
00001000
00000000
00000010
00000000
00001000
00000000
00020000
00000000
00000000
00000000
00030000
00000000
00000000
00000000
00000000
,
00001000
00010000
00000000
00100000
00000000
00010000
00000000
00001000
00000000
00000000
00000000
00000000
00000000
00000000
00000000
00000000
,
00012000
00010000
00010000
00010000
00010000
00010000
00013000
00000000
,
00020010
00000010
00000010
00000010
00000010
00000010
00030010
00000000
,
00000010
00010000
00000010
00010000
00000100
00010000
00000100
00000000
00010000
00000100
00010000
00000100
00001000
00000100
00001000
00000000
,
00000100
00001000
00000100
00001000
00000001
00001000
00000001
00000000
00001000
00000001
00001000
00000001
00000010
00000001
00000010
00000000
,
00000001
00000010
00000001
00000010
00000100
00000010
00000100
00000000
00000010
00000100
00000010
00000100
00010000
00000100
00010000
00000000
,
00000100
00010000
00000100
00010000
00001000
00010000
00001000
00000000
00010000
00001000
00010000
00001000
00100000
00001000
00100000
00000000
,
00101000
00110000
00101000
00011000
,
00010010
00001010
00010010
00011000
,
00010000
00001000
00010000
00000100
00001000
00000100
00001000
00000010
,
00010000
00001000
00100000
00010000
01000000
00100000
10000000
00100000
,
10000000
00010000
01000000
00010000
01000000
00001000
00100000
00001000
,
00010000
00000010
00001000
00000001
00000100
00000010
00010000
00001000
,
00010000
00000100
00001000
00000100
00010000
00001000
00010000
00001000
,
00100000
00001000
00100000
00010000
01000000
00010000
10000000
00010000
,
10000000
00010000
10000000
00000000
00010000
10000000
00000000
00000000
00100000
10000000
00000000
00100000
00000000
10000000
00100000
10000000
,
00100000
10000000
00100000
00000000
10000000
00100000
00000000
00000000
10000000
00010000
00000000
10000000
00000000
00010000
10000000
00010000
,
10000000
00010000
10000000
00000000
00010000
10000000
00000000
00000000
00010000
00100000
00000000
00010000
00000000
00100000
00010000
00100000
,
00010000
00100000
00010000
00000000
00100000
00010000
00000000
00000000
00100000
00001000
00000000
00100000
00000000
00001000
00100000
00001000
,
00100000
00001000
00100000
00000000
00001000
00100000
00000000
00000000
00001000
00010000
00000000
00001000
00000000
00010000
00001000
00010000
,
00001000
00010000
00001000
00000000
00010000
00001000
00000000
00020000
00000000
00000000
00000000
00030000
00000000
00000000
00000000
00000000
,
00010000
00001000
00010000
00000000
00000100
00010000
00000000
00000000
00001000
00010000
00000000
00000100
00000000
00010000
00001000
00010000
,
00000200
00000000
00000000
00000000
00001000
00001000
00001000
00001300
,
00000100
00000100
00000000
00010000
00010000
00000000
00001000
00001000
00000000
01000000
01000000
00000000
00001000
01000000
00001000
00000000
,
00010000
00020000
00000100
00030200
00001000
00002300
00000010
00003020
,
00000130
00000200
00000001
00000302
00001000
00002003
00000100
00003200
,
00010000
00020300
00001000
00032000
00100000
00203000
00010000
00320000
,
10000000
20030000
00010000
30020000
01000000
02030000
00001000
03001000
,
01000000
00001000
01000000
00000000
00001000
01000000
00000000
00000000
00001000
00010000
00000000
00001000
00000000
00010000
00001000
00010000
,
00001000
00010000
00001000
00000000
00010000
00001000
00000000
00000000
00010000
00000100
00000000
00010000
00000000
00000100
00010000
00000100
,
00010000
00000100
00010000
00000000
00000100
00010000
00000000
00000000
00000100
00001000
00000000
00000100
00000000
00001000
00000100
00001000
,
00000100
00001000
00000100
00000000
00001000
00000100
00000000
00000000
00000001
00000100
00000000
00001000
00000000
00000100
00000010
00000100
,
00000010
00000100
00001000
00000000
00000001
00000010
00000000
00000000
00000001
00000100
00000000
00000001
00000000
00001000
00000001
00001000
,
00000001
00001000
00000001
00000000
00000010
00000001
00000000
00000200
00000000
00000000
00000000
00000300
00000000
00000000
00000000
00000000
,
00000001
00000010
00000100
00000000
00001000
00000001
00000000
00000000
00000010
00000100
00000000
00001000
00000000
00000001
00000010
00000100
,
00002000
00000000
00000000
00000000
00003100
00001000
00000100
00010000
,
00000100
00000100
00000000
00010000
00000000
00010000
00000000
00002000
00000000
00000000
00000000
00003000
00000000
00000000
00000000
00000000
,
01000000
01000000
00000000
00010000
00000000
00010000
00000000
00020000
00000000
00000000
00000000
00030000
00000000
00000000
00000000
00000000
,
10000000
01000000
10000000
01000000
00000000
00100000
00000000
00020000
00000000
00000000
00000000
00030000
00000000
00000000
00000000
00000000
,
01000000
00010000
01000000
00010000
00000000
10000000
00000000
00200000
00000000
00000000
00000000
00300000
00000000
00000000
00000000
00000000
,
10000000
00100000
10000000
00100000
00000000
01000000
00000000
00020000
00000000
00000000
00000000
00030000
00000000
00000000
00000000
00000000
,
00100000
00001000
00100000
00001000
00000000
00010000
00000000
00002000
00000000
00000000
00000000
00003000
00000000
00000000
00000000
00000000
,
00201000
00010000
00001000
00010000
00001000
00010000
00301000
00000000
,
00102000
00010000
00100000
00010000
00100000
00010000
00103000
00000000
,
00001000
00100000
00010000
10000000
00100000
10000000
00010000
00100000
,
01000000
10000000
00100000
01000000
00001000
00100000
01000000
10000000
,
00010000
00100000
00001000
01000000
00100000
10000000
00010000
10000000
,
01000000
00100000
00001000
01000000
00100000
10000000
00010000
00000000
,
01010000
01001000
00101000
00110000
,
01001000
00101000
00110000
10010000
,
10000000
00010000
10000000
00010000
01000000
00010000
01000000
00000000
00100000
10000000
00100000
10000000
00010000
10000000
00010000
00000000
,
10000000
00010000
01000000
00010000
00100000
00010000
10000000
00000000
10010000
00000000
00000000
00000000
00000000
00000000
00000000
00000000
;

//---------------dance-double - LinkDubs16----------------
#NOTES:
     dance-double:
     LinkDubs16:
     Challenge:
     11:
     0.861894,0.868995,0.043629,0.218145,1.514547,968.000000,961.000000,7.000000,35.000000,33.000000,8.000000,0.861894,0.868995,0.043629,0.218145,1.514547,968.000000,961.000000,7.000000,35.000000,33.000000,8.000000:
00000000
00000000
00000000
00000000
,
00000000
00000000
00000000
00000000
,
0M000000
M0000000
00M00000
M0000000
,
00000001
00001000
00000001
00001000
00000001
00001000
00000001
00001000
00000010
00001000
00000010
00001000
00000010
00010000
00000010
00010000
,
00001000
00010000
00001000
00010000
00001000
00010000
00001000
00010000
00001000
00100000
00001000
00100000
00001000
00010000
00001000
00010000
,
00000010
00010000
00000010
00010000
00000010
00010000
00000010
00010000
000010M0
00100000
00001000
00100000
00001000
00010000
00001000
00010000
,
00000010
00010000
00000010
00010000
00000010
00010000
00000010
00010000
000010M0
00100000
00001000
00100000
00001000
00010000
00001000
00010000
,
00000010
00010000
00000010
00000000
00010000
00000010
00000000
00000000
00010000
00000010
00000000
00010000
00000000
00000010
00010000
00000010
,
00010000
00000010
00010000
00000000
00000010
00010000
00000000
00000000
00000010
00001000
00000000
00000010
00000000
00001000
00000010
00001000
,
00000010
00001000
00000010
00000000
00001000
00000010
00000000
00000000
00001000
00000100
00000000
00001000
00000000
00000100
00001000
00000100
,
00001000
00000100
00001000
00000000
00000100
00001000
00000000
00000000
00000100
00010000
00000000
00000100
00000000
00010000
00000100
00010000
,
00000100
00010000
00000100
00000000
00010000
00000100
00000000
00000000
00010000
00001000
00000000
00010000
00000000
00001000
00010000
00001000
,
00010000
00001000
00010000
00000000
00001000
00010000
00000000
00001000
00000000
01000000
00001000
01000000
00001000
01000000
00001000
01000000
,
00001000
01000000
00001000
00000000
01000000
00001000
00000000
00000000
01000000
00010000
00000000
01000000
00000000
00010000
01000000
00010000
,
01000000
00010000
01000000
00000000
00000000
00000000
00000000
00000000
00100000
01000000
00100000
01000000
00100000
01000000
00100000
01000000
,
00010000
00010000
00000000
00100000
00100000
00000000
01000000
01000000
00000000
10000000
10000000
00000000
00010000
10000000
00010000
00000000
,
10000000
00010000
10000000
00010000
10000000
00010000
10000000
00010000
00100000
00010000
00100000
00010000
00100000
00001000
00100000
00001000
,
00010000
00001000
00010000
00001000
00010000
00001000
00010000
00001000
00010000
00000010
00010000
00000010
00010000
00001000
00010000
00001000
,
00100000
00001000
00100000
00001000
00100000
00001000
00100000
00001000
00M10000
00000010
00010000
00000010
00010000
00001000
00010000
00001000
,
00100000
00001000
00100000
00001000
00100000
00001000
00100000
00001000
00M10000
00000010
00010000
00000010
00010000
00001000
00010000
00001000
,
00100000
00001000
00100000
00000000
00001000
00100000
00000000
00000000
00001000
01000000
00000000
00001000
00000000
01000000
00001000
01000000
,
00001000
01000000
00001000
00000000
01000000
00001000
00000000
00000000
01000000
00100000
00000000
01000000
00000000
00100000
01000000
00100000
,
01000000
00100000
01000000
00000000
00100000
01000000
00000000
00000000
00100000
10000000
00000000
00100000
00000000
10000000
00100000
10000000
,
00100000
10000000
00100000
00000000
10000000
00100000
00000000
00000000
10000000
00010000
00000000
10000000
00000000
00010000
10000000
00010000
,
10000000
00010000
10000000
00000000
00010000
10000000
00000000
00000000
00010000
01000000
00000000
00010000
00000000
01000000
00010000
01000000
,
00010000
01000000
00010000
00000000
01000000
00010000
00000000
01000000
00000000
00001000
01000000
00001000
01000000
00001000
01000000
00001000
,
01000000
00001000
01000000
00000000
00001000
01000000
00000000
00000000
00001000
00010000
00000000
00001000
00000000
00010000
00001000
00010000
,
00001000
00010000
00001000
00000000
00000000
00000000
00000000
00000000
00010000
00000100
00010000
00000100
00010000
00000100
00010000
00000100
,
00010000
00000100
00000000
00001000
00000000
00001000
00000000
00001000
00000000
00000000
00000000
00000000
00000000
00000001
00000000
00000100
,
00000010
00000100
00000000
00000010
00000000
00000010
00000000
00000010
00000000
00001000
00000010
00001000
00000010
00001000
00000010
00001000
,
00000010
00001000
00000000
00000100
00000000
00010000
00000000
00001000
00000000
00000000
00000000
00000000
00000000
00010000
00000000
00001000
,
01000000
00001000
00000000
01000000
00000000
00010000
00000000
10000000
00000000
00010000
10000000
00010000
01000000
00010000
10000000
00010000
,
01000000
00010000
00000000
10000000
00000000
01000000
00000000
00100000
00000000
00000000
00000000
00000000
00000000
00001000
00000000
01000000
,
00001000
01000000
00000000
00010000
00000000
00100000
00000000
00001000
00000000
00010000
00001000
00010000
00000010
00010000
00001000
00010000
,
00000020
00010000
00001000
00010000
00001000
00010000
00001030
00000000
,
00002010
00000001
00000100
00000001
00000010
00000001
00003100
00000000
,
00000100
00001000
00000100
00001000
00000100
00001000
00000100
00001000
00001M00
00010000
00001000
00010000
00001000
00010000
00001000
00010000
,
00000100
00010000
00000100
00010000
00000100
00010000
00000100
00010000
00010M00
01000000
00010000
01000000
00010000
01000000
00010000
01000000
,
00010000
01000000
00010000
01000000
010M0000
10000000
01000000
10000000
00010000
01000000
00010000
01000000
010M0000
10000000
01000000
10000000
,
00010000
01000000
00010000
01000000
010M0000
10000000
01000000
10000000
00010000
01000000
00010000
01000000
010M0000
10000000
01000000
10000000
,
02000000
20000000
00100000
33010000
,
00200000
00020000
01000000
00331000
,
00100000
00010000
00100000
00001000
01000000
00010000
01000000
00001000
00100000
00010000
00100000
00001000
01000000
00010000
01000000
00001000
,
00100000
00010000
00100000
00001000
01000000
00010000
01000000
00001000
00100000
00010000
00100000
00001000
01000000
00010000
01000000
00001000
,
00100000
00010000
00100000
00010000
00100000
00010000
00100000
00010000
00M10000
00001000
00010000
00001000
00010000
00001000
00010000
00001000
,
00100000
00001000
00100000
00001000
00100000
00001000
00100000
00001000
00M01000
00000010
00001000
00000010
00001000
00000010
00001000
00000010
,
00001000
00000010
00001000
00000010
0000M010
00000001
00000010
00000001
00001000
00000010
00001000
00000010
0000M010
00000001
00000010
00000001
,
00001000
00000010
00001000
00000010
0000M010
00000001
00000010
00000001
00001000
00000010
00001000
00000010
0000M010
00000001
00000010
00000001
,
00001000
00000100
00001000
00000000
00000100
00001000
00000000
00000000
00000100
00010000
00000000
00000100
00000000
00010000
00000100
00010000
,
00000100
00010000
00000100
00000000
00010000
00000100
00000000
00000000
00010000
00001000
00000000
00010000
00000000
00001000
00010000
00001000
,
00010000
00001000
00010000
00000000
00001000
00010000
00000000
00000000
00001000
00100000
00000000
00001000
00000000
00100000
00001000
00100000
,
00001000
00100000
00001000
00000000
00100000
00001000
00000000
00000000
00100000
01000000
00000000
00100000
00000000
01000000
00100000
01000000
,
00100000
01000000
00100000
00000000
01000000
00100000
00000000
00000000
01000000
10000000
00000000
01000000
00000000
10000000
01000000
10000000
,
01000000
10000000
01000000
00000000
10000000
01000000
00000000
00100000
00000000
00010000
00100000
00001000
00100000
00000000
00100000
00010000
,
00100000
01000000
00100000
00010000
00100000
00001000
00000000
00000000
00100000
00010000
00000000
00100000
00000000
00001000
00100000
00010000
,
00100000
00001000
00200000
00000000
00000000
00000000
00300000
00000000
00001000
00100000
00001000
00010000
00001000
00100000
00001000
00010000
,
00001000
00100000
00000000
00001000
00010000
00000000
00001000
00100000
00000000
00001000
00010000
00000000
00001000
00100000
00002000
00000000
,
00103000
00001000
00200000
00000000
00301000
00010000
00002000
00000000
00013000
00001000
00020000
00000000
00030100
00010000
00000200
00000000
,
00010300
00000100
00020000
00000000
00030100
00000010
00000200
00000000
00000310
00000100
00000020
00000000
00000031
00000010
00000002
00000000
,
00000013
00000001
00000020
00000000
00000031
00001000
00000002
00000000
00001003
00000001
00002000
00000000
00003010
00001000
00000020
00000000
,
00001030
00000010
00002000
00000000
00003010
00010000
00000020
00000000
00010030
00000010
00020000
00000000
00031000
00010000
00002000
00000000
,
00013000
00001000
00020000
00000000
00031000
00010000
00000000
00000000
00001000
01000000
00000000
00001000
00000000
01000000
00001000
01000000
,
00001000
01000000
00001000
00000000
01000000
00001000
00000000
00000000
01000000
00010000
00000000
01000000
00000000
00100000
01000000
00100000
,
01000000
00100000
01000000
00000000
00010000
01000000
00000000
00000000
00010000
00100000
00000000
00010000
00000000
00100000
00010000
00100000
,
00010000
00100000
00010000
00000000
00100000
00010000
00000000
00000000
00100000
00001000
00000000
00100000
00000000
00001000
00100000
00001000
,
00100000
00001000
00100000
00000000
00001000
00100000
00000000
00000000
00000100
00010000
00000000
00000100
00000000
00010000
00000100
00010000
,
00000100
00010000
00000100
00000000
00010000
00000100
00000000
00001000
00000000
00000001
00000100
00000001
00001000
00000001
00001000
00000100
,
00001000
00000100
00000010
00000000
00000100
00001000
00000000
00000000
00000100
00010000
00000000
00001000
00000000
00100000
00010000
00100000
,
00010000
00100000
00020000
00000000
00000000
00000000
00030000
00000000
00110000
00000000
00101000
00000000
00011000
00000000
00010100
00000000
,
00010000
00010000
00000000
00000010
00000000
00000010
00000000
00000200
00000000
00000000
00000000
00000300
00000000
00000100
00000000
00000010
,
00000100
00000010
00000000
00010000
00000000
00010000
00000000
00001000
00000000
00100000
00010000
00100000
00010000
10000000
00010000
10000000
,
00010000
00100000
00000000
01000000
00000000
10000000
00000000
00020000
00000000
00000000
00000000
00030000
00000000
00100000
00000000
00001000
,
00010000
00000010
00000000
00010000
00000000
00000100
00000000
00001000
00000000
00000001
00000010
00000100
00001000
00000001
00000010
00000100
,
00001000
00000010
00000000
00000100
00000000
00001000
00000000
00020000
00000000
00000000
00000000
00030000
00000000
00001000
00000000
00010000
,
00001000
00100000
00000000
00010000
00000000
01000000
00000000
00100000
00000000
10000000
01000000
00100000
00010000
01000000
00010000
00100000
,
00020000
00100000
01000000
00100000
01000000
00100000
01030000
00000000
,
02001000
00010000
00100000
10000000
00100000
00010000
03001000
00000000
,
00000001
00000100
00000001
00000100
0000010M
00001000
00000100
00001000
00000001
00000100
00000001
00000100
0000010M
00001000
00000100
00001000
,
00000100
00001000
00001M00
00010000
00001000
00010000
0001M000
01000000
00010000
01000000
010M0000
10000000
00010000
01000000
010M0000
10000000
,
00010000
00100000
001M0000
10000000
00010000
00100000
001M0000
10000000
00010000
01000000
010M0000
10000000
00010000
00100000
001M0000
10000000
,
00010000
01000000
010M0000
10000000
00010000
00100000
001M0000
10000000
00010000
01000000
010M0000
10000000
00010000
00100000
00100000
10000000
,
00020000
02000000
00001000
03130000
,
00002000
00020000
00100000
00033010
,
00000100
00001000
00000100
00001000
00000100
00010000
00000100
00010000
00001000
00100000
00001000
00100000
00010000
01000000
00010000
01000000
,
00100000
10000000
00100000
10000000
00010000
01000000
00010000
01000000
01001000
00000000
00000000
00000000
00000000
00000000
00000000
00000000
;

//---------------dance-single - LinkDump17----------------
#NOTES:
     dance-single:
     LinkDump17:
     Edit:
     11:
     1.053327,0.869638,0.000000,0.000000,1.835531,1183.000000,1183.000000,0.000000,0.000000,4.000000,0.000000,1.053327,0.869638,0.000000,0.000000,1.835531,1183.000000,1183.000000,0.000000,0.000000,4.000000,0.000000:
0000
0000
0000
0000
,
0000
0000
0000
0000
,
0M00
M000
00M0
M000
,
0001
1000
0001
1000
0001
1000
0001
0100
0010
0100
0001
1000
0001
0010
0100
1000
,
0010
1000
0001
1000
0100
0010
0100
0010
0001
1000
0001
0100
0001
1000
0010
1000
,
0001
1000
0001
0100
0010
0100
0010
1000
0001
0100
0010
1000
0100
1000
0001
1000
,
0001
0010
0001
0100
0010
1000
0001
0100
0001
1000
0010
1000
0100
1000
0001
0010
,
0100
0010
0100
1000
0001
0010
0001
1000
0001
1000
0100
1000
0001
0010
0001
0100
,
0010
1000
0100
0010
0001
1000
0100
1000
0010
1000
0001
0100
0001
0010
0001
1000
,
0100
0010
0001
1000
0001
1000
0100
1000
0010
0100
0001
0010
0100
1000
0010
0100
,
0001
1000
0001
1000
0001
1000
0010
0100
0001
0010
0001
1000
0100
0010
0100
1000
,
0001
1000
0010
1000
0100
0010
0001
0100
0001
1000
0001
0010
0100
1000
0001
1000
,
0001
1000
0010
0100
0010
0100
0001
1000
0010
0100
0010
1000
0001
1000
0001
1000
,
0001
1000
0001
1000
0100
0010
0100
1000
0001
1000
0010
0100
0001
0010
0001
1000
,
0001
0100
0010
0100
0010
1000
0001
1000
0100
1000
0001
0010
0001
1000
0001
1000
,
0100
0000
0000
0000
,
0010
0100
0010
0001
1000
0100
0010
0001
0100
0001
1000
0001
1000
0010
1000
0100
,
0010
0001
1000
0100
1000
0001
0010
0001
0100
0001
1000
0010
0100
0010
0100
0001
,
1000
0010
1000
0001
1000
0001
0100
0001
1000
0010
1000
0100
0010
0001
0100
0010
,
1000
0001
0100
0001
0010
0001
1000
0100
1000
0010
1000
0001
0100
0010
1000
0001
,
1000
0001
0100
0001
0010
0100
1000
0010
0100
0001
0010
0100
1000
0001
1000
0001
,
1000
0001
0010
0100
1000
0010
1000
0001
0100
0010
0100
0001
1000
0001
0010
0001
,
0100
0010
1000
0100
1000
0001
1000
0010
0100
0001
1000
0001
1000
0001
0010
0100
,
0010
0100
1000
0001
0010
0100
0010
0001
1000
0001
1000
0001
1000
0100
1000
0010
,
0100
0001
0010
0100
1000
0010
0100
0001
1000
0001
1000
0010
1000
0001
0100
0001
,
0010
0100
1000
0010
0100
0010
1000
0001
1000
0100
1000
0010
0100
0001
0010
0001
,
1000
0100
0010
0001
1000
0001
1000
0100
1000
0010
0100
0010
0100
0001
1000
0010
,
0100
0010
1000
0001
1000
0001
1000
0100
0010
0001
0100
0001
1000
0010
0100
0010
,
1000
0100
1000
0001
1000
0010
0100
0010
0100
0001
1000
0001
0010
0100
1000
0001
,
1000
0001
1000
0010
0100
0010
0100
0010
1000
0001
0100
0010
1000
0100
1000
0001
,
1000
0001
0010
0100
0010
0001
1000
0001
0100
0010
1000
0100
1000
0010
1000
0001
,
0100
0010
0100
0010
1000
0001
0100
0001
1000
0010
1000
0001
1000
0001
0100
0010
,
0100
0010
1000
0100
0010
0001
1000
0100
1000
0010
1000
0001
0100
0001
0010
0100
,
1000
0001
0010
0001
1000
0100
1000
0001
1000
0001
0010
0001
0100
0010
1000
0100
,
0010
0000
0000
0000
,
0000
0000
0000
0000
,
0001
0100
0010
1000
0001
1000
0001
0100
0001
1000
0010
1000
0100
0010
0001
0100
,
0010
0100
0001
1000
0001
0010
0001
0100
0010
1000
0100
1000
0001
0010
0100
1000
,
0001
1000
0001
0010
0001
0100
0010
0100
0010
1000
0001
0100
0010
0100
0001
1000
,
0001
1000
0001
0010
0100
1000
0010
1000
0001
0100
0010
0100
0001
0010
0001
1000
,
0001
0000
0000
0000
,
0000
0000
0000
0000
,
0100
0010
0100
0010
1000
0001
1000
0100
0010
0001
1000
0001
1000
0001
0100
0010
,
0100
0010
0100
0001
1000
0010
0100
0001
0010
0001
1000
0001
1000
0100
0010
0100
,
1000
0001
1000
0010
0100
0001
0010
0001
0100
0001
1000
0010
0100
0010
0100
0001
,
1000
0010
1000
0001
0100
0001
1000
0001
1000
0010
0100
0010
0100
0001
0010
0100
,
1000
0001
0010
0001
0100
0001
1000
0010
1000
0100
0010
0001
1000
0100
1000
0001
,
0010
0001
1000
0001
0100
0001
0010
0001
1000
0100
1000
0001
0010
0001
1000
0100
,
0010
0100
0010
0001
0100
0010
1000
0100
1000
0001
0010
0001
1000
0001
0100
0010
,
0100
0001
0010
0001
1000
0100
1000
0010
0100
0001
1000
0010
0100
0010
0100
0001
,
0010
0001
1000
0001
1000
0100
0010
0001
1000
0001
0100
0010
0100
0010
0100
0001
,
1000
0010
1000
0100
0010
0001
1000
0001
0100
0001
0010
0100
0010
0001
1000
0001
,
1000
0100
0010
0100
1000
0001
0010
0100
0010
0100
0010
0001
1000
0001
1000
0001
,
0100
0010
1000
0001
0100
0001
0010
0100
0010
0100
1000
0001
1000
0010
0100
0010
,
1000
0001
0100
0001
0010
0001
0100
0010
1000
0001
1000
0001
0100
0010
1000
0100
,
0010
0001
0100
0010
0100
0010
1000
0001
1000
0001
0100
0001
1000
0010
0100
0001
,
0010
0000
0000
0000
,
0001
0100
0010
1000
0100
1000
0001
0010
0100
1000
0010
0100
0001
1000
0001
1000
,
0010
1000
0100
1000
0001
0010
0001
1000
0100
1000
0001
0010
0100
0010
0100
1000
,
0010
0100
0001
0010
0001
1000
0100
1000
0001
1000
0010
0100
0010
1000
0100
1000
,
0001
0010
0001
0100
0010
1000
0001
0100
0010
0100
0010
1000
0100
1000
0001
1000
,
0001
0010
0100
1000
0001
1000
0010
0100
0010
0100
0010
1000
0001
0100
0001
0010
,
0100
1000
0001
1000
0010
1000
0100
0010
0100
1000
0001
1000
0001
0010
0100
0010
,
0001
1000
0100
0010
0100
0010
0100
1000
0001
1000
0001
1000
0010
0100
0001
1000
,
0010
1000
0100
0010
0100
0010
0001
1000
0001
0100
0010
0100
0001
1000
0010
1000
,
0100
1000
0010
0100
0001
1000
0001
1000
0010
0100
0001
0010
0100
1000
0010
0100
,
0010
0100
0001
1000
0001
1000
0010
1000
0001
0100
0010
1000
0100
1000
0010
0100
,
0001
0010
0001
1000
0100
0010
0001
0100
0010
1000
0001
1000
0001
0100
0010
0100
,
0010
1000
0001
1000
0100
0010
0100
1000
0001
0010
0001
0100
0010
0100
0001
1000
,
0001
1000
0010
0100
0010
1000
0100
0010
0001
0100
0010
0100
0010
1000
0001
1000
,
0001
0100
0010
1000
0001
0100
0001
0010
0100
0010
0100
1000
0010
1000
0001
0100
,
0010
1000
0100
0010
0001
0100
0001
0010
0100
1000
0001
1000
0001
0010
0100
1000
,
0010
0100
0010
0100
0001
0010
0100
1000
0010
1000
0001
0100
0001
1000
0010
0100
,
0001
0010
0001
0100
0010
1000
0100
1000
0010
0100
0001
1000
0010
0100
0010
0100
,
0001
0010
0001
1000
0100
1000
0001
0010
0001
1000
0100
0010
0100
0010
0100
0010
,
0001
0000
0000
0000
,
0000
0000
0000
0000
,
1000
0100
1000
0010
0100
0001
1000
0001
0010
0100
0010
0001
0100
0001
1000
0010
,
1000
0100
0010
0100
1000
0001
0010
0100
0010
0100
0010
0001
1000
0001
1000
0100
,
0010
0001
1000
0001
0100
0010
1000
0001
1000
0100
0010
0100
0010
0001
1000
0001
,
0100
0010
0100
0001
1000
0010
1000
0100
0010
0100
1000
0001
1000
0001
0010
0100
,
0010
0001
0100
0010
1000
0100
0010
0100
0010
0001
1000
0001
1000
0100
0010
0001
,
1000
0100
1000
0010
0100
0010
0100
0001
0010
0001
1000
0100
0010
0001
0100
0010
,
1000
0100
1000
0010
0100
0001
1000
0001
1000
0010
0100
0001
0010
0100
0010
0100
,
1000
0010
0100
0001
0010
0001
1000
0100
1000
0001
0000
0000
0000
0000
0000
0000
;

//---------------dance-double - LinkDump17----------------
#NOTES:
     dance-double:
     LinkDump17:
     Edit:
     11:
     1.053327,0.869638,0.000000,0.000000,1.835531,1183.000000,1183.000000,0.000000,0.000000,4.000000,0.000000,1.053327,0.869638,0.000000,0.000000,1.835531,1183.000000,1183.000000,0.000000,0.000000,4.000000,0.000000:
00000000
00000000
00000000
00000000
,
00000000
00000000
00000000
00000000
,
0M000000
M0000000
00M00000
M0000000
,
00000010
00010000
00000010
00010000
00000010
00010000
00000010
00001000
00000001
00001000
00000010
00010000
00000010
00001000
00000100
00010000
,
00000100
00010000
00000010
00010000
00000100
00001000
00000001
00001000
00000010
00010000
00000010
00001000
00000010
00010000
00000100
00010000
,
00000010
00010000
00000010
00001000
00000001
00001000
00000100
00010000
00000010
00001000
00000100
00010000
00000100
00010000
00000010
00010000
,
00000010
00001000
00000001
00001000
00000100
00010000
00001000
00100000
00001000
01000000
00010000
10000000
00010000
01000000
00001000
00100000
,
00010000
10000000
00010000
01000000
00001000
00100000
00001000
01000000
00001000
01000000
00010000
01000000
00001000
00100000
00001000
00100000
,
00010000
10000000
00010000
00100000
00001000
01000000
00010000
10000000
00010000
01000000
00001000
00100000
00001000
00100000
00001000
01000000
,
00010000
00100000
00001000
01000000
00010000
10000000
01000000
10000000
00100000
01000000
00001000
00100000
01000000
10000000
00100000
01000000
,
00010000
10000000
00010000
10000000
00010000
10000000
00100000
01000000
00001000
00100000
00010000
10000000
01000000
00100000
01000000
10000000
,
00010000
10000000
00100000
10000000
01000000
00100000
00001000
01000000
00010000
10000000
00010000
00100000
01000000
10000000
00010000
10000000
,
00010000
10000000
00100000
01000000
00100000
01000000
00010000
10000000
00100000
01000000
00100000
10000000
00010000
01000000
00001000
01000000
,
00001000
01000000
00001000
01000000
00010000
10000000
00010000
01000000
00001000
01000000
00010000
00100000
00001000
00100000
00001000
01000000
,
00001000
00100000
00010000
10000000
00010000
01000000
00001000
01000000
00010000
01000000
00001000
00100000
00001000
01000000
00001000
01000000
,
00010000
00000000
00000000
00000000
,
10000000
00010000
00100000
00001000
01000000
00010000
00100000
00001000
00100000
00001000
01000000
00001000
01000000
00010000
10000000
00010000
,
00100000
00001000
00010000
00000100
00010000
00000010
00001000
00000001
00001000
00000010
00010000
00000100
00001000
00000001
00001000
00000010
,
00010000
00000100
00010000
00000010
00010000
00000010
00001000
00000010
00010000
00000100
00010000
00000100
00001000
00000001
00001000
00000100
,
00010000
00000010
00001000
00000001
00001000
00000010
00010000
00000100
00010000
00000100
00010000
00000010
00001000
00000100
00010000
00000010
,
00010000
00000010
00001000
00000001
00001000
00000100
00010000
00000100
00001000
00000001
00001000
00000100
00010000
00000010
00001000
00000001
,
00001000
00000001
00000100
00000010
00010000
00000100
00001000
00000001
00000010
00000100
00000010
00000001
00001000
00000001
00000100
00000001
,
00000010
00000100
00010000
00000010
00001000
00000001
00001000
00000100
00000010
00000001
00001000
00000001
00001000
00000001
00000100
00000010
,
00000100
00000010
00001000
00000001
00000100
00000010
00000100
00000001
00001000
00000010
00010000
00000010
00010000
00000100
00010000
00000100
,
00001000
00000001
00001000
00000100
00010000
00000100
00001000
00000010
00010000
00000010
00010000
00000100
00010000
00000010
00001000
00000001
,
00001000
00000100
00010000
00000100
00001000
00000100
00010000
00000010
00010000
00000100
00010000
00000100
00001000
00000001
00001000
00000010
,
00010000
00000100
00001000
00000010
00010000
00000010
00010000
00000100
00010000
00000100
00001000
00000001
00001000
00000010
00010000
00000100
,
00001000
00000100
00010000
00001000
01000000
00001000
01000000
00010000
00100000
00001000
00100000
00001000
01000000
00010000
00100000
00010000
,
10000000
00010000
01000000
00001000
01000000
00010000
00100000
00010000
00100000
00001000
01000000
00001000
00100000
00010000
01000000
00001000
,
01000000
00001000
01000000
00010000
00100000
00010000
00100000
00010000
01000000
00001000
00100000
00010000
10000000
00010000
01000000
00001000
,
01000000
00001000
00100000
00010000
00100000
00001000
01000000
00010000
00100000
01000000
10000000
00100000
10000000
01000000
10000000
00010000
,
00100000
01000000
00100000
01000000
10000000
00010000
00100000
00010000
10000000
01000000
10000000
00010000
10000000
00010000
00100000
01000000
,
00100000
01000000
10000000
00100000
01000000
00010000
10000000
00100000
10000000
01000000
10000000
00010000
00100000
00001000
01000000
00100000
,
10000000
00010000
01000000
00010000
10000000
00100000
01000000
00001000
01000000
00001000
00100000
00001000
00100000
00010000
10000000
00010000
,
00100000
00000000
00000000
00000000
,
00000000
00000000
00000000
00000000
,
00001000
00100000
00010000
01000000
00001000
01000000
00001000
00100000
00001000
01000000
00010000
10000000
00010000
00100000
00001000
00100000
,
00010000
00100000
00001000
01000000
00001000
00100000
00001000
00100000
00010000
10000000
00010000
01000000
00001000
00100000
00010000
01000000
,
00001000
01000000
00001000
00100000
00001000
00100000
00010000
10000000
00010000
01000000
00001000
00100000
00010000
00100000
00001000
00010000
,
00000010
00010000
00000010
00001000
00000100
00010000
00000100
00010000
00000010
00001000
00000001
00001000
00000001
00001000
00000010
00010000
,
00000010
00000000
00000000
00000000
,
00000000
00000000
00000000
00000000
,
00001000
00000001
00001000
00000100
00010000
00000010
00010000
00000100
00001000
00000010
00010000
00000010
00010000
00000010
00001000
00000001
,
00001000
00000001
00001000
00000010
00010000
00000100
00001000
00000001
00001000
00000010
00010000
00000010
00010000
00000100
00001000
00000100
,
00010000
00000010
00001000
00000100
00000010
00000001
00000100
00000001
00000010
00000001
00001000
00000100
00000010
00000100
00000010
00000001
,
00001000
00000100
00001000
00000001
00000010
00000001
00001000
00000001
00001000
00000100
00000010
00000100
00000010
00000001
00000100
00000010
,
00001000
00000001
00000100
00000001
00000010
00000001
00001000
00000100
00010000
00000010
00000100
00000001
00001000
00000010
00001000
00000001
,
00000100
00000010
00010000
00000010
00001000
00000001
00001000
00000010
00010000
00000100
00010000
00000010
00001000
00000010
00010000
00000100
,
00001000
00000001
00001000
00000001
00001000
00000100
00010000
00000100
00010000
00000010
00001000
00000010
00010000
00000010
00001000
00000001
,
00001000
00000001
00001000
00000010
00010000
00000100
00010000
00000100
00001000
00000010
00010000
00000100
00001000
00000001
00001000
00000001
,
00001000
00000010
00010000
00000010
00010000
00000100
00001000
00000010
00010000
00001000
00100000
00010000
10000000
00010000
00100000
00001000
,
01000000
00010000
10000000
00010000
00100000
00001000
01000000
00001000
00100000
00001000
00100000
00010000
00100000
00001000
01000000
00001000
,
01000000
00010000
10000000
00010000
01000000
00001000
00100000
00010000
10000000
00010000
00100000
00001000
01000000
00001000
01000000
00001000
,
00100000
00010000
01000000
00001000
00100000
00001000
00100000
00010000
10000000
00010000
01000000
00001000
01000000
00010000
10000000
00010000
,
01000000
00010000
00100000
00001000
01000000
00001000
00100000
01000000
10000000
00010000
10000000
00010000
00100000
01000000
10000000
00100000
,
01000000
00001000
00100000
01000000
00100000
01000000
10000000
00010000
10000000
00010000
00100000
00010000
10000000
01000000
00100000
00001000
,
01000000
00000000
00000000
00000000
,
00010000
00100000
01000000
10000000
00100000
10000000
00010000
01000000
00100000
10000000
01000000
00100000
00010000
01000000
00001000
01000000
,
00010000
10000000
00010000
01000000
00001000
00100000
00001000
01000000
00010000
01000000
00001000
00100000
00010000
10000000
00010000
10000000
,
00010000
00100000
00001000
00100000
00001000
01000000
00010000
01000000
00001000
01000000
00010000
10000000
00010000
10000000
00010000
01000000
,
00001000
00100000
00001000
00100000
00010000
01000000
00001000
00100000
00010000
10000000
00010000
10000000
00010000
01000000
00001000
01000000
,
00001000
00100000
00010000
01000000
00001000
00010000
00000100
00001000
00000001
00001000
00000100
00010000
00000010
00001000
00000001
00001000
,
00000100
00010000
00000010
00010000
00000100
00010000
00000100
00001000
00000100
00010000
00000010
00010000
00000010
00001000
00000001
00001000
,
00000010
00010000
00000100
00001000
00000001
00001000
00000100
00010000
00000010
00010000
00000010
00010000
00000100
00001000
00000010
00010000
,
00000100
00010000
00000100
00001000
00000001
00001000
00000010
00010000
00000010
00001000
00000001
00001000
00000010
00001000
00000100
00010000
,
00000010
00010000
00000100
00000010
00000001
00001000
00000001
00001000
00000100
00000010
00000001
00000100
00000010
00010000
00000100
00000010
,
00000100
00000010
00000001
00001000
00000001
00001000
00000100
00001000
00000001
00000010
00000100
00010000
00000010
00010000
00000100
00000010
,
00000001
00000100
00000001
00001000
00000010
00000100
00000001
00000010
00000100
00001000
00000010
00010000
00000010
00001000
00000001
00001000
,
00000100
00010000
00000010
00010000
00000100
00001000
00000100
00010000
00000010
00001000
00000001
00001000
00000001
00001000
00000010
00010000
,
00000010
00010000
00000100
00001000
00000100
00010000
00000100
00001000
00000001
00001000
00000001
00001000
00000100
00010000
00000010
00010000
,
00000010
00001000
00000100
00010000
00000010
00001000
00000001
00001000
00000001
00001000
00000100
00010000
00000100
00010000
00001000
00100000
,
00010000
10000000
00010000
00100000
00001000
00100000
00001000
00100000
00010000
01000000
00001000
01000000
00001000
00100000
00010000
10000000
,
00010000
10000000
00010000
00100000
00001000
00100000
00010000
10000000
00010000
01000000
00001000
00100000
00001000
01000000
00010000
00100000
,
00001000
00100000
00001000
00100000
00010000
10000000
00010000
10000000
00010000
00100000
00001000
01000000
00010000
10000000
00010000
00100000
,
00001000
00100000
00001000
01000000
00010000
01000000
00010000
00100000
00010000
10000000
01000000
00100000
01000000
00100000
01000000
00100000
,
00010000
00000000
00000000
00000000
,
00000000
00000000
00000000
00000000
,
10000000
01000000
10000000
00100000
01000000
00010000
10000000
00010000
00100000
01000000
00100000
00001000
01000000
00010000
10000000
00100000
,
10000000
01000000
00100000
01000000
10000000
00010000
00100000
01000000
00100000
01000000
00100000
00010000
10000000
00010000
10000000
01000000
,
00100000
00010000
10000000
00010000
01000000
00100000
01000000
00001000
01000000
00010000
10000000
00010000
00100000
00001000
01000000
00001000
,
00100000
00010000
00100000
00001000
01000000
00010000
10000000
00010000
10000000
00010000
01000000
00001000
01000000
00001000
00100000
00010000
,
00100000
00001000
00100000
00010000
10000000
00010000
10000000
00010000
00100000
00001000
01000000
00001000
01000000
00010000
00100000
00001000
,
01000000
00010000
10000000
00010000
10000000
00010000
00100000
00001000
00100000
00001000
00010000
00000100
00001000
00000001
00001000
00000100
,
00010000
00000100
00010000
00000100
00001000
00000010
00010000
00000010
00010000
00000100
00001000
00000001
00001000
00000100
00001000
00000100
,
00010000
00000100
00001000
00000001
00001000
00000010
00010000
00000100
00010000
00000010
00000000
00000000
00000000
00000000
00000000
00000000
;
