#VERSION:0.83;
#TITLE:B.O.B.;
#SUBTITLE:Sensibility Validation;
#ARTIST:OutKast;
#TITLETRANSLIT:;
#SUBTITLETRANSLIT:;
#ARTISTTRANSLIT:;
#GENRE:;
#CREDIT:;
#MUSIC:BOB.ogg;
#BANNER:BOB-bn.png;
#BACKGROUND:BOB-bg.png;
#CDTITLE:GazeboCD.png;
#SAMPLESTART:56.390;
#SAMPLELENGTH:24.800;
#SELECTABLE:YES;
#OFFSET:-0.223;
#BPMS:0.000=153.836;
#STOPS:;
#BGCHANGES:;
#FGCHANGES:;

//--------------- dance-single - LinkDude03 ----------------
#NOTEDATA:;
#STEPSTYPE:dance-single;
#DESCRIPTION:LinkDude03;
#DIFFICULTY:Beginner;
#METER:2;
#RADARVALUES:0,0,0,0,0;
#NOTES:
0000
0000
0000
0000
,
0000
0000
0000
0000
,
0000
0000
0000
0000
,
0000
0000
0000
0000
,
0001
0000
1000
0000
,
0001
0000
0010
0000
,
0001
0000
1000
0000
,
0100
0000
1000
0000
,
0001
0000
0100
0000
,
0001
0000
1000
0000
,
0010
0000
1000
0000
,
0001
0000
0100
0000
,
0001
0000
0010
0000
,
0001
0000
1000
0000
,
0001
0000
1000
0000
,
0100
0000
1000
0000
,
0010
0000
1000
0000
,
0001
0000
0100
0000
,
0010
0000
0100
0000
,
0001
0000
1000
0000
,
0010
0000
0100
0000
,
0010
0000
1000
0000
,
0001
0000
0010
0000
,
0100
0000
0010
0000
,
0001
0000
1000
0000
,
0001
0000
0010
0000
,
0100
0000
1000
0000
,
0100
0000
0010
0000
,
0001
0000
0010
0000
,
0100
0000
1000
0000
,
0001
0000
1000
0000
,
0010
0000
0100
0000
,
0001
0000
0100
0000
,
0010
0000
1000
0000
,
0010
0000
0100
0000
,
0001
0000
1000
0MM0
,
0000
0001
0001
0000
,
1000
0000
0002
0000
,
1MM3
1000
2000
0000
,
3000
0000
0000
0000
,
0000
0001
0001
0000
,
0100
0000
0002
0000
,
M1M3
0100
0200
0000
,
0300
0000
0000
0000
,
0000
0010
0010
0000
,
1000
0000
0020
0000
,
1M3M
1000
2000
0000
,
3000
0000
0000
0000
,
0000
0100
0100
0000
,
0010
0000
0200
0000
,
M31M
0010
0020
0000
,
0030
0000
0000
0000
,
0001
0001
0001
0000
,
1000
0000
0100
0000
,
0010
0000
0001
0000
,
0100
0000
0010
0000
,
1000
0000
0100
0000
,
0010
0000
0001
0000
,
0100
0000
0010
0000
,
1000
0000
0010
0000
,
0100
0000
0001
0000
,
0010
0000
0100
0000
,
1000
0000
0010
0000
,
0100
0000
0001
0000
,
0010
0000
0100
0000
,
1000
0000
0010
0000
,
0100
0000
0001
0000
,
1000
0000
0001
0000
,
0100
0000
0001
0000
,
0010
0000
0001
0000
,
1000
0000
0001
0000
,
1000
0000
0010
0000
,
1000
0000
0100
0000
,
1000
0000
0001
0000
,
0010
0000
0100
0000
,
0010
0000
0000
0000
,
0001
0000
1000
0000
,
0100
0000
0010
0000
,
0100
0000
1000
0000
,
0001
0000
0100
0000
,
0010
0000
0100
0000
,
0001
0000
1000
0000
,
0010
0000
0100
0000
,
0010
0000
1000
0M0M
,
0000
0010
0010
0000
,
1000
0000
2000
0000
,
3MM1
0001
0002
0000
,
0003
0000
0000
0000
,
0000
0010
0010
0000
,
0001
0000
0002
0000
,
1MM3
1000
2000
0000
,
3000
0000
0000
0000
,
0000
0100
0100
0000
,
1000
0000
2000
0000
,
3MM1
0001
0002
0000
,
0003
0000
0000
0000
,
0000
0100
0100
0000
,
0001
0000
0002
0000
,
1MM3
1000
2000
0000
,
3000
0000
0000
0000
,
0001
0001
1000
1000
,
0002
0000
0003
0000
;

//--------------- dance-single - LinkDude06 ----------------
#NOTEDATA:;
#STEPSTYPE:dance-single;
#DESCRIPTION:LinkDude06;
#DIFFICULTY:Easy;
#METER:4;
#RADARVALUES:0,0,0,0,0;
#NOTES:
0000
0000
0000
0000
,
0000
0000
0000
0000
,
0000
0000
0000
0000
,
0000
0000
0000
0000
,
0001
1000
0002
0003
,
1000
0010
1000
0002
,
0003
1000
0001
0200
,
0300
0001
0010
0200
,
0300
1000
0100
0010
,
0001
1000
0001
0100
,
0010
2000
3000
0001
,
0100
0010
2000
3000
,
0001
0100
0020
0030
,
1000
0001
2000
3000
,
0100
0010
0002
0003
,
1000
0001
0020
0000
,
0001
0000
0001
0001
0030
0000
0000
0000
,
1000
0100
0010
0100
,
1000
0001
0010
0001
,
0010
0100
0020
0030
,
0001
1000
0001
0010
,
0100
1000
0200
0300
,
1000
0001
0100
0001
,
0010
0100
0010
0001
,
1000
0010
2000
3000
,
0001
0010
0100
1000
,
0100
0010
0002
0003
,
1000
0010
0100
0001
,
0100
0010
2000
3000
,
0001
0100
0002
0003
,
0100
0010
2000
3000
,
0010
1000
0001
0100
,
0001
1000
0200
0300
,
0010
0100
1000
0001
,
0010
0001
2000
3000
,
0010
0100
0002
0MM3
,
1000
0100
0010
0001
,
0010
0100
2000
0000
,
0M1M
0010
0001
3001
,
0000
0000
0000
0000
,
0001
0100
0010
1000
,
0010
0100
0002
0000
,
M1M0
0100
1000
1003
,
0000
0000
0000
0000
,
1000
0100
0010
0001
,
0010
0100
2000
0000
,
01MM
0100
0001
3001
,
0000
0000
0000
0000
,
0001
0100
0010
1000
,
0010
0100
0002
0000
,
MM10
0010
1000
1003
,
0000
0000
0000
0000
,
0001
0100
0001
0100
,
0010
1000
0010
1000
,
0100
1000
0002
0003
,
1000
0010
2000
3000
,
0001
0100
0002
0003
,
0010
0001
0200
0300
,
0001
1000
0020
0030
,
1000
0001
0200
0300
,
0010
0100
0020
0030
,
0100
0001
2000
3000
,
0100
0010
0200
0300
,
1000
0010
0200
0300
,
0001
1000
0020
0030
,
0100
0001
2000
3000
,
0100
0010
0002
0003
,
0100
0010
2000
3000
,
0001
0010
0200
0300
,
1000
0001
2000
3000
,
0010
0100
0020
0030
,
1000
0100
0020
0030
,
0001
0010
0200
0300
,
1000
0001
2000
3000
,
0010
0100
0020
0030
,
1000
0100
0020
0030
,
0001
0100
0020
0030
,
1000
0100
0020
0030
,
0001
1000
0200
0300
,
1000
0010
2000
3000
,
0100
0010
0002
0003
,
0010
0100
0020
0030
,
0001
1000
0002
0003
,
1000
0001
0020
MM30
,
0001
0010
0100
1000
,
0100
0010
0002
0000
,
MM10
0010
0100
0103
,
0000
0000
0000
0000
,
1000
0010
0100
0001
,
0100
0010
2000
0000
,
0M1M
0010
0100
3100
,
0000
0000
0000
0000
,
0001
0100
0010
1000
,
0010
0100
0002
0000
,
M1M0
0100
0010
0013
,
0000
0000
0000
0000
,
1000
0100
0010
0001
,
0010
0100
2000
0000
,
01MM
0100
0010
3010
,
0000
0000
0000
0000
,
1001
0000
0110
0000
,
2002
0000
0000
0000
,
3003
0000
0000
0000
;

//--------------- dance-single - LinkDude11 ----------------
#NOTEDATA:;
#STEPSTYPE:dance-single;
#DESCRIPTION:LinkDude11;
#DIFFICULTY:Medium;
#METER:7;
#RADARVALUES:0,0,0,0,0;
#NOTES:
0000
0000
0000
0000
,
0000
0000
0000
0000
,
0000
0000
0000
0000
,
0000
0000
0000
0101
,
0200
0300
0001
2000
3000
0100
0020
0000
,
0030
0001
2000
3000
0100
1000
0200
0000
,
0300
0010
0001
0010
0002
0003
2000
3000
,
0001
0100
0002
0003
0100
0010
0100
0020
,
0000
0030
0000
1000
0000
0010
0000
1000
0000
0001
0000
1000
0000
0001
0000
0010
,
0000
0001
0000
0010
0000
0100
0000
0010
0000
0100
0000
1000
0000
0100
0000
0000
,
1000
0001
0010
0002
0000
0003
0100
0001
,
0100
0001
0200
0000
0000
0300
0010
1000
,
0001
1000
0100
2000
0000
0000
0000
3000
,
0001
0010
0001
0010
0002
0000
0000
0003
,
1000
0100
1000
0100
2000
0000
0000
3000
,
0001
0010
0001
1000
0001
0200
0300
0001
,
0200
0300
0001
0200
0300
0001
1000
0010
,
1000
0001
1000
0200
0000
0300
1000
0001
,
1000
0010
1000
0001
1000
0200
0000
0300
,
1000
0100
0010
0100
0010
0002
0000
0003
,
1000
0100
1000
0200
0000
0300
0010
0001
,
0010
0100
0010
0002
0000
0003
0200
0300
,
0001
0100
0001
0200
0000
0300
0001
1000
,
0001
2000
0000
3000
0010
0100
0010
0200
,
0000
0300
0001
0010
0001
0020
0000
0030
,
0100
1000
0100
1000
0200
0000
0000
0300
,
0010
0001
0010
0001
0020
0000
0000
0030
,
0001
2000
0000
3000
0001
0200
0000
0300
,
0001
2000
0000
3000
0001
0020
0000
0030
,
0100
1000
0100
1000
0200
0000
0000
0300
,
1000
0002
0000
0003
1000
0020
0000
0030
,
1000
0010
1000
0010
2000
0000
3000
0001
,
0100
0001
1000
0001
0020
0000
0000
0030
,
0100
1000
0100
1000
0200
0000
0000
0300
,
0010
0001
0010
0001
0020
0030
0002
0003
,
0100
0001
0100
0001
0200
0300
M02M
0000
,
0030
0100
0010
0200
0300
0002
0003
1000
,
0100
1000
0200
0000
0000
0000
0000
0300
,
M02M
0030
0001
0010
0002
0003
2000
0000
,
3000
0020
0030
2000
3000
0002
0003
2000
,
3000
0100
1000
0200
0300
0010
0001
0010
,
0002
0003
1000
0200
0300
2000
0000
3000
,
02MM
0300
0010
0100
0020
0030
0001
2000
,
0000
0000
3000
0002
0000
0003
0200
0000
,
0300
0001
0010
0002
0003
2000
3000
0001
,
0100
0010
0200
0300
0020
0000
0000
0030
,
2M0M
3000
0010
0100
0020
0030
0200
0000
,
0300
0002
0003
0200
0300
0020
0030
2000
,
3000
0001
1000
0002
0003
0100
0001
0100
,
0002
0003
0010
0002
0003
2000
0000
3000
,
0M2M
0030
1000
0100
0020
0030
0002
0000
,
0000
0000
0000
0000
0000
0000
0000
0003
,
0011
0000
1001
0000
1010
0000
0020
0030
,
1000
0001
1000
0100
1000
0002
0000
0003
,
0010
0001
1000
0001
0100
0002
0000
0003
,
1000
0010
1000
0001
1000
0200
0000
0300
,
0010
0001
1000
0001
0100
0002
0000
0003
,
1000
0010
1000
0001
1000
0200
0000
0300
,
0010
0001
1000
0001
0100
0002
0000
0003
,
1000
0100
1000
0100
0010
0002
0000
0003
,
0010
0001
0010
0100
1000
0002
0000
0003
,
0010
0001
1000
0001
0100
0002
0000
0003
,
1000
0010
1000
0001
1000
0200
0000
0300
,
0010
0001
1000
0001
0100
0002
0000
0003
,
1000
0010
1000
0001
1000
0200
0000
0300
,
0010
0001
1000
0001
0100
0002
0000
0003
,
1000
0010
1000
0001
1000
0200
0000
0300
,
0010
0001
1000
0001
0100
0002
0000
0003
,
1000
0010
1000
0001
2000
3000
0200
0300
,
1000
0001
1000
0001
2000
3000
0020
0030
,
0100
0010
0100
0010
0200
0300
0002
0003
,
0100
0001
0100
0001
0200
0300
0020
0030
,
1000
0010
1000
0010
2000
3000
0200
0300
,
1000
0100
1000
0100
2000
3000
0002
0003
,
0010
0001
1000
0001
0100
0002
0000
0003
,
1000
0010
1000
0001
1000
0200
0000
0300
,
0010
0001
1000
0001
0100
0002
0000
0003
,
0010
0001
1000
0001
0100
0002
0000
0003
,
1000
0010
1000
0001
1000
0200
0000
0300
,
0010
0001
1000
0001
0100
0002
0000
0003
,
1000
0010
1000
0001
1000
0200
0000
0300
,
0010
0001
1000
0001
0100
0002
0000
0003
,
1000
0010
1000
0001
1000
0200
0000
0300
,
0010
0001
1000
0001
0200
0300
M0M2
0000
,
0003
0100
0001
0200
0300
0020
0030
1000
,
0010
1000
0020
0030
0200
0000
0000
0300
,
M0M2
0003
0100
0001
0200
0300
0002
0000
,
0000
0000
0003
2000
0000
0000
3000
0002
,
0003
0100
0010
0200
0300
0001
1000
0001
,
2000
3000
0001
2000
3000
0002
0000
0003
,
2MM0
3000
0001
0010
0002
0003
2000
0000
,
0000
0000
3000
0020
0000
0000
0030
2000
,
3000
0100
1000
0200
0300
2000
3000
0001
,
1000
0010
2000
3000
0020
0000
0000
0030
,
M20M
0300
0001
0010
0002
0003
0010
0002
,
0000
0000
0000
0000
0003
2000
0000
0000
,
3000
0100
1000
0200
0300
1000
0100
1000
,
0100
0010
0001
0020
0030
0002
0000
0003
,
2MM0
3000
0001
0010
0002
0003
0200
0000
,
0000
0300
0002
0003
0200
0300
0002
0003
,
2000
3000
0020
0030
2000
3000
0020
0030
,
0200
0300
0001
0020
0030
0002
0000
0003
,
2000
3000
0020
0030
0200
0300
0002
0003
,
0020
0030
0100
0020
0030
0001
0000
0000
;

//--------------- dance-single - Cut from Gazebo ----------------
#NOTEDATA:;
#STEPSTYPE:dance-single;
#DESCRIPTION:Cut from Gazebo;
#DIFFICULTY:Hard;
#METER:9;
#RADARVALUES:0,0,0,0,0;
#NOTES:
00M0
0000
M000
0000
,
000M
0000
0M00
0000
,
00M0
0000
0M00
0000
,
M000
0000
000M
0020
,
1031
0000
0000
1000
0000
0000
1000
0000
0000
0001
0010
0000
0001
0000
0001
0100
,
0000
0010
0000
0010
1000
0000
1000
0001
0000
0001
0000
0001
0020
0000
0000
0000
,
1031
0000
0001
0000
1000
0000
0001
1000
0000
0100
1000
0000
0001
0010
0000
0001
,
1000
0000
0001
0100
0000
0010
1000
0000
0100
1000
0000
1000
0000
1000
0001
0000
,
0MM0
0000
1000
0100
0000
0010
0000
0100
0000
1000
0000
0001
0000
0100
0000
0002
,
0000
1003
0000
0010
0000
2000
0000
3001
0000
0010
0000
0100
0000
2000
0000
3000
,
0000
0001
1000
0000
0010
1000
0000
2020
0000
0000
3030
0000
0001
0000
1000
0000
,
0001
0000
0010
0100
0000
1000
0000
0022
0000
0033
0000
1000
0001
0000
0100
0000
,
1010
0000
0010
0000
1000
0000
0001
0000
0010
0000
0010
0100
0000
0000
0000
0000
,
1000
0000
1000
0000
0010
0000
1000
0000
0100
0000
0100
0010
0000
0000
0000
0000
,
1000
0000
0001
0000
0001
0000
1000
0000
0100
0000
0100
0010
0000
0000
0000
0001
,
1000
0000
0100
0000
0100
0000
1000
0000
0100
0000
1000
0001
0000
0000
0200
0000
,
0320
0000
0230
0320
0000
1030
0001
0100
,
0101
0000
0001
0000
1000
0000
1020
0000
0000
1030
0001
0000
1000
0000
0100
0000
,
1100
0000
1000
0000
0001
0000
0100
0000
0001
0000
0001
1000
0000
1000
0000
0100
,
0010
0000
0001
0000
0010
0000
0001
0000
1000
0000
0001
0100
0000
0100
0000
0000
,
0001
0100
0000
0001
1000
0000
0010
2000
0000
0000
3000
0000
0100
1000
0000
0001
,
0010
0000
0001
1000
0000
0001
0100
0000
0220
0000
0330
0000
1001
0000
0000
0000
,
1000
0001
1000
0100
2200
3300
1000
0001
,
0010
0100
2000
3000
0001
1000
0001
0100
,
0002
0000
0003
1000
0001
0000
0100
0000
0010
0000
0010
1000
0000
0001
0000
0000
,
1000
0000
1000
0000
0100
0000
0010
0000
0001
0000
1000
0001
0000
0100
0000
0000
,
0010
0000
0100
0000
0100
0000
0001
0000
0100
0000
0100
0010
0000
0001
0000
0000
,
1000
0000
1000
0010
0000
0100
0000
0000
0001
1000
0000
0100
0000
0010
0000
0000
,
0001
0000
0001
1000
0000
0010
0000
0000
0100
0000
0100
0002
0000
0000
0003
0000
,
1000
0000
1000
0000
1000
0000
0010
0000
0010
0000
1000
0002
0000
0000
0003
0000
,
0010
0001
0000
0022
0000
0000
0033
0000
1000
0000
0001
0200
0000
0000
0300
0010
,
1000
0000
0001
0100
0000
0001
1000
0000
0010
0000
0010
0100
0000
0100
0000
0001
,
1000
0000
0001
0000
0100
0000
0010
0000
1000
0000
0001
0010
0000
0100
0000
0000
,
1000
0000
0010
0000
0010
0000
1000
0000
0001
0000
0100
0001
0000
0001
0000
0000
,
1000
0100
0000
1000
0001
0000
0010
0001
0000
1000
0000
0000
0202
0000
0303
1000
,
0001
0100
0001
0010
0100
0000
2002
3003
,
1000
0000
0001
0000
0010
0000
0001
0200
0000
0000
0310
0000
0000
0000
0010
0000
,
1000
0000
0001
0000
0010
0000
0001
0200
0000
0000
0320
0000
0000
0000
0000
0000
,
2030
0000
3001
1000
0200
0000
2300
0000
,
0000
0001
0000
0010
0000
0010
0000
3001
,
1000
0000
0001
0000
0010
0000
0001
0200
0000
0000
0310
0000
1000
0000
0010
0000
,
0100
0001
1000
0200
0000
0320
0000
0000
,
0032
0000
1003
0001
0200
0000
0320
0100
,
0000
0000
0000
1000
0000
0000
1030
0000
,
0001
0000
1000
0000
0100
0000
1000
0020
0000
0000
0130
0000
0000
0000
0100
0000
,
0001
0000
1000
0000
0100
0000
1000
0020
0000
0000
0230
0000
0000
0000
0000
0000
,
0302
0000
1003
0001
0020
0000
0032
0000
,
0000
0100
0000
0100
0000
0100
0000
1003
,
0001
0000
1000
0000
0010
0000
1000
0200
0000
0000
0310
0000
0001
0000
0010
0000
,
0100
1000
0001
0200
0000
0320
0000
0000
,
2030
0000
3001
1000
0200
0000
0320
0000
,
0000
0000
0000
0000
0000
0000
0000
0030
,
0001
1000
0000
0000
0011
0000
0000
0000
1001
0000
1000
0200
0000
0000
0310
0000
,
0001
0000
1000
0000
0100
0000
0010
0000
1000
0000
0001
0200
0000
0000
0301
0000
,
1000
0100
1100
1000
0010
0100
0001
0000
,
1000
0000
0001
0000
0100
0010
0000
1000
0010
0000
1000
0001
0000
0000
0100
0000
,
0001
0000
0100
0000
0010
0000
0100
0000
0010
0000
1000
0010
0000
0000
0000
0000
,
1000
0000
0001
0000
1000
0001
0000
0010
0001
0000
1000
0001
0000
0000
0100
0000
,
0001
0010
0001
0100
0001
0010
0001
0001
,
0100
0010
0010
1000
0001
0001
0100
0010
,
1000
0000
0010
0000
0100
0000
0001
0000
1000
0000
1000
0020
0000
0000
0030
0000
,
1000
0010
0000
1000
0010
0000
0100
0000
0001
0000
0001
0020
0000
0000
0030
0000
,
0100
0000
1000
0000
0100
0000
0010
0000
0001
0000
0001
1000
0000
0000
0000
0000
,
0001
0010
0000
0001
0100
0000
0010
0000
1000
0000
1000
0020
0000
0000
1030
0000
,
1010
0000
0001
0000
0010
0000
0100
0000
1000
0000
1000
0002
0000
0000
1003
0000
,
0100
0000
0010
0000
0001
0000
1000
0001
0000
0001
1000
0000
1100
0000
0100
0000
,
1000
0100
0000
0010
0001
0000
1000
0000
0010
0000
0100
0000
0202
0000
0303
0000
,
0001
1000
0000
0010
0100
0000
0010
0000
1000
0000
1000
0200
0000
0000
0310
0000
,
0001
1000
0000
0000
0100
1000
0000
0000
2000
0000
0000
0000
3100
0000
0000
1000
,
0001
1000
0100
0010
0002
0000
0103
0001
,
0010
0000
0001
0000
0100
0000
0010
0000
1000
0000
1000
0001
0000
0000
0000
0000
,
1000
0000
1000
0000
0001
0000
0100
0000
1000
0000
0010
1000
0000
0000
0000
0000
,
0001
0010
0000
0001
0010
0000
0100
0000
0010
0000
0001
1000
0000
0000
0000
0000
,
0001
0100
0000
0000
0010
0100
0000
0000
0001
0000
0000
1000
0001
0000
0010
0000
,
0100
1000
0000
0000
0001
1000
0000
0001
0100
0000
0010
0000
1000
0000
0001
0000
,
0100
0000
0100
0000
0010
0000
1000
0000
0010
0000
0100
0001
0000
0001
0000
0000
,
1000
0000
0001
0010
0000
0001
0100
0000
0001
0000
0001
1000
0000
1000
0000
0000
,
0001
0100
0000
0100
0010
0000
0100
0000
0001
0000
1000
0001
0000
1000
0010
0000
,
1000
0000
0100
0000
1000
0000
0001
0000
0010
0000
0100
0000
1000
0000
0000
0001
,
0010
0000
0100
0000
1000
0000
0001
0000
0100
0000
0010
1000
0000
1000
0000
0000
,
0010
0000
0100
0000
0001
0100
0000
0010
0100
0000
0010
1000
0000
0000
0001
0100
,
0000
0001
1000
0000
0001
0000
0100
0000
0001
0000
1000
0001
0000
0000
0100
0000
,
0010
0000
0100
0000
0001
0000
1000
0001
0000
1000
0010
0000
0100
0000
0010
0000
,
1000
0001
0100
0001
0011
0000
2002
3003
,
0001
0000
1000
0000
0100
0000
1000
0020
0000
0000
0130
0000
0000
0000
0100
0000
,
0001
0000
1000
0000
0100
0000
1000
0020
0000
0000
0230
0000
0000
0000
0000
0000
,
0302
0000
1003
0001
0020
0000
0032
0000
,
0000
0000
0000
0010
0000
0000
0000
1003
,
0001
0000
1000
0000
0100
0000
1000
0020
0000
0000
0130
0000
0001
0000
0100
0000
,
0010
1000
0001
0020
0000
0230
0000
0000
,
23MM
0000
3001
1000
0020
0000
0230
0000
,
0000
0000
0000
0010
0000
0000
0000
0301
,
1000
0000
0001
0000
0010
0000
0001
0200
0000
0000
0310
0000
0000
0000
0010
0000
,
1000
0000
0001
0000
0010
0000
0001
0200
0000
0000
0320
0000
0000
0000
0000
0000
,
2030
0000
3001
1000
0200
0000
2300
0100
,
0000
0001
0000
0000
0000
0001
0000
3000
,
1000
0000
0001
0000
0100
0000
0001
0020
0000
0000
0130
0000
1000
0000
0100
0000
,
0010
0001
1000
0020
0000
2030
0000
0000
,
3001
0100
0000
0001
0100
0000
0010
1000
0000
0010
1000
0000
0001
0100
0000
0001
,
0100
0010
1000
0001
0100
0010
1000
0001
,
1001
0000
0000
0000
;

//--------------- dance-single - Gazebo ----------------
#NOTEDATA:;
#STEPSTYPE:dance-single;
#DESCRIPTION:Gazebo;
#DIFFICULTY:Challenge;
#METER:10;
#RADARVALUES:0.791,0.803,0.142,0.543,0.766,786,23,88,10,2,0,0.791,0.803,0.142,0.543,0.766,786,23,88,10,2,0;
#NOTES:
00M0
0000
M000
0000
,
000M
0000
0M00
0000
,
00M0
0000
0M00
0000
,
M000
0000
000M
0020
,
1031
0000
0000
1000
0000
0000
1000
0000
0000
0001
0010
0000
0001
0000
0001
0100
,
0000
0010
0000
0010
1000
0000
1000
0001
0000
0001
0000
0001
0020
0000
0000
0000
,
1031
0000
0001
0010
0001
0000
1000
0001
0000
0100
0001
0000
1000
0010
0000
1000
,
0001
0000
1000
0100
0000
0010
0001
0000
0100
0001
0000
0001
0000
0001
1000
0000
,
0MM0
0000
0001
0100
0000
0010
0000
0100
0000
0001
0000
1000
0000
0100
0000
2000
,
0000
3001
0000
0010
0000
0002
0000
1003
0010
0100
0000
0010
0000
2000
0000
3000
,
0010
1000
0001
1000
0100
1000
0000
2200
0000
0000
3300
0000
1000
0001
1000
0000
,
0001
0000
0100
0010
1000
0001
0000
0202
0000
0303
0000
1000
0001
0000
0010
0000
,
1100
0000
0100
1000
0001
0000
0001
0000
0100
0000
0100
0010
0000
0000
0000
0000
,
1000
0010
1000
0000
0100
0000
1000
0001
0010
0000
0010
0100
0000
0000
0000
0000
,
1000
0000
0001
0010
0001
0000
1000
0000
0010
0000
0010
0100
0000
0000
0000
0001
,
1000
0000
0010
0100
0010
0000
1000
0001
0010
0000
0001
1000
0000
0000
0020
0000
,
0230
0000
0000
0000
0320
0000
0230
0000
0000
0000
0301
1000
0001
0000
0010
0000
,
0011
0000
0001
0000
1000
0000
1200
0000
0000
1300
0001
0000
0001
0100
0010
0000
,
1010
0000
1000
0000
0001
0000
0010
0000
0001
0000
0001
1000
0000
1000
0000
0010
,
0100
0000
0001
0000
0100
0000
0001
0000
1000
0000
0001
0010
0000
0010
0000
0000
,
0001
0010
0000
0001
1000
0000
0100
2000
0000
0000
3000
0000
0010
1000
0000
0001
,
0100
0000
0001
1000
0000
0001
0010
0000
0220
0000
0330
0000
1001
0000
0000
0000
,
1000
0100
1000
0000
0001
0100
0010
0000
2020
0000
3030
0000
1000
0001
1000
0000
,
0100
0000
0010
0001
2000
0000
3000
0000
0001
0100
0001
0000
1000
0000
0010
0100
,
0002
0000
0003
1000
0001
0000
0010
0000
0100
0000
0100
1000
0000
0001
0000
0000
,
1000
0000
1000
0000
0010
0000
0100
0010
1000
0000
1000
0001
0000
0010
0000
0000
,
0100
0000
0010
0001
0010
0000
0001
1000
0010
0000
0010
0100
0000
0001
0000
0000
,
1000
0000
1000
0100
0000
0010
0000
0000
0001
1000
0000
0010
0000
0100
0000
0000
,
0001
0000
0001
1000
0000
0100
0000
0000
0010
0000
0010
0002
0000
0000
0003
0000
,
1000
0100
1000
0001
1000
0010
0100
0001
0100
0010
1000
0002
0000
0000
0003
0000
,
0100
0001
0000
0202
0000
0000
0303
0000
1000
0000
0001
0020
0000
0000
0030
0100
,
1000
0000
0001
0010
0001
1000
0001
0000
0100
0000
0100
0010
0000
0010
1000
0001
,
1000
0000
0001
0000
0010
0000
0100
1000
0001
0000
0001
0100
0000
0010
0000
0000
,
1000
0000
0100
0010
0100
0000
1000
0000
0001
0000
0010
0001
0000
0001
0000
0000
,
1000
0010
0000
1000
0001
0000
0100
0001
0000
1000
0000
0000
0022
0000
0033
1000
,
0001
0010
0001
0100
0010
0000
2002
3003
,
1000
0000
0001
0000
0100
0000
0001
0020
0000
0000
0130
0000
0000
0000
0100
0000
,
1000
0000
0001
0000
0100
0000
0001
0020
0000
0000
0230
0000
0000
0000
0000
0000
,
2300
0000
3001
1000
0020
0000
2030
0000
,
0000
0001
0000
0100
0000
0100
0000
3001
,
1000
0000
0001
0000
0100
0000
0001
0020
0000
0000
0130
0000
1000
0000
0100
0000
,
0010
0001
1000
0020
0000
0230
0000
0000
,
0302
0000
1003
0001
0020
0000
0230
0010
,
0000
0000
0000
1000
0000
0000
1300
0000
,
0001
0000
1000
0000
0010
0000
1000
0200
0000
0000
0310
0000
0000
0000
0010
0000
,
0001
0000
1000
0000
0010
0000
1000
0200
0000
0000
0320
0000
0000
0000
0000
0000
,
0032
0000
1003
0001
0200
0000
0302
0000
,
0000
0010
0000
0010
0000
0010
0000
1003
,
0001
0000
1000
0000
0100
0000
1000
0020
0000
0000
0130
0000
0001
0000
0100
0000
,
0010
1000
0001
0020
0000
0230
0000
0000
,
2300
0000
3001
1000
0020
0000
0230
0000
,
0000
0000
0000
0000
0000
0000
0000
0300
,
0001
1000
0000
0000
0101
0000
0000
0000
1001
0000
1000
0020
0000
0000
0130
0001
,
1000
0001
1000
0100
0010
0000
0100
1000
0001
0000
0001
0020
0000
0000
0031
0000
,
1000
0000
0010
0000
1010
0000
1000
0100
0010
0000
0001
0000
1000
0000
0000
0000
,
0001
0000
0001
0000
0010
0100
0010
0100
1000
0000
1000
0001
0000
0000
0010
0001
,
1000
0000
0010
0000
1000
0000
0010
0000
0100
0001
1000
0100
0000
0000
0000
0000
,
1000
0000
1000
0000
0001
1000
0010
1000
0100
0000
1000
0001
0000
0000
0010
0000
,
0001
0000
0000
0000
0000
0000
0100
0000
0000
0001
0000
0000
1000
0000
0000
0000
0000
0000
0010
0000
0000
0000
0000
0000
0010
0000
0000
0000
0000
0000
0100
0000
0000
0001
0000
0000
1000
0000
0000
0000
0000
0000
0001
0000
0010
0000
0001
0000
,
0010
0000
0100
0000
0100
0000
1000
0000
0001
0010
0001
1000
0010
0000
0100
0001
,
1000
0000
0100
0000
0010
0000
0001
0000
1000
0000
1000
0200
0000
0000
0300
0000
,
1000
0100
1000
0001
1000
0000
0010
1000
0001
0000
0001
0200
0000
0000
0300
0000
,
0010
1000
0001
0000
0010
0000
0100
0010
0001
0000
0001
1000
0000
0000
0000
0000
,
0010
0100
0010
1000
0010
0000
0100
0001
1000
0000
1000
0200
0000
0000
1300
0000
,
1100
0000
0001
0100
0001
0000
1000
0010
1000
0000
1000
0002
0000
0000
1003
0100
,
0010
0000
0100
1000
0001
0000
1000
0001
0100
0001
1000
0000
1010
0000
0010
1000
,
0001
0010
0001
1000
0001
0000
1000
0000
0100
0000
0010
0000
0022
0000
0033
0000
,
0001
1000
0010
0100
0010
0000
0100
0001
1000
0000
1000
0020
0000
0000
0130
0001
,
1000
0001
0000
0000
0010
0001
0000
0000
2000
0000
0000
0000
3010
0000
0000
1000
,
0001
0000
1000
0100
0010
0000
0100
1000
0002
0000
0000
0000
0013
0000
0001
1000
,
0001
0100
0001
1000
0010
0000
0100
0000
0001
0000
1000
0001
0000
0000
0000
0000
,
1000
0100
1000
0000
0001
0000
0010
0001
1000
0000
0100
1000
0000
0000
0000
0000
,
0001
0100
0010
0100
0001
0000
1000
0010
0100
0000
0001
1000
0000
0000
0000
0000
,
0001
0010
0000
0000
0100
0010
0000
0000
0001
0000
0000
1000
0001
0000
0100
0000
,
0010
1000
0000
0000
0001
1000
0000
0001
0010
0000
0100
1000
0001
0000
1000
0000
,
0010
1000
0010
0000
0100
0000
0001
1000
0100
0000
0010
0001
0000
0001
0000
0000
,
1000
0000
0001
0100
0010
1000
0010
0000
1000
0000
0001
1000
0000
1000
0000
0000
,
0001
0010
0001
0010
0100
0000
0010
0001
1000
0100
1000
0001
0000
0001
0100
0010
,
1000
0000
0001
0000
1000
0000
0100
0010
0100
0000
0010
0001
1000
0000
0000
0001
,
0100
0010
0100
0010
1000
0000
0001
0100
0001
0000
1000
0001
0000
0001
0000
0000
,
0010
0100
0010
0000
0001
0010
0001
1000
0010
0000
0100
0010
0000
0000
1000
0010
,
1000
0001
1000
0000
0001
0000
0010
0100
1000
0000
0001
1000
0000
0000
0001
0000
,
0100
0010
0100
0000
0001
0000
0001
1000
0100
1000
0001
0000
0010
0000
0100
1000
,
0001
0100
0001
1000
0010
0000
0100
0000
0101
0000
0000
0000
2002
0000
3003
0000
,
0001
0000
1000
0000
0010
0000
1000
0200
0000
0000
0310
0000
0000
0000
0010
0000
,
0001
0000
1000
0000
0010
0000
1000
0200
0000
0000
0320
0000
0000
0000
0000
0000
,
0032
0000
1003
0001
0200
0000
0302
0000
,
0000
0000
0000
0100
0000
0000
0000
1003
,
0001
0000
1000
0000
0010
0000
1000
0200
0000
0000
0310
0000
0001
0000
0010
0000
,
0100
1000
0001
0200
0000
0320
0000
0000
,
2030
0000
3001
1000
0200
0000
0320
0000
,
0000
0000
0000
0100
0000
0000
0000
0031
,
1000
0000
0001
0000
0100
0000
0001
0020
0000
0000
0130
0000
0000
0000
0100
0000
,
1000
0000
0001
0000
0100
0000
0001
0020
0000
0000
0230
0000
0000
0000
0000
0000
,
2300
0000
3001
1000
0020
0000
2030
0010
,
0000
0001
0000
0000
0000
0001
0000
3000
,
1000
0000
0001
0000
0010
0000
0001
0200
0000
0000
0310
0000
1000
0000
0010
0000
,
0100
0001
1000
0200
0000
2300
0000
0000
,
3001
0010
0001
0010
0001
0010
0001
0010
0100
1000
0100
1000
0001
1000
0001
1000
,
0010
0100
0001
1000
0001
0010
0001
1000
,
1001
0000
0000
0000
;

//--------------- dance-single - Gazebo ----------------
#NOTEDATA:;
#STEPSTYPE:dance-single;
#DESCRIPTION:Gazebo;
#DIFFICULTY:Edit;
#METER:12;
#RADARVALUES:0.994,0.988,0.229,0.426,1,1014,37,69,10,5,0,0.994,0.988,0.229,0.426,1,1014,37,69,10,5,0;
#NOTES:
00M0
0000
M000
0000
,
000M
0000
0M00
0000
,
00M0
0000
0M00
0000
,
M000
0000
000M
0020
,
1031
0000
0000
1000
0000
0000
1000
0000
0000
0001
0010
0000
0001
0000
0001
0100
,
0000
0010
0000
0010
1000
0000
1000
0001
0000
0001
0000
0001
0020
0000
0000
0000
,
1131
0000
0001
0010
0001
0000
1000
0001
0000
0100
0001
0000
1000
0010
0000
1000
,
0001
0000
1000
0100
0000
0010
0001
0000
0100
0001
0000
0001
0000
0001
1000
0000
,
0MM0
0000
0001
0100
0000
0101
0000
1001
0000
1100
0000
0011
0000
0101
0000
2000
,
0000
3001
0000
0011
0000
2000
0000
3001
0100
0010
0000
1010
0000
0002
0000
0003
,
0100
0001
1000
0001
0010
0100
0000
2200
0000
0000
3300
0000
1000
0001
1000
0000
,
0001
0000
0100
0010
1000
0001
0000
0202
0000
0303
0000
1000
0001
0000
0010
0000
,
1100
0000
0100
1000
0001
0000
0001
0000
0100
0000
0100
0010
0000
0000
0000
0000
,
1000
0010
1000
0000
0100
0000
1000
0001
0010
0000
0010
0100
0000
0000
0000
0000
,
1000
0000
0001
0010
0001
0000
1000
0000
0010
0000
0010
0100
0000
0000
0000
0001
,
1000
0000
0010
0100
0010
0000
1000
0001
0010
0000
0001
1000
0000
0000
0020
0000
,
0230
0000
0000
0000
0320
0000
0230
0000
0000
0000
0301
1000
0001
0000
0010
0000
,
0011
0000
0001
0000
1000
0000
1200
0000
0000
1300
0001
0000
0001
0100
0010
0000
,
1010
0000
1000
0001
1000
0001
0000
0000
0011
0000
0001
0010
0000
0001
1000
0001
,
0100
0000
0000
0000
0000
0000
1010
0000
0000
1000
0010
1000
0010
0000
0000
0100
0001
0100
0001
0000
0000
1000
0001
1000
,
0001
0010
0000
0001
1000
0000
0100
2000
0000
0000
3000
0000
0010
1000
0000
0001
,
0100
0000
0001
1000
0000
0001
0010
0000
0220
0000
0330
0000
1111
0000
0000
0000
,
1000
0100
1000
0000
0001
0100
0010
0000
2020
0000
3030
0000
1000
0001
1000
0000
,
0100
0000
0010
0001
2000
0000
3000
0000
0001
0100
0001
0000
1000
0000
0010
0100
,
0002
0000
0003
1000
0001
0000
0010
0000
0100
0000
0100
1000
0000
0001
0000
0000
,
1000
0000
1000
0000
0010
0000
0100
0010
1000
0000
1000
0001
0000
0010
0000
0000
,
0100
0000
0010
0001
0010
0000
0001
1000
0010
0000
0010
0100
0000
0001
0000
0000
,
1000
0000
1000
0100
0000
0010
0000
0000
0001
1000
0000
0010
0000
0100
0000
0000
,
0001
0000
0001
1000
0000
0100
0000
0000
0010
0000
0010
0002
0000
0000
0003
0000
,
1000
0100
1000
0001
1000
0010
0100
0001
0100
0010
1000
0002
0000
0000
0003
0000
,
0100
0001
0000
0202
0000
0000
0303
0000
1000
0000
0001
0020
0000
0000
0030
0100
,
1000
0000
0001
0010
0001
1000
0001
0000
0100
0000
0100
0010
0000
0010
1000
0001
,
1000
0000
0001
0000
0010
0000
0100
1000
0001
0000
0001
0100
0000
0010
0000
0000
,
1000
0000
0100
0010
0100
0000
1000
0000
0001
0000
0010
0001
0000
0001
0000
0000
,
1000
0010
0000
1000
0001
0000
0100
0001
0000
1000
0000
0000
0022
0000
0033
1000
,
0001
0010
0001
0100
0010
0000
2222
3333
,
1000
0000
0001
0000
0100
0000
0001
0020
0000
0000
0130
0000
0000
0000
0100
0000
,
1000
0000
0001
0000
0100
0000
0001
0020
0000
0000
0230
0000
0000
0000
0000
0000
,
1300
0001
0100
0001
1000
0010
0100
0001
1000
0100
1000
0001
1000
0010
0100
0001
,
0100
0001
0010
0100
1000
0001
0100
0001
0100
0010
1000
0001
0010
0100
1000
0010
,
1000
0000
0001
0000
0100
0000
0001
0020
0000
0000
0130
0000
1000
0000
0100
0000
,
0010
0001
1000
0020
0000
0230
0000
0000
,
0301
1000
0100
1000
0001
0010
0100
1000
0010
0100
0010
0100
0001
1000
0100
0010
,
0001
1000
0100
1000
0001
1000
0010
0100
0010
0100
0001
1000
0001
0010
0100
1000
,
0001
0000
1000
0000
0010
0000
1000
0200
0000
0000
0310
0000
0000
0000
0010
0000
,
0001
0000
1000
0000
0010
0000
1000
0200
0000
0000
0320
0000
0000
0000
0000
0000
,
0031
1000
0010
1000
0001
0100
0010
1000
0001
0010
0001
1000
0001
0100
0010
1000
,
0010
1000
0001
0010
0100
1000
0001
0100
0010
1000
0001
0010
0100
1000
0010
1000
,
0001
0000
1000
0000
0100
0000
1000
0020
0000
0000
0130
0000
0001
0000
0100
0000
,
0010
1000
0001
0020
0000
0230
0000
0000
,
1300
0001
0100
0001
1000
0010
0100
0001
0010
0100
0010
0100
1000
0001
0100
0001
,
1000
0010
1000
0001
1000
0001
0010
0100
1000
0100
0010
0001
1000
0001
0100
0001
,
1000
0100
0000
0000
0011
0000
0000
0000
1001
0000
1000
0020
0000
0000
0130
0001
,
1000
0001
1000
0100
0010
0000
0100
1000
0001
0000
0001
0020
0000
0000
0031
0000
,
1000
0000
0010
0000
1010
0000
1000
0100
0010
0000
0001
0000
1000
0000
0000
0000
,
0001
0000
0001
0000
0010
0100
0010
0100
1000
0000
1000
0001
0000
0000
0010
0001
,
1000
0000
0010
0000
1000
0000
0010
0000
0100
0001
1000
0100
0000
0000
0000
0000
,
1000
0000
1000
0000
0001
1000
0010
1000
0100
0000
1000
0001
0000
0000
0010
0000
,
0001
0000
0000
0000
0000
0000
0100
0000
0000
0001
0000
0000
1000
0000
0000
0000
0000
0000
0010
0000
0000
0000
0000
0000
0010
0000
0000
0000
0000
0000
0100
0000
0000
0001
0000
0000
1000
0000
0000
0000
0000
0000
0001
0000
0010
0000
0001
0000
,
0010
0000
0100
0000
0100
0000
1000
0000
0001
0010
0001
1000
0010
0000
0100
0001
,
1000
0000
1010
0000
0001
0000
0011
0000
1000
0000
1000
0200
0000
0000
0300
0000
,
1000
0100
1000
0001
1000
0000
0010
1000
0001
0000
0001
0200
0000
0000
0300
0000
,
0010
1000
0001
0000
0010
0000
0100
0010
0001
0000
0001
1000
0000
0000
0000
0000
,
0010
0100
0010
1000
0010
0000
0100
0001
1000
0000
1000
0200
0000
0000
1300
0000
,
1100
0000
0001
0100
0001
0000
1000
0010
1000
0000
1000
0002
0000
0000
1003
0100
,
0010
0000
0100
1000
0001
0000
1000
0001
0100
0001
1000
0000
1010
0000
0010
1000
,
0001
0010
0001
1000
0001
0000
1000
0000
0100
0000
0010
0000
0022
0000
0033
0000
,
0001
1000
0010
0100
0010
0000
0100
0001
1000
0000
1000
0020
0000
0000
0130
0001
,
1000
0010
1000
0001
1000
0100
0010
0001
0100
0010
0100
0001
1000
0000
0000
0000
,
0001
0100
0001
1000
0001
0010
0100
1000
0010
0100
0010
1000
0001
0000
0000
0000
,
1000
0010
1000
0001
1000
0100
0010
0001
0100
0010
0100
0001
1000
0000
0000
0001
,
0010
0100
1000
0001
0100
0010
0100
0001
,
0001
0010
0001
1000
0001
0100
0010
1000
0100
0010
0100
1000
0001
0000
0000
0000
,
1000
0100
1000
0001
1000
0010
0100
0001
0010
0100
0010
0001
1000
0000
0000
0000
,
0001
0010
0001
1000
0001
0100
0010
1000
0100
0010
0100
1000
0001
0000
0000
1000
,
0010
0100
0001
1000
0100
0010
0100
1000
,
1000
0010
1000
0001
1000
0100
0010
0001
0100
0010
0100
0001
1000
0010
0100
0001
,
1000
0100
1000
0001
1000
0010
0100
0001
0010
0100
0010
0001
1000
0100
0010
0001
,
1000
0010
1000
0001
1000
0100
0010
0001
0100
0010
0100
0001
1000
0010
0100
0001
,
0010
0001
1000
0001
0100
0001
1000
0001
0010
0100
1000
0010
1000
0001
0010
0001
,
1000
0010
1000
0001
1000
0100
0010
0001
0100
0010
0100
0001
1000
0010
0100
0001
,
1000
0100
1000
0001
1000
0010
0100
0001
0010
0100
0010
0001
1000
0000
0001
0000
,
0100
0010
0100
0000
0001
0000
0001
1000
0100
1000
0001
0000
0010
0000
0100
1000
,
0001
0100
0001
1000
0010
0000
0100
0000
0101
0000
0000
0000
2222
0000
3333
0000
,
0001
0000
1000
0000
0010
0000
1000
0200
0000
0000
0310
0000
0000
0000
0010
0000
,
0001
0000
1000
0000
0010
0000
1000
0200
0000
0000
0320
0000
0000
0000
0000
0000
,
0031
1000
0010
1000
0001
0100
0010
1000
0001
0010
0001
1000
0001
0100
0010
1000
,
0001
1000
0001
0100
0001
1000
0100
1000
0100
0010
0001
1000
0100
1000
0010
1000
,
0001
0000
1000
0000
0010
0000
1000
0200
0000
0000
0310
0000
0001
0000
0010
0000
,
0100
1000
0001
0200
0000
0320
0000
0000
,
1030
0001
0010
0001
1000
0100
0010
0001
0100
0010
0100
0010
1000
0001
0010
0001
,
1000
0001
1000
0100
1000
0001
0100
0001
0100
0010
1000
0001
0100
0001
0010
0001
,
1000
0000
0001
0000
0100
0000
0001
0020
0000
0000
0130
0000
0000
0000
0100
0000
,
1000
0000
0001
0000
0100
0000
0001
0020
0000
0000
0230
0000
0000
0000
0000
0000
,
1300
0001
0100
0001
1000
0010
0100
0001
1000
0001
0010
0001
1000
0010
1000
0100
,
0010
0100
1000
0001
0100
0001
1000
0100
0010
0001
0100
0001
0100
0010
1000
0001
,
1000
0000
0001
0000
0010
0000
0001
0200
0000
0000
0310
0000
1000
0000
0010
0000
,
0100
0001
1000
0200
0000
2300
0000
0000
,
3001
0010
0001
0010
0001
0010
0001
0010
0100
1000
0100
1000
0001
1000
0001
1000
,
0010
0100
0101
0001
1010
1000
0110
0001
,
1001
0000
0000
0000
;

//--------------- dance-double - LinkDubs03 ----------------
#NOTEDATA:;
#STEPSTYPE:dance-double;
#DESCRIPTION:LinkDubs03;
#DIFFICULTY:Beginner;
#METER:2;
#RADARVALUES:0,0,0,0,0;
#NOTES:
00000000
00000000
00000000
00000000
,
00000000
00000000
00000000
00000000
,
00000000
00000000
00000000
00000000
,
00000000
00000000
00000000
00000000
,
00100000
00000000
10000000
00000000
,
00100000
00000000
10000000
00000000
,
00100000
00000000
01000000
00000000
,
00100000
00000000
01000000
00000000
,
00010000
00000000
10000000
00000000
,
00010000
00000000
10000000
00000000
,
00010000
00000000
01000000
00000000
,
00010000
00000000
01000000
00000000
,
00001000
00000000
00100000
00000000
,
00001000
00000000
00100000
00000000
,
00001000
00000000
00010000
00000000
,
00001000
00000000
00010000
00000000
,
00000010
00000000
00010000
00000000
,
00000100
00000000
00010000
00000000
,
00000100
00000000
00001000
00000000
,
00000010
00000000
00001000
00000000
,
00000010
00000000
00000100
00000000
,
00000010
00000000
00000100
00000000
,
00000001
00000000
00001000
00000000
,
00000001
00000000
00001000
00000000
,
00000001
00000000
00000010
00000000
,
00000001
00000000
00000010
00000000
,
00000001
00000000
00000100
00000000
,
00000001
00000000
00000100
00000000
,
00000001
00000000
00001000
00000000
,
00000001
00000000
00001000
00000000
,
00000010
00000000
00000100
00000000
,
00000010
00000000
00000100
00000000
,
00000010
00000000
00001000
00000000
,
00000010
00000000
00001000
00000000
,
00000100
00000000
00010000
00000000
,
00000100
00000000
00010000
000M0M00
,
00000000
00001000
00001000
00000000
,
00100000
00000000
00200000
00000000
,
003M1M00
00001000
00002000
00000000
,
00003000
00000000
00000000
00000000
,
00000000
01000000
01000000
00000000
,
00010000
00000000
00020000
00000000
,
MM130000
00100000
00200000
00000000
,
00300000
00000000
00000000
00000000
,
00000000
00010000
00010000
00000000
,
10000000
00000000
20000000
00000000
,
3M1M0000
00100000
00200000
00000000
,
00300000
00000000
00000000
00000000
,
00000000
10000000
10000000
00000000
,
01000000
00000000
02000000
00000000
,
13MM0000
10000000
20000000
00000000
,
30000000
00000000
00000000
00000000
,
00100000
00100000
00100000
00000000
,
01000000
00000000
00010000
00000000
,
10000000
00000000
00010000
00000000
,
10000000
00000000
00010000
00000000
,
01000000
00000000
00010000
00000000
,
01000000
00000000
00001000
00000000
,
00100000
00000000
00001000
00000000
,
00100000
00000000
00001000
00000000
,
00010000
00000000
00001000
00000000
,
00010000
00000000
00000100
00000000
,
00010000
00000000
00000010
00000000
,
00010000
00000000
00000010
00000000
,
00001000
00000000
00000100
00000000
,
00001000
00000000
00000100
00000000
,
00000010
00000000
00000100
00000000
,
00000010
00000000
00000001
00000000
,
00001000
00000000
00000001
00000000
,
00001000
00000000
00000001
00000000
,
00000100
00000000
00000001
00000000
,
00000100
00000000
00000001
00000000
,
00000010
00000000
00000001
00000000
,
00000010
00000000
00000001
00000000
,
00001000
00000000
00000001
00000000
,
00001000
00000000
00000000
00000000
,
00000100
00000000
00000010
00000000
,
00000100
00000000
00000010
00000000
,
00000100
00000000
00001000
00000000
,
00000100
00000000
00001000
00000000
,
00000010
00000000
00010000
00000000
,
00000010
00000000
00010000
00000000
,
00001000
00000000
00010000
00000000
,
00001000
00000000
00010000
0MM00000
,
00000000
00001000
00001000
00000000
,
01000000
00000000
02000000
00000000
,
M3M10000
00010000
00020000
00000000
,
00030000
00000000
00000000
00000000
,
00000000
00100000
00100000
00000000
,
00010000
00000000
00020000
00000000
,
1MM30000
10000000
20000000
00000000
,
30000000
00000000
00000000
00000000
,
00000000
00100000
00100000
00000000
,
10000000
00000000
20000000
00000000
,
3M1M0000
00100000
00200000
00000000
,
00300000
00000000
00000000
00000000
,
00000000
10000000
10000000
00000000
,
01000000
00000000
02000000
00000000
,
M31M0000
00100000
00200000
00000000
,
00300000
00000000
00000000
00000000
,
00010000
10000000
00010000
10000000
,
00020000
00000000
00030000
00000000
;

//--------------- dance-double - LinkDubs06 ----------------
#NOTEDATA:;
#STEPSTYPE:dance-double;
#DESCRIPTION:LinkDubs06;
#DIFFICULTY:Easy;
#METER:4;
#RADARVALUES:0,0,0,0,0;
#NOTES:
00000000
00000000
00000000
00000000
,
00000000
00000000
00000000
00000000
,
00000000
00000000
00000000
00000000
,
00000000
00000000
00000000
00000000
,
00100000
10000000
00200000
00300000
,
10000000
00100000
01000000
00200000
,
00300000
01000000
00010000
20000000
,
30000000
00010000
10000000
00020000
,
00030000
01000000
00010000
01000000
,
00001000
00100000
00001000
00100000
,
00001000
00020000
00030000
00001000
,
00010000
00000010
00020000
00030000
,
00000100
00010000
00000200
00000300
,
00001000
00000010
00002000
00003000
,
00000010
00000100
00000020
00000030
,
00000100
00000001
00002000
00000000
,
00000001
00000000
00000001
00000001
00003000
00000000
00000000
00000000
,
00000010
00000001
00000010
00000001
,
00000100
00000001
00000100
00000001
,
00001000
00000001
00002000
00003000
,
00000010
00000100
00000010
00000100
,
00000010
00001000
00000020
00000030
,
00001000
00000100
00010000
00000100
,
00010000
00001000
00010000
00001000
,
00010000
00001000
02000000
03000000
,
00001000
01000000
00010000
00100000
,
00010000
00100000
00020000
00030000
,
10000000
00010000
10000000
01000000
,
00100000
01000000
00200000
00300000
,
01000000
10000000
00200000
00300000
,
10000000
01000000
20000000
30000000
,
01000000
10000000
00100000
01000000
,
00100000
01000000
00020000
00030000
,
10000000
00010000
10000000
00010000
,
01000000
00010000
02000000
03000000
,
00001000
00100000
00002000
0M0M3000
,
00100000
00001000
00010000
00000100
,
00010000
00000010
00020000
00000000
,
0000MM10
00000010
00000100
00030100
,
00000000
00000000
00000000
00000000
,
00000001
00001000
00000001
00000010
,
00000100
00001000
00000002
00000000
,
00001MM0
00001000
00000010
00000013
,
00000000
00000000
00000000
00000000
,
00001000
00000001
00001000
00000100
,
00000010
00000001
00002000
00000000
,
00000MM1
00000001
00000100
00003100
,
00000000
00000000
00000000
00000000
,
00000001
00001000
00000100
00000010
,
00000001
00001000
00000200
00000000
,
000010MM
00001000
00010000
00010300
,
00000000
00000000
00000000
00000000
,
00010000
00000100
00010000
00001000
,
00010000
00001000
01000000
00001000
,
01000000
00010000
00200000
00300000
,
00010000
00100000
00020000
00030000
,
10000000
00010000
20000000
30000000
,
01000000
00100000
02000000
03000000
,
00100000
01000000
20000000
30000000
,
00100000
10000000
02000000
03000000
,
10000000
01000000
20000000
30000000
,
01000000
00100000
02000000
03000000
,
00100000
00010000
20000000
30000000
,
00010000
10000000
00020000
00030000
,
00100000
00010000
00200000
00300000
,
00001000
01000000
00002000
00003000
,
01000000
00001000
00020000
00030000
,
00001000
00010000
00000200
00000300
,
00010000
00000010
00020000
00030000
,
00000010
00001000
00000200
00000300
,
00001000
00000100
00000020
00000030
,
00000100
00000010
00000002
00000003
,
00001000
00000001
00002000
00003000
,
00000001
00000100
00000002
00000003
,
00000100
00000001
00000020
00000030
,
00000001
00000010
00000002
00000003
,
00001000
00000001
00002000
00003000
,
00000100
00000010
00000200
00000300
,
00000010
00000100
00002000
00003000
,
00000100
00001000
00000020
00000030
,
00010000
00000010
00020000
00030000
,
00001000
00010000
00002000
00003000
,
00010000
00001000
00200000
00300000
,
00001000
00100000
00020000
0003MM00
,
00100000
00010000
10000000
01000000
,
00100000
00010000
20000000
00000000
,
0M1M0000
00100000
01000000
31000000
,
00000000
00000000
00000000
00000000
,
01000000
10000000
01000000
00100000
,
00010000
00100000
02000000
00000000
,
M01M0000
00100000
10000000
13000000
,
00000000
00000000
00000000
00000000
,
10000000
01000000
00100000
00010000
,
00100000
00010000
00200000
00000000
,
MM010000
00010000
00001000
00301000
,
00000000
00000000
00000000
00000000
,
00001000
00010000
00000100
00000010
,
00000001
00000010
00000200
00000000
,
000100MM
00010000
00001000
00001300
,
00000000
00000000
00000000
00000000
,
00000110
00000000
00001001
00000000
,
00000220
00000000
00000000
00000000
,
00000330
00000000
00000000
00000000
;

//--------------- dance-double - LinkDubs11 ----------------
#NOTEDATA:;
#STEPSTYPE:dance-double;
#DESCRIPTION:LinkDubs11;
#DIFFICULTY:Medium;
#METER:7;
#RADARVALUES:0,0,0,0,0;
#NOTES:
00000000
00000000
00000000
00000000
,
00000000
00000000
00000000
00000000
,
00000000
00000000
00000000
00000000
,
00000000
00000000
00000000
10100000
,
20000000
30000000
00100000
20000000
30000000
01000000
00200000
00000000
,
00300000
01000000
00200000
00300000
00010000
10000000
00020000
00000000
,
00030000
10000000
00010000
01000000
00020000
00030000
00200000
00300000
,
00001000
00100000
00002000
00003000
01000000
00001000
00010000
00002000
,
00000000
00003000
00000000
00010000
00000000
00000010
00000000
00010000
00000000
00000100
00000000
00010000
00000000
00000100
00000000
00001000
,
00000000
00000010
00000000
00001000
00000000
00000010
00000000
00000100
00000000
00000010
00000000
00000100
00000000
00000001
00000000
00000000
,
00001000
00000001
00001000
00000002
00000000
00000003
00000010
00000001
,
00000010
00000001
00000200
00000000
00000000
00000300
00000001
00001000
,
00000100
00000010
00000100
00002000
00000000
00000000
00000000
00003000
,
00000010
00010000
00001000
00010000
00002000
00000000
00000000
00003000
,
01000000
00010000
00100000
00010000
20000000
00000000
00000000
30000000
,
00100000
01000000
00100000
10000000
01000000
20000000
30000000
01000000
,
00200000
00300000
00010000
20000000
30000000
00010000
01000000
00001000
,
01000000
00001000
00010000
00000020
00000000
00000030
00010000
00000100
,
00001000
00000100
00000010
00000001
00001000
00000002
00000000
00000003
,
00000100
00000001
00000100
00000001
00000010
00000002
00000000
00000003
,
00001000
00000001
00001000
00000020
00000000
00000030
00000100
00000010
,
00000100
00000010
00001000
00000200
00000000
00000300
00002000
00003000
,
00000100
00010000
00000010
00020000
00000000
00030000
00001000
00010000
,
00001000
00020000
00000000
00030000
00001000
00100000
00001000
00200000
,
00000000
00300000
00010000
01000000
00010000
02000000
00000000
03000000
,
00010000
10000000
00010000
10000000
00200000
00000000
00000000
00300000
,
01000000
00100000
01000000
00100000
20000000
00000000
00000000
30000000
,
01000000
20000000
00000000
30000000
00100000
20000000
00000000
30000000
,
00100000
20000000
00000000
30000000
01000000
00200000
00000000
00300000
,
01000000
00100000
00010000
10000000
00020000
00000000
00000000
00030000
,
10000000
00020000
00000000
00030000
01000000
00020000
00000000
00030000
,
00100000
00001000
00100000
00001000
02000000
00000000
03000000
00001000
,
00010000
00001000
00010000
00000010
00020000
00000000
00000000
00030000
,
00000100
00010000
00000100
00001000
00000020
00000000
00000000
00000030
,
00001000
00000010
00000100
00000010
00000200
00000300
00000002
00000003
,
00001000
00000001
00001000
00000001
00000020
00000030
0000MM02
00000000
,
00000003
00000010
00000001
00000200
00000300
00000002
00000003
00001000
,
00000100
00000010
00000200
00000000
00000000
00000000
00000000
00000300
,
000020MM
00003000
00000010
00010000
00002000
00003000
00020000
00000000
,
00030000
00002000
00003000
02000000
03000000
00020000
00030000
00200000
,
00300000
00010000
10000000
00200000
00300000
01000000
00100000
10000000
,
02000000
03000000
10000000
02000000
03000000
00200000
00000000
00300000
,
MM020000
00030000
10000000
00010000
02000000
03000000
00001000
02000000
,
00000000
00000000
03000000
00002000
00000000
00003000
00020000
00000000
,
00030000
00000010
00010000
00000200
00000300
00002000
00003000
00000100
,
00000010
00000001
00002000
00003000
00000002
00000000
00000000
00000003
,
0000M2M0
00000300
00000001
00000100
00000002
00000003
00000020
00000000
,
00000030
00000002
00000003
00002000
00003000
00000002
00000003
00002000
,
00003000
00000010
00000100
00000020
00000030
00000100
00000010
00001000
,
00000200
00000300
00001000
00000200
00000300
00020000
00000000
00030000
,
0000MM20
00000030
00010000
00001000
00020000
00030000
00002000
00000000
,
00000000
00000000
00000000
00000000
00000000
00000000
00000000
00003000
,
00011000
00000000
01001000
00000000
00101000
00000000
00002000
00003000
,
00100000
00010000
01000000
00010000
01000000
00020000
00000000
00030000
,
10000000
00010000
10000000
00100000
01000000
00200000
00000000
00300000
,
01000000
00100000
10000000
01000000
10000000
02000000
00000000
03000000
,
10000000
01000000
10000000
00100000
01000000
00200000
00000000
00300000
,
01000000
00010000
10000000
00010000
10000000
00020000
00000000
00030000
,
00100000
00010000
01000000
00001000
01000000
00002000
00000000
00003000
,
00100000
00001000
00010000
00001000
00010000
00000020
00000000
00000030
,
00010000
00000100
00010000
00000100
00001000
00000020
00000000
00000030
,
00001000
00000010
00000100
00000010
00000100
00000002
00000000
00000003
,
00001000
00000001
00001000
00000001
00000010
00000002
00000000
00000003
,
00000010
00000001
00000100
00000001
00001000
00000200
00000000
00000300
,
00000010
00000100
00001000
00000010
00010000
00002000
00000000
00003000
,
00010000
00001000
00100000
00010000
01000000
00020000
00000000
00030000
,
10000000
01000000
00100000
01000000
10000000
00200000
00000000
00300000
,
10000000
00100000
01000000
00010000
10000000
00020000
00000000
00030000
,
00100000
00001000
00010000
00001000
00200000
00300000
00002000
00003000
,
00010000
00000010
00010000
00000100
00002000
00003000
00000200
00000300
,
00000010
00000001
00001000
00000001
00000200
00000300
00000002
00000003
,
00001000
00000100
00001000
00000010
00000200
00000300
00000002
00000003
,
00000100
00000001
00001000
00000010
00000200
00000300
00000002
00000003
,
00000010
00000100
00000010
00000100
00000020
00000030
00000002
00000003
,
00000100
00000010
00001000
00000010
00000100
00000020
00000000
00000030
,
00010000
00001000
00010000
00001000
00010000
00002000
00000000
00003000
,
01000000
00001000
01000000
00010000
00100000
00020000
00000000
00030000
,
00100000
00010000
10000000
00010000
10000000
02000000
00000000
03000000
,
00100000
01000000
00100000
01000000
10000000
00200000
00000000
00300000
,
10000000
01000000
10000000
01000000
10000000
00200000
00000000
00300000
,
01000000
00100000
01000000
00010000
10000000
00020000
00000000
00030000
,
10000000
00010000
00100000
00010000
01000000
00002000
00000000
00003000
,
01000000
00001000
00100000
00001000
00010000
00002000
00000000
00003000
,
00010000
00000010
00010000
00000100
00020000
00030000
0000M2M0
00000000
,
00000300
00001000
00000010
00002000
00003000
00000020
00000030
00000100
,
00000010
00000100
00000002
00000003
00002000
00000000
00000000
00003000
,
00000MM2
00000003
00001000
00000001
00000020
00000030
00000002
00000000
,
00000000
00000000
00000003
00000020
00000000
00000000
00000030
00000002
,
00000003
00000100
00000001
00002000
00003000
00000100
00000010
00000100
,
00002000
00003000
00000010
00020000
00030000
00002000
00000000
00003000
,
00020MM0
00030000
00001000
00100000
00020000
00030000
02000000
00000000
,
00000000
00000000
03000000
00020000
00000000
00000000
00030000
20000000
,
30000000
01000000
00100000
02000000
03000000
20000000
30000000
00100000
,
10000000
00100000
02000000
03000000
00020000
00000000
00000000
00030000
,
2MM00000
30000000
00010000
00100000
00002000
00003000
00100000
00002000
,
00000000
00000000
00000000
00000000
00003000
00020000
00000000
00000000
,
00030000
00000010
00010000
00000200
00000300
00001000
00000100
00000010
,
00000001
00001000
00000001
00000200
00000300
00000002
00000000
00000003
,
0000M2M0
00000300
00000001
00000010
00000002
00000003
00002000
00000000
,
00000000
00003000
00000002
00000003
00002000
00003000
00000020
00000030
,
00000200
00000300
00000020
00000030
00000200
00000300
00000020
00000030
,
00002000
00003000
00000100
00002000
00003000
00000200
00000000
00000300
,
00020000
00030000
00000020
00000030
00020000
00030000
00002000
00003000
,
00020000
00030000
00001000
00020000
00030000
00001000
00000000
00000000
;

//--------------- dance-double - Cut from Gazebo ----------------
#NOTEDATA:;
#STEPSTYPE:dance-double;
#DESCRIPTION:Cut from Gazebo;
#DIFFICULTY:Hard;
#METER:9;
#RADARVALUES:0,0,0,0,0;
#NOTES:
00000000
00000000
00000000
00000000
,
00000000
00000000
00000000
00000000
,
00000000
00000000
00000000
00000000
,
00000000
00000000
00000000
00100000
,
10000000
00000000
00000000
01000000
00000000
00000000
00100000
00000000
00000000
00010000
10000000
00000000
00010000
00000000
01000000
00001000
,
00000000
00100000
00000000
00001000
00010000
00000000
00000010
00010000
00000000
00000100
00000000
00001000
00000010
00000000
00000000
00000000
,
00000100
00000000
00000001
00000000
00001000
00000000
00000001
00000010
00000000
00000001
00000100
00000000
00000001
00001000
00000000
00000010
,
00000100
00000000
00000010
00001000
00000000
00000100
00010000
00000000
00001000
00010000
00000000
00001000
00000000
01000000
00010000
00000000
,
00000000
00000000
00100000
00010000
00000000
10000000
00000000
01000000
00000000
00100000
00000000
01000000
00000000
10000000
00000000
01000000
,
00000000
10000000
00000000
00100000
00000000
01000000
00000000
00010000
00000000
10000000
00000000
00010000
00000000
00100000
00000000
00000000
,
00000000
00001000
01000000
00000000
00001000
00010000
00000000
00000010
00000000
00000000
00000000
00000000
00010000
00000000
00000100
00000000
,
00001000
00000000
00000010
00000100
00000000
00000001
00000000
00001000
00000000
00000000
00000000
00000001
00000010
00000000
00000001
00000000
,
00000100
00000000
00000001
00000000
00001000
00000000
00000010
00000000
00000100
00000000
00000010
00001000
00000000
00000000
00000000
00000000
,
00000100
00000000
00010000
00000000
00001000
00000000
00010000
00000000
00001000
00000000
00100000
00010000
00000000
00000000
00000000
00000000
,
01000000
00000000
00010000
00000000
10000000
00000000
00100000
00000000
01000000
00000000
00100000
10000000
00000000
00000000
00000000
01000000
,
10000000
00000000
00100000
00000000
01000000
00000000
00010000
00000000
10000000
00000000
00010000
00100000
00000000
00000000
00001000
00000000
,
01000000
00000000
00001000
00010000
00000000
00000100
00010000
00000010
,
00001000
00000000
00000100
00000000
00000010
00000000
00000001
00000000
00000000
00001000
00000001
00000000
00000100
00000000
00000001
00000000
,
00000010
00000000
00000001
00000000
00001000
00000000
00000100
00000000
00000010
00000000
00000100
00001000
00000000
00000010
00000000
00010000
,
00001000
00000000
00010000
00000000
00001000
00000000
00100000
00000000
00010000
00000000
01000000
00010000
00000000
10000000
00000000
00000000
,
00100000
01000000
00000000
00100000
10000000
00000000
00100000
10000000
00000000
00000000
00000000
00000000
01000000
00100000
00000000
00010000
,
10000000
00000000
00010000
01000000
00000000
00001000
00100000
00000000
00001000
00000000
00000000
00000000
00010000
00000000
00000000
00000000
,
00000100
00010000
00000010
00001000
00000100
00000000
00000010
00000001
,
00001000
00000001
00000100
00000000
00000001
00000010
00000001
00001000
,
00000100
00000000
00000000
00000010
00000100
00000000
00001000
00000000
00000010
00000000
00010000
00001000
00000000
00010000
00000000
00000000
,
00001000
00000000
01000000
00000000
00010000
00000000
00100000
00000000
00010000
00000000
10000000
01000000
00000000
00100000
00000000
00000000
,
01000000
00000000
10000000
00000000
00100000
00000000
10000000
00000000
01000000
00000000
00100000
00010000
00000000
10000000
00000000
00000000
,
00010000
00000000
01000000
00001000
00000000
00100000
00000000
00000000
00001000
00010000
00000000
00000100
00000000
00010000
00000000
00000000
,
00000010
00000000
00001000
00000100
00000000
00000010
00000000
00000000
00000001
00000000
00001000
00000001
00000000
00000000
00000000
00000000
,
00000100
00000000
00000001
00000000
00000010
00000000
00000001
00000000
00001000
00000000
00000100
00000010
00000000
00000000
00000000
00000000
,
00000100
00001000
00000000
00000010
00000000
00000000
00000000
00000000
00010000
00000000
00001000
00010000
00000000
00000000
00000000
00001000
,
01000000
00000000
00010000
00100000
00000000
00010000
10000000
00000000
01000000
00000000
00100000
01000000
00000000
10000000
00000000
01000000
,
10000000
00000000
00100000
00000000
01000000
00000000
00010000
00000000
10000000
00000000
00010000
00100000
00000000
00001000
00000000
00000000
,
01000000
00000000
00001000
00000000
00010000
00000000
00000100
00000000
00010000
00000000
00000010
00001000
00000000
00000100
00000000
00000000
,
00000010
00000001
00000000
00001000
00000001
00000000
00000100
00000001
00000000
00000010
00000000
00000000
00000001
00000000
00000000
00001000
,
00000100
00000010
00000100
00001000
00000010
00000000
00010000
00000000
,
00001000
00000000
00010000
00000000
00001000
00000000
00100000
00010000
00000000
00000000
01000000
00000000
00000000
00000000
00010000
00000000
,
10000000
00000000
00100000
00000000
01000000
00000000
00100000
10000000
00000000
00000000
01000000
00000000
00000000
00000000
00000000
00000000
,
10000000
00000000
00100000
01000000
00010000
00000000
10000000
00000000
,
00000000
00010000
00000000
00100000
00000000
00001000
00000000
01000000
,
00001000
00000000
00010000
00000000
00000010
00000000
00010000
00000100
00000000
00000000
00001000
00000000
00000010
00000000
00000100
00000000
,
00000001
00001000
00000001
00000010
00000000
00000001
00000000
00000000
,
00000100
00000000
00000001
00001000
00000010
00000000
00000100
00000010
,
00000000
00000000
00000000
00001000
00000000
00000000
00000100
00000000
,
00010000
00000000
00001000
00000000
00010000
00000000
00001000
00100000
00000000
00000000
00010000
00000000
00000000
00000000
01000000
00000000
,
00010000
00000000
10000000
00000000
00100000
00000000
01000000
00100000
00000000
00000000
10000000
00000000
00000000
00000000
00000000
00000000
,
00100000
00000000
10000000
01000000
00100000
00000000
00010000
00000000
,
00000000
10000000
00000000
00010000
00000000
01000000
00000000
00001000
,
00100000
00000000
00001000
00000000
00010000
00000000
00000010
00010000
00000000
00000000
00000100
00000000
00001000
00000000
00000010
00000000
,
00000100
00000001
00001000
00000001
00000000
00000010
00000000
00000000
,
00000001
00000000
00000100
00000001
00001000
00000000
00000010
00000000
,
00000000
00000000
00000000
00000000
,
00000100
00000010
00000000
00000000
00001000
00000000
00000000
00000000
00000100
00000000
00010000
00001000
00000000
00000000
00010000
00000000
,
00001000
00000000
01000000
00000000
00010000
00000000
00100000
00000000
00010000
00000000
10000000
01000000
00000000
00000000
00100000
00000000
,
01000000
10000000
00100000
10000000
01000000
00100000
00010000
00000000
,
10000000
00000000
00010000
00000000
01000000
00001000
00000000
00100000
00001000
00000000
00010000
00000010
00000000
00000000
00010000
00000000
,
00000100
00000000
00001000
00000000
00000010
00000000
00000100
00000000
00000001
00000000
00001000
00000001
00000000
00000000
00000000
00000000
,
00000010
00000000
00000001
00000000
00000100
00000001
00000000
00001000
00000010
00000000
00000100
00000010
00000000
00000000
00001000
00000000
,
00000100
00010000
00001000
00010000
00001000
01000000
00010000
00100000
,
00010000
10000000
01000000
00100000
01000000
10000000
01000000
10000000
,
00100000
00000000
01000000
00000000
00010000
00000000
10000000
00000000
00010000
00000000
00100000
00001000
00000000
00000000
00000000
00000000
,
01000000
00001000
00000000
00010000
00000010
00000000
00010000
00000000
00000100
00000000
00001000
00000010
00000000
00000000
00000000
00000000
,
00000100
00000000
00000001
00000000
00001000
00000000
00000001
00000000
00000010
00000000
00000001
00000100
00000000
00000000
00000000
00000000
,
00000001
00001000
00000000
00000010
00000100
00000000
00000010
00000000
00001000
00000000
00000100
00010000
00000000
00000000
00001000
00000000
,
00010000
00000000
00001000
00000000
00100000
00000000
00010000
00000000
01000000
00000000
00010000
10000000
00000000
00000000
00100000
00000000
,
01000000
00000000
00100000
00000000
10000000
00000000
01000000
10000000
00000000
00100000
01000000
00000000
00010000
00000000
10000000
00000000
,
00010000
00100000
00000000
00001000
01000000
00000000
00001000
00000000
00010000
00000000
00000100
00000000
00010000
00000000
00000000
00000000
,
00000010
00001000
00000000
00000100
00000010
00000000
00000001
00000000
00001000
00000000
00000001
00000100
00000000
00000000
00000001
00000000
,
00000010
00000001
00000000
00000000
00001000
00000100
00000000
00000000
00000010
00000000
00000000
00000000
00000100
00000000
00000000
00001000
,
00000010
00010000
00001000
00010000
00001000
00000000
00100000
00010000
,
01000000
00000000
00010000
00000000
10000000
00000000
00100000
00000000
01000000
00000000
00100000
10000000
00000000
00000000
00000000
00000000
,
00100000
00000000
10000000
00000000
01000000
00000000
00100000
00000000
00010000
00000000
10000000
00010000
00000000
00000000
00000000
00000000
,
01000000
00001000
00000000
00100000
00001000
00000000
00010000
00000000
00000100
00000000
00010000
00000010
00000000
00000000
00000000
00000000
,
00001000
00000100
00000000
00000000
00000010
00000001
00000000
00000000
00001000
00000000
00000000
00000001
00000100
00000000
00000001
00000000
,
00000010
00000001
00000000
00000000
00001000
00000100
00000000
00000010
00000100
00000000
00001000
00000000
00000010
00000000
00010000
00000000
,
00001000
00000000
00010000
00000000
00001000
00000000
01000000
00000000
00010000
00000000
00100000
00010000
00000000
10000000
00000000
00000000
,
01000000
00000000
00100000
01000000
00000000
10000000
00100000
00000000
10000000
00000000
01000000
00100000
00000000
00010000
00000000
00000000
,
10000000
00010000
00000000
01000000
00001000
00000000
00100000
00000000
00001000
00000000
00010000
00000100
00000000
00010000
00000010
00000000
,
00001000
00000000
00000100
00000000
00000010
00000000
00000001
00000000
00001000
00000000
00000001
00000000
00000100
00000000
00000000
00000001
,
00000010
00000000
00000001
00000000
00001000
00000000
00000100
00000000
00000010
00000000
00000100
00001000
00000000
00000010
00000000
00000000
,
00010000
00000000
00001000
00000000
00010000
00001000
00000000
01000000
00010000
00000000
00100000
00010000
00000000
00000000
10000000
01000000
,
00000000
00100000
01000000
00000000
10000000
00000000
01000000
00000000
10000000
00000000
00100000
01000000
00000000
00000000
00010000
00000000
,
10000000
00000000
00010000
00000000
00100000
00000000
00001000
01000000
00000000
00001000
00010000
00000000
00000100
00000000
00010000
00000000
,
00000010
00001000
00000100
00000010
00000001
00000000
00001000
00000000
,
00000001
00000000
00000100
00000000
00000001
00000000
00000010
00000001
00000000
00000000
00001000
00000000
00000000
00000000
00000100
00000000
,
00000010
00000000
00000100
00000000
00001000
00000000
00000010
00010000
00000000
00000000
00001000
00000000
00000000
00000000
00000000
00000000
,
00010000
00000000
00001000
00100000
00010000
00000000
01000000
00000000
,
00000000
00000000
00000000
00010000
00000000
00000000
00000000
10000000
,
00100000
00000000
01000000
00000000
00100000
00000000
10000000
01000000
00000000
00000000
10000000
00000000
00100000
00000000
01000000
00000000
,
00010000
10000000
00010000
00100000
00000000
00001000
00000000
00000000
,
01000000
00000000
00001000
00010000
00000010
00000000
00010000
00000000
,
00000000
00000000
00000000
00000100
00000000
00000000
00000000
00001000
,
00000010
00000000
00000100
00000000
00000001
00000000
00001000
00000001
00000000
00000000
00000010
00000000
00000000
00000000
00000001
00000000
,
00000100
00000000
00000001
00000000
00001000
00000000
00000010
00000100
00000000
00000000
00000010
00000000
00000000
00000000
00000000
00000000
,
00001000
00000000
00000100
00010000
00001000
00000000
00010000
00001000
,
00000000
00100000
00000000
00000000
00000000
00010000
00000000
00000000
,
01000000
00000000
00010000
00000000
10000000
00000000
00100000
01000000
00000000
00000000
00100000
00000000
10000000
00000000
00100000
00000000
,
10000000
01000000
00100000
00010000
00000000
10000000
00000000
00000000
,
00010000
01000000
00000000
00001000
00100000
00000000
00001000
00010000
00000000
00000010
00010000
00000000
00000100
00001000
00000000
00000010
,
00000100
00000001
00001000
00000001
00000010
00000001
00000100
00000001
,
00001000
00000000
00000000
00000000
;
