#TITLE:ASGORE;
#SUBTITLE:;
#ARTIST:Toby Fox;
#TITLETRANSLIT:;
#SUBTITLETRANSLIT:;
#ARTISTTRANSLIT:;
#GENRE:;
#CREDIT:;
#MUSIC:ASGORE.mp3;
#BANNER:ASGORE.png;
#BACKGROUND:ASGORE-bg.png;
#CDTITLE:;
#SAMPLESTART:99.997;
#SAMPLELENGTH:12.000;
#SELECTABLE:YES;
#OFFSET:1.001;
#BPMS:0.000=229.690
,416.000=114.845
,452.000=229.690
;
#STOPS:;
#DISPLAYBPM:230.000;
#BGCHANGES:;
#FGCHANGES:;

//--------------- dance-single - LinkDude02 ----------------
#NOTES:
     dance-single:
     LinkDude02:
     Beginner:
     1:
     0.119006,0.222678,0.076896,0.09612,0,130,118,12,15,0,0,0.119006,0.222678,0.076896,0.09612,0,130,118,12,15,0,0:
0000
0000
0000
0000
,
0001
0000
0000
0000
,
0001
0000
0000
0000
,
2000
0000
0000
0000
,
3000
0000
0000
0000
,
0100
0000
0000
0000
,
0100
0000
0000
0000
,
0020
0000
0000
0000
,
0030
0000
0000
0000
,
0001
0000
0000
0000
,
0001
0000
0000
0000
,
0200
0000
0000
0000
,
0300
0000
0000
0000
,
0010
0000
0000
0000
,
0010
0000
0000
0000
,
2000
0000
0000
0000
,
3000
0000
0000
0000
,
0100
0000
0000
0000
,
0100
0000
0000
0000
,
0020
0000
0000
0000
,
0030
0000
0000
0000
,
0001
0000
0000
0000
,
0001
0000
0000
0000
,
0200
0000
0000
0000
,
0300
0000
0000
0000
,
0010
0000
0000
0000
,
0010
0000
0000
0000
,
2000
0000
0000
0000
,
3000
0000
0000
0000
,
0100
0000
0000
0000
,
0100
0000
0000
0000
,
0020
0000
0000
0000
,
0030
0000
0000
0000
,
0001
0000
0000
0000
,
0001
0000
0000
0000
,
0010
0000
0000
0000
,
0100
0000
0000
0000
,
1000
0000
0000
0000
,
0010
0000
0000
0000
,
0100
0000
0000
0000
,
0002
0000
0000
0000
,
0003
0000
0000
0000
,
1000
0000
0000
0000
,
0100
0000
0000
0000
,
0010
0000
0000
0000
,
0001
0000
0000
0000
,
0100
0000
0000
0000
,
0010
0000
0000
0000
,
2000
0000
0000
0000
,
3000
0000
0000
0000
,
0001
0000
0000
0000
,
0010
0000
0000
0000
,
0100
0000
0000
0000
,
1000
0000
0000
0000
,
0010
0000
0000
0000
,
0100
0000
0000
0000
,
0002
0000
0000
0000
,
0003
0000
0000
0000
,
1000
0000
0000
0000
,
0100
0000
0000
0000
,
0010
0000
0000
0000
,
0001
0000
0000
0000
,
0100
0000
0000
0000
,
0010
0000
0000
0000
,
0002
0000
0000
0000
,
0003
0000
0000
0000
,
1000
0000
0000
0000
,
0010
0000
0000
0000
,
0100
0000
0000
0000
,
0001
0000
0000
0000
,
0010
0000
0000
0000
,
0100
0000
0000
0000
,
2000
0000
0000
0000
,
3000
0000
0000
0000
,
0001
0000
0000
0000
,
0100
0000
0000
0000
,
0010
0000
0000
0000
,
1000
0000
0000
0000
,
0100
0000
0000
0000
,
0010
0000
0000
0000
,
0002
0000
0000
0000
,
0003
0000
0000
0000
,
2000
0000
0000
0000
,
3000
0000
0000
0000
,
0110
0000
0000
0000
,
0000
0000
0000
0000
,
1001
0000
0000
0000
,
0000
0000
0000
0000
,
0110
0000
0000
0000
,
0000
0000
0000
0000
,
1001
0000
0000
0000
,
0000
0000
0000
0000
,
1010
0000
0000
0000
,
0000
0000
0000
0000
,
1010
0000
0000
0000
,
0000
0000
0000
0000
,
0101
0000
0000
0000
,
0000
0000
0000
0000
,
0101
0000
0000
0000
,
0000
0000
0000
0000
,
0011
0000
0000
0000
,
0000
0000
0000
0000
,
0011
0000
0000
0000
,
0000
0000
0000
0000
,
1100
0000
0000
0000
,
0001
0000
0000
0000
,
1000
0000
0000
0000
,
0100
0000
0000
0000
,
0010
0000
0000
0000
,
0001
0000
0001
0000
,
1000
0000
1000
0000
,
0100
0000
0100
0000
,
0010
0000
0010
0000
,
0001
0000
0000
0000
,
1000
0000
0000
0000
,
0001
0000
0000
0000
,
1000
0000
0000
0000
,
0010
0000
0000
0000
,
1000
0000
0000
0000
,
0010
0000
0000
0000
,
1000
0000
0000
0000
,
0010
0000
0000
0000
,
0100
0000
0000
0000
,
0010
0000
0000
0000
,
0100
0000
0000
0000
,
0001
0000
0000
0000
,
0100
0000
0000
0000
,
0001
0000
0000
0000
,
0100
0000
0000
0000
,
0001
0000
0000
0000
,
1000
0000
0000
0000
,
0001
0000
0000
0000
,
1000
0000
0000
0000
,
0100
0000
0000
0000
,
1000
0000
0000
0000
,
0100
0000
0000
0000
,
1000
0000
0000
0000
,
0100
0000
0000
0000
,
0010
0000
0000
0000
,
1001
0000
0000
0000
;

//--------------- dance-single - LinkDude04 ----------------
#NOTES:
     dance-single:
     LinkDude04:
     Easy:
     3:
     0.184001,0.311749,0.044856,0.442152,0,201,194,7,69,0,0,0.184001,0.311749,0.044856,0.442152,0,201,194,7,69,0,0:
0000
0000
0000
0000
,
0001
0000
1000
0000
,
0002
0000
0003
0000
,
1000
0000
0010
0000
,
2000
0000
3000
0000
,
0010
0000
1000
0000
,
0020
0000
0030
0000
,
0100
0000
0010
0000
,
0200
0000
0300
0000
,
0001
0000
0100
0000
,
0002
0000
0003
0000
,
0100
0000
0001
0000
,
2000
0000
3000
0000
,
0001
0000
1000
0000
,
0200
0000
0300
0000
,
1000
0000
0100
0000
,
2000
0000
3000
0000
,
0100
0000
0010
0000
,
0200
0000
0300
0000
,
0010
0000
0001
0000
,
0020
0000
0030
0000
,
0001
0000
0010
0000
,
0002
0000
0003
0000
,
1000
0000
0001
0000
,
2000
0000
3000
0000
,
0010
0000
1000
0000
,
0020
0000
0030
0000
,
1000
0000
0010
0000
,
0200
0000
0300
0000
,
0010
0000
0100
0000
,
0002
0000
0003
0000
,
0100
0000
0001
0000
,
0200
0000
0300
0000
,
0001
0000
1000
0000
,
0002
0000
0003
0000
,
0200
0000
0300
0000
,
0020
0000
0030
0000
,
2000
0000
3000
0000
,
0200
0000
0300
0000
,
0020
0000
0030
0000
,
0001
0000
0001
0000
,
0100
0000
0100
0000
,
0020
0000
0030
0000
,
2000
0000
3000
0000
,
0200
0000
0300
0000
,
0020
0000
0030
0000
,
0002
0000
0003
0000
,
0200
0000
0300
0000
,
0010
0000
0010
0000
,
1000
0000
1000
0000
,
0200
0000
0300
0000
,
0020
0000
0030
0000
,
0002
0000
0003
0000
,
0200
0000
0300
0000
,
0020
0000
0030
0000
,
2000
0000
3000
0000
,
0100
0000
0100
0000
,
0010
0000
0010
0000
,
0002
0000
0003
0000
,
0200
0000
0300
0000
,
0020
0000
0030
0000
,
2000
0000
3000
0000
,
0200
0000
0300
0000
,
0020
0000
0030
0000
,
0001
0000
0001
0000
,
0100
0000
0100
0000
,
0020
0000
0030
0000
,
2000
0000
3000
0000
,
0200
0000
0300
0000
,
0020
0000
0030
0000
,
0002
0000
0003
0000
,
0200
0000
0300
0000
,
0010
0000
0010
0000
,
1000
0000
1000
0000
,
0002
0000
0003
0000
,
0200
0000
0300
0000
,
0020
0000
0030
0000
,
2000
0000
3000
0000
,
0200
0000
0300
0000
,
0020
0000
0030
0000
,
0001
0000
0001
0000
,
0100
0000
0100
0000
,
0020
0000
0000
0000
,
0000
0000
0030
0000
,
2002
0000
3003
0000
,
0001
0000
0010
0000
,
0002
0000
0000
0000
,
0000
0000
0003
0000
,
2002
0000
3003
0000
,
1000
0000
0010
0000
,
2000
0000
0000
0000
,
0000
0000
3000
0000
,
2002
0000
3003
0000
,
0001
0000
0100
0000
,
0002
0000
0000
0000
,
0000
0000
0003
0000
,
2002
0000
3003
0000
,
1000
0000
0100
0000
,
2000
0000
0000
0000
,
0000
0000
3000
0000
,
0220
0000
0330
0000
,
0100
0000
1000
0000
,
0002
0000
0000
0000
,
0000
0000
0003
0000
,
0220
0000
0000
0330
,
0001
0000
0001
0000
,
1000
0000
1000
0000
,
0010
0000
0010
0000
,
0100
0000
0100
0000
,
0001
1000
0001
0000
,
1000
0001
1000
0000
,
0010
0100
0010
0000
,
0100
0010
0100
0000
,
0001
0000
1000
0000
,
0020
0000
0030
0000
,
1000
0000
0001
0000
,
0020
0000
0030
0000
,
0001
0000
1000
0000
,
0200
0000
0300
0000
,
1000
0000
0001
0000
,
0200
0000
0300
0000
,
0001
0000
1000
0000
,
0020
0000
0030
0000
,
1000
0000
0001
0000
,
0020
0000
0030
0000
,
0001
0000
1000
0000
,
0200
0000
0300
0000
,
1000
0000
0001
0000
,
0200
0000
0300
0000
,
0001
0000
1000
0000
,
0020
0000
0030
0000
,
1000
0000
0001
0000
,
0020
0000
0030
0000
,
0001
0000
1000
0000
,
0200
0000
0300
0000
,
0010
0000
0100
0000
,
0010
0000
0100
0000
,
1000
0000
0001
0000
,
1000
0000
0001
0000
,
1001
0000
0000
0000
;

//--------------- dance-single - LinkDude07 ----------------
#NOTES:
     dance-single:
     LinkDude07:
     Medium:
     5:
     0.279206,0.356285,0.03204,0.294768,0,305,300,5,46,0,0,0.279206,0.356285,0.03204,0.294768,0,305,300,5,46,0,0:
0000
0000
0000
0000
,
0001
0000
1000
0000
,
0002
0000
0003
0000
,
1000
0000
0000
0010
0000
0000
0010
0000
,
2000
0000
3000
0000
,
0010
0000
1000
0000
,
0020
0000
0030
0000
,
0100
0000
0000
0010
0000
0000
0010
0000
,
0200
0000
0300
0000
,
0001
0000
0100
0000
,
0002
0000
0003
0000
,
0100
0000
0000
0001
0000
0000
0001
0000
,
2000
0000
3000
0000
,
0001
0000
0000
1000
0000
0000
1000
0000
,
0200
0000
0300
0000
,
2002
3003
0000
0100
,
2000
0000
3000
0000
,
0100
0000
0010
0000
,
0200
0000
0300
0000
,
0010
0000
0000
0001
0000
0000
0001
0000
,
0020
0000
0030
0000
,
0001
0000
0010
0000
,
0002
0000
0003
0000
,
1000
0000
0000
0001
0000
0000
0001
0000
,
2000
0000
3000
0000
,
0010
0000
1000
0000
,
0020
0000
0030
0000
,
1000
0000
0000
0010
0000
0000
0010
0000
,
0200
0000
0300
0000
,
0010
0000
0000
0100
0000
0000
0100
0000
,
0002
0000
0003
0000
,
1001
0000
0001
0000
,
2000
0000
3000
0000
,
0001
0000
1000
0000
,
0001
0000
1000
0000
0001
0000
0000
0100
,
0000
0010
0100
0000
,
0010
0000
0100
0000
0010
0000
0000
1000
,
0000
0001
1000
0000
,
0100
0000
0010
0000
0100
0000
0000
0010
,
0000
0100
0010
0000
,
0002
0000
0003
0000
,
0200
0000
0300
0000
,
0010
0000
0100
0000
0010
0000
0000
1000
,
0000
0001
1000
0000
,
0100
0000
0010
0000
0100
0000
0000
0010
,
0000
0100
0010
0000
,
0001
0000
1000
0000
0001
0000
0000
0100
,
0000
0010
0100
0000
,
0020
0000
0030
0000
,
2000
0000
3000
0000
,
0100
0000
0010
0000
0100
0000
0000
0010
,
0000
0100
0010
0000
,
0001
0000
1000
0000
0001
0000
0000
0100
,
0000
0010
0100
0000
,
0010
0000
0100
0000
0010
0000
0000
1000
,
0000
0001
1000
0000
,
0200
0000
0300
0000
,
0020
0000
0030
0000
,
0001
0000
0100
0000
0001
0000
0000
0100
,
0000
0010
0100
0000
,
0010
0000
1000
0000
0010
0000
0000
1000
,
0000
0100
1000
0000
,
0100
0000
0010
0000
0100
0000
0000
0010
,
0000
0001
0010
0000
,
0002
0000
0003
0000
,
0200
0000
0300
0000
,
0010
0000
1000
0000
0010
0000
0000
1000
,
0000
0100
1000
0000
,
0100
0000
0010
0000
0100
0000
0000
0010
,
0000
0001
0010
0000
,
0001
0000
0100
0000
0001
0000
0000
0100
,
0000
0010
0100
0000
,
0020
0000
0030
0000
,
2000
0000
3000
0000
,
0100
0000
0010
0000
0100
0000
0000
0010
,
0000
0001
0010
0000
,
0001
0000
0100
0000
0001
0000
0000
0100
,
0000
0010
0100
0000
,
0010
0000
1000
0000
0010
0000
0000
1000
,
0000
0100
1000
0000
,
0200
0000
0300
0000
,
0020
0000
0030
0000
,
2002
0000
0000
0000
,
3003
0000
1000
0010
,
0200
0000
0300
0000
,
0001
0000
0000
0100
0000
0000
0100
0000
,
0002
0000
0003
0000
,
1000
0000
0000
0010
0000
0000
0010
0000
,
2000
0000
3000
0000
,
0001
0000
0000
0010
0000
0000
0010
0000
,
0002
0000
0000
0000
,
0003
0000
0001
0010
,
0200
0000
0300
0000
,
1000
0000
0000
0100
0000
0000
0100
0000
,
2000
0000
0000
0000
,
3000
0000
1000
0010
,
0200
0000
0300
0000
,
0001
0000
0000
0100
0000
0000
0100
0000
,
0002
0000
0000
0000
,
0003
0000
0001
1000
,
0020
0000
0030
0000
,
1000
0000
0000
0010
0000
0000
0010
0000
,
2000
0000
0000
0000
,
0000
0000
3000
0000
,
0200
0000
0300
0000
,
1000
1000
0001
0001
,
0010
0010
0200
0300
,
1000
0010
0100
0001
,
0100
0010
2000
3000
,
0001
0001
0010
0010
,
0100
0100
2000
3000
,
0001
0010
0100
1000
,
0100
0010
0002
0003
,
1000
0001
1000
0000
,
0001
0000
0000
1000
0000
0000
0000
0000
,
0001
1000
0001
0000
,
2000
0000
3000
0000
,
0001
0100
0001
0000
,
0100
0000
0000
0001
0000
0000
0000
0000
,
0100
0000
0000
0001
0000
0000
0100
0000
,
0002
0000
0003
0000
,
1000
0100
1000
0000
,
0100
0000
0000
1000
0000
0000
0000
0000
,
0100
1000
0100
0000
,
2000
0000
3000
0000
,
0001
0010
0001
0000
,
0010
0000
0000
0001
0000
0000
0000
0000
,
0010
0000
0000
0001
0000
0000
0010
0000
,
0002
0000
0003
0000
,
0100
0000
0000
0001
0000
0000
0100
0000
,
0002
0000
0003
0000
,
1000
0000
0000
0001
0000
0000
1000
0000
,
0002
0000
0003
0000
,
0010
0000
0000
0100
0000
0000
0010
0000
,
0200
0000
0300
0000
,
0010
0000
0000
0100
0000
0000
0000
0000
,
0010
0000
0000
0100
0000
0000
0000
0000
,
1000
0000
0000
0001
0000
0000
0000
0000
,
1000
0000
0000
0001
0000
0000
0000
0000
,
0220
0000
0330
0000
;

//--------------- dance-single - LinkDude10 ----------------
#NOTES:
     dance-single:
     LinkDude10:
     Hard:
     7:
     0,0,0,0,0:
0000
0000
0000
0000
,
0001
0000
1000
0000
,
0002
0003
0000
1000
,
0001
0000
0000
1000
0000
0000
0001
0000
,
2000
0000
3000
0000
,
0010
0000
1000
0000
,
0020
0000
0030
1000
,
0010
0000
0000
1000
0000
0000
0010
0000
,
2000
0000
3000
0000
,
0010
0000
0100
0000
,
0020
0030
0000
0100
,
0010
0000
0000
0100
0000
0000
0010
0000
,
0200
0300
0000
0001
,
0100
0000
0000
0001
0000
0000
0100
0000
,
0002
0000
0003
0000
,
0220
0330
0000
1000
,
0002
0000
0003
0000
,
1000
0000
0010
0000
,
0200
0300
0000
0010
,
1000
0000
0000
0010
0000
0000
0100
0000
,
0020
0000
0030
0000
,
1000
0000
0001
0000
,
0200
0300
0000
0001
,
1000
0000
0000
0001
0000
0000
0100
0000
,
0002
0000
0003
0000
,
1000
0000
0100
0000
,
0020
0030
0000
0100
,
1000
0000
0000
0100
0000
0000
0010
0000
,
0200
0000
0300
1000
,
0010
0000
0000
0100
0000
0000
0010
0000
,
2000
0000
0000
0000
,
0000
3000
0000
0100
,
0002
0000
0003
0000
,
0100
0000
1000
0000
,
0001
1000
0001
0000
1000
0000
0000
0001
,
0000
1000
0000
0000
0001
0000
0000
0000
,
0010
0100
0010
0000
0100
0000
0000
1000
,
0000
0100
0000
0000
0010
0000
0000
0000
,
0100
1000
0100
0000
1000
0000
0000
0001
,
0000
1000
0000
0000
0100
0000
0000
0000
,
1000
0000
0000
0010
0000
0000
1000
0000
,
0010
0000
0000
1000
0000
0000
0010
0000
,
0100
0010
0100
0000
0010
0000
0000
1000
,
0000
0010
0000
0000
0100
0000
0000
0000
,
0001
0100
0001
0000
0100
0000
0000
0010
,
0000
0100
0000
0000
0001
0000
0000
0000
,
0010
0001
0010
0000
0001
0000
0000
1000
,
0000
0001
0000
0000
0010
0000
0000
0000
,
0100
0000
0000
0010
0000
0000
0100
0000
,
0010
0000
0000
0100
0000
0000
0010
0000
,
0100
1000
0100
0000
1000
0000
0000
0001
,
0000
1000
0000
0000
0100
0000
0000
0000
,
1000
0010
1000
0000
0010
0000
0000
0100
,
0000
0010
0000
0000
1000
0000
0000
0000
,
0010
0100
0010
0000
0100
0000
0000
0001
,
0000
0100
0000
0000
0010
0000
0000
0000
,
0100
0000
0000
0001
0000
0000
0100
0000
,
0001
0000
0000
0100
0000
0000
0001
0000
,
0010
0001
0010
0000
0001
0000
0000
1000
,
0000
0001
0000
0000
0010
0000
0000
0000
,
0100
0010
0100
0000
0010
0000
0000
0001
,
0000
0010
0000
0000
0100
0000
0000
0000
,
1000
0100
1000
0000
0100
0000
0000
0010
,
0000
0100
0000
0000
1000
0000
0000
0000
,
0010
0000
0000
1000
0000
0000
0010
0000
,
1000
0000
0000
0010
0000
0000
1000
0000
,
0010
0100
0010
0000
0100
0000
0000
0001
,
0000
0100
0000
0000
0010
0000
0000
0000
,
0100
0001
0100
0000
0001
0000
0000
1000
,
0000
0001
0000
0000
0100
0000
0000
0000
,
0001
0010
0001
0000
0010
0000
0000
0100
,
0000
0010
0000
0000
0001
0000
0000
0000
,
0010
0000
0000
0100
0000
0000
0010
0000
,
0100
0000
0000
0010
0000
0000
0100
0000
,
1000
0100
1000
0000
0100
0000
0000
0010
,
0000
0100
0000
0000
1000
0000
0000
0000
,
0010
1000
0010
0000
1000
0000
0000
0001
,
0000
1000
0000
0000
0010
0000
0000
0000
,
0100
0010
0100
0000
0010
0000
0000
1000
,
0000
0010
0000
0000
0100
0000
0000
0000
,
0001
0000
0000
1000
0000
0000
0001
0000
,
1000
0000
0000
0001
0000
0000
1000
0000
,
2200
0000
0000
0000
,
3300
0000
0001
0010
,
0200
0000
0300
1000
,
0100
0000
0000
1000
0000
0000
0100
0000
,
2000
0000
3000
0000
,
0001
0000
0000
0010
0000
0000
0001
0000
,
0020
0000
0030
0000
,
1000
0000
0000
0010
0000
0000
0100
0000
,
0002
0000
0000
0000
,
0003
0000
1000
0100
,
0020
0030
0000
0001
,
0010
0000
0000
0001
0000
0000
0010
0000
,
0002
0000
0000
0000
,
0003
0000
1000
0010
,
0200
0300
0000
0001
,
0100
0000
0000
0001
0000
0000
0100
0000
,
0002
0000
0000
0000
,
0003
0000
1000
0100
,
0020
0000
0030
0001
,
0010
0000
0000
0001
0000
0000
1000
0000
,
0020
0000
0000
0000
,
0000
0000
0030
0000
,
2002
0000
0000
3003
,
0001
0000
1000
0000
0001
0000
1000
0000
0001
0000
0000
1000
0000
0000
0001
0000
,
0100
0000
0000
0001
0000
0000
0100
0000
0002
0000
0000
0000
0003
0000
0000
0000
,
0100
0000
0010
0000
0100
0000
0010
0000
0100
0000
0000
0010
0000
0000
1000
0000
,
0010
0000
0000
1000
0000
0000
0010
0000
2000
0000
0000
0000
3000
0000
0000
0000
,
0100
0000
1000
0000
0100
0000
1000
0000
0100
0000
0000
1000
0000
0000
0100
0000
,
0010
0000
0000
0100
0000
0000
0010
0000
0200
0000
0000
0000
0300
0000
0000
0000
,
0010
0000
0001
0000
0010
0000
0001
0000
0010
0000
0000
0001
0000
0000
0100
0000
,
0001
0000
0000
0100
0000
0000
0001
0000
0200
0000
0000
0000
0300
0000
0000
0000
,
0001
0100
0001
0100
,
0001
0000
0000
0100
0000
0000
0010
0000
,
0100
0010
0100
0010
,
0100
0010
0100
0000
,
0010
1000
0010
1000
,
0010
0000
0000
1000
0000
0000
0100
0000
,
1000
0000
0000
0100
0000
0000
1000
0000
,
0100
1000
0100
0000
,
0010
0100
0010
0100
,
0010
0000
0000
0100
0000
0000
0001
0000
,
0010
0001
0010
0001
,
0010
0001
0010
0000
,
0001
0100
0001
0100
,
0001
0000
0000
0100
0000
0000
0010
0000
,
0100
0000
0000
0010
0000
0000
0100
0000
,
0020
0030
0000
1000
,
0010
0000
0000
1000
0000
0000
0010
0000
,
2000
3000
0000
0100
,
1000
0000
0000
0100
0000
0000
1000
0000
,
0200
0300
0000
0010
,
0100
0000
0000
0010
0000
0000
0100
0000
,
0020
0030
0000
0001
,
0010
0000
0000
0100
0000
0000
1000
0000
,
0010
0000
0000
0100
0000
0000
0001
0000
,
0010
0000
0000
0100
0000
0000
1000
0000
,
0010
0000
0000
0100
0000
0000
0001
0000
,
0020
0000
0030
0000
;

//--------------- dance-single - LinkDude13 ----------------
#NOTES:
     dance-single:
     LinkDude13:
     Challenge:
     9:
     0,0,0,0,0:
0000
0000
0000
0000
,
0001
0000
1000
0000
,
0002
0000
0003
0000
0000
0000
1000
0001
,
1000
0000
0000
0010
0000
0000
0010
0000
,
2000
0000
3000
0000
,
0010
0000
1000
0000
,
0020
0000
0000
0000
0030
0000
0100
0001
,
0100
0000
0000
0010
0000
0000
0010
0000
,
0200
0000
0300
0000
,
0001
0000
0100
0000
,
0002
0000
0003
0000
0000
0000
0100
0010
,
0100
0000
0000
0001
0000
0000
0001
0000
,
2000
0000
3000
0000
0000
0000
0001
0010
,
0001
0000
0000
1000
0000
0000
1000
0000
,
0200
0000
0300
0000
,
2002
0000
3003
0000
0000
0000
1000
0100
,
2000
0000
3000
0000
,
0100
0000
0010
0000
,
0200
0000
0300
0000
0000
0000
0010
0100
,
0010
0000
0000
0001
0000
0000
0001
0000
,
0020
0000
0030
0000
,
0001
0000
0010
0000
,
0002
0000
0003
0000
0000
0000
1000
0100
,
1000
0000
0000
0001
0000
0000
0001
0000
,
2000
0000
3000
0000
,
0010
0000
1000
0000
,
0020
0000
0030
0000
0000
0000
1000
0100
,
1000
0000
0000
0010
0000
0000
0010
0000
,
0200
0000
0300
0000
0000
0000
0010
1000
,
0010
0000
0000
0100
0000
0000
0100
0000
,
0002
0000
0003
0000
,
1001
0000
0000
0000
0001
0000
1000
0010
,
2000
0000
3000
0000
,
0001
0000
1000
0000
,
0001
1000
0001
1000
0001
0000
0000
1000
,
0000
0001
1000
0001
1000
0000
0000
0000
,
0001
0100
0001
0100
0001
0000
0000
0100
,
0000
0001
0100
0001
0100
0000
0000
0000
,
0010
1000
0010
1000
0010
0000
0000
1000
,
0000
0010
1000
0010
1000
0000
0000
0000
,
0001
0000
0000
0100
0000
0000
0001
0000
,
0100
0010
0000
0100
0000
0000
0010
0000
,
0100
0010
0100
0010
0100
0000
0000
0010
,
0000
0100
0010
0100
0010
0000
0000
0000
,
1000
0100
1000
0100
1000
0000
0000
0100
,
0000
1000
0100
1000
0100
0000
0000
0000
,
0010
0001
0010
0001
0010
0000
0000
0001
,
0000
0010
0001
0010
0001
0000
0000
0000
,
1000
0000
0000
0010
0000
0000
0100
0000
,
0001
0100
0000
0010
0000
0000
0100
0000
,
0001
0100
0001
0100
0001
0000
0000
0010
,
0000
0001
0010
0001
0010
0000
0000
0000
,
0100
0010
0100
0010
0100
0000
0000
1000
,
0000
0100
1000
0100
1000
0000
0000
0000
,
0010
1000
0010
1000
0010
0000
0000
0100
,
0000
0010
0100
0010
0100
0000
0000
0000
,
0001
0000
0000
0100
0000
0000
1000
0000
,
0100
0001
0000
0100
0000
0000
0001
0000
,
1000
0001
1000
0001
1000
0000
0000
0100
,
0000
0010
0100
0010
0100
0000
0000
0000
,
0001
0010
0001
0010
0001
0000
0000
0100
,
0000
1000
0100
1000
0100
0000
0000
0000
,
1000
0010
1000
0010
1000
0000
0000
0001
,
0000
0100
0001
0100
0001
0000
0000
0000
,
1000
0000
0000
0010
0000
0000
0001
0000
,
0010
1000
0000
0010
0000
0000
1000
0000
,
0001
1000
0001
1000
0100
0000
0000
1000
,
0000
0100
1000
0100
0010
0000
0000
0000
,
0100
0010
0100
0010
0001
0000
0000
0010
,
0000
0001
0010
0001
1000
0000
0000
0000
,
0001
1000
0001
1000
0010
0000
0000
1000
,
0000
0010
1000
0010
0100
0000
0000
0000
,
0001
0000
0000
0100
0000
0000
1000
0000
,
0100
0001
0000
0100
0000
0000
0001
0000
,
1000
0010
1000
0001
1000
0000
0000
0001
,
0000
0010
0001
1000
0001
0000
0000
0000
,
1000
0100
1000
0001
1000
0000
0000
0001
,
0000
0100
0001
1000
0001
0000
0000
0000
,
1000
0001
1000
0010
1000
0000
0000
0010
,
0000
1000
0010
0100
0010
0000
0000
0000
,
1000
0000
0000
0010
0000
0000
0001
0000
,
0010
1000
0000
0010
0000
0000
1000
0000
,
2002
0000
0000
0000
,
3003
0000
0001
0010
,
0200
0000
0300
1000
,
0100
1000
0000
0100
0000
0000
1000
0000
,
0200
0000
0300
0000
,
0010
0000
0001
0010
0000
0001
0010
0000
,
0002
0000
0003
0000
,
1000
0000
0000
0010
0000
0000
0010
0000
,
2000
0000
0000
0000
,
3000
0000
1000
0010
,
0200
0000
0300
0001
,
0100
0000
0001
0100
0000
0000
0001
0000
,
0200
0000
0000
0000
,
0300
0000
0001
0010
,
0200
0000
0300
1000
,
0100
0000
1000
0100
0000
0000
1000
0000
,
0200
0000
0000
0000
,
0300
0000
1000
0100
,
0020
0000
0030
0001
,
0010
0000
0001
0010
0000
0000
0001
0000
,
0020
0000
0000
0000
,
0000
0000
0030
0000
,
2002
0000
0000
3003
,
0001
1000
0001
1000
0001
0000
1000
0000
0001
0000
0000
1000
0000
0000
0001
0100
,
0001
0000
0000
0100
0000
0001
0100
0000
0002
0000
0000
0000
0003
0000
0000
0000
,
0100
0010
0100
0010
0100
0000
0010
0000
0100
0000
0000
0010
0000
0000
1000
0010
,
1000
0000
0000
0010
0000
1000
0010
0000
2000
0000
0000
0000
3000
0000
0000
0000
,
0100
1000
0100
1000
0100
0000
1000
0000
0100
0000
0000
1000
0000
0000
0100
0010
,
0100
0000
0000
0010
0000
0100
0010
0000
0200
0000
0000
0000
0300
0000
0000
0000
,
0010
0001
0010
0001
0010
0000
0001
0000
0010
0000
0000
0001
0000
0000
0100
0001
,
0100
0000
0000
0001
0000
0100
0001
0000
0200
0000
0000
0000
0300
0000
0000
0000
,
0001
0100
0001
0100
0001
0000
0100
0001
,
0100
0000
0000
0010
0000
0000
0100
0000
,
0010
0100
0010
0100
0010
0000
0100
0010
,
0100
0000
0010
0000
1000
0000
0000
0010
,
1000
0010
1000
0010
1000
0000
0010
1000
,
0010
0000
0000
1000
0000
0000
0100
1000
,
0100
0000
0000
1000
0000
0000
0001
0000
,
0100
1000
0100
0001
,
0100
0001
0100
0001
0100
0000
0001
0010
,
0001
0000
0000
0010
0000
0000
0001
0000
,
0010
0100
0010
0100
0010
0000
0100
1000
,
0100
0000
1000
0000
0100
0000
0000
1000
,
0010
1000
0010
1000
0010
0000
0100
0010
,
0100
0000
0000
0010
0000
0000
0100
0001
,
0100
0000
0000
0010
0000
0000
0100
0000
,
0002
0000
0003
0000
0000
0000
0100
0010
,
0100
0000
0000
0001
0000
0000
0100
0000
,
0020
0000
0030
0000
0000
0000
0100
0001
,
0100
0000
0000
1000
0000
0000
0100
0000
,
0002
0000
0003
0000
0000
0000
1000
0010
,
1000
0000
0000
0010
0000
0000
0001
0000
,
0020
0030
0000
1000
,
0010
1000
0000
0010
0000
0000
0100
0000
,
0001
0100
0000
0001
0000
0000
1000
0000
,
0100
1000
0000
0100
0000
0000
0010
0000
,
0001
0010
0000
0001
0000
0000
0010
0000
,
0200
0000
0300
0000
;
