#VERSION:0.83;
#TITLE:As Long As You Love Me;
#SUBTITLE:Sensibility Validation;
#ARTIST:Justin Bieber feat. Big Sean;
#TITLETRANSLIT:;
#SUBTITLETRANSLIT:;
#ARTISTTRANSLIT:;
#GENRE:;
#CREDIT:;
#MUSIC:As Long As You Love Me.ogg;
#BANNER:As Long As You Love Me-bn.png;
#BACKGROUND:As Long As You Love Me-bg.png;
#CDTITLE:GazeboCD.png;
#SAMPLESTART:55.393;
#SAMPLELENGTH:14.500;
#SELECTABLE:YES;
#OFFSET:0.074;
#BPMS:0.000=140.005
,100.000=70.003
,116.000=140.005
,280.000=70.002
,296.000=140.005
,312.000=70.003
,328.000=140.005
,344.000=70.002
,360.000=140.005
;
#STOPS:;
#DISPLAYBPM:140.000;
#BGCHANGES:;
#FGCHANGES:;

//--------------- dance-single - LinkDude04 ----------------
#NOTEDATA:;
#STEPSTYPE:dance-single;
#DESCRIPTION:LinkDude04;
#DIFFICULTY:Beginner;
#METER:3;
#RADARVALUES:0,0,0,0,0;
#NOTES:
0000
0000
0000
0000
,
0000
0000
0000
0000
,
0000
0000
0000
0000
,
0000
0000
0000
0000
,
0000
0000
0000
0000
,
0000
0000
0000
0000
,
0000
0000
0000
0000
,
0000
0000
0000
0000
,
0000
0000
0000
0000
,
0001
0000
000M
0000
,
0001
0000
0000
0000
,
1000
0000
M000
0000
,
1000
0000
0000
0000
,
0010
0000
00M0
0000
,
0010
0000
0000
0000
,
0100
0000
0M00
0000
,
0100
0000
0000
0000
,
0001
0000
000M
0000
,
0001
0000
0000
0000
,
1000
0000
M000
0000
,
1000
0000
0000
0000
,
0100
0000
0M00
0000
,
0100
0000
0000
0000
,
0010
0000
00M0
0000
,
0010
0000
0000
0000
0000
0000
0000
0010
,
0000
0010
0000
0000
0000
0000
0000
1000
0000
1000
0000
0000
0000
0000
0000
0001
,
0000
0001
0000
0000
0000
0000
0000
0100
0000
0000
0000
0000
0000
0000
0000
0100
,
0000
0100
0000
0000
0000
0000
0000
0001
0000
0001
0000
0000
0000
0000
0000
1000
,
0000
1000
0000
0000
0000
0000
0000
0010
0000
0000
0000
0000
0000
0000
0000
0000
,
0001
0000
0100
0000
,
0001
0000
0100
0000
,
0001
0000
0010
0000
,
0001
0000
0010
0000
,
0100
0000
0010
0000
,
0100
0000
0010
0000
,
0100
0000
1000
0000
,
0100
0000
2000
0000
,
0000
0000
0000
3000
,
0001
0000
0100
0000
,
0001
0000
0000
0000
,
0100
0000
0010
0000
,
0100
0000
0000
0000
,
0010
0000
1000
0000
,
0010
0000
0000
0000
,
1000
0000
0001
0000
,
1000
0000
0000
0000
,
0001
0000
0010
0000
,
0001
0000
0000
0000
,
0010
0000
0100
0000
,
0010
0000
0000
0000
,
0100
0000
1000
0000
,
0100
0000
0000
0000
,
1000
0000
0001
0000
,
1000
0000
0000
0000
0000
0000
0000
0001
,
0000
0001
0000
0000
0000
0000
0000
0100
,
0000
0100
0000
0000
0000
0000
0000
0010
,
0000
0010
0000
0000
0000
0000
0000
1000
,
0000
0000
0000
0000
0000
0000
0000
0001
,
0000
0001
0000
0000
0000
0000
0000
0010
,
0000
0010
0000
0000
0000
0000
0000
0100
,
0000
0100
0000
0000
0000
0000
0000
1000
,
0000
0000
0000
0000
,
1000
0000
1000
0000
,
0100
0000
0100
0000
,
0001
0000
0001
0000
,
0100
0000
0100
0000
,
1000
0000
1000
0000
,
0010
0000
0010
0000
,
0001
0000
0001
0000
,
0010
0000
0010
0000
,
1000
0100
0010
0001
,
0000
0000
1000
0001
,
0010
0001
0100
0001
,
1000
0001
0100
0001
,
0010
0000
0001
0000
,
1000
0000
0100
0000
,
1000
0000
0010
0000
,
1000
0000
0001
0000
,
1000
0010
1000
0100
,
1000
0001
0100
0001
,
0010
0001
1000
0001
,
0010
0001
0100
0001
,
1000
0000
1000
0000
,
0001
0000
0001
0000
,
1000
0000
1000
0000
,
0002
0000
0000
0000
0000
0003
0000
1000
,
0000
1000
0000
0000
0000
0000
0000
0010
0000
0010
0000
0000
0000
0000
0000
0100
,
0000
0100
0000
0000
0000
0000
0000
0001
0000
0000
0000
0000
0000
0000
0000
1000
,
0000
1000
0000
0000
0000
0000
0000
0010
0000
0010
0000
0000
0000
0000
0000
0100
,
0000
0100
0000
0000
0000
0000
0000
0001
0000
0000
0000
0000
0000
0000
0000
0000
,
1000
0000
0001
0000
,
1000
0000
0010
0000
,
1000
0000
0100
0000
,
1000
0000
0000
0000
,
0001
0000
1000
0000
,
0001
0000
0010
0000
,
0001
0000
0100
0000
,
0001
0000
0000
0000
,
1000
0000
0001
0000
,
1000
0000
0010
0000
,
1000
0000
0100
0000
,
1000
0000
0000
0000
,
0001
0000
1000
0000
,
0001
0000
0010
0000
,
0001
0000
0100
0000
,
0001
0000
0000
0000
,
0100
0000
0010
0000
,
0100
0000
0010
0000
,
1000
0000
0010
0000
,
1000
0000
0001
0000
,
1000
0000
0001
0000
,
0100
0000
0001
0000
,
0100
0000
0010
0000
,
0100
0000
0010
0000
,
1000
0000
0000
0000
;

//--------------- dance-single - LinkDude06 ----------------
#NOTEDATA:;
#STEPSTYPE:dance-single;
#DESCRIPTION:LinkDude06;
#DIFFICULTY:Easy;
#METER:4;
#RADARVALUES:0,0,0,0,0;
#NOTES:
0000
0000
0000
0000
,
0000
0000
0000
0000
,
0000
0000
0000
0000
,
0000
0000
0000
0000
,
0000
0000
0000
0000
,
0000
0000
0000
0000
,
0000
0000
0000
0000
,
0000
0000
0000
0000
,
2002
3003
0001
0100
,
0001
0010
MM01
1000
,
0100
1000
0MM0
0000
,
0001
1000
01MM
0010
,
0001
1000
01MM
0010
,
0000
0000
M00M
0100
,
0010
0001
M0M0
0000
,
0100
0010
1M0M
0001
,
1000
0100
M01M
0100
,
0000
0000
10MM
0010
,
0000
0000
1M0M
0001
,
0000
0000
M1M0
0010
,
0100
0001
1MM0
0001
,
0000
0000
MM10
0100
,
1000
0001
1MM0
0001
,
0010
0100
M01M
0100
,
0000
0000
10MM
0001
,
0010
0100
0010
0100
,
1000
0001
1000
0001
,
0010
0100
0010
0100
,
1000
0001
0010
0001
,
1000
0100
0010
0100
,
0010
0001
1000
0100
,
1000
0000
0000
0010
,
1000
0010
0100
0001
,
1000
0010
1000
0001
,
0000
0000
0000
0100
,
0010
1000
0001
0100
,
0001
1000
0020
0000
,
0000
0000
0000
0030
,
1000
0001
0001
0000
,
0100
0000
0101
0000
,
0100
0010
0010
0000
,
1000
0000
1010
0000
,
1000
0001
0001
0000
,
0010
0000
0011
0000
,
0010
0100
0100
0000
,
1000
0000
1100
0000
,
1000
0001
1000
0001
,
0010
0100
1000
0001
,
1000
0001
0010
0100
,
0010
0001
1000
0001
,
0100
0010
0100
0001
,
1000
0001
0010
0100
,
0000
0000
0000
0000
,
0000
0000
1000
0001
,
0010
M000
0100
00M0
,
1000
0M00
0010
M000
,
0100
00M0
0001
0M00
,
0010
000M
0100
00M0
,
1000
0M00
0010
M000
,
0100
00M0
0001
0M00
,
0010
000M
0100
00M0
,
1000
0M00
0001
0000
,
1000
0001
1000
0001
,
1000
0001
0010
0100
,
1000
0001
1000
0010
,
0100
0001
1000
0001
,
0010
0100
1000
0001
,
1000
0010
0100
0010
,
1000
0001
1000
0100
,
0010
0100
1000
0001
,
1000
0001
0010
0100
,
0010
0001
1000
0001
,
1000
0100
0010
0100
,
1000
0001
1000
0001
,
0010
0100
0010
0100
,
1000
0001
1000
0001
,
0010
0100
0010
0100
,
1000
0001
1000
0001
,
0010
0100
0010
0100
,
1000
0000
0001
0000
1000
0000
0001
0001
,
1000
1000
0010
0010
0100
0100
0010
0010
,
0100
0100
0001
0001
1000
1000
0001
0001
,
1000
0001
0010
0100
,
1000
0100
0010
0001
,
1000
0100
1000
0001
,
0010
0100
1000
0100
,
0010
0001
1000
0100
,
1000
0001
0010
0100
,
0010
0100
1000
0001
,
0010
0001
1000
0100
,
0010
0100
M01M
0001
,
1000
0100
10MM
0001
,
0010
0000
M00M
0100
,
1000
0001
1MM0
0001
,
0010
0100
M01M
0100
,
0000
00MM
0000
1000
,
0010
0100
M01M
1000
,
0001
1000
0MM1
0100
,
0010
0100
M0M1
1000
,
0001
1000
0M1M
0100
,
0010
1000
0MM1
1000
,
0100
0010
M10M
1000
,
0001
1000
0M1M
0100
,
0001
1000
0MM1
0010
,
0100
1000
0MM1
1000
,
0010
0100
M0M1
1000
,
0010
0100
M0M1
1000
,
0010
1000
0MM1
0100
,
0001
1000
0M1M
1000
,
0100
1000
0MM1
1000
,
0001
1000
0MM1
0010
,
0001
0100
M0M1
1000
,
0010
1000
0MM1
0100
,
0001
1000
0010
0100
,
0001
1000
0000
0000
;

//--------------- dance-single - LinkDude11 ----------------
#NOTEDATA:;
#STEPSTYPE:dance-single;
#DESCRIPTION:LinkDude11;
#DIFFICULTY:Medium;
#METER:7;
#RADARVALUES:0,0,0,0,0;
#NOTES:
0000
0000
0000
0000
,
0000
0000
0000
0000
,
0000
0000
0000
0000
,
0000
0000
0000
0000
,
0000
0000
0000
0000
0001
1000
0001
1000
,
0000
0100
0000
0010
0000
0001
0000
1000
,
0000
0010
0000
1000
0000
0100
0000
0000
,
0000
0000
0000
0000
,
0000
0000
0000
0000
1000
0100
1000
0001
,
0000
1000
0000
0000
0000
0100
1000
0100
,
0010
0001
0000
0000
,
0010
0001
1000
0010
0100
0010
1000
0010
,
0100
0000
0000
0010
0100
0000
0001
0000
,
0000
0000
0000
0000
0000
0100
0010
1000
,
0010
1000
0000
0000
,
0001
0010
0001
0010
0001
0000
0010
0001
,
1000
0010
1000
0100
0010
0000
0001
0000
,
0000
0000
0000
0010
0001
0000
1000
0000
,
0000
0000
0000
0010
0100
0000
0001
0000
,
0000
0000
0000
0100
0010
0000
0100
0000
,
0000
0000
0001
1000
0001
0000
0100
0000
,
0000
0000
0000
0001
1000
0000
0001
0000
,
0000
0000
1000
0010
0100
0000
0001
0000
,
0000
0000
0000
0000
,
0000
0000
0000
0000
1000
0100
1000
0010
,
0000
1000
0000
0000
0010
1000
0001
1000
0000
0010
0000
0000
1000
0010
0100
0001
,
0000
0100
0000
0000
0001
1000
0100
0010
0000
0000
0000
0000
0100
1000
0100
0010
,
0000
0100
0000
0000
0010
0001
0010
0100
0000
1000
0000
0000
0100
1000
0001
0100
,
0000
0001
0000
0000
0100
0001
0100
0001
0000
0000
0000
0000
1000
0100
1000
0000
,
0010
0100
0001
0100
0001
1000
0100
0000
,
0010
0001
0010
0100
0010
0001
1000
0000
,
0001
0010
0001
1000
0001
1000
0010
0000
,
0100
0000
0001
0000
1000
0100
1000
0000
,
0010
1000
0010
1000
0001
1000
0010
0000
,
1000
0010
0100
0001
0100
0001
1000
0000
,
0100
0010
0100
1000
0100
0010
0100
0000
,
0010
0001
0010
0000
,
0000
0000
0000
0000
,
0000
0000
0000
0000
0000
0100
1000
0100
,
1000
0001
0000
0000
,
0100
0001
0100
0001
0100
0001
1000
0100
,
1000
0000
0000
0010
0100
0000
0001
0000
,
0000
0000
0000
0000
0000
0100
0001
1000
,
0100
0010
0000
0000
,
0001
0010
0100
0010
0001
1000
0001
0000
,
0010
0000
0000
0001
1000
0000
0001
0000
,
1000
0000
0000
0100
0010
0000
0001
0000
,
0000
0000
0000
1000
0010
0000
1000
0000
,
0000
0000
0000
0100
1000
0100
1000
0000
,
0000
0000
0000
0001
1000
0100
1000
0000
,
0000
0000
0100
0010
,
0000
0000
0001
0010
,
0000
0000
0000
0000
,
0000
0000
0000
0000
0001
1000
0010
0100
,
0000
0010
0000
0000
1000
0010
0100
0010
,
0000
0100
0000
0000
0001
0100
0010
1000
,
0000
0010
0000
0000
1000
0001
0010
0001
,
0000
0000
0000
0000
0010
0001
0010
0001
,
0000
1000
0000
0000
0010
1000
0100
0010
,
0000
0001
0000
0000
0010
0001
1000
0010
,
0000
0100
0000
0000
0001
0100
0010
0100
,
0000
0000
0000
0000
0001
1000
0001
0000
,
0100
0001
1000
0001
1000
0100
0010
0000
,
0001
1000
0010
1000
0100
1000
0100
0000
,
1000
0001
1000
0100
,
1000
0000
0100
0000
0010
0001
0010
0000
,
0001
1000
0010
0100
0010
1000
0010
0000
,
0100
0010
0100
0001
0100
0010
1000
0000
,
0010
1000
0001
0010
0001
0010
0001
0000
,
0010
0001
1000
0000
,
0000
0010
1000
0100
0010
0000
0001
0010
0000
0000
0000
0001
1000
0010
0100
0000
,
0000
0000
0000
0000
0000
0000
0001
0100
0010
0100
0000
0001
1000
0001
0100
0000
,
0001
1000
0001
0000
1000
0010
0100
0000
0001
1000
0100
0000
1000
0000
0010
0000
,
1000
0000
0000
0000
0010
0000
0000
1000
0001
1000
0010
0000
1000
0000
0010
0100
,
0001
0000
0100
0001
1000
0000
0000
0000
,
0100
0010
0100
1000
0100
0000
0010
0100
,
0010
0001
0010
0100
1000
0000
0100
1000
,
0001
0100
0001
0100
0001
0000
0100
0001
,
1000
0100
0000
1000
0010
0000
0100
0000
0001
0100
0001
1000
0100
0000
0010
0001
,
0010
0100
0010
0000
0001
0000
1000
0001
0010
0001
1000
0001
1000
0000
0010
0000
,
0100
0000
0001
1000
0100
1000
0010
1000
0010
0000
1000
0001
1000
0010
1000
0010
,
0100
0000
0001
0100
0001
1000
0100
0010
0100
0000
1000
0100
0010
0100
0010
0001
,
0010
0000
0000
0100
1000
0100
1000
0001
,
0100
0000
0001
0000
0100
0000
0001
0100
,
0001
1000
0100
1000
0010
0000
0100
0001
,
0100
0001
1000
0100
0010
0001
0010
0100
,
0000
0010
0000
0000
0001
1000
0001
0010
0000
0001
0000
0000
1000
0001
1000
0100
,
0000
0010
0000
0000
0001
1000
0010
1000
0000
0000
0000
0000
0100
1000
0100
1000
,
0000
0001
0000
0000
1000
0100
1000
0100
0000
0010
0000
0000
0001
0010
0001
1000
,
0000
0010
0000
0000
0100
0010
1000
0010
0000
0000
0000
0000
0100
0010
0100
0000
,
0001
0100
0010
1000
0010
1000
0001
0000
,
0010
0001
0010
0001
0010
0001
1000
0000
,
0010
1000
0100
0010
0001
0010
0001
0000
,
1000
0000
0000
0000
0010
0100
0001
0000
,
0100
0010
0100
0001
1000
0001
0100
0000
,
0001
1000
0001
1000
0100
0010
0001
0000
,
1000
0010
1000
0100
1000
0100
1000
0000
,
0001
0000
0000
0000
1000
0100
1000
0000
,
0100
0010
0001
0010
0001
1000
0010
0000
,
0100
0010
1000
0010
0100
0010
0100
0000
,
0001
0100
0010
1000
0010
1000
0001
0000
,
0010
0000
0000
0000
0001
0010
0001
0000
,
0010
0001
1000
0010
1000
0100
0010
0000
,
0001
0010
0001
1000
0010
0100
0001
0000
,
0100
0010
0100
0001
1000
0001
0100
0000
,
0001
0000
0000
0000
1000
0001
1000
0000
,
0010
0100
0001
1000
0100
0000
1000
0010
,
1000
0010
1000
0000
0001
0000
1000
0010
,
1000
0010
0100
0000
0001
0100
0001
0000
,
1000
0100
0010
0100
1000
0000
0100
0010
,
0100
0010
0001
0010
0100
0000
1000
0100
,
1000
0001
0100
0000
0001
0100
0001
0000
,
0100
0001
1000
0100
1000
0010
0100
0001
,
0100
0001
1000
0000
0100
0010
0001
0010
,
0000
0100
0000
0000
0000
0000
0000
0000
;

//--------------- dance-single - Cut from Gazebo ----------------
#NOTEDATA:;
#STEPSTYPE:dance-single;
#DESCRIPTION:Cut from Gazebo;
#DIFFICULTY:Hard;
#METER:8;
#RADARVALUES:0,0,0,0,0;
#NOTES:
0000
0000
0000
M000
00M0
000M
00M0
0M00
,
0000
0000
0000
0M00
0000
0000
0000
0M00
,
0000
0000
0000
0M00
0000
0000
0000
0M00
,
0000
0000
0000
0M00
0000
0000
0000
0M00
,
0000
0000
0000
1000
0010
0001
0010
0100
,
0000
0000
0000
0100
0000
0000
0000
0100
,
0000
0000
0000
0100
0000
0000
0000
0100
,
0000
0000
0000
0100
0000
0000
0000
0000
,
0001
0000
0001
0000
1000
0001
1000
0001
0000
0000
0000
0000
0000
0000
0000
0000
,
1000
1000
1000
0000
0011
0000
0000
0000
,
0001
0000
0000
0001
1001
0000
0000
0000
,
1000
1000
1000
0000
1010
0000
0000
0000
,
0001
0000
0000
0000
0000
0000
0001
0000
1001
0000
0000
0000
0000
0000
0001
0010
,
0100
0100
0100
0000
1100
0000
0000
0000
,
1000
0000
0000
1000
1001
0000
0000
0000
,
0001
0001
0001
0000
0101
0000
0000
0000
,
1000
0000
1000
0000
0001
1000
0001
1000
0100
0000
0000
0000
0000
0000
0010
0001
,
1000
1000
1000
0000
0101
0000
0000
0000
,
0001
0000
0000
0001
1001
0000
0000
0000
,
1000
1000
1000
0000
1100
0000
0000
0000
,
0001
0000
0000
0000
0000
0000
0001
0000
1001
0000
0000
0000
1001
0000
0001
0100
,
0010
0010
0010
0000
1010
0000
0000
0000
,
1000
0000
0000
1000
1001
0000
0000
0000
,
0001
0001
0001
0000
0011
0000
0000
0000
,
1000
0000
1000
1000
1001
0000
1001
0000
,
0002
0000
0000
0000
1003
0010
1000
1000
0000
0002
0000
0000
1003
0010
1000
1000
,
0000
0200
0000
0000
1300
0001
1000
0010
0000
0000
0000
1000
0001
0010
0001
0001
,
0000
2000
0000
0000
3001
0010
0001
0001
0000
2000
0000
0000
3001
0010
0001
0001
,
0000
0200
0000
0000
0301
1000
0001
0020
0000
0000
0030
0100
1000
0010
1000
0000
,
0001
0100
0001
1000
0001
0010
0100
1000
,
0010
1000
0001
1000
0100
0010
0100
1000
,
0001
0100
0001
1000
0001
0010
0200
0000
,
2300
0000
3200
0010
0311
0010
1001
1000
,
0001
1000
0010
1000
0001
1000
0100
0010
,
0001
0100
0001
1000
0001
0010
0100
0010
,
0001
1000
0010
1000
0001
1000
0020
0000
,
2030
0000
0000
0000
3020
0000
1000
0000
1031
0000
0000
0000
1001
0000
0001
1000
,
0100
0000
0000
0000
,
1000
1000
1000
0000
0101
0000
0000
0000
,
0001
0000
0000
0001
1001
0000
0000
0000
,
1000
1000
1000
0000
1100
0000
0000
0000
,
0001
0000
0000
0000
0000
0000
0001
0000
1001
0000
0000
0000
1001
0000
0001
0100
,
0010
0010
0010
0000
1010
0000
0000
0000
,
1000
0000
0000
1000
1001
0000
0000
0000
,
0001
0001
0001
0000
0011
0000
0000
0000
,
0000
0000
0000
0000
0000
0000
0000
0000
1001
0000
0000
0000
0000
0000
1000
0001
,
0100
0100
0100
0000
0101
0000
0000
0000
,
0001
0000
0000
0001
1001
0000
0000
0000
,
1000
1000
1000
0000
1100
0000
0000
0000
,
0001
0000
0000
0000
0000
0000
0001
0000
1001
0000
0000
0000
1001
0000
0001
0100
,
0010
0010
0010
0000
1010
0000
0000
0000
,
1000
0000
0000
1000
1001
0000
0000
0000
,
0001
0001
0001
0000
0011
0000
0000
0000
,
1000
1000
1001
1001
,
1000
0100
0010
0100
1000
0010
1000
0001
,
1000
0100
0010
0100
1000
0010
1000
0001
,
1000
0100
0010
0001
1000
0100
1000
0001
,
0100
0001
1000
0001
0010
0100
0010
0001
,
1000
0100
0010
0100
1000
0010
1000
0001
,
1000
0100
0010
0100
1000
0010
1000
0001
,
1000
0100
0010
0001
1000
0100
1000
0001
,
0100
0000
0001
0000
1000
0000
0001
0000
1000
0100
1000
0100
1000
0000
0000
0000
,
0001
0100
0001
1000
0001
0010
0100
1000
,
0010
1000
0001
1000
0100
0010
0100
1000
,
0001
0100
0001
1000
0001
0010
0200
0000
,
2300
0000
3200
0010
0311
0010
1001
1000
,
0001
1000
0010
1000
0001
1000
0100
0010
,
0001
0100
0001
1000
0001
0010
0100
0010
,
0001
1000
0010
1000
0001
1000
0020
0000
,
2030
0000
0000
0000
3000
0000
0001
0000
1001
0000
0000
0000
1001
0000
1000
0001
,
0020
0000
0230
0000
,
2300
0000
0000
0000
,
3002
0000
0203
0000
,
0320
0000
0000
0000
0000
0000
0000
0000
0000
0030
0000
0000
0000
0000
0000
0000
,
1000
0000
0000
1000
0000
0001
1000
0000
0200
0000
0000
0000
0000
0000
0000
0310
,
0001
0000
0000
0001
0000
1000
0001
0000
0100
0000
0000
0000
0010
0000
1000
0000
,
0001
1000
0001
0010
0100
0010
0001
0010
,
0100
1000
0001
0100
0010
0000
0100
0001
,
2000
0000
3200
0000
,
0320
0000
0000
0000
,
0032
0000
0000
0000
,
0000
0000
0000
0000
,
1003
0010
1000
0001
0010
0100
0010
0100
,
1000
0001
0100
0001
1000
0001
0010
0100
,
1000
0100
1000
0001
0100
0001
1000
0001
,
1000
0100
0010
0001
1000
0010
1000
0001
,
2000
0000
0000
0000
3001
0010
0001
0001
0000
2000
0000
0000
3001
0010
0001
0001
,
0000
0200
0000
0000
0301
1000
0001
0010
0000
0000
0000
0001
1000
0010
1000
1000
,
0000
0002
0000
0000
1003
0010
1000
1000
0000
0002
0000
0000
1003
0010
1000
1000
,
0000
0200
0000
0000
1300
0001
1000
0020
0000
0000
0030
0100
0001
0010
0002
0000
,
1003
0100
1000
0001
1000
0010
0100
0001
,
0010
0001
1000
0001
0100
0010
0100
0001
,
1000
0100
1000
0001
1000
0010
0200
0000
,
0302
0000
0203
0010
1310
0010
1001
0001
,
1000
0001
0010
0001
1000
0001
0100
0010
,
1000
0100
1000
0001
1000
0010
0100
0010
,
1000
0001
0010
0001
1000
0001
0020
0000
,
0032
0000
0023
0001
1031
0000
1001
1000
,
0001
1000
0100
1000
0001
1000
0010
0100
,
0001
0010
0001
1000
0001
0100
0010
0100
,
0001
1000
0100
1000
0001
1000
0200
0000
,
2300
0000
3200
0010
0311
0010
1001
1000
,
0001
1000
0010
1000
0001
1000
0100
0010
,
0001
0100
0001
1000
0001
0010
0100
0010
,
0001
1000
0010
1000
0001
1000
0020
0000
,
2030
0000
0000
0000
3020
0000
1000
0000
1031
0000
0000
0000
1001
0000
0001
1000
,
0100
0000
0000
1000
0002
0003
1000
0000
,
0010
0000
0000
0000
2000
3000
0001
0000
,
0010
0000
0001
0000
,
1000
0000
0000
0000
0000
0000
0000
0000
0010
0000
0000
0000
1001
0000
1000
0001
,
0100
0000
0000
0001
2000
3000
0001
0000
,
0000
0010
0002
1003
0010
0000
2000
3000
,
0001
0000
0010
0000
,
0001
0000
0000
1000
0010
0100
0010
0010
,
0000
2000
0000
3000
0000
0000
0000
0000
;

//--------------- dance-single - Gazebo ----------------
#NOTEDATA:;
#STEPSTYPE:dance-single;
#DESCRIPTION:Gazebo;
#DIFFICULTY:Challenge;
#METER:10;
#RADARVALUES:0.576,0.807,0.234,0.243,0.558,807,53,55,25,7,16,0.576,0.807,0.234,0.243,0.558,807,53,55,25,7,16;
#NOTES:
0000
0000
0000
M000
00M0
000M
00M0
0M00
,
0000
0000
0000
0M00
0000
0000
0000
0M00
,
0000
0000
0000
0M00
0000
0000
0000
0M00
,
0000
0000
0000
0M00
0000
0000
0000
0M00
,
0000
0000
0000
M000
00M0
000M
00M0
0M00
,
0000
0000
0000
0M00
0000
0000
0000
0M00
,
0000
0000
0000
0M00
0000
0000
0000
0M00
,
0000
0000
0000
0M00
0000
0000
0000
0000
,
1000
0000
1000
0000
0001
1000
0001
1000
0000
0000
0000
0000
0000
0000
0000
0000
,
0001
0001
0001
0000
1010
0000
0000
0000
,
1000
0000
0000
1000
1001
0000
0000
0000
,
0001
0001
0001
0000
0011
0000
0000
0000
,
1000
0000
0000
0000
0000
0000
1000
0000
1001
0000
0000
0000
0000
0000
1000
0010
,
0100
0100
0100
0000
0101
0000
0000
0000
,
0001
0000
0000
0001
1001
0000
0000
0000
,
1000
1000
1000
0000
1100
0000
0000
0000
,
0001
0000
0001
0000
1000
0001
1000
0001
0100
0000
0000
0000
0000
0000
0010
1000
,
0001
0001
0001
0000
1100
0000
0000
0000
,
1000
0000
0000
1000
1001
0000
0000
0000
,
0001
0001
0001
0000
0101
0000
0000
0000
,
1000
0000
0000
0000
0000
0000
1000
0000
1001
0000
0000
0000
1001
0000
1000
0100
,
0010
0010
0010
0000
0011
0000
0000
0000
,
0001
0000
0000
0001
1001
0000
0000
0000
,
1000
1000
1000
0000
1010
0000
0000
0000
,
0001
0000
0001
0001
1001
0000
1001
0000
,
2000
0000
0000
0000
3001
0010
0001
0001
0000
2000
0000
0000
3001
0010
0001
0001
,
0000
0200
0000
0000
0301
1000
0001
0010
0000
0000
0000
0001
1000
0010
1000
1000
,
0000
0002
0000
0000
1003
0010
1000
1000
0000
0002
0000
0000
1003
0010
1000
1000
,
0000
0200
0000
0000
1300
0001
1000
0020
0000
0000
0030
0100
0001
0010
0004
0000
,
1003
0100
1000
0001
1000
0010
0100
0001
0010
0001
1000
0001
0100
0010
0100
0001
,
1000
0100
1000
0001
1000
0010
0100
0001
0010
0001
1000
0001
0100
0010
0100
0001
,
1000
0100
1000
0001
1000
0010
0100
0001
0010
0001
1000
0010
0200
0000
0000
0000
,
0302
0000
0000
0000
0203
0000
0010
0000
1310
0000
0010
0000
1001
0000
0001
1000
,
0001
0010
0001
1000
0001
0100
0010
1000
0100
1000
0001
1000
0010
0100
0010
1000
,
0001
0010
0001
1000
0001
0100
0010
1000
0100
1000
0001
1000
0010
0100
0010
1000
,
0001
0010
0001
1000
0001
0100
0010
1000
0100
1000
0001
0100
0020
0000
0000
0000
,
2030
0000
0000
0000
3020
0000
1000
0000
1031
0000
0000
0000
1001
0000
0001
1000
,
0400
0000
0000
0000
,
1300
1000
1000
0000
0101
0000
0000
0000
,
0001
0000
0000
0001
1001
0000
0000
0000
,
1000
1000
1000
0000
1100
0000
0000
0000
,
0001
0000
0000
0000
0000
0000
0001
0000
1001
0000
0000
0000
1001
0000
0001
0100
,
0010
0010
0010
0000
1010
0000
0000
0000
,
1000
0000
0000
1000
1001
0000
0000
0000
,
0001
0001
0001
0000
0011
0000
0000
0000
,
0000
0000
0000
0000
0000
0000
0000
0000
1001
0000
0000
0000
0000
0000
1000
0001
,
0100
0100
0100
0000
0101
0000
0000
0000
,
0001
0000
0000
0001
1001
0000
0000
0000
,
1000
1000
1000
0000
1100
0000
0000
0000
,
0001
0000
0000
0000
0000
0000
0001
0000
1001
0000
0000
0000
1001
0000
0001
0100
,
0010
0010
0010
0000
1010
0000
0000
0000
,
1000
0000
0000
1000
1001
0000
0000
0000
,
0001
0001
0001
0000
0011
0000
0000
0000
,
1000
1000
1001
1001
,
1000
0100
0010
0100
1000
0010
1000
0001
,
1000
0100
0010
0100
1000
0010
1000
0001
,
1000
0100
0010
0001
1000
0100
1000
0001
,
0100
0001
1000
0001
0010
0100
0010
0001
,
1000
0100
0010
0100
1000
0010
1000
0001
,
1000
0100
0010
0100
1000
0010
1000
0001
,
1000
0100
0010
0001
1000
0100
1000
0001
,
0100
0000
0001
0000
1000
0000
0001
0000
1000
0100
1000
0100
4000
0000
0000
0000
,
3001
0100
0001
1000
0001
0010
0100
1000
0010
1000
0001
1000
0100
0010
0100
1000
,
0001
0100
0001
1000
0001
0010
0100
1000
0010
1000
0001
1000
0100
0010
0100
1000
,
0001
0100
0001
1000
0001
0010
0100
1000
0010
1000
0001
0010
0200
0000
0000
0000
,
2300
0000
0000
0000
3200
0000
0010
0000
0311
0000
0010
0000
1001
0000
1000
0001
,
1000
0010
1000
0001
1000
0100
0010
0001
0100
0001
1000
0001
0010
0100
0010
0001
,
1000
0010
1000
0001
1000
0100
0010
0001
0100
0001
1000
0001
0010
0100
0010
0001
,
1000
0010
1000
0001
1000
0100
0010
0001
0100
0001
1000
0100
0020
0000
0000
0000
,
0032
0000
0000
0000
0003
0000
1000
0000
1001
0000
0000
0000
1001
0000
0001
1000
,
0020
0000
0230
0000
,
0302
0000
0000
0000
,
2003
0000
3200
0000
,
0320
0000
0000
0000
0000
0000
0000
0000
0000
0000
0000
0000
0000
0000
0000
0000
0000
0000
M030
0M00
00M0
000M
0000
0000
0000
0000
0000
0000
0000
0000
0000
0000
,
0001
0000
0000
0001
0000
1000
0001
0000
0200
0000
0000
0000
0000
0000
0000
0310
,
1000
0000
0000
1000
0000
0001
1000
0000
0100
0000
0000
0000
0010
0000
0001
0000
,
1000
0001
1000
0010
0100
0010
1000
0010
,
0100
0001
1000
0100
0010
0000
0100
1000
,
0002
0000
0203
0000
,
0320
0000
0000
0000
,
2030
0000
0000
0000
,
0000
0000
0000
0000
,
3001
0010
0001
1000
0010
0100
0010
0100
,
0001
1000
0100
1000
0001
1000
0010
0100
,
0001
0100
0001
1000
0100
1000
0001
1000
,
0001
0000
0100
0000
0010
0000
1000
0000
0001
0010
0001
1000
0100
0010
0001
1000
,
0002
0000
0000
0000
1003
0010
1000
1000
0000
0002
0000
0000
1003
0010
1000
1000
,
0000
0200
0000
0000
1300
0001
1000
0010
0000
0000
0000
1000
0001
0010
0001
0001
,
0000
2000
0000
0000
3001
0010
0001
0001
0000
2000
0000
0000
3001
0010
0001
0001
,
0000
0200
0000
0000
0301
1000
0001
0020
0000
0000
0030
0100
1000
0010
2000
0000
,
3001
0100
0001
1000
0001
0010
0100
1000
0010
1000
0001
1000
0100
0010
0100
1000
,
0001
0100
0001
1000
0001
0010
0100
1000
0010
1000
0001
1000
0100
0010
0100
1000
,
0001
0100
0001
1000
0001
0010
0100
1000
0010
1000
0001
0010
0200
0000
0000
0000
,
2300
0000
0000
0000
3200
0000
0010
0000
0311
0000
0010
0000
1001
0000
1000
0001
,
1000
0010
1000
0001
1000
0100
0010
0001
0100
0001
1000
0001
0010
0100
0010
0001
,
1000
0010
1000
0001
1000
0100
0010
0001
0100
0001
1000
0001
0010
0100
0010
0001
,
1000
0010
1000
0001
1000
0100
0010
0001
0100
0001
1000
0100
0020
0000
0000
0000
,
0032
0000
0000
0000
0023
0000
0001
0000
1031
0000
0000
0000
1001
0000
1000
0001
,
1000
0100
1000
0001
1000
0010
0100
0001
0010
0001
1000
0001
0100
0010
0100
0001
,
1000
0100
1000
0001
1000
0010
0100
0001
0010
0001
1000
0001
0100
0010
0100
0001
,
1000
0100
1000
0001
1000
0010
0100
0001
0010
0001
1000
0010
0200
0000
0000
0000
,
0302
0000
0000
0000
0203
0000
0010
0000
1310
0000
0010
0000
1001
0000
0001
1000
,
0001
0010
0001
1000
0001
0100
0010
1000
0100
1000
0001
1000
0010
0100
0010
1000
,
0001
0010
0001
1000
0001
0100
0010
1000
0100
1000
0001
1000
0010
0100
0010
1000
,
0001
0010
0001
1000
0001
0100
0010
1000
0100
1000
0001
0100
0020
0000
0000
0000
,
2030
0000
0000
0000
3020
0000
1000
0000
1031
0000
0000
0000
1001
0000
0001
1000
,
0400
0000
0000
1300
0002
0003
4000
0000
,
3040
0000
0000
0000
2030
3000
0004
0000
,
0043
0000
0034
0000
,
4003
0000
0000
0000
0000
0000
0000
0000
3010
0000
0000
0000
1001
0000
1000
0001
,
0400
0000
0000
0301
2000
3000
0004
0000
,
0000
0013
0002
1003
0040
0000
2030
3000
,
0004
0000
0043
0000
,
0034
0000
0000
1003
0010
0100
0010
0010
,
0000
2000
0000
3000
0000
0000
0000
0000
;

//--------------- dance-single - Gazebo ----------------
#NOTEDATA:;
#STEPSTYPE:dance-single;
#DESCRIPTION:Gazebo;
#DIFFICULTY:Edit;
#METER:11;
#RADARVALUES:0.701,0.807,0.234,0.238,0.91,1006,53,54,25,7,2,0.701,0.807,0.234,0.238,0.91,1006,53,54,25,7,2;
#NOTES:
0000
0000
0000
M000
00M0
000M
00M0
0M00
,
0000
0000
0000
0M00
0000
0000
0000
0M00
,
0000
0000
0000
0M00
0000
0000
0000
0M00
,
0000
0000
0000
0M00
0000
0000
0000
0M00
,
0000
0000
0000
M000
00M0
000M
00M0
0M00
,
0000
0000
0000
0M00
0000
0000
0000
0M00
,
0000
0000
0000
0M00
0000
0000
0000
0M00
,
0000
0000
0000
0M00
0000
0000
0000
0000
,
1000
0000
1000
0000
0001
1000
0001
1000
0000
0000
0000
0000
0000
0000
0000
0000
,
0001
0001
0001
0000
1010
0000
0000
0000
,
1000
0000
0000
1000
1001
0000
0000
0000
,
0001
0001
0001
0000
0011
0000
0000
0000
,
1000
0000
0000
0000
0000
0000
1000
0000
1001
0000
0000
0000
0000
0000
1000
0010
,
0100
0100
0100
0000
0101
0000
0000
0000
,
0001
0000
0000
0001
1001
0000
0000
0000
,
1000
1000
1000
0000
1100
0000
0000
0000
,
0001
0000
0001
0000
1000
0001
1000
0001
0100
0000
0000
0000
0000
0000
0010
1000
,
0001
0001
0001
0000
1100
0000
0000
0000
,
1000
0000
0000
1000
1001
0000
0000
0000
,
0001
0001
0001
0000
0101
0000
0000
0000
,
1000
0000
0000
0000
0000
0000
1000
0000
1001
0000
0000
0000
1001
0000
1000
0100
,
0010
0010
0010
0000
0011
0000
0000
0000
,
0001
0000
0000
0001
1001
0000
0000
0000
,
1000
1000
1000
0000
1010
0000
0000
0000
,
0001
0000
0001
0001
1001
0000
1001
0000
,
2000
0000
0000
0000
3001
0010
0001
0001
0000
2000
0000
0000
3001
0010
0001
0001
,
0000
0200
0000
0000
0301
1000
0001
0010
0000
0000
0000
0001
1000
0010
1000
1000
,
0000
0002
0000
0000
1003
0010
1000
1000
0000
0002
0000
0000
1003
0010
1000
1000
,
0000
0200
0000
0000
1300
0001
1000
0020
0000
0000
0030
0100
0001
0010
0004
0000
,
1003
0100
1000
0001
1000
0010
0100
0001
0010
0001
1000
0001
0100
0010
0100
0001
,
1000
0100
1000
0001
1000
0010
0100
0001
0010
0001
1000
0001
0100
0010
0100
0001
,
1000
0100
1000
0001
1000
0010
0100
0001
0010
0001
1000
0010
0200
0000
0000
0000
,
0302
0000
0000
0000
0203
0000
0010
0000
1310
0000
0010
0000
1001
0000
0001
1000
,
0001
0010
0001
1000
0001
0100
0010
1000
0100
1000
0001
1000
0010
0100
0010
1000
,
0001
0010
0001
1000
0001
0100
0010
1000
0100
1000
0001
1000
0010
0100
0010
1000
,
0001
0010
0001
1000
0001
0100
0010
1000
0100
1000
0001
0100
0020
0000
0000
0000
,
2030
0000
0000
0000
3020
0000
1000
0000
1031
0000
0000
0000
1001
0000
0001
1000
,
0400
0000
0000
0000
,
1300
1000
1000
0000
0101
0000
0000
0000
,
0001
0000
0000
0001
1001
0000
0000
0000
,
1000
1000
1000
0000
1100
0000
0000
0000
,
0001
0000
0000
0000
0000
0000
0001
0000
1001
0000
0000
0000
1001
0000
0001
0100
,
0010
0010
0010
0000
1010
0000
0000
0000
,
1000
0000
0000
1000
1001
0000
0000
0000
,
0001
0001
0001
0000
0011
0000
0000
0000
,
0000
0000
0000
0000
0000
0000
0000
0000
1001
0000
0000
0000
0000
0000
1000
0001
,
0100
0100
0100
0000
0101
0000
0000
0000
,
0001
0000
0000
0001
1001
0000
0000
0000
,
1000
1000
1000
0000
1100
0000
0000
0000
,
0001
0000
0000
0000
0000
0000
0001
0000
1001
0000
0000
0000
1001
0000
0001
0100
,
0010
0010
0010
0000
1010
0000
0000
0000
,
1000
0000
0000
1000
1001
0000
0000
0000
,
0001
0001
0001
0000
0011
0000
0000
0000
,
1000
1000
1001
1001
,
0001
1000
0010
0100
0010
0100
0001
1000
0100
1000
0010
1000
0100
1000
0001
0010
,
0001
1000
0010
0100
0010
0100
0001
1000
0100
1000
0010
1000
0100
1000
0001
0010
,
0001
1000
0010
1000
0010
1000
0010
0100
0001
1000
0010
1000
0001
1000
0100
0010
,
0001
1000
0100
1000
0001
1000
0010
1000
0001
0100
0001
0010
0001
0100
0001
1000
,
0001
1000
0100
0010
0100
0010
0001
1000
0010
1000
0100
1000
0010
1000
0001
0100
,
0001
1000
0100
0010
0100
0010
0001
1000
0010
1000
0100
1000
0010
1000
0001
0100
,
0001
1000
0100
1000
0100
1000
0100
0010
0001
1000
0100
1000
0001
1000
0010
0100
,
0001
0000
0000
0000
0000
0000
1000
0000
0000
0000
0000
0000
0010
0000
0000
0000
0000
0000
1000
0000
0000
0000
0000
0000
0001
0000
0000
1000
0000
0000
0100
0000
0000
0010
0000
0000
0001
0000
1000
0000
0001
0000
1000
0000
0001
0000
1000
0000
,
0001
0100
0001
1000
0001
0010
0100
1000
0010
1000
0001
1000
0100
0010
0100
1000
,
0001
0100
0001
1000
0001
0010
0100
1000
0010
1000
0001
1000
0100
0010
0100
1000
,
0001
0100
0001
1000
0001
0010
0100
1000
0010
1000
0001
0010
0200
0000
0000
0000
,
2300
0000
0000
0000
3200
0000
0010
0000
0311
0000
0010
0000
1001
0000
1000
0001
,
1000
0010
1000
0001
1000
0100
0010
0001
0100
0001
1000
0001
0010
0100
0010
0001
,
1000
0010
1000
0001
1000
0100
0010
0001
0100
0001
1000
0001
0010
0100
0010
0001
,
1000
0010
1000
0001
1000
0100
0010
0001
0100
0001
1000
0100
0020
0000
0000
0000
,
0032
0000
0000
0000
0003
0000
1000
0000
1001
0000
0000
0000
1001
0000
0001
1000
,
0020
0000
0230
0000
,
0302
0000
0000
0000
,
2003
0000
3200
0000
,
0320
0000
0000
0000
0000
0000
0000
0000
0000
0000
0000
0000
0000
0000
0000
0000
0000
0000
M030
0M00
00M0
000M
0000
0000
0000
0000
0000
0000
0000
0000
0000
0000
,
0001
0010
0001
1000
0100
1000
0010
0100
0001
1000
0100
0010
0001
1000
0100
0010
,
0001
0100
0001
1000
0010
1000
0100
0010
0001
0010
0100
1000
0001
0100
0001
1000
,
0001
0010
0001
1000
0100
1000
0001
1000
0010
0100
0001
0010
0001
1000
0001
0100
,
0001
1000
0010
1000
0001
1000
0100
0010
0001
0100
0001
1000
0001
0010
0100
1000
,
0002
0000
0203
0000
,
0320
0000
0000
0000
,
2030
0000
0000
0000
,
0000
0000
0000
0000
,
3001
0010
0001
1000
0001
0010
0100
1000
0001
0100
0001
1000
0010
1000
0100
1000
,
0001
0010
0100
1000
0001
0100
0010
1000
0001
0010
0100
0010
0001
1000
0010
1000
,
0001
0100
0001
0010
0001
1000
0100
1000
0010
0100
0010
1000
0001
0100
0001
1000
,
0001
0010
0100
0010
0001
0100
0010
0100
0001
1000
0100
0010
0001
1000
0001
1000
,
0002
0000
0000
0000
1003
0010
1000
1000
0000
0002
0000
0000
1003
0010
1000
1000
,
0000
0200
0000
0000
1300
0001
1000
0010
0000
0000
0000
1000
0001
0010
0001
0001
,
0000
2000
0000
0000
3001
0010
0001
0001
0000
2000
0000
0000
3001
0010
0001
0001
,
0000
0200
0000
0000
0301
1000
0001
0020
0000
0000
0030
0100
1000
0010
2000
0000
,
3001
0100
0001
1000
0001
0010
0100
1000
0010
1000
0001
1000
0100
0010
0100
1000
,
0001
0100
0001
1000
0001
0010
0100
1000
0010
1000
0001
1000
0100
0010
0100
1000
,
0001
0100
0001
1000
0001
0010
0100
1000
0010
1000
0001
0010
0200
0000
0000
0000
,
2300
0000
0000
0000
3200
0000
0010
0000
0311
0000
0010
0000
1001
0000
1000
0001
,
1000
0010
1000
0001
1000
0100
0010
0001
0100
0001
1000
0001
0010
0100
0010
0001
,
1000
0010
1000
0001
1000
0100
0010
0001
0100
0001
1000
0001
0010
0100
0010
0001
,
1000
0010
1000
0001
1000
0100
0010
0001
0100
0001
1000
0100
0020
0000
0000
0000
,
0032
0000
0000
0000
0023
0000
0001
0000
1031
0000
0000
0000
1001
0000
1000
0001
,
1000
0100
1000
0001
1000
0010
0100
0001
0010
0001
1000
0001
0100
0010
0100
0001
,
1000
0100
1000
0001
1000
0010
0100
0001
0010
0001
1000
0001
0100
0010
0100
0001
,
1000
0100
1000
0001
1000
0010
0100
0001
0010
0001
1000
0010
0200
0000
0000
0000
,
0302
0000
0000
0000
0203
0000
0010
0000
1310
0000
0010
0000
1001
0000
0001
1000
,
0001
0010
0001
1000
0001
0100
0010
1000
0100
1000
0001
1000
0010
0100
0010
1000
,
0001
0010
0001
1000
0001
0100
0010
1000
0100
1000
0001
1000
0010
0100
0010
1000
,
0001
0010
0001
1000
0001
0100
0010
1000
0100
1000
0001
0100
0020
0000
0000
0000
,
2030
0000
0000
0000
3020
0000
1000
0000
1031
0000
0000
0000
1001
0000
0001
1000
,
0100
0010
0100
1000
0100
0010
0100
1000
0002
0000
0003
0000
1000
0010
0100
0001
,
0100
0010
0100
0001
0100
0010
0100
0001
2000
0000
3000
0000
0001
1000
0100
0010
,
0001
0010
0100
0010
0001
0010
0100
1000
0010
1000
0001
0100
0010
0100
0001
0100
,
0010
1000
0100
1000
0001
0010
0100
0010
0001
0000
0000
0000
1001
0000
1000
0001
,
0100
0010
0100
0001
0100
0010
0100
0001
2000
0000
3000
0000
0001
0010
0100
1000
,
0100
0010
0100
1000
0002
0000
1003
0000
1000
0010
0100
0010
2000
0000
3000
0000
,
0001
0010
0100
0010
0001
0010
0100
1000
0010
1000
0001
0100
0010
0100
0001
0100
,
0010
1000
0001
0010
0100
1000
0001
0000
0100
0000
0010
0000
0100
0000
0100
0000
,
0000
0002
0000
0003
0000
0000
0000
0000
;

//--------------- dance-double - LinkDubs04 ----------------
#NOTEDATA:;
#STEPSTYPE:dance-double;
#DESCRIPTION:LinkDubs04;
#DIFFICULTY:Beginner;
#METER:3;
#RADARVALUES:0,0,0,0,0;
#NOTES:
00000000
00000000
00000000
00000000
,
00000000
00000000
00000000
00000000
,
00000000
00000000
00000000
00000000
,
00000000
00000000
00000000
00000000
,
00000000
00000000
00000000
00000000
,
00000000
00000000
00000000
00000000
,
00000000
00000000
00000000
00000000
,
00000000
00000000
00000000
00000000
,
00000000
00000000
00000000
00000000
,
00010000
00000000
000M0000
00000000
,
00010000
00000000
00000000
00000000
,
10000000
00000000
M0000000
00000000
,
10000000
00000000
00000000
00000000
,
00100000
00000000
00M00000
00000000
,
00100000
00000000
00000000
00000000
,
01000000
00000000
0M000000
00000000
,
01000000
00000000
00000000
00000000
,
00001000
00000000
0000M000
00000000
,
00001000
00000000
00000000
00000000
,
00010000
00000000
000M0000
00000000
,
00010000
00000000
00000000
00000000
,
00000010
00000000
000000M0
00000000
,
00000010
00000000
00000000
00000000
,
00000100
00000000
00000M00
00000000
,
00000100
00000000
00000000
00000000
00000000
00000000
00000000
00000001
,
00000000
00000001
00000000
00000000
00000000
00000000
00000000
00001000
00000000
00001000
00000000
00000000
00000000
00000000
00000000
00000010
,
00000000
00000010
00000000
00000000
00000000
00000000
00000000
00010000
00000000
00000000
00000000
00000000
00000000
00000000
00000000
00001000
,
00000000
00001000
00000000
00000000
00000000
00000000
00000000
00100000
00000000
00100000
00000000
00000000
00000000
00000000
00000000
00010000
,
00000000
00010000
00000000
00000000
00000000
00000000
00000000
01000000
00000000
00000000
00000000
00000000
00000000
00000000
00000000
00000000
,
00001000
00000000
00010000
00000000
,
00000010
00000000
00001000
00000000
,
00000010
00000000
00000100
00000000
,
00000010
00000000
00000100
00000000
,
00000001
00000000
00001000
00000000
,
00000001
00000000
00001000
00000000
,
00000001
00000000
00000010
00000000
,
00000001
00000000
00000020
00000000
,
00000000
00000000
00000000
00000030
,
00000100
00000000
00000010
00000000
,
00000100
00000000
00000000
00000000
,
00001000
00000000
00000100
00000000
,
00001000
00000000
00000000
00000000
,
00010000
00000000
00001000
00000000
,
00010000
00000000
00000000
00000000
,
00001000
00000000
00100000
00000000
,
00001000
00000000
00000000
00000000
,
01000000
00000000
00100000
00000000
,
01000000
00000000
00000000
00000000
,
00010000
00000000
01000000
00000000
,
00010000
00000000
00000000
00000000
,
01000000
00000000
00001000
00000000
,
01000000
00000000
00000000
00000000
,
00010000
00000000
00001000
00000000
,
00010000
00000000
00000000
00000000
00000000
00000000
00000000
00000010
,
00000000
00000010
00000000
00000000
00000000
00000000
00000000
00001000
,
00000000
00001000
00000000
00000000
00000000
00000000
00000000
00000001
,
00000000
00000001
00000000
00000000
00000000
00000000
00000000
00000100
,
00000000
00000000
00000000
00000000
00000000
00000000
00000000
00000010
,
00000000
00000010
00000000
00000000
00000000
00000000
00000000
00010000
,
00000000
00010000
00000000
00000000
00000000
00000000
00000000
00001000
,
00000000
00001000
00000000
00000000
00000000
00000000
00000000
00010000
,
00000000
00000000
00000000
00000000
,
00010000
00000000
00010000
00000000
,
00001000
00000000
00001000
00000000
,
01000000
00000000
01000000
00000000
,
00100000
00000000
00100000
00000000
,
10000000
00000000
10000000
00000000
,
01000000
00000000
01000000
00000000
,
00100000
00000000
00100000
00000000
,
00010000
00000000
00010000
00000000
,
01000000
00001000
00010000
00001000
,
00000000
00000000
00010000
00001000
,
00010000
00000010
00010000
00000100
,
00010000
00000010
00010000
00001000
,
00010000
00000000
00001000
00000000
,
01000000
00000000
00001000
00000000
,
00100000
00000000
00001000
00000000
,
01000000
00000000
00001000
00000000
,
00010000
00001000
00010000
00000010
,
00010000
00000100
00010000
00000010
,
00010000
00001000
00010000
00001000
,
01000000
00001000
00100000
00001000
,
01000000
00000000
01000000
00000000
,
00001000
00000000
00001000
00000000
,
00010000
00000000
00010000
00000000
,
00000020
00000000
00000000
00000000
00000000
00000030
00000000
00000100
,
00000000
00000100
00000000
00000000
00000000
00000000
00000000
00000001
00000000
00000001
00000000
00000000
00000000
00000000
00000000
00001000
,
00000000
00001000
00000000
00000000
00000000
00000000
00000000
00000010
00000000
00000000
00000000
00000000
00000000
00000000
00000000
00010000
,
00000000
00010000
00000000
00000000
00000000
00000000
00000000
00000100
00000000
00000100
00000000
00000000
00000000
00000000
00000000
00001000
,
00000000
00001000
00000000
00000000
00000000
00000000
00000000
00000001
00000000
00000000
00000000
00000000
00000000
00000000
00000000
00000000
,
00000010
00000000
00000001
00000000
,
00000010
00000000
00000001
00000000
,
00001000
00000000
00000001
00000000
,
00001000
00000000
00000000
00000000
,
00000100
00000000
00010000
00000000
,
00000100
00000000
00010000
00000000
,
00000010
00000000
00010000
00000000
,
00000010
00000000
00000000
00000000
,
00010000
00000000
00001000
00000000
,
00010000
00000000
00001000
00000000
,
00100000
00000000
00001000
00000000
,
00100000
00000000
00000000
00000000
,
00001000
00000000
01000000
00000000
,
00001000
00000000
01000000
00000000
,
00010000
00000000
01000000
00000000
,
00010000
00000000
00000000
00000000
,
10000000
00000000
01000000
00000000
,
00100000
00000000
00010000
00000000
,
00100000
00000000
00010000
00000000
,
00100000
00000000
01000000
00000000
,
10000000
00000000
01000000
00000000
,
00100000
00000000
01000000
00000000
,
10000000
00000000
00010000
00000000
,
00100000
00000000
01000000
00000000
,
10000000
00000000
00000000
00000000
;

//--------------- dance-double - LinkDubs06 ----------------
#NOTEDATA:;
#STEPSTYPE:dance-double;
#DESCRIPTION:LinkDubs06;
#DIFFICULTY:Easy;
#METER:4;
#RADARVALUES:0,0,0,0,0;
#NOTES:
00000000
00000000
00000000
00000000
,
00000000
00000000
00000000
00000000
,
00000000
00000000
00000000
00000000
,
00000000
00000000
00000000
00000000
,
00000000
00000000
00000000
00000000
,
00000000
00000000
00000000
00000000
,
00000000
00000000
00000000
00000000
,
00000000
00000000
00000000
00000000
,
20200000
30300000
10000000
00100000
,
10000000
00100000
M10M0000
00100000
,
01000000
00100000
M00M0000
00000000
,
01000000
00010000
M1M00000
00010000
,
00100000
00010000
MM100000
00010000
,
00000000
00000000
MM000000
00100000
,
00001000
00100000
0M0M0000
00000000
,
00001000
00010000
00M01M00
00010000
,
00000100
00010000
00M0M100
00010000
,
00000000
00000000
00MM0100
00001000
,
00000000
00000000
000M0M10
00001000
,
00000000
00000000
000M01M0
00001000
,
00000010
00001000
00000MM1
00001000
,
00000000
00000000
00000MM1
00001000
,
00000001
00000100
0000M0M1
00000010
,
00000001
00000100
0000M0M1
00001000
,
00000000
00000000
00000M1M
00001000
,
00000010
00001000
00000010
00000100
,
00000010
00000100
00000010
00001000
,
00000010
00001000
00000100
00010000
,
00000100
00010000
00001000
00010000
,
00001000
00010000
00001000
01000000
,
00001000
01000000
00010000
00100000
,
00010000
00000000
00000000
00100000
,
00010000
10000000
00010000
10000000
,
01000000
00100000
01000000
00100000
,
00000000
00000000
00000000
01000000
,
10000000
01000000
10000000
00100000
,
10000000
00100000
20000000
00000000
,
00000000
00000000
00000000
30000000
,
00100000
01000000
00100000
00000000
,
01000000
00000000
01010000
00000000
,
10000000
00010000
10000000
00000000
,
00010000
00000000
01010000
00000000
,
00010000
01000000
00001000
00000000
,
00100000
00000000
00101000
00000000
,
00100000
00001000
00010000
00000000
,
00001000
00000000
00011000
00000000
,
00000100
00010000
00000010
00010000
,
00000010
00001000
00000100
00001000
,
00000100
00000010
00000100
00000010
,
00000001
00001000
00000001
00001000
,
00000001
00000010
00000001
00000010
,
00000001
00000100
00000001
00000100
,
00000000
00000000
00000000
00000000
,
00000000
00000000
00000001
00001000
,
00000010
0000000M
00010000
000000M0
,
00000100
000M0000
00100000
00000M00
,
00001000
00M00000
01000000
0000M000
,
00010000
0M000000
10000000
000M0000
,
00100000
M0000000
01000000
00M00000
,
00010000
0M000000
00100000
000M0000
,
00001000
00M00000
00010000
0000M000
,
00000100
000M0000
00001000
00000000
,
00000100
00010000
00000100
00010000
,
00001000
00010000
00001000
00010000
,
00001000
00100000
00001000
00100000
,
00010000
00100000
00010000
00100000
,
00010000
01000000
00010000
01000000
,
00100000
01000000
00100000
01000000
,
00100000
10000000
00100000
10000000
,
01000000
10000000
01000000
10000000
,
01000000
00100000
00010000
00100000
,
00010000
00100000
00001000
01000000
,
00001000
01000000
00001000
00010000
,
00001000
00010000
00000100
00010000
,
00000100
00010000
00000100
00001000
,
00000100
00001000
00000001
00001000
,
00000001
00001000
00000001
00000100
,
00000001
00000100
00000010
00000100
,
00000010
00001000
00000001
00000100
,
00000001
00000000
00000010
00000000
00000001
00000000
00001000
00001000
,
00000010
00000010
00001000
00001000
00000010
00000010
00010000
00010000
,
00001000
00001000
00010000
00010000
00001000
00001000
00100000
00100000
,
00001000
00100000
00001000
00100000
,
00010000
00100000
00010000
00100000
,
00010000
10000000
00010000
10000000
,
01000000
10000000
01000000
10000000
,
00010000
00100000
01000000
10000000
,
01000000
00100000
00010000
01000000
,
00100000
10000000
00100000
01000000
,
00010000
01000000
00001000
01000000
,
00001000
00100000
0M0M1000
00100000
,
00001000
00010000
0MM01000
00010000
,
00001000
00000000
0MM00000
00010000
,
00000100
00010000
00M0M100
00010000
,
00000010
00010000
0000MM10
00010000
,
00000000
00000000
0000MM00
00000010
,
00001000
00000010
000M1M00
00000001
,
00001000
00000001
00001MM0
00000001
,
00000010
00000001
0000MM10
00000100
,
00000010
00000100
0000M01M
00000100
,
00010000
00000100
000100MM
00001000
,
00010000
00001000
00010MM0
00001000
,
00100000
00001000
001M0M00
00010000
,
00100000
00010000
0010MM00
00010000
,
01000000
00010000
01M0M000
00100000
,
01000000
00100000
010MM000
00100000
,
10000000
00100000
1M0M0000
00010000
,
10000000
00010000
1MM00000
00010000
,
01000000
00010000
M1M00000
00001000
,
01000000
00001000
M10M0000
00001000
,
00010000
00001000
MM010000
00000010
,
00010000
00000010
0M01M000
00000010
,
00001000
00000010
0M0M1000
00000001
,
00001000
00000001
00001000
00000001
,
00000100
00000001
00000000
00000000
;

//--------------- dance-double - LinkDubs11 ----------------
#NOTEDATA:;
#STEPSTYPE:dance-double;
#DESCRIPTION:LinkDubs11;
#DIFFICULTY:Medium;
#METER:7;
#RADARVALUES:0,0,0,0,0;
#NOTES:
00000000
00000000
00000000
00000000
,
00000000
00000000
00000000
00000000
,
00000000
00000000
00000000
00000000
,
00000000
00000000
00000000
00000000
,
00000000
00000000
00000000
00000000
00100000
10000000
00100000
10000000
,
00000000
01000000
00000000
00100000
00000000
01000000
00000000
00100000
,
00000000
00010000
00000000
10000000
00000000
00010000
00000000
00000000
,
00000000
00000000
00000000
00000000
,
00000000
00000000
00000000
00000000
10000000
00010000
01000000
00010000
,
00000000
00100000
00000000
00000000
00000000
00001000
00100000
00001000
,
01000000
00001000
00000000
00000000
,
00010000
00001000
00010000
00000010
00010000
00000100
00010000
00000100
,
00001000
00000000
00000000
00000010
00001000
00000000
00000010
00000000
,
00000000
00000000
00000000
00000000
00000000
00000100
00000010
00000100
,
00000001
00001000
00000000
00000000
,
00000001
00001000
00000001
00000010
00000001
00000000
00000010
00000001
,
00000100
00000001
00001000
00000100
00000010
00000000
00000100
00000000
,
00000000
00000000
00000000
00001000
00000010
00000000
00010000
00000000
,
00000000
00000000
00000000
00001000
00010000
00000000
00001000
00000000
,
00000000
00000000
00000000
01000000
00010000
00000000
00100000
00000000
,
00000000
00000000
00010000
10000000
00100000
00000000
01000000
00000000
,
00000000
00000000
00000000
00100000
10000000
00000000
01000000
00000000
,
00000000
00000000
10000000
01000000
00100000
00000000
00010000
00000000
,
00000000
00000000
00000000
00000000
,
00000000
00000000
00000000
00000000
10000000
00010000
01000000
00001000
,
00000000
01000000
00000000
00000000
00001000
00010000
00000010
00010000
00000000
00000100
00000000
00000000
00001000
00000100
00000010
00000001
,
00000000
00001000
00000000
00000000
00000001
00000100
00000001
00000100
00000000
00000000
00000000
00000000
00000001
00000010
00000001
00001000
,
00000000
00000001
00000000
00000000
00001000
00000010
00000100
00000010
00000000
00000100
00000000
00000000
00000010
00001000
00000100
00001000
,
00000000
00000100
00000000
00000000
00010000
00000010
00010000
00001000
00000000
00000000
00000000
00000000
00010000
00001000
00010000
00000000
,
00001000
00100000
00001000
00100000
00010000
01000000
00010000
00000000
,
01000000
00010000
10000000
00010000
10000000
00100000
01000000
00000000
,
00100000
01000000
00100000
10000000
01000000
10000000
00100000
00000000
,
10000000
00000000
00100000
00000000
10000000
01000000
00100000
00000000
,
01000000
00100000
00010000
10000000
00010000
10000000
00010000
00000000
,
01000000
00010000
00100000
00001000
00100000
00001000
01000000
00000000
,
00001000
00010000
00001000
00010000
00000010
00010000
00000100
00000000
,
00010000
00000100
00001000
00000000
,
00000000
00000000
00000000
00000000
,
00000000
00000000
00000000
00000000
00000000
00000010
00001000
00000010
,
00000100
00000010
00000000
00000000
,
00000100
00000001
00001000
00000001
00001000
00000001
00000010
00000001
,
00000010
00000000
00000000
00000001
00000100
00000000
00000001
00000000
,
00000000
00000000
00000000
00000000
00000000
00001000
00000100
00000010
,
00000100
00001000
00000000
00000000
,
00000010
00010000
00001000
00010000
00001000
01000000
00010000
00000000
,
00100000
00000000
00000000
00010000
10000000
00000000
00100000
00000000
,
01000000
00000000
00000000
00100000
10000000
00000000
01000000
00000000
,
00000000
00000000
00000000
10000000
01000000
00000000
00100000
00000000
,
00000000
00000000
00000000
00010000
10000000
00010000
01000000
00000000
,
00000000
00000000
00000000
00001000
01000000
00001000
00010000
00000000
,
00000000
00000000
00000010
00010000
,
00000000
00000000
00000100
00001000
,
00000000
00000000
00000000
00000000
,
00000000
00000000
00000000
00000000
00000100
00000010
00000001
00001000
,
00000000
00000001
00000000
00000000
00000100
00000001
00000100
00000001
,
00000000
00000010
00000000
00000000
00000001
00001000
00000001
00001000
,
00000000
00000010
00000000
00000000
00000100
00000010
00000100
00000010
,
00000000
00000000
00000000
00000000
00001000
00000100
00001000
00000100
,
00000000
00010000
00000000
00000000
00000010
00010000
00001000
00010000
,
00000000
00001000
00000000
00000000
00010000
00001000
00100000
00001000
,
00000000
00100000
00000000
00000000
00010000
01000000
00010000
01000000
,
00000000
00000000
00000000
00000000
00010000
10000000
00010000
00000000
,
10000000
00100000
01000000
00100000
01000000
00100000
10000000
00000000
,
01000000
10000000
01000000
10000000
01000000
10000000
00100000
00000000
,
01000000
00100000
01000000
00010000
,
10000000
00000000
00010000
00000000
10000000
00010000
00100000
00000000
,
00010000
01000000
00001000
01000000
00001000
00100000
00001000
00000000
,
00010000
00001000
00010000
00000100
00010000
00000010
00010000
00000000
,
00000010
00001000
00000100
00001000
00000100
00000010
00000100
00000000
,
00000010
00000001
00001000
00000000
,
00000000
00000001
00001000
00000001
00000100
00000000
00000001
00000100
00000000
00000000
00000000
00000001
00000010
00000001
00001000
00000000
,
00000000
00000000
00000000
00000000
00000000
00000000
00000010
00000100
00000010
00001000
00000000
00000100
00010000
00001000
00010000
00000000
,
00001000
00100000
00010000
00000000
01000000
00010000
10000000
00000000
01000000
00100000
01000000
00000000
10000000
00000000
00100000
00000000
,
10000000
00000000
00000000
00000000
00100000
00000000
00000000
01000000
00010000
10000000
00010000
00000000
00100000
00000000
00001000
00100000
,
00001000
00000000
00010000
00000100
00010000
00000000
00000000
00000000
,
00000010
00001000
00000010
00000100
00000001
00000000
00001000
00000001
,
00000010
00000001
00000010
00000001
00000100
00000000
00000001
00001000
,
00000001
00001000
00000100
00000010
00000100
00000000
00000010
00000100
,
00001000
00000010
00000000
00001000
00000010
00000000
00010000
00000000
00000100
00010000
00001000
00010000
00001000
00000000
00010000
00001000
,
01000000
00001000
01000000
00000000
00010000
00000000
00100000
00010000
00100000
00010000
10000000
00010000
10000000
00000000
01000000
00000000
,
00100000
00000000
01000000
00100000
01000000
10000000
00100000
10000000
01000000
00000000
10000000
01000000
10000000
00100000
01000000
00100000
,
01000000
00000000
00010000
10000000
00010000
10000000
00010000
00100000
00010000
00000000
01000000
00001000
01000000
00001000
00100000
00001000
,
00010000
00000000
00000000
00001000
00010000
00000100
00010000
00000010
,
00010000
00000000
00000010
00000000
00001000
00000000
00000100
00001000
,
00000100
00000010
00000100
00000010
00000001
00000000
00001000
00000001
,
00001000
00000001
00000100
00000001
00000100
00000001
00000010
00000001
,
00000000
00001000
00000000
00000000
00000010
00000100
00000010
00001000
00000000
00000100
00000000
00000000
00010000
00001000
00010000
00001000
,
00000000
00100000
00000000
00000000
00010000
01000000
00010000
10000000
00000000
00000000
00000000
00000000
01000000
00100000
01000000
10000000
,
00000000
00100000
00000000
00000000
10000000
00100000
01000000
00010000
00000000
10000000
00000000
00000000
00010000
00100000
00001000
00100000
,
00000000
00001000
00000000
00000000
00010000
00000100
00010000
00000010
00000000
00000000
00000000
00000000
00001000
00000010
00000100
00000000
,
00000001
00001000
00000001
00000010
00000001
00000010
00000001
00000000
,
00000100
00000001
00001000
00000001
00001000
00000100
00000010
00000000
,
00000100
00000010
00000100
00001000
00000010
00001000
00000010
00000000
,
00010000
00000000
00000000
00000000
00000100
00010000
00001000
00000000
,
00010000
00001000
00010000
00001000
01000000
00001000
01000000
00000000
,
00010000
00100000
00010000
00100000
00010000
10000000
00010000
00000000
,
10000000
01000000
00100000
01000000
00100000
01000000
10000000
00000000
,
00100000
00000000
00000000
00000000
10000000
00100000
10000000
00000000
,
00100000
10000000
01000000
00100000
01000000
00100000
00010000
00000000
,
10000000
00010000
10000000
00010000
01000000
00010000
00100000
00000000
,
00001000
00100000
00001000
01000000
00001000
00010000
00001000
00000000
,
00010000
00000000
00000000
00000000
00000010
00010000
00000100
00000000
,
00010000
00000100
00001000
00000010
00001000
00000010
00000100
00000000
,
00000010
00000100
00000001
00001000
00000001
00001000
00000001
00000000
,
00000010
00000001
00000010
00000001
00000100
00000001
00001000
00000000
,
00000100
00000000
00000000
00000000
00000010
00000100
00001000
00000000
,
00000010
00010000
00001000
00010000
00001000
00000000
01000000
00010000
,
00100000
00010000
10000000
00000000
00100000
00000000
01000000
00100000
,
10000000
01000000
10000000
00000000
01000000
00100000
00010000
00000000
,
10000000
00010000
01000000
00001000
01000000
00000000
00001000
00010000
,
00000010
00010000
00000100
00001000
00000100
00000000
00000010
00000001
,
00001000
00000001
00000100
00000000
00000001
00000100
00000001
00000000
,
00000010
00000001
00001000
00000001
00001000
00000010
00000100
00000010
,
00000100
00000010
00001000
00000000
00000100
00001000
00000100
00010000
,
00000000
00000010
00000000
00000000
00000000
00000000
00000000
00000000
;

//--------------- dance-double - Cut from Gazebo ----------------
#NOTEDATA:;
#STEPSTYPE:dance-double;
#DESCRIPTION:Cut from Gazebo;
#DIFFICULTY:Hard;
#METER:8;
#RADARVALUES:0,0,0,0,0;
#NOTES:
00000000
00000000
00000000
00000000
,
00000000
00000000
00000000
00000000
,
00000000
00000000
00000000
00000000
,
00000000
00000000
00000000
00000000
,
00000000
00000000
00000000
00100000
10000000
01000000
00100000
00010000
,
00000000
00000000
00000000
10000000
00000000
00000000
00000000
00010000
,
00000000
00000000
00000000
01000000
00000000
00000000
00000000
00001000
,
00000000
00000000
00000000
00100000
00000000
00000000
00000000
00000000
,
00001000
00000000
00010000
00000000
00000010
00010000
00000100
00001000
00000000
00000000
00000000
00000000
00000000
00000000
00000000
00000000
,
00000010
00000100
00000001
00000000
00001000
00000000
00000000
00000000
,
00000001
00000000
00000000
00000010
00000001
00000000
00000000
00000000
,
00000100
00000001
00001000
00000000
00000010
00000000
00000000
00000000
,
00000100
00000000
00000000
00000000
00000000
00000000
00000010
00000000
00001000
00000000
00000000
00000000
00000000
00000000
00000100
00010000
,
00001000
00010000
00001000
00000000
01000000
00000000
00000000
00000000
,
00010000
00000000
00000000
00100000
00010000
00000000
00000000
00000000
,
10000000
01000000
00100000
00000000
01000000
00000000
00000000
00000000
,
10000000
00000000
01000000
00000000
10000000
00100000
01000000
00010000
10000000
00000000
00000000
00000000
00000000
00000000
00010000
00100000
,
00001000
01000000
00001000
00000000
00010000
00000000
00000000
00000000
,
00000010
00000000
00000000
00010000
00000100
00000000
00000000
00000000
,
00001000
00000010
00000100
00000000
00000001
00000000
00000000
00000000
,
00001000
00000000
00000000
00000000
00000000
00000000
00000001
00000000
00000010
00000000
00000000
00000000
00000001
00000000
00000100
00000001
,
00001000
00000010
00000100
00000000
00000010
00000000
00000000
00000000
,
00001000
00000000
00000000
00000100
00010000
00000000
00000000
00000000
,
00001000
00010000
00001000
00000000
00100000
00000000
00000000
00000000
,
00010000
00000000
01000000
00010000
10000000
00000000
00100000
00000000
,
01000000
00000000
00000000
00000000
00100000
10000000
01000000
10000000
00000000
00100000
00000000
00000000
01000000
00010000
10000000
00010000
,
00000000
00100000
00000000
00000000
00001000
01000000
00001000
00010000
00000000
00000000
00000000
00000100
00010000
00000010
00001000
00000100
,
00000000
00000010
00000000
00000000
00000001
00001000
00000001
00000100
00000000
00000001
00000000
00000000
00000010
00000001
00001000
00000100
,
00000000
00000010
00000000
00000000
00000100
00001000
00000010
00010000
00000000
00000000
00000000
00001000
00010000
00001000
00100000
00000000
,
00010000
01000000
00010000
10000000
00100000
01000000
00100000
10000000
,
00100000
10000000
01000000
00100000
00010000
10000000
00010000
01000000
,
00001000
00100000
00001000
00010000
00000100
00010000
00000010
00000000
,
00001000
00000000
00000100
00000010
00000001
00001000
00000001
00000100
,
00000001
00000010
00000001
00001000
00000100
00000010
00000100
00001000
,
00000010
00010000
00001000
00010000
00001000
01000000
00010000
00100000
,
00010000
10000000
01000000
00100000
01000000
10000000
01000000
00000000
,
10000000
00000000
00000000
00000000
00100000
00000000
01000000
00000000
00010000
00000000
00000000
00000000
10000000
00000000
00010000
00100000
,
00001000
00000000
00000000
00000000
,
01000000
00001000
00010000
00000000
00000100
00000000
00000000
00000000
,
00010000
00000000
00000000
00000010
00001000
00000000
00000000
00000000
,
00000100
00000010
00000001
00000000
00001000
00000000
00000000
00000000
,
00000001
00000000
00000000
00000000
00000000
00000000
00000100
00000000
00000001
00000000
00000000
00000000
00000010
00000000
00000001
00001000
,
00000100
00000010
00000100
00000000
00001000
00000000
00000000
00000000
,
00000010
00000000
00000000
00010000
00001000
00000000
00000000
00000000
,
00010000
00001000
00100000
00000000
00010000
00000000
00000000
00000000
,
00000000
00000000
00000000
00000000
00000000
00000000
00000000
00000000
01000000
00000000
00000000
00000000
00000000
00000000
00010000
10000000
,
00100000
01000000
00100000
00000000
10000000
00000000
00000000
00000000
,
00100000
00000000
00000000
10000000
01000000
00000000
00000000
00000000
,
00100000
00010000
10000000
00000000
00010000
00000000
00000000
00000000
,
01000000
00000000
00000000
00000000
00000000
00000000
00001000
00000000
00100000
00000000
00000000
00000000
00001000
00000000
00010000
00000100
,
00010000
00000010
00001000
00000000
00000100
00000000
00000000
00000000
,
00000010
00000000
00000000
00000001
00001000
00000000
00000000
00000000
,
00000001
00000100
00000001
00000000
00000010
00000000
00000000
00000000
,
00000001
00001000
00000100
00000010
,
00000100
00001000
00000010
00010000
00001000
00010000
00001000
01000000
,
00010000
00100000
00010000
10000000
01000000
00100000
01000000
10000000
,
00100000
10000000
01000000
00100000
00010000
10000000
00010000
01000000
,
00001000
00100000
00001000
00010000
00000010
00010000
00000100
00001000
,
00000010
00000100
00000001
00001000
00000001
00000010
00000001
00000100
,
00000001
00001000
00000010
00000100
00000010
00001000
00000100
00010000
,
00001000
00010000
00001000
01000000
00010000
00100000
00010000
10000000
,
01000000
00000000
00100000
00000000
01000000
00000000
10000000
00000000
01000000
10000000
00100000
01000000
00010000
00000000
00000000
00000000
,
10000000
00010000
00100000
00001000
01000000
00001000
00010000
00000010
,
00010000
00000100
00001000
00000010
00000100
00000001
00001000
00000001
,
00000010
00000001
00000100
00000001
00001000
00000010
00000100
00000000
,
00000010
00000000
00001000
00000100
00010000
00001000
00010000
00001000
,
00100000
00010000
01000000
00010000
10000000
00100000
01000000
00100000
,
10000000
00100000
10000000
01000000
00100000
00010000
10000000
00010000
,
01000000
00001000
00100000
00001000
00010000
00000010
00010000
00000000
,
00000100
00000000
00000000
00000000
00000000
00000000
00001000
00000000
00000010
00000000
00000000
00000000
00000100
00000000
00000001
00001000
,
00000001
00000000
00000010
00000000
,
00000001
00000000
00000000
00000000
,
00000100
00000000
00000001
00000000
,
00001000
00000000
00000000
00000000
,
00000010
00000000
00000000
00000100
00000000
00000010
00001000
00000000
00000100
00000000
00000000
00000000
00000000
00000000
00000000
00010000
,
00001000
00000000
00000000
00010000
00000000
00001000
01000000
00000000
00010000
00000000
00000000
00000000
00100000
00000000
00010000
00000000
,
10000000
01000000
00100000
01000000
10000000
01000000
10000000
00100000
,
01000000
00010000
10000000
00010000
00100000
00000000
00001000
01000000
,
00001000
00000000
00010000
00000000
,
00000010
00000000
00000000
00000000
,
00010000
00000000
00000000
00000000
,
00000000
00000000
00000000
00000000
,
00000100
00001000
00000010
00000100
00000001
00001000
00000001
00000010
,
00000001
00000100
00000001
00001000
00000010
00000100
00000010
00001000
,
00000100
00010000
00001000
00010000
00001000
00100000
00010000
01000000
,
00010000
10000000
00100000
01000000
00100000
10000000
01000000
10000000
,
00100000
00000000
00000000
00000000
01000000
00010000
10000000
00010000
00000000
00100000
00000000
00000000
00001000
01000000
00001000
00010000
,
00000000
00000100
00000000
00000000
00010000
00000010
00001000
00000100
00000000
00000000
00000000
00000010
00000001
00001000
00000001
00000100
,
00000000
00000001
00000000
00000000
00000010
00000001
00001000
00000100
00000000
00000010
00000000
00000000
00000100
00001000
00000010
00010000
,
00000000
00001000
00000000
00000000
00010000
00001000
00100000
00010000
00000000
00000000
00000000
01000000
00010000
10000000
00100000
00000000
,
01000000
00100000
10000000
00100000
10000000
01000000
00100000
00010000
,
10000000
00010000
01000000
00001000
00100000
00001000
00010000
00000100
,
00010000
00000010
00001000
00000100
00000010
00000001
00001000
00000000
,
00000001
00000000
00000100
00000001
00000010
00000001
00001000
00000100
,
00000010
00000100
00001000
00000010
00010000
00001000
00010000
00001000
,
01000000
00010000
00100000
00010000
10000000
01000000
00100000
01000000
,
10000000
01000000
10000000
00100000
01000000
00010000
10000000
00000000
,
00010000
00000000
00100000
00001000
01000000
00000000
00001000
00010000
,
00000100
00010000
00000010
00001000
00000100
00000010
00000001
00001000
,
00000001
00000100
00000001
00000010
00000001
00001000
00000100
00000010
,
00000100
00001000
00000010
00010000
00001000
00010000
00001000
00000000
,
00100000
00000000
00010000
01000000
00010000
10000000
00100000
01000000
,
00100000
10000000
00100000
10000000
01000000
00100000
00010000
10000000
,
00010000
01000000
00001000
00100000
00001000
00010000
00000100
00010000
,
00000010
00001000
00000100
00000010
00000001
00001000
00000001
00000000
,
00000100
00000000
00000000
00000000
00000001
00000000
00000010
00000000
00000001
00000000
00000000
00000000
00001000
00000000
00000100
00000010
,
00000100
00000000
00000000
00001000
00000010
00000000
00010000
00000000
,
00001000
00000000
00010000
00001000
,
01000000
00000000
00010000
00000000
,
00100000
00000000
00000000
00000000
00000000
00000000
00000000
00000000
00010000
00000000
00000000
00000000
10000000
00000000
01000000
00100000
,
01000000
00000000
00000000
10000000
00100000
00000000
10000000
00000000
,
00000000
01000000
00100000
00010000
10000000
00000000
00010000
00000000
,
01000000
00000000
00001000
00000000
,
00100000
00000000
00000000
00001000
00010000
00000010
00010000
00000100
,
00000000
00001000
00000000
00000000
00000000
00000000
00000000
00000000
;
