#TITLE:Applause;
#SUBTITLE:Sensibility Validation;
#ARTIST:Lady Gaga;
#TITLETRANSLIT:;
#SUBTITLETRANSLIT:;
#ARTISTTRANSLIT:;
#GENRE:;
#CREDIT:;
#MUSIC:Applause.ogg;
#BANNER:Applause-bn.png;
#BACKGROUND:Applause-bg.png;
#CDTITLE:GazeboCD.png;
#SAMPLESTART:52.376;
#SAMPLELENGTH:26.000;
#SELECTABLE:YES;
#OFFSET:-0.148;
#BPMS:0.000=147.000
,96.000=73.500
,112.000=147.000
,240.000=73.500
,256.000=147.000
,320.000=73.500
,336.000=147.000
;
#STOPS:;
#DISPLAYBPM:146.960;
#BGCHANGES:;
#FGCHANGES:;

//--------------- dance-single - LinkDude04 ----------------
#NOTES:
     dance-single:
     LinkDude04:
     Beginner:
     3:
     0,0,0,0,0:
0001
0000
0000
0001
,
0000
0000
0000
0000
,
1000
0000
0000
1000
,
0000
0000
0000
0000
,
0010
0000
0000
0010
0000
0000
0010
0000
,
0000
0000
0000
0000
,
0100
0000
0000
0100
0000
0000
0100
0000
,
0000
0000
0000
0000
,
0000
0001
0000
0100
,
0000
0010
0000
0100
,
0000
0001
0000
2000
,
0000
0000
0000
3000
,
0000
0100
0000
0010
,
0000
0100
0000
1000
,
0000
0001
0000
0020
,
0000
0000
0000
0030
,
0000
0100
0000
0010
,
0000
0001
0000
1000
,
0000
0010
0000
0200
,
0000
0000
0000
0300
,
0000
0010
0000
1000
,
0000
0001
0000
0100
,
0000
0010
0000
0100
,
0000
0000
0000
0000
,
0002
0003
0000
0000
0002
0003
0000
0000
2000
3000
0000
0000
0000
0000
0000
0000
,
4000
3000
0000
0000
1000
0000
0000
0000
0400
0300
0000
0000
0000
0000
0000
0000
,
0100
0100
0010
0000
,
0020
0030
0000
0000
0020
0030
0000
0000
0002
0000
0000
0000
MM00
0000
0003
0000
,
1000
0000
0001
0000
,
1000
0000
0000
0000
,
0001
0000
1000
0000
,
0001
0000
0000
0000
,
1000
0000
0010
0000
,
1000
0000
0000
0000
,
0001
0000
0010
0000
,
0001
0000
0000
0000
,
1000
0000
0000
0200
0300
0000
2000
0000
,
3000
0000
0000
0000
,
0001
0000
0000
0200
0300
0000
0002
0000
,
0003
0000
0000
0000
,
1000
0000
0000
0002
0003
0000
0020
0000
,
0030
0000
0000
0000
,
0010
0000
0000
0002
0003
0000
2000
0000
,
3000
0000
0000
0000
,
0000
0001
0000
1000
,
0000
0010
0000
0000
,
0000
0010
0000
1000
,
0000
0001
0000
0000
,
0000
1000
0000
0001
,
0000
0100
0000
0000
,
0000
0100
0000
0001
,
0000
1000
0000
0000
,
0000
0001
0000
1000
,
0000
0100
0000
0000
,
0000
0100
0000
1000
,
0000
0001
0000
0000
,
0000
1000
0000
0010
,
0000
0100
0000
0000
,
0000
0001
0000
0100
,
0000
0010
0000
0000
,
2000
3000
0000
0000
0200
0300
0000
0000
0020
0030
0000
0000
0000
0000
0000
0000
,
0004
0003
0000
0000
0010
0000
0000
0000
0400
0300
0000
0000
0000
0000
0000
0000
,
0010
0001
0100
0000
,
0020
0030
0000
0000
2000
3000
0000
0000
0200
0300
0000
0000
00MM
0000
0000
0000
,
0100
0000
1000
0000
,
0010
0000
0000
0000
,
0100
0000
0001
0000
,
0010
0000
0000
0000
,
0001
0000
0010
0000
,
0001
0000
1000
0000
,
0001
0000
0100
0000
,
0001
0000
0000
0000
,
1000
0000
0000
0020
0030
0000
2000
0000
,
3000
0000
0001
0000
,
1000
0000
0000
0200
0300
0000
2000
0000
,
3000
0000
0000
0000
,
0100
0000
0000
2000
3000
0000
0200
0000
,
0300
0000
0010
0000
,
0001
0000
0000
2000
3000
0000
0002
0000
,
0003
0000
0000
0000
,
0010
0000
0000
0002
0003
0000
0020
0000
0030
0000
0000
0000
0100
0000
0000
0000
,
0010
0000
0000
0002
0003
0000
0020
0000
0030
0000
0000
0000
0000
0000
0000
0000
,
0001
0000
0000
0020
0030
0000
0002
0000
0003
0000
0000
0000
1000
0000
0000
0000
,
0001
0000
0000
0200
0300
0000
0002
0000
0003
0000
0000
0000
0000
0000
0000
0000
,
0200
0300
0000
0000
0002
0003
0000
0000
,
0200
0300
0000
0000
0010
0000
0000
0000
,
0400
0300
0000
0000
1000
0000
0000
0000
,
0400
0300
0000
0000
0000
0000
0000
0000
,
0010
0000
1000
0000
,
0010
0000
0100
0000
,
0020
0030
0000
0000
0002
0003
0000
0000
,
0020
0000
0000
0000
0000
0000
0000
0030
,
1000
0000
0010
0000
,
1000
0000
0010
0000
,
0100
0000
0010
0000
,
0100
0000
0001
0000
,
0100
0000
0001
0000
,
0100
0000
0001
0000
,
0010
0000
0001
0000
,
0010
0000
0000
0000
,
0010
0000
0000
0200
0300
0000
0020
0000
,
0030
0000
0000
0000
,
1000
0000
0000
0200
0300
0000
2000
0000
,
3000
0000
0000
0000
,
1000
0000
0000
0020
0030
0000
2000
0000
,
3000
0000
0000
0000
,
0100
0000
0000
0020
0030
0000
0200
0000
,
0300
0000
0000
0000
,
0100
0000
0000
0002
0003
0000
0200
0000
,
0300
0000
0000
0000
;

//--------------- dance-single - LinkDude06 ----------------
#NOTES:
     dance-single:
     LinkDude06:
     Easy:
     4:
     0,0,0,0,0:
0001
0000
0000
0001
0000
0000
1000
0000
,
0000
1000
0000
0000
0010
0000
0010
0000
,
0100
0000
0000
0100
0000
0000
0001
0000
,
0000
0001
0000
0000
1000
0000
1000
0000
,
0001
0000
0000
0001
0000
0000
1000
0000
,
0000
1000
0000
0000
0100
0000
0100
0000
,
0010
0000
0000
0010
0000
0000
0001
0000
,
0000
0001
0000
0000
1000
0000
1000
0000
,
0001
1000
0001
0100
,
0001
0010
0001
1000
,
0100
1000
0001
0010
,
0001
0000
0000
0000
,
0000
1000
0100
0010
,
0001
1000
0001
0100
,
0010
1000
0001
1000
,
0000
0000
0000
0000
,
0001
0100
0010
0100
,
0001
1000
0001
0010
,
0100
0010
0001
1000
,
0000
0000
0000
0000
,
0000
0001
1000
0001
,
1000
0010
0100
0010
,
1000
0001
1000
0001
,
0000
0000
0100
0010
,
2000
3000
0000
0000
0002
0003
0000
0000
2000
3000
0000
0000
0001
0000
0000
0000
,
0200
0300
0200
0300
0010
0000
0000
0000
0200
0300
0200
0300
0010
0000
0000
0000
,
1000
0001
1000
0001
0100
0010
0100
0010
,
2000
0000
0000
0000
0000
0000
3000
0000
0000
0000
0000
0000
0001
0000
0000
0000
0000
0000
0000
0000
0000
0000
0000
0000
2000
0000
0000
0000
0000
0000
3000
0000
0000
0000
0000
0000
0001
0000
0000
0000
0000
0000
0000
0000
0000
0000
0000
0000
2000
0000
0000
0000
0M00
0000
0000
0000
00M0
0000
0000
0000
0M00
0000
0000
0000
00M0
0000
0000
0000
0M00
0000
0000
0000
00M0
0000
0000
0000
0M00
0000
0000
0000
00M0
0000
0000
0000
3M00
0000
0000
00M0
0000
0000
0M00
0000
0000
00M0
0000
0000
,
0M00
0001
1000
0010
,
1000
0001
0100
0010
,
1000
0010
0100
0001
,
1000
0010
1000
0001
,
0100
0010
1000
0010
,
0100
0001
1000
0010
,
1000
0001
0100
0010
,
0100
0010
1000
0001
,
0000
0000
0000
0000
,
0000
0100
0010
1000
,
0001
0100
0001
1000
,
0010
0100
0001
0100
,
0000
0000
0000
0000
,
0000
0010
0100
0010
,
1000
0001
1000
0001
,
0010
0100
0010
0001
,
MM00
0001
1000
0100
,
0010
0100
1000
0001
,
1000
0001
0010
0100
,
0010
0000
0000
0000
,
0000
0100
0010
0001
,
1000
0001
0100
0010
,
1000
0001
1000
0100
,
0000
0000
0000
0000
,
0000
0010
0001
1000
,
0100
0010
0001
1000
,
0100
1000
0001
0010
,
0000
0000
0000
0000
,
0000
0001
1000
0001
,
1000
0001
1000
0100
,
1000
0010
1000
0001
,
0000
0000
1000
0010
,
2000
3000
0000
0000
0002
0003
0000
0000
0200
0300
0000
0000
0010
0000
0000
0000
,
2000
3000
2000
3000
0001
0000
0000
0000
0200
0300
0200
0300
0010
0000
0000
0000
,
1000
0001
1000
0100
0010
0001
1000
0001
,
0200
0300
0010
0000
2000
3000
0001
0000
2000
0000
0000
0000
0000
0000
3000
0000
,
00MM
0100
1000
0001
,
1000
0010
0100
0010
,
1000
0001
1000
0010
,
0100
0010
1000
0001
,
1000
0100
0010
0100
,
1000
0001
1000
0010
,
0100
0010
1000
0001
,
1000
0010
0100
0010
,
0000
0000
0000
0000
,
0000
1000
0100
0010
,
0001
1000
0100
0010
,
0001
0010
0100
1000
,
0000
0000
0000
0000
,
0000
0001
0100
0010
,
1000
0001
0100
0010
,
1000
0010
0100
0001
,
0100
0000
0000
0020
0030
0000
2000
0000
3000
0000
0000
0000
0001
0000
0000
0000
,
0100
0000
0000
0002
0003
0000
2000
0000
3000
0000
0000
0000
0010
0000
0000
0000
,
0100
0010
1000
0001
0100
0010
0100
0001
,
1000
0100
0010
0100
1000
0000
0001
1000
,
0002
0003
0000
0000
2000
3000
0000
0000
,
0020
0030
0000
0000
0100
0000
0000
0000
,
0020
0030
0020
0030
0100
0000
0000
0000
,
0002
0003
0002
0003
1000
0000
0000
0000
,
0001
1000
0100
0010
,
0100
1000
0001
0100
,
0002
0003
0100
0000
0002
0003
0100
0000
,
0001
0100
0001
0100
0001
0100
0001
0100
,
0001
0100
0001
1000
,
0100
1000
0001
0010
,
0001
1000
0010
1000
,
0001
0100
0001
1000
,
0100
1000
0001
0010
,
0001
1000
0010
1000
,
0001
0100
0001
1000
,
0100
0010
0100
0010
,
0000
0000
0000
0000
,
0000
0001
0010
0100
,
1000
0100
0010
0001
,
0010
0100
1000
0001
,
4000
3000
0000
0040
0030
0000
4000
3000
,
0000
0100
1000
0001
,
4000
3000
0000
0004
0003
0000
4000
3000
,
0000
0010
1000
0100
,
4000
3000
0000
0040
0030
0000
4000
3000
;

//--------------- dance-single - LinkDude09 ----------------
#NOTES:
     dance-single:
     LinkDude09:
     Medium:
     6:
     0,0,0,0,0:
0001
0000
0000
0100
0000
0000
0001
0000
,
0000
1000
0000
0000
0100
0000
0010
0000
,
0001
0000
0000
1000
0000
0000
0001
0000
,
0000
0010
0000
0000
0001
0000
1000
0000
,
0010
0000
0000
0100
0000
0000
0001
0000
,
0000
0100
0000
0000
0010
0000
0100
0000
,
0001
0000
0000
1000
0000
0000
0100
0000
,
0000
0010
0000
0000
0001
0000
0000
0000
,
0000
0010
0001
0010
,
0100
1000
0000
0001
0000
0200
0000
0300
,
0001
0000
1000
0001
0000
0100
0000
0010
,
0000
0000
0000
0000
,
0000
1000
0001
0010
,
0100
1000
0000
0001
0000
0200
0000
0300
,
0001
0100
0001
0000
0100
0001
0100
0000
,
0000
0000
0000
0000
,
0000
0010
0100
0001
,
1000
0000
0001
0100
0000
0020
0000
0030
,
0100
0000
0001
1000
0001
1000
0001
0000
,
0000
0000
0000
0000
,
0000
0010
0100
1000
,
0001
0000
1000
0100
0000
1000
0000
0000
,
0100
0010
0100
0000
1000
0001
1000
0000
,
0000
0000
0000
0000
0010
1000
0010
1000
,
0002
0000
0003
1000
0020
0000
0030
0100
0002
0000
0003
1000
0100
0000
1000
0000
,
0100
0010
0001
1000
0010
1000
0001
1000
,
0010
0000
0100
0000
0001
0000
0100
0000
0010
0000
0100
0002
0000
0003
1000
0000
,
0200
0000
0300
0010
0002
0000
0003
1000
0001
0000
0010
0000
0001
0000
0020
0000
,
MM30
0001
0100
0000
0001
0100
0000
0001
,
0100
0001
1000
0020
,
0030
1000
0100
0000
1000
0100
0000
1000
,
0100
1000
0001
0020
,
0030
0001
0100
0000
0001
0100
0000
0001
,
0100
0001
1000
0020
,
0030
1000
0100
0000
1000
0100
0000
1000
,
0100
1000
0001
1000
,
0001
0010
0000
0001
0010
0000
0001
0020
,
0000
0030
0001
0000
1000
0000
0100
0000
,
1000
0010
0000
1000
0010
0000
1000
0020
,
0000
0030
1000
0000
0001
0000
0100
0000
,
0001
0010
0000
0001
0010
0000
0001
0020
,
0000
0030
0001
0000
1000
0000
0100
0000
,
1000
0010
0000
1000
0010
0000
1000
0020
,
0000
0030
1000
0000
0001
0000
0100
0000
,
M0M0
0001
0010
0100
,
1000
0000
0001
0100
0000
0002
0000
0003
,
1000
0000
0001
0000
0100
0000
0010
2000
,
0000
3000
0000
0000
0000
0000
0000
0000
,
0000
0001
0010
0100
,
1000
0001
0000
0100
0000
0002
0000
0003
,
1000
0010
1000
0000
0010
1000
0010
0000
,
0000
0000
0000
0000
,
0000
0100
0001
1000
,
0001
0010
0000
0100
0000
0020
0000
0030
,
0001
1000
0001
0000
0100
0010
0100
0000
,
0000
0000
0000
0000
,
0000
0010
1000
0001
,
1000
0100
0000
1000
0000
0200
0000
0300
,
0010
0001
0010
0000
0001
0010
0001
0000
,
0000
0000
0000
0000
1000
0001
1000
0001
,
2000
0000
3000
0010
0200
0000
0300
0001
2000
0000
3000
0100
1000
0000
0100
0000
,
0010
0001
1000
0010
1000
0001
1000
0010
,
0100
0000
0001
0000
0100
0000
0010
0000
0100
0000
0001
2000
0000
3000
0100
0000
,
0020
0000
0030
0001
2000
0000
3000
0001
0010
0000
0001
0000
1000
0000
0020
0000
,
0M3M
1000
0010
0000
0010
1000
0000
1000
,
0010
1000
0001
0200
,
0300
0010
0100
0000
0100
0010
0000
0010
,
0100
0010
1000
0002
,
0003
0100
0001
0000
0001
0100
0000
0100
,
0001
0100
0010
2000
,
3000
0100
1000
0000
1000
0100
0000
0100
,
1000
0100
0010
0001
,
0100
0001
0000
0100
0001
0000
0100
0002
,
0000
0003
0100
0000
0010
0000
1000
0000
,
0010
1000
0000
0010
1000
0000
0010
2000
,
0000
3000
0010
0000
0100
0000
0001
0000
,
0010
0001
0000
0010
0001
0000
0010
0002
,
0000
0003
0010
0000
0100
0000
1000
0000
,
0010
1000
0000
0010
1000
0000
0010
2000
,
0000
3000
0001
0000
1000
0000
0000
0000
,
0001
0000
0000
0100
0000
0000
0002
0000
1000
0000
0000
0000
1000
0000
0003
0000
,
1000
0000
0000
0010
0000
0000
2000
0000
0001
0000
0000
0000
0001
0000
3000
0000
,
0001
0100
0010
1000
0001
0010
0001
1000
,
0001
0000
0010
0000
0100
0000
1000
0000
0100
0000
0000
0000
1000
0100
1000
0100
,
0020
0000
0030
0001
2000
0000
3000
0001
,
0020
0000
0030
0001
1000
0001
1000
0000
,
0001
0000
0010
0000
0100
1000
0100
0000
,
0010
0000
0001
0000
0010
0100
0010
0000
,
0100
0000
1000
0010
1000
0000
0001
0000
,
0100
0000
0001
0200
0000
0300
0001
1000
,
0002
0000
0003
1000
0020
0000
0030
0100
,
0010
1000
0001
2000
,
3000
0100
1000
0000
1000
0100
0000
0100
,
1000
0001
0100
0020
,
0030
1000
0001
0000
0001
1000
0000
1000
,
0001
1000
0010
0200
,
0300
0001
0100
0000
0100
0001
0000
0001
,
0100
0010
0100
0002
,
0003
1000
0010
0000
0010
1000
0000
1000
,
0010
0100
0001
0010
,
0001
0100
0000
0001
1000
0000
0001
0020
,
0000
0030
0100
0010
0100
0000
1000
0000
,
0010
1000
0000
0010
0100
0000
0010
2000
,
0000
3000
0100
0010
0100
0000
1000
0000
,
0100
0010
0000
0100
1000
0000
0100
0020
,
0000
0030
0001
0010
0001
0000
0100
0000
,
0001
0010
0000
0001
0100
0000
0001
2000
,
0000
3000
0000
0000
0000
0000
0000
0000
,
0010
1000
0000
0001
0100
0000
0010
1000
;

//--------------- dance-single - Cut from Gazebo ----------------
#NOTES:
     dance-single:
     Cut from Gazebo:
     Hard:
     8:
     0,0,0,0,0:
0004
0000
0000
0043
0000
0000
0430
0000
,
0000
0000
0000
0000
0000
0000
0000
0310
,
0400
0000
1300
0040
0000
1030
0004
0000
,
0000
0000
0000
0000
0000
0000
0000
0103
,
0004
0000
0000
0043
0000
0000
0430
0000
,
0000
0000
0000
0000
0000
0000
0000
0310
,
0400
0000
1300
0040
0000
1030
0004
0000
,
0000
0000
0000
0000
0000
0000
0000
0000
1003
0010
1000
0000
0200
0000
0000
0000
,
1300
0002
0203
0320
,
1030
0001
0000
1000
0000
0200
0000
0000
,
0310
0000
0010
0001
0000
1000
0000
1000
,
0001
0100
0001
0100
0010
1000
0001
0010
,
0001
2000
3020
0230
,
0301
1000
0000
0001
0000
0020
0000
0000
,
0130
1000
0100
1000
0001
0100
0020
0000
,
1030
0010
1000
0010
0100
0001
1000
0100
,
1000
0002
0023
0032
,
0103
0000
0100
0010
0000
0020
0000
0000
,
1030
0000
0001
1000
0001
0010
0200
0000
,
1300
0100
1000
0100
0010
0001
1000
0010
,
1000
0002
0203
0302
,
0013
0000
0010
0100
0000
0200
0000
0000
,
1300
0001
0100
0010
1000
0001
0020
0000
,
0000
0000
0000
0031
0100
0001
0100
0010
,
2000
0000
0000
3001
2000
0000
0000
3001
2000
0000
0000
3010
0010
0100
0001
0001
,
0020
0000
0032
0000
1003
0100
1000
1000
0020
0000
2030
0000
3001
0100
0001
0000
,
0020
0000
0130
0100
2000
0000
3002
0000
0203
0000
0301
1000
0000
0000
1000
1000
,
0100
0000
0000
0000
0000
0000
0000
0000
0000
0000
0000
0000
0010
0000
0000
0000
0000
0000
0000
0000
0000
0000
0000
0000
0100
0000
0000
0000
0000
0000
0000
0000
0000
0000
0000
0000
0010
0000
0000
0000
0000
0000
0000
0000
0000
0000
0000
0000
0100
0000
0000
0000
0000
0000
0000
0000
0000
0000
0000
0000
0010
0000
0000
0000
0000
0000
0000
0000
0000
0000
0000
0000
0100
0000
0000
0000
0000
0000
0000
0000
0000
0000
0000
0000
1000
0000
0000
0000
0000
0000
0000
0000
0000
0000
0000
0000
0001
0000
0000
0000
0000
0000
0000
0000
0000
0000
0000
0000
1000
0000
0000
0000
0000
0000
0000
0000
0000
0001
0000
0000
0000
0000
0000
0000
0000
0000
1000
0000
0000
0000
0000
0000
0000
0000
0000
0001
0000
0000
0000
0000
0000
0000
0000
0000
1000
0000
0000
0000
0000
0000
0000
0000
0001
0000
0000
0000
0000
0000
0000
0000
1000
0000
0000
0000
0000
0000
0000
0000
0001
0000
0000
0000
0000
0000
1000
0000
0000
0000
0000
0000
0001
0000
0000
0000
0000
0000
1000
0000
0000
0000
0000
0000
,
0001
0100
0010
1000
0010
1000
0010
0100
,
0001
1000
0100
1000
0100
1000
0100
0010
,
0001
1000
0010
1000
0001
0010
0100
1000
,
0010
0100
0010
0100
0001
1000
0001
1000
,
0001
0010
0100
1000
0100
1000
0100
0010
,
0001
1000
0010
1000
0010
1000
0010
0100
,
0001
0010
0001
0010
0100
1000
0001
0100
,
0010
1000
0010
1000
0001
1000
0001
1000
,
0001
0010
0100
1000
0100
1000
0100
0010
,
0001
1000
0010
1000
0010
1000
0010
0100
,
0001
1000
0100
1000
0001
0100
0010
1000
,
0100
0010
0100
0010
0001
1000
0001
1000
,
0001
0100
0010
1000
0010
1000
0010
0100
,
0001
1000
0100
1000
0100
1000
0100
0010
,
0001
0100
0001
0100
0010
1000
0001
0010
,
0100
1000
0100
1000
0001
1000
0001
0000
,
1000
0002
0023
0230
,
1300
0000
0001
1000
0000
0020
0000
0000
,
0130
0000
0100
0000
0002
0000
1003
0001
,
1000
0100
1000
0100
0010
0001
1000
0010
,
1000
0002
0023
0230
,
1300
0001
0000
1000
0020
0000
0000
0000
,
0130
0001
0100
0001
1000
0100
0020
0000
,
0031
0010
0001
0010
0100
1000
0001
0100
,
0001
2000
3020
2030
,
3100
0010
0000
0100
0000
2000
0000
0000
,
3001
0100
0001
0100
0001
1000
0200
0000
,
1300
0100
1000
0100
0010
0001
1000
0010
,
1000
0002
0203
0302
,
1003
0100
0000
2000
0000
3002
0000
0000
,
1003
0010
0100
0010
1000
0100
0020
0000
,
0000
0000
0000
0031
0100
0001
0100
0010
,
2000
0000
0000
3001
2000
0000
0000
3001
2000
0000
0000
3100
0100
0010
0001
0001
,
0200
0000
0302
0000
1003
0010
1000
1000
0200
0000
2300
0000
3001
0010
0001
0000
,
0200
0000
0310
0010
2000
0000
3002
0000
0023
0000
0031
1000
0000
0000
1000
1000
,
0010
0100
0010
0100
0010
0100
0010
0100
0010
0000
0000
0000
0000
0000
0000
0000
,
1000
0010
0100
0001
0100
0001
0100
0010
,
1000
0001
0010
0001
0010
0001
0010
0100
,
1000
0001
0100
0001
1000
0100
0010
0001
,
0100
0010
0100
0010
1000
0001
1000
0001
,
1000
0100
0010
0001
0010
0001
0010
0100
,
1000
0001
0100
0001
0100
0001
0100
0010
,
1000
0100
1000
0100
0010
0001
1000
0010
,
0100
0001
0100
0001
1000
0001
1000
0001
,
1000
0100
0010
0001
0010
0001
0010
0100
,
1000
0001
0100
0001
0100
0001
0100
0010
,
1000
0001
0010
0001
1000
0010
0100
0001
,
0010
0100
0010
0100
1000
0001
1000
0001
,
1000
0010
0100
0001
0100
0001
0100
0010
,
1000
0001
0010
0001
0010
0001
0010
0100
,
1000
0010
1000
0010
0100
0001
1000
0100
,
0010
0001
0010
0001
1000
0001
1000
0000
,
1010
0000
0000
0110
0000
0000
0101
0001
2000
0000
0000
3001
2000
0000
3000
0000
,
1100
0000
0000
0110
0000
0000
0011
0001
2000
0000
0000
3001
2000
0000
3000
0010
,
1010
0000
0000
0110
0000
0000
0101
0000
0000
0000
0000
0000
0000
0000
0000
0000
,
1100
0000
0000
0110
0000
0000
0011
0000
0000
0000
0000
0001
1000
0001
1000
1000
,
0020
0000
0130
0010
0020
0000
1030
0010
,
0020
0000
1030
0001
0001
1000
0001
0001
,
0020
0000
0230
0000
1300
0001
1000
1000
,
0020
0000
0230
0000
0301
1000
0001
0000
,
2000
0000
3100
0100
0020
0000
0032
0000
,
0103
0000
0001
1000
0010
0000
1000
1000
,
0001
0010
0001
1000
0001
0100
0001
1000
,
0001
0000
0000
0000
0000
0000
0000
0000
0000
0000
0000
0000
1000
0000
0000
0000
0000
0000
0000
0000
0000
0001
0000
0000
0000
0000
0000
0000
0000
0000
1000
0000
0000
0000
0000
0000
0000
0000
0000
0001
0000
0000
0000
0000
0000
0000
0000
0000
1000
0000
0000
0000
0000
0000
0000
0000
0001
0000
0000
0000
0000
0000
0000
0000
1000
0000
0000
0000
0000
0000
0000
0000
0001
0000
0000
0000
0000
0000
1000
0000
0000
0000
0000
0000
0001
0000
0000
0000
0000
0000
1000
0000
0000
0000
0000
0000
,
0001
0100
0010
1000
0010
1000
0010
0100
,
0001
1000
0100
1000
0100
1000
0100
0010
,
0001
1000
0010
1000
0001
0010
0100
1000
,
0010
0100
0010
0100
0001
1000
0001
1000
,
0001
0010
0100
1000
0100
1000
0100
0010
,
0001
1000
0010
1000
0010
1000
0010
0100
,
0001
0010
0001
0010
0100
1000
0001
0100
,
0010
1000
0010
1000
0001
1000
0001
1000
,
0001
0010
0100
1000
0100
1000
0100
0010
,
0001
1000
0010
1000
0010
1000
0010
0100
,
0001
1000
0100
1000
0001
0100
0010
1000
,
0100
0010
0100
0010
0001
1000
0001
1000
,
0001
0100
0010
1000
0010
1000
0010
0100
,
0001
1000
0100
1000
0100
1000
0100
0010
,
0001
0100
0001
0100
0010
1000
0001
0010
,
0100
1000
0100
1000
0001
1000
0001
0000
,
0100
0010
0000
1000
0100
0000
1000
0001
;

//--------------- dance-single - Gazebo ----------------
#NOTES:
     dance-single:
     Gazebo:
     Challenge:
     12:
     0.877,0.903,0.06,0.387,1,1132,12,77,0,0,12,0.877,0.903,0.06,0.387,1,1132,12,77,0,0,12:
4000
0000
0000
3040
0000
0000
0430
0000
,
0000
0000
0000
0000
0000
0000
0000
0310
,
0400
0000
0301
0040
0000
0031
4000
0000
,
0000
0000
0000
0000
0000
0000
0000
3100
,
4000
0000
0000
3040
0000
0000
0430
0000
,
0000
0000
0000
0000
0000
0000
0000
0310
,
0400
0000
0301
0040
0000
0031
4000
0000
,
0000
0000
0000
0000
0000
0000
0000
0000
3001
0010
0001
0000
0200
0000
0000
0000
,
0301
2000
3200
0320
,
0031
1000
0000
0001
0000
0200
0000
0000
,
0310
0000
0010
1000
0000
0001
0000
0001
,
1000
0100
1000
0100
0010
0001
1000
0010
,
1000
0002
0023
0230
,
1300
0001
0000
1000
0000
0020
0000
0000
,
0130
0001
0100
0001
1000
0100
0020
0000
,
0031
0010
0001
0010
0100
1000
0001
0100
,
0001
2000
3020
2030
,
3100
0000
0100
0010
0000
0020
0000
0000
,
0031
0000
1000
0001
1000
0010
0200
0000
,
0301
0100
0001
0100
0010
1000
0001
0010
,
0001
2000
3200
2300
,
3010
0000
0010
0100
0000
0200
0000
0000
,
0301
1000
0100
0010
0001
1000
0020
0000
,
0000
0000
0000
1030
0100
1000
0100
0010
,
0002
0000
0000
1003
0002
0000
0000
1003
0002
0000
0000
0013
0010
0100
1000
1000
,
0020
0000
2030
0000
3001
0100
0001
0001
0020
0000
0032
0000
1003
0100
1000
0000
,
0020
0000
0130
0100
0002
0000
2003
0000
3200
0000
1300
0001
0000
0000
0001
0001
,
0100
0000
0000
0000
0000
0000
0000
0000
0000
0000
0000
0000
0010
0000
0000
0000
0000
0000
0000
0000
0000
0000
0000
0000
0100
0000
0000
0000
0000
0000
0000
0000
0000
0000
0000
0000
0010
0000
0000
0000
0000
0000
0000
0000
0000
0000
0000
0000
0100
0000
0000
0000
0000
0000
0000
0000
0000
0000
0000
0000
0010
0000
0000
0000
0000
0000
0000
0000
0000
0000
0000
0000
0100
0000
0000
0000
0000
0000
0000
0000
0000
0000
0000
0000
0010
0000
0000
0000
0000
0000
0000
0000
0000
0000
0000
0000
0000
0000
0000
0000
0000
0000
0000
0000
0000
0000
0000
0000
1000
0000
0000
0000
0000
0000
0000
0000
0000
0010
0000
0000
0000
0000
0000
0000
0000
0000
1000
0000
0000
0000
0000
0000
0000
0000
0000
0001
0000
0000
0000
0000
0000
0000
0000
0000
1000
0000
0000
0000
0000
0000
0000
0000
0100
0000
0000
0000
0000
0000
0000
0000
0010
0000
0000
0000
0000
0000
0000
0000
0001
0000
0000
0000
0000
0000
1000
0000
0000
0000
0000
0000
0100
0000
0000
0000
0000
0000
1000
0000
0000
0000
0000
0000
,
0001
0100
0010
1000
0010
1000
0010
0100
0001
1000
0100
1000
0100
1000
0100
0010
,
0001
1000
0010
1000
0001
0010
0100
1000
0010
0100
0010
0100
0001
1000
0001
1000
,
0001
0010
0100
1000
0100
1000
0100
0010
0001
1000
0010
1000
0010
1000
0010
0100
,
0001
0010
0001
0010
0100
1000
0001
0100
0010
1000
0010
1000
0001
1000
0001
1000
,
0001
0010
0100
1000
0100
1000
0100
0010
0001
1000
0010
1000
0010
1000
0010
0100
,
0001
1000
0100
1000
0001
0100
0010
1000
0100
0010
0100
0010
0001
1000
0001
1000
,
0001
0100
0010
1000
0010
1000
0010
0100
0001
1000
0100
1000
0100
1000
0100
0010
,
0001
0100
0001
0100
0010
1000
0001
0010
0100
1000
0100
1000
0001
1000
0001
1000
,
0010
0100
0010
0100
0001
1000
0010
1000
0100
0010
0100
0010
0001
1000
0010
1000
,
0001
0100
0001
0100
0001
0010
0100
1000
0010
0100
0010
0100
0001
1000
0001
1000
,
0001
0010
0100
1000
0100
1000
0100
0010
0001
1000
0010
1000
0010
1000
0010
0100
,
0001
0010
0001
0010
0100
1000
0001
0100
0010
1000
0010
1000
0001
1000
0001
1000
,
0100
0010
0100
0010
0001
1000
0100
1000
0010
0100
0010
0100
0001
1000
0100
1000
,
0001
1000
0001
1000
0001
0100
0010
1000
0100
0010
0100
0010
0001
1000
0001
1000
,
0001
0100
0010
1000
0010
1000
0010
0100
0001
1000
0100
1000
0100
1000
0100
0010
,
0001
0100
0001
0100
0010
1000
0001
0010
0100
1000
0100
1000
0001
0000
0000
0000
,
1000
0002
0023
0230
,
1300
0000
0001
1000
0000
0020
0000
0000
,
0130
0000
0100
0000
0002
0000
1003
0001
,
1000
0100
1000
0100
0010
0001
1000
0010
,
1000
0002
0023
0230
,
1300
0001
0000
1000
0020
0000
0000
0000
,
0130
0001
0100
0001
1000
0100
0020
0000
,
0031
0010
0001
0010
0100
1000
0001
0100
,
0001
2000
3020
2030
,
3100
0010
0000
0100
0000
2000
0000
0000
,
3001
0100
0001
0100
0001
1000
0200
0000
,
1300
0100
1000
0100
0010
0001
1000
0010
,
1000
0002
0203
0302
,
1003
0100
0000
2000
0000
3002
0000
0000
,
1003
0010
0100
0010
1000
0100
0020
0000
,
0000
0000
0000
0031
0100
0001
0100
0010
,
2000
0000
0000
3001
2000
0000
0000
3001
2000
0000
0000
3100
0100
0010
0001
0001
,
0200
0000
0302
0000
1003
0010
1000
1000
0200
0000
2300
0000
3001
0010
0001
0000
,
0200
0000
0310
0010
2000
0000
3002
0000
0023
0000
0031
1000
0000
0000
1000
1000
,
0010
0100
0010
0100
0010
0100
0010
0100
0010
0000
0000
0000
0000
0000
0000
0000
,
1000
0010
0100
0001
0100
0001
0100
0010
1000
0001
0010
0001
0010
0001
0010
0100
,
1000
0001
0100
0001
1000
0100
0010
0001
0100
0010
0100
0010
1000
0001
1000
0001
,
1000
0100
0010
0001
0010
0001
0010
0100
1000
0001
0100
0001
0100
0001
0100
0010
,
1000
0100
1000
0100
0010
0001
1000
0010
0100
0001
0100
0001
1000
0001
1000
0001
,
1000
0100
0010
0001
0010
0001
0010
0100
1000
0001
0100
0001
0100
0001
0100
0010
,
1000
0001
0010
0001
1000
0010
0100
0001
0010
0100
0010
0100
1000
0001
1000
0001
,
1000
0010
0100
0001
0100
0001
0100
0010
1000
0001
0010
0001
0010
0001
0010
0100
,
1000
0010
1000
0010
0100
0001
1000
0100
0010
0001
0010
0001
1000
0001
1000
0001
,
0100
0010
0100
0010
1000
0001
0100
0001
0010
0100
0010
0100
1000
0001
0100
0001
,
1000
0010
1000
0010
1000
0100
0010
0001
0100
0010
0100
0010
1000
0001
1000
0001
,
1000
0100
0010
0001
0010
0001
0010
0100
1000
0001
0100
0001
0100
0001
0100
0010
,
1000
0100
1000
0100
0010
0001
1000
0010
0100
0001
0100
0001
1000
0001
1000
0001
,
0010
0100
0010
0100
1000
0001
0010
0001
0100
0010
0100
0010
1000
0001
0010
0001
,
1000
0001
1000
0001
1000
0010
0100
0001
0010
0100
0010
0100
1000
0001
1000
0001
,
1000
0010
0100
0001
0100
0001
0100
0010
1000
0001
0010
0001
0010
0001
0010
0100
,
1000
0010
1000
0010
0100
0001
1000
0100
0010
0001
0010
0001
1000
0000
0000
0000
,
1010
0000
0000
0110
0000
0000
0101
0001
2000
0000
0000
3001
2000
0000
3000
0000
,
1100
0000
0000
0110
0000
0000
0011
0001
2000
0000
0000
3001
2000
0000
3000
0010
,
1010
0000
0000
0110
0000
0000
0101
0000
0000
0000
0000
0000
0000
0000
0000
0000
,
1100
0000
0000
0110
0000
0000
0011
0000
0000
0000
0000
0001
1000
0001
1000
1000
,
0020
0000
0130
0010
0020
0000
1030
0010
,
0020
0000
1030
0001
0001
1000
0001
0001
,
0020
0000
0230
0000
1300
0001
1000
1000
,
0020
0000
0230
0000
0301
1000
0001
0000
,
2000
0000
3100
0100
0020
0000
0032
0000
,
0103
0000
0001
1000
0010
0000
1000
1000
,
0001
0010
0001
1000
0001
0100
0001
1000
,
0001
0000
0000
0000
0000
0000
0000
0000
0000
0000
0000
0000
1000
0000
0000
0000
0000
0000
0000
0000
0000
0010
0000
0000
0000
0000
0000
0000
0000
0000
1000
0000
0000
0000
0000
0000
0000
0000
0000
0001
0000
0000
0000
0000
0000
0000
0000
0000
1000
0000
0000
0000
0000
0000
0000
0000
0100
0000
0000
0000
0000
0000
0000
0000
0010
0000
0000
0000
0000
0000
0000
0000
0001
0000
0000
0000
0000
0000
1000
0000
0000
0000
0000
0000
0100
0000
0000
0000
0000
0000
1000
0000
0000
0000
0000
0000
,
0001
0100
0010
1000
0010
1000
0010
0100
0001
1000
0100
1000
0100
1000
0100
0010
,
0001
1000
0010
1000
0001
0010
0100
1000
0010
0100
0010
0100
0001
1000
0001
1000
,
0001
0010
0100
1000
0100
1000
0100
0010
0001
1000
0010
1000
0010
1000
0010
0100
,
0001
0010
0001
0010
0100
1000
0001
0100
0010
1000
0010
1000
0001
1000
0001
1000
,
0001
0010
0100
1000
0100
1000
0100
0010
0001
1000
0010
1000
0010
1000
0010
0100
,
0001
1000
0100
1000
0001
0100
0010
1000
0100
0010
0100
0010
0001
1000
0001
1000
,
0001
0100
0010
1000
0010
1000
0010
0100
0001
1000
0100
1000
0100
1000
0100
0010
,
0001
0100
0001
0100
0010
1000
0001
0010
0100
1000
0100
1000
0001
1000
0001
1000
,
0010
0100
0010
0100
0001
1000
0010
1000
0100
0010
0100
0010
0001
1000
0010
1000
,
0001
0100
0001
0100
0001
0010
0100
1000
0010
0100
0010
0100
0001
1000
0001
1000
,
0001
0010
0100
1000
0100
1000
0100
0010
0001
1000
0010
1000
0010
1000
0010
0100
,
0001
0010
0001
0010
0100
1000
0001
0100
0010
1000
0010
1000
0001
1000
0001
1000
,
0100
0010
0100
0010
0001
1000
0100
1000
0010
0100
0010
0100
0001
1000
0100
1000
,
0001
1000
0001
1000
0001
0100
0010
1000
0100
0010
0100
0010
0001
1000
0001
1000
,
0001
0100
0010
1000
0010
1000
0010
0100
0001
1000
0100
1000
0100
1000
0100
0010
,
0001
0100
0001
0100
0010
1000
0001
0010
0100
1000
0100
1000
0001
0000
0000
0000
,
0100
0010
0000
1000
0100
0000
1000
0001
;

//--------------- dance-double - LinkDubs04 ----------------
#NOTES:
     dance-double:
     LinkDubs04:
     Beginner:
     3:
     0,0,0,0,0:
00100000
00000000
00000000
10000000
,
00000000
00000000
00000000
00000000
,
00100000
00000000
00000000
10000000
,
00000000
00000000
00000000
00000000
,
00100000
00000000
00000000
01000000
00000000
00000000
00100000
00000000
,
00000000
00000000
00000000
00000000
,
01000000
00000000
00000000
00010000
00000000
00000000
10000000
00000000
,
00000000
00000000
00000000
00000000
,
00000000
00010000
00000000
10000000
,
00000000
00010000
00000000
01000000
,
00000000
00010000
00000000
02000000
,
00000000
00000000
00000000
03000000
,
00000000
00001000
00000000
00100000
,
00000000
00001000
00000000
00100000
,
00000000
00001000
00000000
00020000
,
00000000
00000000
00000000
00030000
,
00000000
00001000
00000000
00010000
,
00000000
00000010
00000000
00010000
,
00000000
00000100
00000000
00020000
,
00000000
00000000
00000000
00030000
,
00000000
00000100
00000000
00001000
,
00000000
00000010
00000000
00001000
,
00000000
00000010
00000000
00000100
,
00000000
00000000
00000000
00000000
,
00000020
00000030
00000000
00000000
00000200
00000300
00000000
00000000
00000002
00000003
00000000
00000000
00000000
00000000
00000000
00000000
,
00004000
00003000
00000000
00000000
00000001
00000000
00000000
00000000
00004000
00003000
00000000
00000000
00000000
00000000
00000000
00000000
,
00000001
00000010
00000001
00000000
,
00000020
00000030
00000000
00000000
00000002
00000003
00000000
00000000
00000200
00000000
00000000
00000000
0000M0M0
00000000
00000300
00000000
,
00000001
00000000
00000100
00000000
,
00000001
00000000
00000000
00000000
,
00001000
00000000
00000001
00000000
,
00001000
00000000
00000000
00000000
,
00000010
00000000
00000100
00000000
,
00000010
00000000
00000000
00000000
,
00000100
00000000
00000010
00000000
,
00001000
00000000
00000000
00000000
,
00000010
00000000
00000000
00002000
00003000
00000000
00000200
00000000
,
00000300
00000000
00000000
00000000
,
00010000
00000000
00000000
00000200
00000300
00000000
00020000
00000000
,
00030000
00000000
00000000
00000000
,
00001000
00000000
00000000
00020000
00030000
00000000
00002000
00000000
,
00003000
00000000
00000000
00000000
,
00010000
00000000
00000000
00002000
00003000
00000000
02000000
00000000
,
03000000
00000000
00000000
00000000
,
00000000
00001000
00000000
01000000
,
00000000
00010000
00000000
00000000
,
00000000
00100000
00000000
00010000
,
00000000
00100000
00000000
00000000
,
00000000
00010000
00000000
10000000
,
00000000
00010000
00000000
00000000
,
00000000
10000000
00000000
01000000
,
00000000
00100000
00000000
00000000
,
00000000
01000000
00000000
00100000
,
00000000
01000000
00000000
00000000
,
00000000
10000000
00000000
00100000
,
00000000
10000000
00000000
00000000
,
00000000
01000000
00000000
10000000
,
00000000
01000000
00000000
00000000
,
00000000
10000000
00000000
00100000
,
00000000
01000000
00000000
00000000
,
00200000
00300000
00000000
00000000
02000000
03000000
00000000
00000000
00020000
00030000
00000000
00000000
00000000
00000000
00000000
00000000
,
40000000
30000000
00000000
00000000
00010000
00000000
00000000
00000000
40000000
30000000
00000000
00000000
00000000
00000000
00000000
00000000
,
00010000
01000000
00010000
00000000
,
02000000
03000000
00000000
00000000
00002000
00003000
00000000
00000000
00200000
00300000
00000000
00000000
0M0M0000
00000000
00000000
00000000
,
00001000
00000000
00100000
00000000
,
00001000
00000000
00000000
00000000
,
00010000
00000000
00001000
00000000
,
00010000
00000000
00000000
00000000
,
00000100
00000000
00010000
00000000
,
00000010
00000000
00010000
00000000
,
00000010
00000000
00001000
00000000
,
00000100
00000000
00000000
00000000
,
00001000
00000000
00000000
00000200
00000300
00000000
00000020
00000000
,
00000030
00000000
00000100
00000000
,
00000010
00000000
00000000
00000002
00000003
00000000
00002000
00000000
,
00003000
00000000
00000000
00000000
,
00000001
00000000
00000000
00002000
00003000
00000000
00000002
00000000
,
00000003
00000000
00000100
00000000
,
00000001
00000000
00000000
00000200
00000300
00000000
00000002
00000000
,
00000003
00000000
00000000
00000000
,
00000010
00000000
00000000
00000002
00000003
00000000
00000020
00000000
00000030
00000000
00000000
00000000
00000001
00000000
00000000
00000000
,
00001000
00000000
00000000
00000002
00000003
00000000
00002000
00000000
00003000
00000000
00000000
00000000
00000000
00000000
00000000
00000000
,
00000100
00000000
00000000
00000020
00000030
00000000
00000200
00000000
00000300
00000000
00000000
00000000
00000010
00000000
00000000
00000000
,
00000100
00000000
00000000
00002000
00003000
00000000
00000200
00000000
00000300
00000000
00000000
00000000
00000000
00000000
00000000
00000000
,
00002000
00003000
00000000
00000000
00000020
00000030
00000000
00000000
,
00020000
00030000
00000000
00000000
00000010
00000000
00000000
00000000
,
00040000
00030000
00000000
00000000
00001000
00000000
00000000
00000000
,
00040000
00030000
00000000
00000000
00000000
00000000
00000000
00000000
,
00001000
00000000
00010000
00000000
,
00001000
00000000
01000000
00000000
,
00002000
00003000
00000000
00000000
02000000
03000000
00000000
00000000
,
00020000
00000000
00000000
00000000
00000000
00000000
00000000
00030000
,
00100000
00000000
00010000
00000000
,
00100000
00000000
00010000
00000000
,
10000000
00000000
00010000
00000000
,
10000000
00000000
01000000
00000000
,
00100000
00000000
01000000
00000000
,
00100000
00000000
01000000
00000000
,
10000000
00000000
00100000
00000000
,
10000000
00000000
00000000
00000000
,
01000000
00000000
00000000
20000000
30000000
00000000
02000000
00000000
,
03000000
00000000
00000000
00000000
,
10000000
00000000
00000000
02000000
03000000
00000000
00200000
00000000
,
00300000
00000000
00000000
00000000
,
01000000
00000000
00000000
00200000
00300000
00000000
00020000
00000000
,
00030000
00000000
00000000
00000000
,
10000000
00000000
00000000
00020000
00030000
00000000
20000000
00000000
,
30000000
00000000
00000000
00000000
,
00010000
00000000
00000000
00200000
00300000
00000000
00020000
00000000
,
00030000
00000000
00000000
00000000
;

//--------------- dance-double - LinkDubs06 ----------------
#NOTES:
     dance-double:
     LinkDubs06:
     Easy:
     4:
     0,0,0,0,0:
00100000
00000000
00000000
10000000
00000000
00000000
00100000
00000000
,
00000000
10000000
00000000
00000000
00100000
00000000
01000000
00000000
,
00100000
00000000
00000000
01000000
00000000
00000000
00010000
00000000
,
00000000
10000000
00000000
00000000
00010000
00000000
10000000
00000000
,
00010000
00000000
00000000
01000000
00000000
00000000
00010000
00000000
,
00000000
01000000
00000000
00000000
00001000
00000000
00100000
00000000
,
00001000
00000000
00000000
00100000
00000000
00000000
00001000
00000000
,
00000000
00010000
00000000
00000000
00001000
00000000
00010000
00000000
,
00000010
00010000
00000100
00010000
,
00000100
00001000
00000010
00001000
,
00000010
00000100
00000010
00000100
,
00000001
00000000
00000000
00000000
,
00000000
00001000
00000001
00001000
,
00000001
00000010
00000001
00000010
,
00000001
00000100
00000001
00000100
,
00000000
00000000
00000000
00000000
,
00000001
00001000
00000001
00001000
,
00000010
00000100
00000010
00000100
,
00000010
00001000
00000010
00001000
,
00000000
00000000
00000000
00000000
,
00000000
00000100
00010000
00000100
,
00010000
00001000
00010000
00001000
,
00010000
00001000
01000000
00001000
,
00000000
00000000
01000000
00010000
,
00200000
00300000
00000000
00000000
00020000
00030000
00000000
00000000
00200000
00300000
00000000
00000000
00010000
00000000
00000000
00000000
,
20000000
30000000
20000000
30000000
00010000
00000000
00000000
00000000
20000000
30000000
20000000
30000000
01000000
00000000
00000000
00000000
,
00100000
01000000
00100000
01000000
10000000
01000000
10000000
01000000
,
20000000
00000000
00000000
00000000
00000000
00000000
30000000
00000000
00000000
00000000
00000000
00000000
00010000
00000000
00000000
00000000
00000000
00000000
00000000
00000000
00000000
00000000
00000000
00000000
20000000
00000000
00000000
00000000
00000000
00000000
30000000
00000000
00000000
00000000
00000000
00000000
00010000
00000000
00000000
00000000
00000000
00000000
00000000
00000000
00000000
00000000
00000000
00000000
20000000
00000000
00000000
00000000
0M000000
00000000
00000000
00000000
00M00000
00000000
00000000
00000000
0M000000
00000000
00000000
00000000
00M00000
00000000
00000000
00000000
0M000000
00000000
00000000
00000000
00M00000
00000000
00000000
00000000
0M000000
00000000
00000000
00000000
00M00000
00000000
00000000
00000000
3M000000
00000000
00000000
00M00000
00000000
00000000
0M000000
00000000
00000000
00M00000
00000000
00000000
,
0M000000
00010000
01000000
00100000
,
10000000
00100000
10000000
00010000
,
01000000
00010000
01000000
00001000
,
00100000
00001000
00100000
00001000
,
00010000
00001000
00010000
00000100
,
00010000
00000010
00010000
00000010
,
00001000
00000100
00001000
00000100
,
00000010
00000100
00000010
00000001
,
00000000
00000000
00000000
00000000
,
00000000
00001000
00000001
00001000
,
00000001
00000100
00000001
00000100
,
00000001
00000010
00000001
00000010
,
00000000
00000000
00000000
00000000
,
00000000
00000001
00001000
00000001
,
00001000
00000100
00000010
00000100
,
00000010
00000100
00001000
00000100
,
000000MM
00001000
00000010
00010000
,
00000010
00010000
00001000
00010000
,
00001000
00010000
00001000
01000000
,
00001000
00000000
00000000
00000000
,
00000000
01000000
00010000
00100000
,
00010000
00100000
00010000
10000000
,
00010000
10000000
01000000
00100000
,
00000000
00000000
00000000
00000000
,
00000000
01000000
00100000
01000000
,
10000000
00100000
10000000
01000000
,
10000000
01000000
10000000
01000000
,
00000000
00000000
00000000
00000000
,
00000000
00100000
01000000
00100000
,
00010000
10000000
00010000
10000000
,
00010000
00100000
00010000
00100000
,
00000000
00000000
00001000
01000000
,
00002000
00003000
00000000
00000000
02000000
03000000
00000000
00000000
00002000
00003000
00000000
00000000
00010000
00000000
00000000
00000000
,
00002000
00003000
00002000
00003000
00010000
00000000
00000000
00000000
00000020
00000030
00000020
00000030
00010000
00000000
00000000
00000000
,
00000010
00001000
00000100
00001000
00000100
00000010
00000100
00000010
,
00000002
00000003
00001000
00000000
00000002
00000003
00001000
00000000
00000002
00000000
00000000
00000000
00000000
00000000
00000003
00000000
,
00000MM0
00001000
00000100
00000010
,
00000001
00000010
00000001
00000010
,
00000001
00001000
00000001
00001000
,
00000100
00000010
00000100
00000010
,
00000100
00001000
00000100
00001000
,
00000010
00010000
00000010
00010000
,
00001000
00010000
00001000
00010000
,
00001000
00100000
00001000
00100000
,
00000000
00000000
00000000
00000000
,
00000000
00010000
01000000
00010000
,
01000000
00010000
10000000
00010000
,
10000000
00100000
01000000
00100000
,
00000000
00000000
00000000
00000000
,
00000000
01000000
00100000
10000000
,
01000000
10000000
00100000
10000000
,
00100000
10000000
00100000
01000000
,
00100000
00000000
00000000
02000000
03000000
00000000
00020000
00000000
00030000
00000000
00000000
00000000
10000000
00000000
00000000
00000000
,
00010000
00000000
00000000
20000000
30000000
00000000
00020000
00000000
00030000
00000000
00000000
00000000
01000000
00000000
00000000
00000000
,
00010000
01000000
00001000
00100000
00001000
00100000
00001000
00010000
,
00001000
00010000
00000010
00010000
00000100
00000000
00010000
00000100
,
00002000
00003000
00000000
00000000
00000020
00000030
00000000
00000000
,
00002000
00003000
00000000
00000000
00000010
00000000
00000000
00000000
,
00000200
00000300
00000200
00000300
00000010
00000000
00000000
00000000
,
00002000
00003000
00002000
00003000
00000001
00000000
00000000
00000000
,
00001000
00000001
00001000
00000001
,
00000010
00000001
00000010
00000001
,
00000200
00000300
00000001
00000000
00000200
00000300
00000001
00000000
,
00000100
00000010
00000100
00000010
00000100
00000010
00000100
00000010
,
00000100
00000010
00001000
00000010
,
00010000
00000010
00010000
00001000
,
00010000
00001000
01000000
00001000
,
01000000
00010000
00100000
00010000
,
00100000
00010000
10000000
00010000
,
10000000
01000000
00100000
01000000
,
00100000
01000000
10000000
00100000
,
10000000
01000000
10000000
01000000
,
00000000
00000000
00000000
00000000
,
00000000
10000000
00100000
01000000
,
00100000
01000000
00010000
10000000
,
00010000
10000000
00010000
01000000
,
00040000
00030000
00000000
04000000
03000000
00000000
00004000
00003000
,
00000000
00100000
00001000
00100000
,
00004000
00003000
00000000
00040000
00030000
00000000
00004000
00003000
,
00000000
00010000
00000100
00010000
,
00000040
00000030
00000000
00040000
00030000
00000000
00000040
00000030
;

//--------------- dance-double - LinkDubs09 ----------------
#NOTES:
     dance-double:
     LinkDubs09:
     Medium:
     6:
     0,0,0,0,0:
00100000
00000000
00000000
10000000
00000000
00000000
00100000
00000000
,
00000000
10000000
00000000
00000000
01000000
00000000
00100000
00000000
,
01000000
00000000
00000000
00100000
00000000
00000000
00010000
00000000
,
00000000
10000000
00000000
00000000
00010000
00000000
10000000
00000000
,
00010000
00000000
00000000
01000000
00000000
00000000
00010000
00000000
,
00000000
00100000
00000000
00000000
00001000
00000000
00100000
00000000
,
00001000
00000000
00000000
01000000
00000000
00000000
00001000
00000000
,
00000000
00010000
00000000
00000000
00001000
00000000
00000000
00000000
,
00000000
00010000
00000010
00010000
,
00000100
00010000
00000000
00000100
00000000
00002000
00000000
00003000
,
00000010
00000000
00001000
00000010
00000000
00000100
00000000
00000010
,
00000000
00000000
00000000
00000000
,
00000000
00000100
00000001
00001000
,
00000001
00001000
00000000
00000001
00000000
00000020
00000000
00000030
,
00000001
00000010
00000001
00000000
00000100
00000001
00001000
00000000
,
00000000
00000000
00000000
00000000
,
00000000
00000100
00000010
00000100
,
00001000
00000000
00000010
00010000
00000000
00002000
00000000
00003000
,
00010000
00000000
00001000
01000000
00010000
00100000
00010000
00000000
,
00000000
00000000
00000000
00000000
,
00000000
10000000
00100000
01000000
,
00100000
00000000
10000000
01000000
00000000
10000000
00000000
00000000
,
01000000
00100000
00010000
00000000
10000000
00010000
01000000
00000000
,
00000000
00000000
00000000
00000000
00001000
01000000
00001000
00010000
,
00000020
00000000
00000030
00010000
00000200
00000000
00000300
00001000
00000200
00000000
00000300
00000010
00000001
00000000
00001000
00000000
,
00000001
00000100
00000001
00000100
00000001
00000010
00000001
00001000
,
00000001
00000000
00001000
00000000
00000010
00000000
00000100
00000000
00000010
00000000
00000100
00000020
00000000
00000030
00001000
00000000
,
00000200
00000000
00000300
00001000
00000200
00000000
00000300
00010000
00000010
00000000
00010000
00000000
00001000
00000000
00020000
00000000
,
00030MM0
00001000
00010000
00000000
00001000
00100000
00000000
00001000
,
00100000
00010000
01000000
00020000
,
00030000
01000000
00010000
00000000
10000000
00010000
00000000
10000000
,
00100000
01000000
00100000
02000000
,
03000000
00100000
10000000
00000000
01000000
10000000
00000000
00100000
,
10000000
00100000
10000000
02000000
,
03000000
00100000
01000000
00000000
00100000
00010000
00000000
10000000
,
00010000
10000000
00010000
01000000
,
00010000
00100000
00000000
00001000
00100000
00000000
00001000
02000000
,
00000000
03000000
00001000
00000000
00010000
00000000
00001000
00000000
,
00010000
00000010
00000000
00010000
00000100
00000000
00010000
00000200
,
00000000
00000300
00001000
00000000
00000010
00000000
00001000
00000000
,
00000010
00000100
00000000
00000010
00000100
00000000
00000001
00002000
,
00000000
00003000
00000001
00000000
00001000
00000000
00000001
00000000
,
00000010
00000001
00000000
00000010
00000001
00000000
00000100
00000002
,
00000000
00000003
00001000
00000000
00000100
00000000
00000010
00000000
,
0000M00M
00000100
00001000
00000010
,
00010000
00000000
00001000
00010000
00000000
00002000
00000000
00003000
,
01000000
00000000
00010000
00000000
00100000
00000000
00010000
20000000
,
00000000
30000000
00000000
00000000
00000000
00000000
00000000
00000000
,
00000000
00100000
01000000
00100000
,
10000000
01000000
00000000
10000000
00000000
02000000
00000000
03000000
,
00100000
00010000
10000000
00000000
00010000
01000000
00001000
00000000
,
00000000
00000000
00000000
00000000
,
00000000
01000000
00001000
00010000
,
00000010
00010000
00000000
00000100
00000000
00002000
00000000
00003000
,
00000100
00000010
00000001
00000000
00001000
00000001
00000100
00000000
,
00000000
00000000
00000000
00000000
,
00000000
00000001
00000100
00000001
,
00000010
00000001
00000000
00001000
00000000
00000002
00000000
00000003
,
00001000
00000010
00000100
00000000
00000010
00000100
00000010
00000000
,
00000000
00000000
00000000
00000000
00001000
00000100
00001000
00000100
,
00020000
00000000
00030000
00000010
00020000
00000000
00030000
00001000
00020000
00000000
00030000
00001000
00010000
00000000
00001000
00000000
,
00100000
00001000
00100000
00010000
01000000
00010000
01000000
00010000
,
10000000
00000000
00010000
00000000
10000000
00000000
00100000
00000000
01000000
00000000
00100000
02000000
00000000
03000000
00100000
00000000
,
20000000
00000000
30000000
01000000
20000000
00000000
30000000
00100000
10000000
00000000
00010000
00000000
00100000
00000000
02000000
00000000
,
M30M0000
00100000
01000000
00000000
00100000
01000000
00000000
00100000
,
01000000
10000000
00010000
02000000
,
03000000
00001000
00100000
00000000
00001000
00100000
00000000
00001000
,
00100000
00001000
00010000
00002000
,
00003000
00010000
00000100
00000000
00010000
00000100
00000000
00010000
,
00000100
00001000
00000010
00002000
,
00003000
00000010
00000100
00000000
00000010
00000100
00000000
00000010
,
00000100
00000001
00001000
00000001
,
00000010
00000001
00000000
00000001
00000010
00000000
00000010
00000002
,
00000000
00000003
00001000
00000000
00000100
00000000
00010000
00000000
,
00000100
00010000
00000000
00010000
00000100
00000000
00000100
00020000
,
00000000
00030000
00001000
00000000
01000000
00000000
00010000
00000000
,
10000000
00100000
00000000
00100000
10000000
00000000
10000000
00200000
,
00000000
00300000
10000000
00000000
01000000
00000000
10000000
00000000
,
00010000
00100000
00000000
00100000
00010000
00000000
00010000
00200000
,
00000000
00300000
00001000
00000000
01000000
00000000
00000000
00000000
,
00001000
00000000
00000000
00010000
00000000
00000000
00000020
00000000
00001000
00000000
00000000
00000000
00001000
00000000
00000030
00000000
,
00001000
00000000
00000000
00000100
00000000
00000000
00000020
00000000
00000001
00000000
00000000
00000000
00000001
00000000
00000030
00000000
,
00000001
00000100
00000001
00000100
00000001
00000010
00000001
00001000
,
00000001
00000000
00001000
00000000
00000010
00000000
00000100
00000000
00000010
00000000
00000000
00000000
00001000
00000010
00001000
00000100
,
00002000
00000000
00003000
00000100
00020000
00000000
00030000
00000010
,
00020000
00000000
00030000
00001000
00010000
00001000
00010000
00000000
,
00001000
00000000
00100000
00000000
00001000
00100000
00010000
00000000
,
01000000
00000000
00010000
00000000
01000000
00010000
10000000
00000000
,
00010000
00000000
10000000
00100000
01000000
00000000
00100000
00000000
,
01000000
00000000
00100000
20000000
00000000
30000000
01000000
10000000
,
00200000
00000000
00300000
10000000
00200000
00000000
00300000
10000000
,
01000000
00100000
01000000
00200000
,
00300000
00001000
00100000
00000000
00001000
00100000
00000000
00001000
,
00100000
00010000
00100000
00002000
,
00003000
00010000
00001000
00000000
00010000
00001000
00000000
00010000
,
00001000
00010000
00000010
00002000
,
00003000
00000010
00001000
00000000
00000010
00001000
00000000
00000010
,
00001000
00000010
00000100
00000020
,
00000030
00000100
00000001
00000000
00000100
00000001
00000000
00000100
,
00000001
00000010
00000001
00000010
,
00000001
00000100
00000000
00000100
00000001
00000000
00000001
00000200
,
00000000
00000300
00000010
00000100
00000010
00000000
00010000
00000000
,
00001000
00010000
00000000
00010000
00001000
00000000
00001000
00020000
,
00000000
00030000
00001000
01000000
00100000
00000000
01000000
00000000
,
00100000
10000000
00000000
10000000
00100000
00000000
00100000
20000000
,
00000000
30000000
00010000
10000000
00010000
00000000
01000000
00000000
,
00001000
00010000
00000000
00010000
00001000
00000000
00001000
00020000
,
00000000
00030000
00000000
00000000
00000000
00000000
00000000
00000000
,
00000100
00010000
00000000
00000010
00001000
00000000
00000001
00000100
;

//--------------- dance-double - Cut from Gazebo ----------------
#NOTES:
     dance-double:
     Cut from Gazebo:
     Hard:
     8:
     0,0,0,0,0:
00100000
00000000
00000000
10000000
00000000
00000000
01000000
00000000
,
00000000
00000000
00000000
00000000
00000000
00000000
00000000
00100000
,
00010000
00000000
10000000
00010000
00000000
01000000
00001000
00000000
,
00000000
00000000
00000000
00000000
00000000
00000000
00000000
00100000
,
00001000
00000000
00000000
00010000
00000000
00000000
00000010
00000000
,
00000000
00000000
00000000
00000000
00000000
00000000
00000000
00010000
,
00000100
00000000
00001000
00000010
00000000
00000100
00000001
00000000
,
00000000
00000000
00000000
00000000
00000000
00000000
00000000
00000000
00001000
00000001
00000010
00000000
00000001
00000000
00000000
00000000
,
00000100
00000001
00001000
00000010
,
00000100
00000010
00000000
00001000
00000000
00000100
00000000
00000000
,
00010000
00000000
00001000
00010000
00000000
00001000
00000000
01000000
,
00010000
00100000
00010000
10000000
01000000
00100000
01000000
10000000
,
01000000
10000000
00100000
01000000
,
00010000
10000000
00000000
00010000
00000000
00100000
00000000
00000000
,
00001000
01000000
00001000
00010000
00000010
00010000
00000100
00000000
,
00001000
00000010
00000100
00000001
00001000
00000001
00000010
00000001
,
00000100
00000001
00001000
00000010
,
00000100
00000000
00000010
00001000
00000000
00000100
00000000
00000000
,
00010000
00000000
00001000
00010000
00001000
00100000
00010000
00000000
,
01000000
00010000
10000000
00100000
01000000
00100000
10000000
01000000
,
10000000
00100000
01000000
00010000
,
10000000
00000000
00010000
00100000
00000000
00001000
00000000
00000000
,
01000000
00001000
00010000
00000100
00010000
00000010
00001000
00000000
,
00000000
00000000
00000000
00000100
00000010
00000001
00001000
00000001
,
00000100
00000000
00000000
00000001
00000010
00000000
00000000
00000001
00001000
00000000
00000000
00000100
00000010
00000100
00001000
00000010
,
00010000
00000000
00001000
00000000
00010000
00001000
00100000
00010000
01000000
00000000
00010000
00000000
10000000
00100000
01000000
00000000
,
00100000
00000000
10000000
00100000
10000000
00000000
01000000
00000000
00100000
00000000
00010000
10000000
00000000
00000000
00010000
01000000
,
00001000
00000000
00000000
00000000
00000000
00000000
00000000
00000000
00000000
00000000
00000000
00000000
00100000
00000000
00000000
00000000
00000000
00000000
00000000
00000000
00000000
00000000
00000000
00000000
00001000
00000000
00000000
00000000
00000000
00000000
00000000
00000000
00000000
00000000
00000000
00000000
00010000
00000000
00000000
00000000
00000000
00000000
00000000
00000000
00000000
00000000
00000000
00000000
00000100
00000000
00000000
00000000
00000000
00000000
00000000
00000000
00000000
00000000
00000000
00000000
00010000
00000000
00000000
00000000
00000000
00000000
00000000
00000000
00000000
00000000
00000000
00000000
00000010
00000000
00000000
00000000
00000000
00000000
00000000
00000000
00000000
00000000
00000000
00000000
00001000
00000000
00000000
00000000
00000000
00000000
00000000
00000000
00000000
00000000
00000000
00000000
00000100
00000000
00000000
00000000
00000000
00000000
00000000
00000000
00000000
00000000
00000000
00000000
00000010
00000000
00000000
00000000
00000000
00000000
00000000
00000000
00000000
00000001
00000000
00000000
00000000
00000000
00000000
00000000
00000000
00000000
00001000
00000000
00000000
00000000
00000000
00000000
00000000
00000000
00000000
00000001
00000000
00000000
00000000
00000000
00000000
00000000
00000000
00000000
00000100
00000000
00000000
00000000
00000000
00000000
00000000
00000000
00000001
00000000
00000000
00000000
00000000
00000000
00000000
00000000
00000010
00000000
00000000
00000000
00000000
00000000
00000000
00000000
00000001
00000000
00000000
00000000
00000000
00000000
00001000
00000000
00000000
00000000
00000000
00000000
00000100
00000000
00000000
00000000
00000000
00000000
00000010
00000000
00000000
00000000
00000000
00000000
,
00000100
00001000
00000010
00010000
00001000
00010000
00001000
01000000
,
00010000
00100000
00010000
10000000
01000000
00100000
01000000
10000000
,
00100000
10000000
01000000
00100000
00010000
10000000
00010000
01000000
,
00001000
00100000
00001000
00010000
00000010
00010000
00000100
00001000
,
00000010
00000100
00000001
00001000
00000001
00000010
00000001
00000100
,
00000001
00001000
00000010
00000100
00000010
00001000
00000100
00010000
,
00001000
00010000
00001000
01000000
00010000
00100000
00010000
10000000
,
01000000
00100000
01000000
10000000
01000000
10000000
00100000
01000000
,
00010000
10000000
00010000
00100000
00001000
01000000
00001000
00010000
,
00000010
00010000
00000100
00001000
00000010
00000100
00000001
00001000
,
00000001
00000010
00000001
00000100
00000001
00001000
00000010
00000100
,
00000010
00001000
00000100
00010000
00001000
00010000
00001000
00100000
,
00010000
01000000
00010000
10000000
00100000
01000000
00100000
10000000
,
01000000
10000000
00100000
01000000
00010000
10000000
00010000
00100000
,
00001000
01000000
00001000
00010000
00000100
00010000
00000010
00001000
,
00000100
00000010
00000001
00001000
00000001
00000100
00000001
00000000
,
00000010
00000001
00001000
00000100
,
00000010
00000000
00000100
00001000
00000000
00000010
00000000
00000000
,
00010000
00000000
00001000
00000000
00010000
00000000
00001000
00100000
,
00010000
01000000
00010000
10000000
00100000
01000000
00100000
10000000
,
00100000
10000000
01000000
00100000
,
00010000
10000000
00000000
00010000
01000000
00000000
00000000
00000000
,
00001000
00100000
00001000
00010000
00000100
00010000
00000010
00000000
,
00001000
00000100
00000010
00000001
00001000
00000001
00000100
00000001
,
00000010
00000001
00001000
00000100
,
00000010
00000100
00000000
00001000
00000000
00000010
00000000
00000000
,
00010000
00001000
00010000
00001000
01000000
00010000
00100000
00000000
,
00010000
10000000
01000000
00100000
01000000
10000000
00100000
10000000
,
01000000
00100000
00010000
10000000
,
00010000
01000000
00000000
00001000
00000000
00100000
00000000
00000000
,
00001000
00010000
00000010
00010000
00000100
00001000
00000010
00000000
,
00000000
00000000
00000000
00000100
00000001
00001000
00000001
00000010
,
00000001
00000000
00000000
00000100
00000001
00000000
00000000
00001000
00000010
00000000
00000000
00000100
00000010
00001000
00000100
00010000
,
00001000
00000000
00010000
00000000
00001000
01000000
00010000
00100000
00010000
00000000
10000000
00000000
01000000
00100000
01000000
00000000
,
10000000
00000000
01000000
10000000
00100000
00000000
01000000
00000000
00010000
00000000
10000000
00010000
00000000
00000000
00100000
00001000
,
01000000
00001000
00010000
00000010
00010000
00000100
00001000
00000010
00000100
00000000
00000000
00000000
00000000
00000000
00000000
00000000
,
00000001
00001000
00000001
00000010
00000001
00000100
00000001
00001000
,
00000010
00000100
00000010
00001000
00000100
00010000
00001000
00010000
,
00001000
00100000
00010000
01000000
00010000
10000000
00100000
01000000
,
00100000
10000000
01000000
10000000
00100000
01000000
00010000
10000000
,
00010000
00100000
00001000
01000000
00001000
00010000
00000100
00010000
,
00000010
00001000
00000100
00000010
00000001
00001000
00000001
00000100
,
00000001
00000010
00000001
00001000
00000100
00000010
00000100
00001000
,
00000010
00010000
00001000
00010000
00001000
00100000
00010000
01000000
,
00010000
10000000
00100000
01000000
00100000
10000000
00100000
10000000
,
01000000
00100000
00010000
10000000
00010000
01000000
00001000
00100000
,
00001000
00010000
00000100
00010000
00000010
00001000
00000100
00000010
,
00000001
00001000
00000001
00000100
00000001
00000010
00000001
00001000
,
00000100
00000010
00000100
00001000
00000010
00010000
00001000
00010000
,
00001000
01000000
00010000
00100000
00010000
10000000
01000000
00100000
,
01000000
10000000
00100000
10000000
01000000
00100000
00010000
10000000
,
00010000
01000000
00001000
00100000
00001000
00010000
00000010
00000000
,
00010000
00000000
00000000
00000100
00000000
00000000
00001000
00000010
00000100
00000000
00000000
00000001
00001000
00000000
00000000
00000000
,
00000001
00000000
00000000
00000010
00000000
00000000
00000001
00000100
00000001
00000000
00000000
00001000
00000010
00000000
00000000
00000100
,
00000010
00000000
00000000
00001000
00000000
00000000
00000100
00000000
00000000
00000000
00000000
00000000
00000000
00000000
00000000
00000000
,
00010000
00000000
00000000
00001000
00000000
00000000
00010000
00000000
00000000
00000000
00000000
00001000
01000000
00010000
00100000
00010000
,
10000000
00000000
01000000
00100000
01000000
00000000
10000000
01000000
,
10000000
00000000
00100000
01000000
00010000
10000000
00010000
00100000
,
00001000
00000000
01000000
00000000
00001000
00010000
00000010
00010000
,
00000100
00000000
00001000
00000000
00000010
00000100
00000001
00000000
,
00001000
00000000
00000001
00000010
00000001
00000000
00000100
00000000
,
00000001
00000000
00001000
00000010
00000100
00000000
00000010
00001000
,
00000100
00010000
00001000
00010000
00001000
00100000
00010000
01000000
,
00010000
00000000
00000000
00000000
00000000
00000000
00000000
00000000
00000000
00000000
00000000
00000000
10000000
00000000
00000000
00000000
00000000
00000000
00000000
00000000
00000000
00100000
00000000
00000000
00000000
00000000
00000000
00000000
00000000
00000000
01000000
00000000
00000000
00000000
00000000
00000000
00000000
00000000
00000000
00100000
00000000
00000000
00000000
00000000
00000000
00000000
00000000
00000000
10000000
00000000
00000000
00000000
00000000
00000000
00000000
00000000
01000000
00000000
00000000
00000000
00000000
00000000
00000000
00000000
10000000
00000000
00000000
00000000
00000000
00000000
00000000
00000000
00100000
00000000
00000000
00000000
00000000
00000000
01000000
00000000
00000000
00000000
00000000
00000000
00010000
00000000
00000000
00000000
00000000
00000000
10000000
00000000
00000000
00000000
00000000
00000000
,
00010000
00100000
00001000
01000000
00001000
00010000
00000100
00010000
,
00000010
00001000
00000100
00000010
00000001
00001000
00000001
00000100
,
00000001
00000010
00000001
00001000
00000100
00000010
00000100
00001000
,
00000010
00010000
00001000
00010000
00001000
00100000
00010000
01000000
,
00010000
10000000
00100000
01000000
00100000
10000000
00100000
10000000
,
01000000
00100000
00010000
10000000
00010000
01000000
00001000
00100000
,
00001000
00010000
00000100
00010000
00000010
00001000
00000100
00000010
,
00000001
00001000
00000001
00000100
00000001
00000010
00000001
00001000
,
00000100
00000010
00000100
00001000
00000010
00010000
00001000
00010000
,
00001000
01000000
00010000
00100000
00010000
10000000
01000000
00100000
,
01000000
10000000
00100000
10000000
01000000
00100000
00010000
10000000
,
00010000
01000000
00001000
00100000
00001000
00010000
00000010
00010000
,
00000100
00001000
00000010
00000100
00000001
00001000
00000001
00000010
,
00000001
00000100
00000001
00001000
00000010
00000100
00000010
00001000
,
00000100
00010000
00001000
00010000
00001000
01000000
00010000
00100000
,
00010000
10000000
01000000
00100000
01000000
10000000
01000000
00000000
,
10000000
00100000
00000000
01000000
00010000
00000000
10000000
00010000
;
