#TITLE:Another Day;
#SUBTITLE:;
#ARTIST:RENT Movie Cast;
#TITLETRANSLIT:;
#SUBTITLETRANSLIT:;
#ARTISTTRANSLIT:;
#GENRE:;
#CREDIT:;
#MUSIC:Another Day.ogg;
#BANNER:RENT-bn.png;
#BACKGROUND:RENT-jacket.png;
#CDTITLE:RENT-jacket.png;
#SAMPLESTART:8.500;
#SAMPLELENGTH:8.000;
#SELECTABLE:YES;
#OFFSET:-0.313;
#BPMS:0.000=143.804
,20.000=144.094
,88.000=143.804
,100.000=144.094
,148.000=141.984
,276.000=143.804
,324.000=144.094
,380.000=141.984
,440.000=143.804
,500.000=144.094
,556.000=143.804
,572.000=144.094
,640.000=141.984
;
#STOPS:;
#BGCHANGES:0.000=Another Day.mp4=1.000=0=0=1,
646.000=RENT-jacket.png=1.000=0=0=1=Centered====,
99999.000=-nosongbg-=1.000=0=0=0=StretchNoLoop====
;
#FGCHANGES:;

//--------------- dance-single - LinkDude05 ----------------
#NOTES:
     dance-single:
     LinkDude05:
     Beginner:
     3:
     0.144,0.179,0,0,0:
0000
0000
0000
0000
,
0000
0000
0000
0000
,
0000
0000
0000
0000
,
0000
0000
0000
0000
,
0000
0000
0000
0000
,
0001
0000
1000
0000
0000
0000
0000
0001
,
0000
1000
0000
0000
0000
0000
0000
0000
,
0001
0100
0000
0000
,
0000
0010
0000
0100
0000
0000
0000
0000
,
0010
0000
1000
0000
0000
0000
0000
0001
,
0000
1000
0000
0000
0000
0000
0000
0000
,
0001
0100
0000
0000
,
0000
0001
0000
1000
0000
0000
0000
0000
,
0010
0000
1000
0000
0000
0000
0000
0010
,
0000
0100
0000
0000
0000
0000
0000
0000
,
0001
0100
0000
0000
,
0001
0000
1000
0000
0000
0000
0000
0001
,
0000
1000
0000
0000
0000
0010
0000
0100
,
0000
0000
0000
0010
0000
0000
0000
0000
,
0000
1000
0000
0000
0000
0000
0001
0000
,
0000
1000
0000
0000
,
0000
0000
0000
0000
,
0000
0000
0001
0000
0000
0100
0000
0000
,
0001
0000
0000
0100
,
0000
0010
0000
0000
1000
0000
0000
0000
,
0010
0000
1000
0001
,
0000
0000
0100
0001
,
0000
0000
0000
0000
0000
1000
0000
0001
,
0000
0000
1000
0010
,
0000
0000
0100
0010
,
0000
0000
0100
0001
,
0000
0000
1000
0001
,
0000
0000
1000
0001
,
0000
0000
0000
0000
,
0000
0000
0000
0000
,
0100
0010
0000
0000
,
0000
0000
0000
0000
,
0000
0000
0000
0000
,
1000
0010
0000
0000
,
0000
0000
1000
0000
,
0001
0100
0000
0000
,
0000
0000
0000
0001
,
0000
0000
0000
0100
0000
0000
0000
0000
,
0000
0000
0000
0000
,
0001
1000
0000
0000
,
0000
0000
0000
0000
,
0010
1000
0000
0000
,
0000
0000
0000
0000
,
0010
0100
0000
0000
,
0000
0000
0001
0000
,
1000
0001
0000
1000
,
0000
0000
0010
1000
,
0000
0000
0000
0000
,
0000
0000
0000
0010
,
0000
1000
0000
0001
,
0000
0100
0000
0000
,
0001
0000
0000
0100
0000
0000
0010
0000
,
0000
1000
0000
0000
0000
0000
0000
0000
,
0010
1000
0000
0001
,
0000
0000
1000
0000
,
0010
0100
0000
0010
,
0000
0100
0000
0001
,
0000
1000
0000
0001
,
0000
1000
0000
0000
,
0010
0000
0000
1000
0000
0000
0010
0000
,
0000
0100
0000
0000
0000
0000
0000
0000
,
0001
0100
0000
0010
,
0000
0000
0000
0000
,
0000
0000
0000
0000
,
0000
0000
1000
0010
,
0000
0000
0000
1000
0000
0001
0000
0000
,
0000
0000
1000
0001
,
0000
0000
0000
0100
0000
0010
0000
0000
,
0000
0000
0100
0010
,
0000
0000
0000
1000
0000
0001
0000
0000
,
0000
0000
1000
0010
,
0000
0000
0000
1000
0000
0010
0000
0000
,
0000
0000
0100
0001
,
0000
0000
0000
0100
0000
0001
0000
0000
,
0000
1000
0000
0000
,
0010
0000
1000
0000
,
0010
0000
0000
0000
,
0000
0000
0000
0000
,
1000
0001
0000
0000
,
0100
0010
0000
0100
,
0000
0000
0010
0000
,
1000
0001
0000
0000
,
1000
0001
0000
0000
,
1000
0010
0000
0000
,
0100
0010
0000
0000
,
0100
0001
0000
0000
,
0000
0000
0000
0000
,
0000
0000
1000
0001
,
0000
0000
0000
0000
,
0000
0000
0000
0000
,
0000
1000
0000
0010
,
0000
0100
0000
0010
,
0000
0000
0000
0000
0100
0000
0000
0010
,
0000
0000
1000
0000
0000
0001
0000
0000
,
0000
0000
1000
0001
,
0000
0100
0000
0000
,
0010
0000
0100
0010
,
0000
0000
0000
1000
0000
0000
0010
0000
,
0000
0100
0000
0001
,
0000
0100
0000
0001
,
0000
0000
0000
0000
1000
0000
0000
0010
,
0000
0000
1000
0000
0000
0010
0000
0000
,
0000
0000
0100
0010
,
0000
0000
0100
0000
0000
0001
0000
0000
,
0000
0000
0000
0000
,
0000
0000
0000
0000
,
0000
1000
0000
0001
,
0000
0100
0000
0010
,
0000
0000
0100
0010
,
0000
1000
0010
0000
,
0000
1000
0000
0001
,
0000
0100
0000
0001
,
0000
0000
0000
0100
,
0000
0010
0000
0000
1000
0000
0010
0000
,
0000
0100
0000
0010
,
0000
0100
0000
0000
,
0001
1000
0000
0001
,
0000
0000
1000
0010
,
0000
0000
0000
0100
,
0000
0010
0000
0100
,
0000
0000
0000
0000
,
0010
0000
1000
0000
0000
0001
0000
0000
,
0000
0100
0000
0001
,
0000
0100
0000
0010
,
0000
1000
0010
0000
,
0000
0000
0000
0000
,
0000
1000
0000
0010
,
0000
0000
0100
0001
,
0000
0000
0100
0001
,
0000
0000
1000
0001
,
0000
1000
0000
0001
,
0000
0100
0000
0000
,
0000
0001
0000
0100
,
0000
0001
0000
0000
0000
0000
0000
0000
,
0000
0000
0100
0010
,
0000
0000
1000
0000
0000
0010
0000
0000
,
0000
0000
0000
1000
,
0000
0001
0000
0000
0100
0000
0000
0000
,
0000
0001
0100
0000
,
0010
0000
0000
0000
0100
0000
0000
0001
,
0000
0000
1000
0000
0001
0000
0000
1000
,
0000
0010
0100
0000
,
0000
0010
0100
0000
,
0001
0000
0000
0000
0100
0000
0000
0001
,
0000
1000
0000
0010
,
0000
1000
0001
0000
,
0000
0100
0001
0000
,
0100
0000
0010
0000
,
0100
0010
0000
1000
,
0001
0000
1000
0001
,
0000
0100
0010
0000
,
0100
0000
0001
0000
,
0100
0001
0000
1000
,
0010
0000
0000
1000
,
0000
0010
0000
0000
,
0000
0100
0001
0000
,
0100
0000
0001
0000
;

//--------------- dance-single - LinkDude06 ----------------
#NOTES:
     dance-single:
     LinkDude06:
     Easy:
     4:
     0.175,0.209,0,0,0:
0000
0000
0000
0000
,
0000
0000
0000
0000
,
0000
0000
0000
0000
,
0000
0000
0000
0000
,
0000
0000
0000
0000
,
0001
1000
0001
1000
,
0000
0010
0000
0000
0000
0000
0000
0100
,
0000
0001
0000
0100
,
0000
0001
0000
1000
0000
0010
0000
0000
,
0100
0010
0100
0000
,
0001
1000
0001
0000
,
0100
0000
0010
1000
,
0000
0001
0000
0000
0000
1000
0000
0000
,
0001
0000
0100
0000
0000
0000
0000
0010
,
0000
0100
0000
0010
0000
0000
1000
0000
,
0001
0100
0000
0001
,
0100
0000
0010
0000
0000
0000
0000
1000
,
0000
0001
0000
0100
0000
0001
0000
1000
,
0000
0010
0000
1000
0000
0000
0010
0000
,
0000
0100
0000
0000
0000
0000
0001
0000
,
0100
0001
0000
0000
,
0000
0000
0000
0000
,
0000
0000
1000
0000
0000
0010
0000
0000
,
0100
0001
0000
0100
,
0000
0001
0000
0000
1000
0000
0000
0000
,
0010
0000
0100
0010
,
0000
0000
1000
0001
,
0000
0000
1000
0000
0001
0000
0000
0100
,
0000
0000
0010
0100
,
0000
0001
0000
0000
1000
0000
0001
0000
,
0100
0000
0010
0100
,
0000
0010
0000
0000
1000
0000
0001
0000
,
0100
0000
0001
1000
,
0000
0010
0000
0000
0000
0000
0000
0000
,
0000
0000
0000
0000
,
1000
0001
0000
0000
,
0000
0000
0000
0000
,
0000
0000
0000
0100
,
0001
0100
0000
0000
,
0000
0000
0010
0000
,
1000
0010
0000
0000
,
0000
0000
0000
0100
,
0000
0001
0000
0100
0000
0000
0000
0000
,
0000
0000
0000
0001
,
1000
0010
0000
0000
,
0000
0000
0000
0100
,
0001
0000
1000
0000
0000
0001
0000
0000
,
0000
0000
0000
1000
,
0010
0100
0000
0000
,
0000
0000
0010
0100
,
0001
1000
0001
0100
,
0000
0000
0010
0100
,
0000
0000
0000
0000
,
0000
0000
0000
0001
,
0000
1000
0000
0001
,
0000
0100
0000
0000
,
0010
0000
0000
1000
0000
0000
0010
0000
,
0000
1000
0000
0000
0000
0000
0000
0000
,
0001
0100
0000
0001
,
0000
0000
0100
0000
,
0010
1000
0001
0100
,
0000
0001
0000
0100
,
0000
0010
0000
1000
,
0000
0010
0000
0000
,
0100
0000
0000
0001
0000
0000
1000
0000
,
0000
0001
0000
0000
0000
0000
0000
0000
,
1000
0010
0000
1000
,
0000
0010
0000
0000
0000
0000
0000
0000
,
0000
0000
0000
0000
,
0000
0000
0100
0001
,
0000
0000
1000
0000
0000
0001
0000
0000
,
0000
0000
1000
0000
0000
0010
0000
0000
,
0100
0000
0000
0001
0000
0100
0000
0001
,
0000
1000
0000
0000
0010
0000
1000
0000
,
0000
0000
0000
0001
0000
0100
0000
0010
,
0000
1000
0000
0000
0010
0000
1000
0000
,
0001
0000
0100
0000
0000
0001
0000
0100
,
0000
0010
0000
0000
1000
0000
0001
0000
,
1000
0001
0100
0000
,
0000
0000
0010
0000
0000
1000
0000
0000
,
0001
1000
0010
0000
,
0100
0000
0000
0000
,
0000
0000
0000
0000
,
0010
0100
0000
0000
,
0001
1000
0000
0001
,
0000
1000
0000
0000
0010
0000
0000
0000
,
0100
0000
0001
0000
0000
1000
0000
0000
,
0001
1000
0000
0000
,
0010
0000
0100
0000
0000
0001
0000
0000
,
0100
0000
0010
0000
0000
1000
0000
0000
,
0010
0000
1000
0000
0000
0001
0000
0000
,
0000
0000
0000
0000
,
0000
0000
0100
0001
,
0000
0000
0000
0000
,
0000
0000
0000
0000
,
0000
1000
0000
0010
,
0000
1000
0000
0001
,
0000
0000
0000
0000
0100
0000
0000
0001
,
0000
0000
0100
0000
0000
0010
0000
0000
,
0000
0000
1000
0001
,
0000
1000
0000
0000
,
0010
0000
0100
0010
,
0000
0000
0000
1000
0000
0000
0001
0000
,
0000
1000
0000
0001
,
0000
0100
0000
0010
,
0000
0000
0000
0000
0100
0000
0000
0001
,
0000
0000
1000
0000
0000
0001
0000
0000
,
0000
0000
1000
0010
,
0000
0000
0100
0000
0000
0001
0000
0000
,
0000
0000
0000
0000
,
0000
0000
0000
0000
,
0000
1000
0000
0010
,
0000
1000
0000
0010
,
0000
0000
0100
0001
,
0100
0001
1000
0000
,
0000
0010
0000
1000
,
0000
0001
0000
0100
,
0000
0000
0000
0001
,
0000
1000
0000
0000
0010
0000
1000
0000
,
0000
0001
0000
0100
,
0000
0010
0000
0000
,
0100
0010
1000
0001
,
0000
0000
1000
0001
,
0000
0000
0000
0100
,
0000
0010
0000
1000
,
0000
0000
0000
0000
,
0001
0000
1000
0000
0000
0001
0000
0000
,
0000
0100
0000
0010
,
0000
0100
0000
0001
,
0000
1000
0001
0000
,
0000
0000
0000
0000
,
0000
1000
0010
0100
,
0000
0000
0010
0100
,
0000
0000
0001
1000
,
0000
0000
0010
1000
,
0000
0010
0100
0001
,
0000
1000
0000
0000
,
0000
0001
1000
0010
,
0000
0100
0000
0000
0000
0000
0000
0000
,
0000
0000
0010
1000
,
0000
0000
0001
0000
0000
0100
0000
0000
,
0000
0000
0000
0010
,
0000
0100
0000
0000
0010
0000
0000
0000
,
0000
1000
0001
0000
,
1000
0000
0000
0000
0001
0000
0000
0100
,
0000
0000
0010
0000
1000
0000
0000
0010
,
0000
1000
0001
0000
,
0000
0100
0010
0000
,
1000
0000
0000
0000
0010
0000
0000
0100
,
0000
0001
0100
0001
,
1000
0010
1000
0000
,
0000
0010
0100
0000
,
0001
0000
1000
0000
,
0010
1000
0010
0100
,
0001
1000
0001
0100
,
0000
0010
0100
0000
,
0010
0000
1000
0000
,
0001
1000
0010
0100
,
0010
0000
0000
1000
,
0001
1000
0000
0000
,
0000
0001
0100
0010
,
1000
0000
0010
0000
;

//--------------- dance-single - LinkDude09 ----------------
#NOTES:
     dance-single:
     LinkDude09:
     Medium:
     6:
     0.258,0.388,0,0,0.002:
0000
0000
0000
0000
,
0000
0000
0000
0000
,
0000
0000
0000
0000
,
0000
0000
0000
0000
,
0000
0000
0000
0000
,
0001
0000
1000
0000
0001
0000
1000
0010
,
0000
0100
0000
0000
0000
0000
0000
0001
,
0000
1000
0010
0000
0000
0100
0010
0000
,
0100
0001
0000
1000
0000
0001
0000
0000
,
0100
0010
1000
0000
0001
0000
0000
1000
,
0001
0100
0010
0000
1000
0000
0000
0001
,
1000
0010
0000
0100
0010
1000
0001
0000
,
0000
0100
0000
0001
0100
0010
0000
0000
,
1000
0001
0100
0001
0000
0000
0000
1000
,
0010
1000
0000
0001
0000
0000
0100
0000
,
0010
0000
1000
0010
0000
1000
0001
0000
,
0100
0000
0001
1000
0000
0000
0000
0010
,
0100
0001
0000
0100
0000
0001
0000
1000
,
0010
0100
0000
0001
0000
0000
1000
0010
,
0000
1000
0000
0000
0000
0010
0100
0000
,
0001
1000
0000
0000
,
0000
0000
0000
0000
,
0000
0000
0001
0000
1000
0010
0000
0100
,
0001
1000
0001
0000
0100
0000
0010
0000
,
0100
0001
0000
1000
0010
0100
0000
0000
,
0010
0000
0000
1000
0001
1000
0001
0000
,
0000
0000
0000
0100
0010
1000
0001
0000
,
0000
1000
0001
0100
0010
1000
0000
0001
,
0000
0000
0000
0100
0010
0100
0010
1000
,
0000
0001
0000
0100
0001
1000
0010
1000
,
0000
0000
0000
0001
0100
0001
1000
0010
,
0000
1000
0000
0001
0100
0010
1000
0000
,
0010
0000
0000
0100
0001
0100
0001
1000
,
0000
0010
0000
0000
0000
0000
0000
0000
,
0000
0000
0000
0000
0000
0000
0000
0100
,
0001
1000
0001
0000
0000
0000
0000
0000
,
0000
0000
0000
0000
,
0000
0000
0000
0000
0000
1000
0010
0000
,
0100
0001
0000
0000
,
0000
0000
0000
0000
1000
0010
0000
0000
,
1000
0010
0000
0000
,
0000
0000
0000
0000
0000
0100
0001
0000
,
0000
1000
0000
0000
0000
0000
0001
0000
0000
0000
0000
0000
0000
0000
0000
0000
,
0000
0000
0000
0000
0000
1000
0010
0000
,
0100
0001
0000
0000
,
0000
0000
0000
0000
0000
1000
0001
0000
,
0100
0000
0010
0000
0000
1000
0000
0000
,
0000
0000
0000
0000
0000
0001
1000
0000
,
0010
0100
0000
0000
,
0000
0000
0010
1000
,
0001
1000
0001
0100
,
0000
0000
0010
1000
,
0000
0000
0000
0000
,
0000
0000
0000
0001
,
0000
0100
0000
0001
,
0000
0100
0000
0000
,
0010
0000
0000
1000
0000
0000
0001
0000
,
0000
0100
0000
0000
0000
0000
0000
0000
,
0010
1000
0000
0010
,
0000
0000
1000
0000
,
0001
0100
0001
1000
,
0000
0010
1000
0000
0000
0000
0001
0000
,
0000
0100
0000
0001
,
0000
1000
0000
0000
,
0010
0000
0000
0100
0000
0000
0001
0000
,
0000
0100
0000
0000
0000
0000
0000
0000
,
0010
1000
0000
0010
,
0100
0001
0000
0000
0000
0000
0000
0000
,
0000
0000
0000
0000
,
0000
0000
0000
1000
0001
0000
1000
0000
,
0000
0010
0100
0001
0000
1000
0000
0000
,
0000
0001
1000
0010
0000
1000
0000
0010
,
0100
0001
0000
1000
0010
0100
0000
0001
,
0000
0100
0000
0000
0001
1000
0010
1000
,
0000
0000
0000
0001
0100
0010
0000
1000
,
0000
0010
0000
0000
1000
0001
0100
0000
,
0010
1000
0010
0100
0000
0001
0000
0100
,
0010
1000
0000
0000
0001
1000
0001
0100
,
0010
1000
0001
1000
0010
0100
0000
0000
,
0000
0010
1000
0001
0000
0100
0000
0010
,
0100
0010
1000
0001
1000
0010
0000
0000
,
0100
0000
0000
0000
,
0000
0000
0000
0000
0000
0000
0000
0001
,
1000
0001
1000
0000
0000
0000
0000
0010
,
0100
0001
1000
0000
0000
0010
0100
0000
,
0010
0100
0000
0001
1000
0000
0000
0010
,
1000
0010
0100
0001
0000
1000
0000
0010
,
1000
0001
0100
0001
0000
0000
0000
1000
,
0010
0100
0001
0100
0000
0010
0000
1000
,
0010
1000
0001
0000
0100
0010
0000
1000
,
0010
1000
0001
0100
0000
0010
0000
0000
,
0000
0000
0000
0000
,
0000
0000
0000
1000
0001
0100
0001
0000
,
0000
0000
0000
0000
,
0000
0000
0000
0000
,
0000
0100
0000
0010
,
0000
1000
0000
0001
,
0000
0000
0000
0000
1000
0000
0000
0010
,
0000
0000
0100
0000
0000
0010
0000
0000
,
0000
0000
1000
0001
,
0000
1000
0000
0000
,
0010
0000
0100
0010
,
0000
0000
0000
1000
0000
0000
0001
0000
,
0000
0100
0000
0010
,
0000
0100
0000
0001
,
0000
0000
0000
0000
1000
0000
0000
0001
,
0000
0000
1000
0000
0000
0010
0000
0000
,
0000
0000
0100
0001
,
0000
0000
1000
0000
0010
1000
0000
0000
,
0000
0000
0000
0000
,
0000
0000
0000
0000
,
0000
0010
0000
0100
,
0000
0001
0000
1000
,
0000
0000
0010
0100
,
0010
0100
0001
0000
,
0000
1000
0000
0010
,
0000
1000
0000
0001
,
0000
0000
0000
0100
,
0000
0001
0000
0000
1000
0000
0010
0000
,
0000
1000
0000
0001
,
0000
0100
0010
0000
,
1000
0010
0100
0001
,
0000
0100
0010
1000
,
0010
0000
1000
0001
,
0000
0100
0000
0000
,
0010
0000
0000
0000
,
1000
0000
0001
1000
0000
0001
0000
0000
,
0000
0100
0000
0010
,
0000
1000
0001
0100
,
0000
0010
0100
0010
,
0000
1000
0000
0001
,
0000
1000
0010
0100
,
0000
0010
1000
0001
,
0000
0000
1000
0010
,
0100
0001
0000
0000
1000
0001
0100
0000
,
0000
0010
0100
0001
,
0000
1000
0000
0010
,
0000
1000
0010
0000
0100
0000
0001
0000
,
0000
1000
0001
0000
0000
0000
1000
0000
,
0000
0000
0010
0100
,
0000
0000
0010
0000
0100
0001
0000
0000
,
0000
0000
0000
0000
0000
1000
0010
0100
,
0000
0001
0000
1000
0001
1000
0000
0000
,
0000
0010
0100
0000
,
0010
0000
0000
0000
1000
0001
0000
0100
,
0000
0010
0100
0000
0010
0000
0000
1000
,
0000
0001
0100
0000
0010
0000
0000
0000
,
0000
0100
0001
0000
,
1000
0000
0000
0000
0001
0100
0000
0010
,
0000
1000
0010
0000
1000
0001
0100
0010
,
1000
0010
0100
0001
0100
0000
0000
0000
,
0000
0010
1000
0000
,
0001
0000
0000
0000
0100
0001
0100
0010
,
1000
0010
0100
0001
1000
0010
1000
0010
,
0100
0001
1000
0000
0010
0000
0100
0000
,
0000
0001
0100
0000
,
0001
0000
0000
0000
1000
0010
0100
0010
,
0100
0001
1000
0010
0100
0010
1000
0001
,
1000
0000
0000
0000
0000
0010
0100
0000
,
0001
1000
0000
0000
,
0000
0001
0100
0010
,
0100
0000
0010
0000
;

//--------------- dance-single - LinkDude11 ----------------
#NOTES:
     dance-single:
     LinkDude11:
     Hard:
     7:
     0.304,0.388,0,0,0.018:
0000
0000
0000
0000
,
0000
0000
0000
0000
,
0000
0000
0000
0000
,
0000
0000
0000
0000
,
0000
0000
0000
0000
,
0001
0000
1000
0000
0001
0000
1000
0010
,
0000
0100
0000
0000
0000
0000
0000
0001
,
0000
1000
0010
0000
0000
0100
0010
0000
,
0100
0001
0000
1000
0000
0001
0000
0000
,
0100
0010
1000
0000
0001
0000
0000
1000
,
0010
0100
0001
0000
1000
0000
0000
0001
,
0100
0010
0000
1000
0000
0000
0001
0000
1000
0000
0010
0000
0100
0000
0010
0000
,
0000
1000
0000
0001
0100
0001
0000
0000
,
0100
0010
1000
0001
0000
0000
0000
0100
,
0010
1000
0000
0001
0000
0000
1000
0000
,
0001
0000
0100
0010
0000
1000
0001
0000
,
0100
0000
0010
1000
0000
0000
0000
0010
,
1000
0001
0000
0100
0000
0001
0000
1000
,
0010
0100
0000
0001
0000
0000
0100
0010
,
0000
1000
0000
0000
0000
0001
0100
0000
,
0001
1000
0000
0000
,
0000
0000
0000
0000
,
0000
0000
0010
0000
1000
0001
0000
0100
,
0010
1000
0010
0000
0100
0000
0001
0000
,
1000
0001
0000
1000
0010
0100
0000
0000
,
0001
0000
0000
1000
0010
0100
0001
0000
,
0000
0000
0000
0100
0001
1000
0010
0000
,
0000
0100
0001
1000
0010
1000
0000
0010
,
0000
0000
0000
0100
0001
1000
0001
0100
,
0000
0000
0010
0000
0000
0000
1000
0000
0001
0000
1000
0000
0010
0100
0000
0001
,
0000
0000
0000
1000
0001
0100
0010
0100
,
0000
0001
0000
1000
0010
0100
0010
0000
,
1000
0000
0000
0001
1000
0001
0100
0010
,
0000
1000
0000
0000
0000
0000
0000
0000
,
0000
0000
0000
0000
0000
0000
0000
0001
,
0100
0010
1000
0000
0000
0000
0000
0000
,
0000
0001
0000
0000
,
0000
0000
0000
0000
0000
1000
0001
0000
,
0100
0000
0000
0000
0010
0000
0000
0000
0000
0000
1000
0001
0100
0000
0000
0000
,
0010
0000
0000
0000
0100
0010
0000
0000
,
1000
0000
0001
0000
0000
1000
0001
0000
,
1000
0000
0000
0000
0000
0010
0100
0000
,
0000
0001
0000
0000
0000
0000
1000
0000
0010
0000
0000
0000
0100
0000
0000
0000
,
0000
0010
0000
0000
0000
0100
0001
0000
,
1000
0000
0001
0000
0000
0100
0010
0000
,
1000
0000
0000
0000
0000
0001
1000
0000
,
0010
0000
0100
0001
0000
1000
0000
0000
,
0001
0000
0000
0000
0000
0100
0010
0000
,
1000
0000
0001
1000
0000
0010
0000
0000
,
0100
0000
0010
1000
,
0001
0100
0001
0100
,
0000
0000
0010
1000
,
0000
0000
0000
0000
,
0000
0000
0000
0001
,
0000
0000
0100
0010
0000
0000
1000
0000
,
0001
1000
0000
0000
,
0001
0000
0000
0100
0010
0000
1000
0001
,
0000
0100
0010
0000
0000
0000
0000
0000
,
1000
0010
0000
1000
,
0001
0000
0000
0100
0001
0000
0000
0000
,
1000
0010
0100
0001
,
0000
0100
0010
0000
0000
0000
1000
0000
,
0000
0000
0001
0100
0000
0000
0001
0000
,
1000
0010
0000
0000
,
1000
0000
0000
0001
0100
0000
0010
1000
,
0000
0010
0100
0000
0001
0000
0000
0000
,
1000
0001
0000
1000
,
0010
0100
0000
0000
0000
0000
0000
0000
,
0000
0000
0000
0000
,
0000
0000
0000
0001
1000
0000
0010
0000
,
0000
0100
0001
0100
0000
0001
0000
0000
,
0000
0000
1000
0010
0100
0000
0001
0000
0000
0000
1000
0000
0000
0000
0010
0000
,
1000
0010
0000
0100
0001
1000
0000
0001
,
0000
0100
0000
0000
0010
1000
0001
1000
,
0000
0000
0000
0010
0100
0001
0000
1000
,
0000
0001
0000
0000
0100
0010
0100
0000
,
0001
1000
0010
0100
0000
0010
0000
1000
,
0001
1000
0000
0000
0001
0100
0010
1000
,
0001
0100
0010
1000
0001
1000
0000
0000
,
0000
0001
0100
0010
0000
1000
0000
0001
,
0100
0010
0100
0010
1000
0001
0000
0000
,
1000
0000
0000
0000
,
0000
0000
0000
0000
0000
0000
0000
0001
,
1000
0010
0100
0000
0000
0000
0000
0001
,
1000
0010
0100
0000
0000
0010
0100
0000
,
0001
1000
0000
0001
0100
0000
0000
0010
,
1000
0001
1000
0010
0000
0100
0000
0001
,
1000
0000
0001
0000
0100
0010
0000
1000
0000
0000
0000
0000
0000
0000
0001
0000
,
1000
0010
0100
0010
0000
1000
0000
0001
,
0100
0001
0100
0000
0010
1000
0000
0001
,
0100
0010
1000
0001
0000
1000
0000
0000
,
0000
0000
0000
0000
,
0000
0000
0000
0001
0100
0010
1000
0000
,
0000
0000
0000
0000
,
0000
0000
0000
0001
,
0000
0100
0000
0010
,
1000
0010
1000
0001
,
0000
0000
0000
0000
0100
0000
0000
0001
,
1000
0000
0000
0000
0010
0000
0100
0000
0000
0000
0001
0000
0100
0000
0000
0010
,
1000
0000
0001
0100
,
0000
0001
1000
0000
,
0010
0000
1000
0001
,
0100
0010
0000
1000
0000
0010
0100
0000
,
0000
0001
0000
1000
,
0001
1000
0010
0100
,
0000
0000
0000
0000
0001
0000
0000
1000
,
0010
0000
0100
0001
0000
0100
0001
0000
,
1000
0000
0010
0100
,
0000
0000
0001
0000
1000
0010
0000
0000
,
0000
0000
0000
0000
,
0000
0000
0000
0000
,
0000
1000
0000
0010
,
0000
0100
0001
1000
,
0000
0000
0001
0100
,
0010
1000
0001
0000
,
0000
1000
0000
0010
,
0000
0000
0100
0000
0001
1000
0001
0000
,
0000
0000
0000
0100
,
0000
0010
0000
0000
0100
0001
1000
0000
,
0000
0010
0000
0100
,
0000
0000
0010
0000
1000
0001
1000
0000
,
0001
0100
0010
1000
,
0000
0001
0100
0010
,
1000
0000
0000
0000
0000
0001
1000
0000
,
0000
0000
0000
0001
0100
0010
0000
0000
,
1000
0001
0000
0000
0000
0000
0000
0000
,
0100
0000
0010
0100
0000
0010
0000
0000
,
0000
1000
0000
0001
,
0000
0000
1000
0001
0000
1000
0010
0000
,
0000
0000
0100
0000
0001
0000
1000
0010
,
0000
0000
0100
0010
0000
0100
0001
0000
,
1000
0001
0100
0010
,
0000
0000
1000
0000
0001
1000
0010
0000
,
0000
0000
0100
0001
,
1000
0001
0000
0100
0010
1000
0001
0000
,
0000
0000
1000
0000
0010
0000
0100
0010
,
0000
0000
1000
0001
0000
0000
0100
0000
,
0000
0001
0100
0000
0010
0000
1000
0001
,
0000
0100
0010
1000
0000
0001
1000
0001
,
0100
0000
0000
0000
0010
0000
1000
0001
,
0000
0000
0100
0000
0010
1000
0000
0000
,
0000
0000
0000
0000
0000
0010
1000
0001
,
0000
0100
0000
0001
1000
0010
0000
0000
,
0000
0000
0100
0000
0001
0100
0000
0000
,
0010
0000
0000
0000
1000
0001
0000
0100
,
0000
0001
1000
0000
0010
0000
0000
1000
,
0000
0001
0100
0000
0010
0000
0000
0000
,
0000
0000
1000
0000
0010
0100
0000
0000
,
0001
0000
0000
0000
1000
0001
0000
1000
,
0000
0010
0100
0000
0001
1000
0010
0100
,
0001
0100
0001
1000
0010
0100
0000
0000
,
0000
0000
0001
0000
1000
0010
0000
0000
,
1000
0000
0000
0000
0010
0100
0001
1000
,
0001
0100
0010
1000
0001
1000
0010
0100
,
0001
1000
0001
0000
0100
0000
0010
0100
,
0000
0000
0001
0000
1000
0010
0000
0000
,
0100
0000
0000
0000
0010
1000
0001
1000
,
0001
0100
0010
1000
0001
0100
0010
1000
,
0001
1000
0000
0000
0000
0001
0100
0000
,
0010
1000
0000
0000
,
0000
0001
0100
0010
,
0100
0010
0000
0000
1000
0000
0000
0000
;

//--------------- dance-single - LinkDude12 ----------------
#NOTES:
     dance-single:
     LinkDude12:
     Challenge:
     8:
     0.338,0.388,0,0,0.03:
0000
0000
0000
0000
,
0000
0000
0000
0000
,
0000
0000
0000
0000
,
0000
0000
0000
0000
,
0000
0000
0000
0000
,
0001
0000
1000
0000
0001
0000
1000
0010
,
0000
0100
0000
0000
0000
0000
0000
0001
,
0000
1000
0010
0000
0000
0100
0010
0000
,
1000
0001
0000
1000
0000
0010
0000
0000
,
0100
0001
1000
0000
0010
0000
0000
0100
,
0010
0100
0001
0000
1000
0000
0000
0001
,
0100
0001
0000
0100
0000
0000
0001
0000
0100
0000
0010
0000
1000
0000
0001
0000
,
0000
1000
0000
0010
0100
0010
0000
0000
,
1000
0001
0100
0010
0000
0000
0000
1000
,
0001
1000
0000
0010
0000
0000
0100
0000
,
0010
0000
1000
0001
0000
0100
0010
0000
,
0100
0000
0001
1000
0000
0000
0000
0001
,
0100
0010
0000
1000
0000
0001
0000
0100
,
0010
1000
0000
0010
0000
0000
1000
0001
,
0000
0100
0000
0000
0000
0010
1000
0000
,
0001
0100
0010
1000
,
0010
1000
0001
0100
,
0000
0000
0010
0000
1000
0001
0000
0100
,
0001
0100
0010
0000
1000
0000
0001
0000
,
0100
0010
0000
1000
0010
0100
0000
0000
,
0001
0000
0000
1000
0010
1000
0001
0000
,
0100
0000
0000
0010
1000
0010
0100
0000
,
0000
0001
1000
0010
1000
0001
0000
0100
,
0000
0000
0000
0001
1000
0010
0100
0001
,
0000
0000
0100
0000
0000
0000
0010
0000
1000
0000
0010
0000
0100
0010
0000
0100
,
0000
0000
0000
0010
0100
0001
1000
0010
,
0000
1000
0000
0010
0100
0001
1000
0000
,
0010
0000
0000
0100
0001
1000
0001
1000
,
0000
0010
0000
0000
0100
0000
0001
0000
,
1000
0000
0010
0000
0100
0000
0000
0010
,
0100
0001
1000
0000
0010
0000
0100
0000
,
0001
1000
0010
0100
,
0000
0000
0000
0000
0000
0010
1000
0000
,
0001
0000
0000
0000
1000
0000
0000
0000
0000
0000
0010
0100
0010
0000
0000
0000
,
1000
0000
0000
0000
0001
0100
0000
0000
,
0010
0000
0000
0000
1000
0000
0000
0000
0000
0000
0010
1000
0010
0000
0000
0000
,
0100
0000
0000
0000
0000
0010
1000
0000
,
0000
0001
0000
0000
0000
0000
0100
0000
0010
0000
0000
0000
0100
0000
0000
0000
,
0000
0001
0000
0000
0000
1000
0010
0000
,
0100
0000
0000
0000
0010
0000
0000
0000
0000
0000
1000
0001
1000
0000
0000
0000
,
0010
0000
0000
0000
0000
1000
0001
0000
,
1000
0000
0001
0100
0000
0010
0000
0000
,
1000
0000
0000
0000
0000
0001
0100
0000
,
0010
0000
1000
0010
0000
1000
0000
0000
,
0001
0000
0100
0010
,
1000
0001
0100
0010
,
0000
0000
0100
0010
,
1000
0001
0100
0010
,
1000
0001
0000
0100
,
0000
0000
0001
1000
0000
0000
0010
0000
,
1000
0001
0000
0000
,
0100
0000
0000
0010
1000
0000
0010
0100
,
0000
0001
1000
0000
0000
0000
0000
0000
,
0010
1000
0000
0001
,
0100
0000
0000
0010
1000
0000
0000
0000
,
0010
0100
0001
0100
,
0000
0010
1000
0000
0000
0000
0001
0000
,
0000
0000
0100
0001
0000
0000
1000
0000
,
0010
0100
0000
0000
,
0001
0000
0000
1000
0010
0000
1000
0010
,
0000
0000
0100
0000
0010
0000
0000
1000
0010
0000
0000
0000
0000
0000
0000
0000
,
0100
0001
0000
1000
,
0010
1000
0000
0000
0010
0000
0100
0000
,
0001
1000
0010
0100
,
0000
0000
0000
0001
0100
0000
0001
0000
,
0000
1000
0010
0100
0000
0001
0000
0000
,
0000
0000
0100
0010
0100
0000
0010
0000
0000
0000
1000
0000
0000
0000
0001
0000
,
1000
0010
0000
0100
0001
1000
0000
0010
,
0000
0100
0000
0000
0010
1000
0001
1000
,
0000
0010
0000
0100
0001
1000
0000
0001
,
0000
0100
0000
0000
0010
0100
0001
0000
,
1000
0010
0100
0010
0000
1000
0000
0001
,
0100
0010
0000
0000
1000
0001
1000
0010
,
0100
0010
1000
0001
0100
0010
0000
0000
,
0000
0000
1000
0001
1000
0000
0001
0000
0000
0000
0100
0000
0000
0000
0010
0000
,
1000
0001
0100
0010
0100
0010
0000
0000
,
1000
0001
0100
0010
,
1000
0000
0001
0000
0100
0000
0000
0010
,
1000
0010
1000
0000
0000
0000
0000
0001
,
0100
0010
1000
0000
0000
0001
0100
0000
,
0001
1000
0000
0010
1000
0000
0000
0001
,
0100
0010
1000
0010
0000
0100
0000
0001
,
0100
0000
0010
0000
1000
0010
0000
1000
0000
0000
0000
0000
0000
0000
0010
0000
,
1000
0010
0100
0001
0000
1000
0000
0010
,
1000
0001
0100
0000
0001
1000
0000
0010
,
0100
0001
1000
0010
0000
1000
0000
0000
,
0010
0100
0001
1000
,
0010
0000
0000
0100
0001
0100
0010
0000
,
1000
0010
0100
0001
,
1000
0010
0100
0001
,
0000
1000
0000
0001
,
1000
0010
1000
0010
,
0000
0000
0000
0000
0100
0000
0000
0001
,
1000
0000
0000
0000
0010
0000
0100
0000
0000
0000
0001
0000
0100
0000
0000
0010
,
0100
0000
0010
0100
,
0000
0001
1000
0000
,
0010
0000
0100
0001
,
0100
0001
0000
1000
0000
0010
0100
0000
,
0000
0001
0000
1000
,
0010
1000
0001
0100
,
0000
0000
0000
0000
0010
0000
0000
1000
,
0010
0000
0000
0000
0100
0000
0001
0000
0000
0000
0100
0000
0001
0000
0000
1000
,
0001
0000
0100
0010
,
0000
0000
1000
0000
0010
0100
0000
0000
,
0001
0100
0010
1000
,
0001
0100
0001
1000
,
0000
0010
0000
1000
,
0000
0001
0100
0010
,
0000
0000
1000
0001
,
0100
0010
0100
0000
,
0000
0010
0000
1000
,
0000
0000
0001
0000
0100
0010
1000
0000
,
0000
0000
0000
0001
,
0000
0100
0000
0010
0100
0010
1000
0000
,
0000
0001
0000
0100
,
0000
0000
0010
0000
1000
0001
1000
0000
,
0001
0100
0010
1000
,
0000
0001
0100
0010
,
0100
0000
0000
0000
0001
1000
0010
0000
,
0000
0000
0100
0010
1000
0001
0100
0000
,
0010
0100
0000
0000
0000
0000
0000
0000
,
0001
0000
1000
0010
0000
0100
0000
0000
,
0000
0010
0000
1000
,
0000
0001
1000
0010
,
0000
0100
0001
1000
,
0000
0000
0001
0100
0000
0010
0100
0000
,
0001
1000
0010
0100
,
0000
0000
0001
0000
1000
0010
0100
0000
,
0000
0000
0010
0100
,
0001
1000
0000
0010
0100
0001
1000
0000
,
0000
0000
0010
0000
1000
0000
0010
0100
,
0000
0000
0001
1000
0000
0000
0010
0000
,
0000
0100
0001
0000
0100
0000
0001
1000
,
0000
0000
0010
0000
0100
0000
0001
0000
0000
0000
1000
0000
0010
0000
0100
0001
,
0100
0000
0000
0000
0010
0000
1000
0010
,
0000
0000
0100
0000
0001
1000
0000
0000
,
0000
0000
0000
0000
0000
0010
1000
0001
,
0000
0100
0000
0010
1000
0010
0000
0000
,
0000
0000
0100
0000
0001
0100
0000
0000
,
0010
0000
0000
0000
1000
0001
0000
0100
,
0000
0001
1000
0000
0010
0000
0000
0100
,
0000
0001
0100
0000
0010
0000
0000
0000
,
0000
0000
1000
0000
0001
0100
0000
0000
,
0010
0000
0000
0000
1000
0010
0000
1000
,
0000
0001
0100
0000
0010
1000
0001
0100
,
0010
0100
0010
1000
0001
0100
0000
0000
,
0000
0000
0010
0000
1000
0001
0000
0000
,
0100
0000
0000
0000
0001
0100
0010
1000
,
0001
0100
0010
1000
0001
1000
0010
0100
,
0010
1000
0001
0000
0100
0000
0010
0100
,
0000
0000
0001
0000
1000
0010
0000
0000
,
0100
0000
0000
0000
0010
1000
0001
0100
,
0010
0100
0001
1000
0001
0100
0010
1000
,
0001
1000
0000
0000
0000
0010
0100
0000
,
0001
1000
0000
0000
,
0000
0010
0100
0010
,
0100
0001
0000
0000
1000
0000
0000
0000
;

//--------------- dance-double - LinkDubs05 ----------------
#NOTES:
     dance-double:
     LinkDubs05:
     Beginner:
     3:
     0.144,0.179,0,0,0:
00000000
00000000
00000000
00000000
,
00000000
00000000
00000000
00000000
,
00000000
00000000
00000000
00000000
,
00000000
00000000
00000000
00000000
,
00000000
00000000
00000000
00000000
,
00000001
00000000
00000010
00000000
00000000
00000000
00000000
00000001
,
00000000
00000010
00000000
00000000
00000000
00000000
00000000
00000000
,
00000100
00000010
00000000
00000000
,
00000000
00000100
00000000
00010000
00000000
00000000
00000000
00000000
,
00000100
00000000
00010000
00000000
00000000
00000000
00000000
00000100
,
00000000
00001000
00000000
00000000
00000000
00000000
00000000
00000000
,
00000001
00001000
00000000
00000000
,
00000000
00000001
00000000
00000010
00000000
00000000
00000000
00000000
,
00000001
00000000
00000010
00000000
00000000
00000000
00000000
00000001
,
00000000
00000100
00000000
00000000
00000000
00000000
00000000
00000000
,
00000010
00001000
00000000
00000000
,
00000100
00000000
00010000
00000000
00000000
00000000
00000000
00001000
,
00000000
00100000
00000000
00000000
00000000
00010000
00000000
01000000
,
00000000
00000000
00000000
00100000
00000000
00000000
00000000
00000000
,
00000000
10000000
00000000
00000000
00000000
00000000
01000000
00000000
,
00000000
10000000
00000000
00000000
,
00000000
00000000
00000000
00000000
,
00000000
00000000
01000000
00000000
00000000
10000000
00000000
00000000
,
01000000
00000000
00000000
00100000
,
00000000
01000000
00000000
00000000
00100000
00000000
00000000
00000000
,
00001000
00000000
00100000
00001000
,
00000000
00000000
00100000
00010000
,
00000000
00000000
00000000
00000000
00000000
10000000
00000000
00010000
,
00000000
00000000
10000000
01000000
,
00000000
00000000
10000000
01000000
,
00000000
00000000
10000000
00100000
,
00000000
00000000
01000000
00010000
,
00000000
00000000
00100000
00001000
,
00000000
00000000
00000000
00000000
,
00000000
00000000
00000000
00000000
,
00010000
00000100
00000000
00000000
,
00000000
00000000
00000000
00000000
,
00000000
00000000
00000000
00000000
,
00001000
00000010
00000000
00000000
,
00000000
00000000
00000100
00000000
,
00000001
00000010
00000000
00000000
,
00000000
00000000
00000000
00000001
,
00000000
00000000
00000000
00000100
00000000
00000000
00000000
00000000
,
00000000
00000000
00000000
00000000
,
00000001
00000100
00000000
00000000
,
00000000
00000000
00000000
00000000
,
00000010
00000100
00000000
00000000
,
00000000
00000000
00000000
00000000
,
00000010
00010000
00000000
00000000
,
00000000
00000000
00000010
00000000
,
00010000
00000010
00000000
00001000
,
00000000
00000000
00000001
00001000
,
00000000
00000000
00000000
00000000
,
00000000
00000000
00000000
00000001
,
00000000
00000100
00000000
00000001
,
00000000
00000100
00000000
00000000
,
00000001
00000000
00000000
00000010
00000000
00000000
00000100
00000000
,
00000000
00001000
00000000
00000000
00000000
00000000
00000000
00000000
,
00000010
00010000
00000000
00001000
,
00000000
00000000
01000000
00000000
,
00010000
00100000
00000000
01000000
,
00000000
10000000
00000000
00100000
,
00000000
10000000
00000000
00100000
,
00000000
10000000
00000000
00000000
,
00100000
00000000
00000000
01000000
00000000
00000000
00100000
00000000
,
00000000
01000000
00000000
00000000
00000000
00000000
00000000
00000000
,
00001000
01000000
00000000
00001000
,
00000000
00000000
00000000
00000000
,
00000000
00000000
00000000
00000000
,
00000000
00000000
01000000
00010000
,
00000000
00000000
00000000
10000000
00000000
00010000
00000000
00000000
,
00000000
00000000
10000000
00100000
,
00000000
00000000
00000000
10000000
00000000
00100000
00000000
00000000
,
00000000
00000000
10000000
01000000
,
00000000
00000000
00000000
00100000
00000000
00010000
00000000
00000000
,
00000000
00000000
01000000
00001000
,
00000000
00000000
00000000
00010000
00000000
00000010
00000000
00000000
,
00000000
00000000
00001000
00000100
,
00000000
00000000
00000000
00000010
00000000
00000001
00000000
00000000
,
00000000
00000100
00000000
00000000
,
00000001
00000000
00000010
00000000
,
00000100
00000000
00000000
00000000
,
00000000
00000000
00000000
00000000
,
00000010
00000100
00000000
00000000
,
00010000
00000010
00000000
00010000
,
00000000
00000000
00000010
00000000
,
00000100
00000001
00000000
00000000
,
00000100
00000001
00000000
00000000
,
00001000
00000001
00000000
00000000
,
00001000
00000001
00000000
00000000
,
00000010
00000001
00000000
00000000
,
00000000
00000000
00000000
00000000
,
00000000
00000000
00001000
00000100
,
00000000
00000000
00000000
00000000
,
00000000
00000000
00000000
00000000
,
00000000
00010000
00000000
00001000
,
00000000
00100000
00000000
00010000
,
00000000
00000000
00000000
00000000
10000000
00000000
00000000
01000000
,
00000000
00000000
10000000
00000000
00000000
01000000
00000000
00000000
,
00000000
00000000
00100000
01000000
,
00000000
00100000
00000000
00000000
,
00001000
00000000
01000000
00001000
,
00000000
00000000
00000000
01000000
00000000
00000000
00100000
00000000
,
00000000
10000000
00000000
00100000
,
00000000
10000000
00000000
00010000
,
00000000
00000000
00000000
00000000
10000000
00000000
00000000
00010000
,
00000000
00000000
10000000
00000000
00000000
01000000
00000000
00000000
,
00000000
00000000
10000000
00010000
,
00000000
00000000
00100000
00000000
00000000
00001000
00000000
00000000
,
00000000
00000000
00000000
00000000
,
00000000
00000000
00000000
00000000
,
00000000
00010000
00000000
00000100
,
00000000
00001000
00000000
00000001
,
00000000
00000000
00000010
00000001
,
00000000
00000100
00000010
00000000
,
00000000
00000100
00000000
00000010
,
00000000
00010000
00000000
00000100
,
00000000
00000000
00000000
00010000
,
00000000
00000100
00000000
00000000
00000010
00000000
00000001
00000000
,
00000000
00000010
00000000
00000001
,
00000000
00001000
00000000
00000000
,
00000001
00001000
00000000
00000001
,
00000000
00000000
00000100
00000001
,
00000000
00000000
00000000
00001000
,
00000000
00000010
00000000
00010000
,
00000000
00000000
00000000
00000000
,
00001000
00000000
01000000
00000000
00000000
00010000
00000000
00000000
,
00000000
10000000
00000000
00100000
,
00000000
10000000
00000000
00100000
,
00000000
01000000
00100000
00000000
,
00000000
00000000
00000000
00000000
,
00000000
01000000
00000000
00001000
,
00000000
00000000
00100000
00001000
,
00000000
00000000
00100000
01000000
,
00000000
00000000
10000000
01000000
,
00000000
10000000
00000000
00010000
,
00000000
10000000
00000000
00000000
,
00000000
00010000
00000000
10000000
,
00000000
00100000
00000000
00000000
00000000
00000000
00000000
00000000
,
00000000
00000000
10000000
00010000
,
00000000
00000000
01000000
00000000
00000000
00001000
00000000
00000000
,
00000000
00000000
00000000
00010000
,
00000000
00000010
00000000
00000000
00001000
00000000
00000000
00000000
,
00000000
00000001
00000100
00000000
,
00000001
00000000
00000000
00000000
00000010
00000000
00000000
00000100
,
00000000
00000000
00010000
00000000
00000100
00000000
00000000
00001000
,
00000000
00000001
00000100
00000000
,
00000000
00000001
00000100
00000000
,
00000010
00000000
00000000
00000000
00010000
00000000
00000000
00000010
,
00000000
00001000
00000000
00000001
,
00000000
00000010
00000001
00000000
,
00000000
00000100
00000010
00000000
,
00001000
00000000
00000100
00000000
,
00010000
00001000
00000000
00100000
,
00010000
00000000
01000000
00100000
,
00000000
10000000
01000000
00000000
,
00100000
00000000
00001000
00000000
,
00100000
00010000
00000000
10000000
,
00100000
00000000
00000000
10000000
,
00000000
00100000
00000000
00000000
,
00000000
01000000
00001000
00000000
,
01000000
00000000
00010000
00000000
;

//--------------- dance-double - LinkDubs06 ----------------
#NOTES:
     dance-double:
     LinkDubs06:
     Easy:
     4:
     0.175,0.209,0,0,0:
00000000
00000000
00000000
00000000
,
00000000
00000000
00000000
00000000
,
00000000
00000000
00000000
00000000
,
00000000
00000000
00000000
00000000
,
00000000
00000000
00000000
00000000
,
00000001
00000010
00000001
00000010
,
00000000
00000100
00000000
00000000
00000000
00000000
00000000
00000010
,
00000000
00000100
00000000
00010000
,
00000000
00000100
00000000
00010000
00000000
00000100
00000000
00000000
,
00001000
00000001
00001000
00000000
,
00000001
00000010
00000001
00000000
,
00000010
00000000
00000001
00000100
,
00000000
00000010
00000000
00000000
00000000
00001000
00000000
00000000
,
00000100
00000000
00010000
00000000
00000000
00000000
00000000
00001000
,
00000000
00100000
00000000
00010000
00000000
00000000
01000000
00000000
,
00100000
10000000
00000000
01000000
,
10000000
00000000
01000000
00000000
00000000
00000000
00000000
10000000
,
00000000
01000000
00000000
00100000
00000000
01000000
00000000
00100000
,
00000000
00001000
00000000
00100000
00000000
00000000
00001000
00000000
,
00000000
00100000
00000000
00000000
00000000
00000000
00010000
00000000
,
10000000
00010000
00000000
00000000
,
00000000
00000000
00000000
00000000
,
00000000
00000000
10000000
00000000
00000000
01000000
00000000
00000000
,
10000000
01000000
00000000
10000000
,
00000000
00100000
00000000
00000000
01000000
00000000
00000000
00000000
,
00010000
00000000
00100000
00001000
,
00000000
00000000
00010000
00000100
,
00000000
00000000
00001000
00000000
00000010
00000000
00000000
00000100
,
00000000
00000000
00000001
00000010
,
00000000
00000001
00000000
00000000
00000010
00000000
00000100
00000000
,
00000010
00000000
00000100
00010000
,
00000000
00000010
00000000
00000000
00010000
00000000
00000010
00000000
,
00000100
00000000
00000001
00000100
,
00000000
00000001
00000000
00000000
00000000
00000000
00000000
00000000
,
00000000
00000000
00000000
00000000
,
00001000
00000001
00000000
00000000
,
00000000
00000000
00000000
00000000
,
00000000
00000000
00000000
00001000
,
00000001
00000010
00000000
00000000
,
00000000
00000000
00000001
00000000
,
00001000
00000100
00000000
00000000
,
00000000
00000000
00000000
00010000
,
00000000
00001000
00000000
00100000
00000000
00000000
00000000
00000000
,
00000000
00000000
00000000
00010000
,
10000000
01000000
00000000
00000000
,
00000000
00000000
00000000
10000000
,
01000000
00000000
00100000
00000000
00000000
01000000
00000000
00000000
,
00000000
00000000
00000000
00100000
,
00001000
01000000
00000000
00000000
,
00000000
00000000
00001000
01000000
,
00100000
10000000
00100000
10000000
,
00000000
00000000
00010000
10000000
,
00000000
00000000
00000000
00000000
,
00000000
00000000
00000000
00010000
,
00000000
10000000
00000000
01000000
,
00000000
10000000
00000000
00000000
,
00010000
00000000
00000000
00100000
00000000
00000000
00001000
00000000
,
00000000
00010000
00000000
00000000
00000000
00000000
00000000
00000000
,
00000100
00001000
00000000
00000001
,
00000000
00000000
00000010
00000000
,
00000001
00000010
00000100
00010000
,
00000000
00000100
00000000
00001000
,
00000000
00000001
00000000
00000100
,
00000000
00000001
00000000
00000000
,
00000100
00000000
00000000
00000010
00000000
00000000
00010000
00000000
,
00000000
00000010
00000000
00000000
00000000
00000000
00000000
00000000
,
00001000
00000001
00000000
00000010
,
00000000
00000001
00000000
00000000
00000000
00000000
00000000
00000000
,
00000000
00000000
00000000
00000000
,
00000000
00000000
00000100
00000010
,
00000000
00000000
00001000
00000000
00000000
00000100
00000000
00000000
,
00000000
00000000
00010000
00000000
00000000
00001000
00000000
00000000
,
00100000
00000000
00000000
00010000
00000000
01000000
00000000
00100000
,
00000000
10000000
00000000
00000000
01000000
00000000
00100000
00000000
,
00000000
00000000
00000000
00001000
00000000
00100000
00000000
00010000
,
00000000
10000000
00000000
00000000
00100000
00000000
10000000
00000000
,
00100000
00000000
01000000
00000000
00000000
00001000
00000000
01000000
,
00000000
00010000
00000000
00000000
10000000
00000000
01000000
00000000
,
10000000
00100000
01000000
00000000
,
00000000
00000000
00010000
00000000
00000000
00100000
00000000
00000000
,
00001000
00010000
00000100
00000000
,
00001000
00000000
00000000
00000000
,
00000000
00000000
00000000
00000000
,
00000010
00000100
00000000
00000000
,
00000001
00000010
00000000
00000100
,
00000000
00001000
00000000
00000000
00000001
00000000
00000000
00000000
,
00000100
00000000
00000010
00000000
00000000
00010000
00000000
00000000
,
00000100
00010000
00000000
00000000
,
00000010
00000000
00000100
00000000
00000000
00000001
00000000
00000000
,
00000010
00000000
00000001
00000000
00000000
00001000
00000000
00000000
,
00000001
00000000
00000010
00000000
00000000
00000001
00000000
00000000
,
00000000
00000000
00000000
00000000
,
00000000
00000000
00000100
00000010
,
00000000
00000000
00000000
00000000
,
00000000
00000000
00000000
00000000
,
00000000
00010000
00000000
00001000
,
00000000
01000000
00000000
00100000
,
00000000
00000000
00000000
00000000
10000000
00000000
00000000
01000000
,
00000000
00000000
10000000
00000000
00000000
01000000
00000000
00000000
,
00000000
00000000
00100000
00010000
,
00000000
10000000
00000000
00000000
,
00100000
00000000
01000000
00001000
,
00000000
00000000
00000000
00100000
00000000
00000000
00001000
00000000
,
00000000
01000000
00000000
00100000
,
00000000
10000000
00000000
01000000
,
00000000
00000000
00000000
00000000
10000000
00000000
00000000
00010000
,
00000000
00000000
10000000
00000000
00000000
01000000
00000000
00000000
,
00000000
00000000
10000000
00100000
,
00000000
00000000
01000000
00000000
00000000
00001000
00000000
00000000
,
00000000
00000000
00000000
00000000
,
00000000
00000000
00000000
00000000
,
00000000
00010000
00000000
00000010
,
00000000
00000100
00000000
00000001
,
00000000
00000000
00000010
00000001
,
00000010
00000100
00010000
00000000
,
00000000
00000100
00000000
00000001
,
00000000
00000100
00000000
00001000
,
00000000
00000000
00000000
00000100
,
00000000
00000010
00000000
00000000
00000001
00000000
00000010
00000000
,
00000000
00010000
00000000
00000010
,
00000000
00000001
00000000
00000000
,
00001000
00000001
00001000
00000100
,
00000000
00000000
00010000
00001000
,
00000000
00000000
00000000
00100000
,
00000000
00010000
00000000
10000000
,
00000000
00000000
00000000
00000000
,
01000000
00000000
00100000
00000000
00000000
00001000
00000000
00000000
,
00000000
00100000
00000000
10000000
,
00000000
00100000
00000000
00010000
,
00000000
00100000
01000000
00000000
,
00000000
00000000
00000000
00000000
,
00000000
10000000
01000000
00001000
,
00000000
00000000
01000000
10000000
,
00000000
00000000
00010000
10000000
,
00000000
00000000
00010000
00100000
,
00000000
00001000
00010000
00000100
,
00000000
00001000
00000000
00000000
,
00000000
00000001
00000100
00000001
,
00000000
00000100
00000000
00000000
00000000
00000000
00000000
00000000
,
00000000
00000000
00000010
00000100
,
00000000
00000000
00000010
00000000
00000000
00010000
00000000
00000000
,
00000000
00000000
00000000
00000010
,
00000000
00010000
00000000
00000000
00000010
00000000
00000000
00000000
,
00000000
00001000
00000001
00000000
,
00001000
00000000
00000000
00000000
00000001
00000000
00000000
00000100
,
00000000
00000000
00000001
00000000
00000100
00000000
00000000
00000001
,
00000000
00000010
00000100
00000000
,
00000000
00001000
00000010
00000000
,
00010000
00000000
00000000
00000000
00001000
00000000
00000000
01000000
,
00000000
00010000
00100000
01000000
,
10000000
00100000
10000000
00000000
,
00000000
00100000
10000000
00000000
,
00100000
00000000
01000000
00000000
,
00100000
01000000
00001000
01000000
,
00001000
01000000
00010000
10000000
,
00000000
00010000
10000000
00000000
,
00100000
00000000
10000000
00000000
,
00100000
10000000
01000000
00100000
,
00010000
00000000
00000000
01000000
,
00001000
00010000
00000000
00000000
,
00000000
00000010
00001000
00000100
,
00000010
00000000
00000001
00000000
;

//--------------- dance-double - LinkDubs09 ----------------
#NOTES:
     dance-double:
     LinkDubs09:
     Medium:
     6:
     0.258,0.388,0,0,0.002:
00000000
00000000
00000000
00000000
,
00000000
00000000
00000000
00000000
,
00000000
00000000
00000000
00000000
,
00000000
00000000
00000000
00000000
,
00000000
00000000
00000000
00000000
,
00000001
00000000
00000100
00000000
00000010
00000000
00010000
00000010
,
00000000
00001000
00000000
00000000
00000000
00000000
00000000
00000001
,
00000000
00000010
00000001
00000000
00000000
00000010
00000100
00000000
,
00010000
00000100
00000000
00001000
00000000
00000001
00000000
00000000
,
00000100
00000001
00000010
00000000
00000100
00000000
00000000
00001000
,
00000010
00010000
00001000
00000000
01000000
00000000
00000000
00010000
,
00100000
01000000
00000000
10000000
00100000
01000000
00001000
00000000
,
00000000
01000000
00000000
00010000
10000000
01000000
00000000
00000000
,
10000000
01000000
00100000
00001000
00000000
00000000
00000000
00100000
,
00010000
10000000
00000000
00100000
00000000
00000000
10000000
00000000
,
01000000
00000000
00100000
00010000
00000000
01000000
00001000
00000000
,
00010000
00000000
00000010
00001000
00000000
00000000
00000000
00000100
,
00000010
00000001
00000000
00000010
00000000
00000100
00000000
00001000
,
00000001
00000100
00000000
00000010
00000000
00000000
00010000
00000100
,
00000000
00010000
00000000
00000000
00000000
00000010
00000100
00000000
,
00000001
00000010
00000000
00000000
,
00000000
00000000
00000000
00000000
,
00000000
00000000
00000001
00000000
00001000
00000001
00000000
00000010
,
00000001
00000100
00000010
00000000
00010000
00000000
00001000
00000000
,
01000000
00100000
00000000
10000000
01000000
10000000
00000000
00000000
,
01000000
00000000
00000000
00100000
00010000
10000000
00100000
00000000
,
00000000
00000000
00000000
01000000
00001000
00100000
00001000
00000000
,
00000000
01000000
00100000
10000000
01000000
10000000
00000000
00010000
,
00000000
00000000
00000000
10000000
01000000
10000000
00100000
01000000
,
00000000
00001000
00000000
00010000
00000010
00000100
00000001
00000010
,
00000000
00000000
00000000
00000001
00000100
00000010
00001000
00000001
,
00000000
00000010
00000000
00000100
00010000
00000010
00010000
00000000
,
00000100
00000000
00000000
00000010
00000001
00000100
00000001
00001000
,
00000000
00000001
00000000
00000000
00000000
00000000
00000000
00000000
,
00000000
00000000
00000000
00000000
00000000
00000000
00000000
00000100
,
00000001
00000010
00000100
00000000
00000000
00000000
00000000
00000000
,
00000000
00000000
00000000
00000000
,
00000000
00000000
00000000
00000000
00000000
00010000
00001000
00000000
,
00100000
01000000
00000000
00000000
,
00000000
00000000
00000000
00000000
10000000
00100000
00000000
00000000
,
10000000
00100000
00000000
00000000
,
00000000
00000000
00000000
00000000
00000000
01000000
00010000
00000000
,
00000000
10000000
00000000
00000000
00000000
00000000
01000000
00000000
00000000
00000000
00000000
00000000
00000000
00000000
00000000
00000000
,
00000000
00000000
00000000
00000000
00000000
00100000
00001000
00000000
,
01000000
00001000
00000000
00000000
,
00000000
00000000
00000000
00000000
00000000
00100000
01000000
00000000
,
10000000
00000000
00100000
00000000
00000000
10000000
00000000
00000000
,
00000000
00000000
00000000
00000000
00000000
00010000
10000000
00000000
,
00100000
10000000
00000000
00000000
,
00000000
00000000
01000000
00100000
,
00001000
00010000
00000100
00000010
,
00000000
00000000
00000001
00000100
,
00000000
00000000
00000000
00000000
,
00000000
00000000
00000000
00000001
,
00000000
00000010
00000000
00000100
,
00000000
00010000
00000000
00000000
,
00000100
00000000
00000000
00000001
00000000
00000000
00000100
00000000
,
00000000
00001000
00000000
00000000
00000000
00000000
00000000
00000000
,
00000100
00000010
00000000
00000001
,
00000000
00000000
00000010
00000000
,
00010000
00000010
00000001
00001000
,
00000000
00000001
00001000
00000000
00000000
00000000
00000100
00000000
,
00000000
00010000
00000000
00001000
,
00000000
00100000
00000000
00000000
,
00010000
00000000
00000000
10000000
00000000
00000000
01000000
00000000
,
00000000
00100000
00000000
00000000
00000000
00000000
00000000
00000000
,
00001000
00100000
00000000
10000000
,
00100000
00010000
00000000
00000000
00000000
00000000
00000000
00000000
,
00000000
00000000
00000000
00000000
,
00000000
00000000
00000000
00100000
01000000
00000000
10000000
00000000
,
00000000
01000000
00001000
01000000
00000000
10000000
00000000
00000000
,
00000000
00010000
10000000
00010000
00000000
00100000
00000000
00001000
,
00010000
00000100
00000000
00001000
00000001
00000100
00000000
00000010
,
00000000
00010000
00000000
00000000
00000010
00000001
00000010
00001000
,
00000000
00000000
00000000
00000010
00000100
00000001
00000000
00000100
,
00000000
00010000
00000000
00000000
00000100
00000001
00001000
00000000
,
00000001
00001000
00000010
00010000
00000000
00001000
00000000
01000000
,
00010000
10000000
00000000
00000000
00100000
01000000
00001000
01000000
,
10000000
01000000
00010000
01000000
00100000
10000000
00000000
00000000
,
00000000
00100000
00001000
00100000
00000000
10000000
00000000
00010000
,
10000000
00010000
01000000
00001000
00010000
00000010
00000000
00000000
,
00001000
00000000
00000000
00000000
,
00000000
00000000
00000000
00000000
00000000
00000000
00000000
00000001
,
00000100
00000001
00000100
00000000
00000000
00000000
00000000
00000010
,
00000100
00000010
00010000
00000000
00000000
00000010
00010000
00000000
,
00000010
00001000
00000000
00000001
00001000
00000000
00000000
00000001
,
00000100
00000001
00000100
00000001
00000000
00000010
00000000
00000100
,
00001000
00000010
00010000
00001000
00000000
00000000
00000000
01000000
,
00010000
00100000
01000000
10000000
00000000
00100000
00000000
10000000
,
00100000
10000000
00100000
00000000
01000000
00100000
00000000
01000000
,
00001000
01000000
00001000
01000000
00000000
00010000
00000000
00000000
,
00000000
00000000
00000000
00000000
,
00000000
00000000
00000000
10000000
00010000
10000000
00100000
00000000
,
00000000
00000000
00000000
00000000
,
00000000
00000000
00000000
00000000
,
00000000
10000000
00000000
00100000
,
00000000
10000000
00000000
01000000
,
00000000
00000000
00000000
00000000
00100000
00000000
00000000
00010000
,
00000000
00000000
01000000
00000000
00000000
00001000
00000000
00000000
,
00000000
00000000
00010000
00000010
,
00000000
00001000
00000000
00000000
,
00000100
00000000
00000010
00000001
,
00000000
00000000
00000000
00000100
00000000
00000000
00000001
00000000
,
00000000
00000100
00000000
00000010
,
00000000
00000100
00000000
00000010
,
00000000
00000000
00000000
00000000
00010000
00000000
00000000
00000100
,
00000000
00000000
00010000
00000000
00000000
00000100
00000000
00000000
,
00000000
00000000
00000010
00000001
,
00000000
00000000
00000010
00000000
00000001
00001000
00000000
00000000
,
00000000
00000000
00000000
00000000
,
00000000
00000000
00000000
00000000
,
00000000
00000001
00000000
00001000
,
00000000
00000001
00000000
00000100
,
00000000
00000000
00000001
00001000
,
00000010
00010000
00001000
00000000
,
00000000
01000000
00000000
00010000
,
00000000
10000000
00000000
00100000
,
00000000
00000000
00000000
10000000
,
00000000
00100000
00000000
00000000
01000000
00000000
00100000
00000000
,
00000000
01000000
00000000
00001000
,
00000000
00100000
00001000
00000000
,
00100000
01000000
10000000
01000000
,
00000000
10000000
00010000
10000000
,
00010000
00000000
10000000
00100000
,
00000000
10000000
00000000
00000000
,
00010000
00000000
00000000
00000000
,
01000000
00000000
00001000
00010000
00000000
00000010
00000000
00000000
,
00000000
00001000
00000000
00000001
,
00000000
00000100
00000001
00000100
,
00000000
00000010
00010000
00000010
,
00000000
00001000
00000000
00000001
,
00000000
00000010
00000001
00000010
,
00000000
00000100
00010000
00000100
,
00000000
00000000
00001000
00000001
,
00000100
00000001
00000000
00000000
00000010
00000100
00001000
00000000
,
00000000
00000010
00010000
00001000
,
00000000
01000000
00000000
00010000
,
00000000
00100000
01000000
00000000
10000000
00000000
00100000
00000000
,
00000000
01000000
00001000
00000000
00000000
00000000
01000000
00000000
,
00000000
00000000
00010000
10000000
,
00000000
00000000
01000000
00000000
10000000
01000000
00000000
00000000
,
00000000
00000000
00000000
00000000
00000000
00100000
00001000
00100000
,
00000000
00010000
00000000
10000000
00100000
10000000
00000000
00000000
,
00000000
01000000
00100000
00000000
,
00010000
00000000
00000000
00000000
01000000
00001000
00000000
00010000
,
00000000
00000010
00001000
00000000
00000100
00000000
00000000
00000010
,
00000000
00000001
00000100
00000000
00000010
00000000
00000000
00000000
,
00000000
00001000
00000001
00000000
,
00000010
00000000
00000000
00000000
00000100
00010000
00000000
00000010
,
00000000
00010000
00000100
00000000
00000010
00000001
00000100
00000001
,
00001000
00000001
00000100
00000001
00000010
00000000
00000000
00000000
,
00000000
00000100
00010000
00000000
,
00001000
00000000
00000000
00000000
00100000
01000000
10000000
00100000
,
10000000
00100000
01000000
00010000
10000000
01000000
00100000
00001000
,
01000000
00001000
00100000
00000000
01000000
00000000
10000000
00000000
,
00000000
00100000
10000000
00000000
,
00010000
00000000
00000000
00000000
10000000
00100000
10000000
01000000
,
00100000
00001000
00010000
00000100
00000010
00000001
00000100
00000001
,
00000100
00000000
00000000
00000000
00000000
00000010
00010000
00000000
,
00000010
00000001
00000000
00000000
,
00000000
00000010
00001000
00000010
,
00000100
00000000
00000001
00000000
;

//--------------- dance-double - LinkDubs11 ----------------
#NOTES:
     dance-double:
     LinkDubs11:
     Hard:
     7:
     0.304,0.388,0,0,0.018:
00000000
00000000
00000000
00000000
,
00000000
00000000
00000000
00000000
,
00000000
00000000
00000000
00000000
,
00000000
00000000
00000000
00000000
,
00000000
00000000
00000000
00000000
,
00000001
00000000
00000010
00000000
00000001
00000000
00000010
00000100
,
00000000
00000010
00000000
00000000
00000000
00000000
00000000
00000100
,
00000000
00010000
00000100
00000000
00000000
00010000
00000100
00000000
,
00001000
00000001
00000000
00001000
00000000
00000001
00000000
00000000
,
00000010
00000001
00000010
00000000
00000001
00000000
00000000
00000100
,
00000010
00001000
00000100
00000000
00010000
00000000
00000000
00001000
,
00100000
00001000
00000000
00100000
00000000
00000000
00001000
00000000
00100000
00000000
01000000
00000000
10000000
00000000
01000000
00000000
,
00000000
10000000
00000000
01000000
00100000
01000000
00000000
00000000
,
00100000
00001000
00100000
00001000
00000000
00000000
00000000
00100000
,
00010000
10000000
00000000
00010000
00000000
00000000
10000000
00000000
,
01000000
00000000
10000000
01000000
00000000
10000000
00100000
00000000
,
01000000
00000000
00010000
00100000
00000000
00000000
00000000
00001000
,
00010000
00000100
00000000
00001000
00000000
00000010
00000000
00000100
,
00000001
00000010
00000000
00000001
00000000
00000000
00000010
00000100
,
00000000
00000010
00000000
00000000
00000000
00000100
00010000
00000000
,
00000010
00010000
00000000
00000000
,
00000000
00000000
00000000
00000000
,
00000000
00000000
00000010
00000000
00000100
00000001
00000000
00000100
,
00000001
00001000
00000001
00000000
00001000
00000000
00000001
00000000
,
00000010
00000001
00000000
00001000
00000100
00010000
00000000
00000000
,
00001000
00000000
00000000
00100000
00010000
10000000
01000000
00000000
,
00000000
00000000
00000000
10000000
01000000
00100000
01000000
00000000
,
00000000
00100000
00001000
01000000
00001000
01000000
00000000
00100000
,
00000000
00000000
00000000
10000000
00100000
10000000
00010000
10000000
,
00000000
00000000
00010000
00000000
00000000
00000000
10000000
00000000
01000000
00000000
00100000
00000000
00001000
00010000
00000000
00001000
,
00000000
00000000
00000000
00010000
00000100
00001000
00000001
00000010
,
00000000
00000001
00000000
00000010
00000100
00010000
00000100
00000000
,
00001000
00000000
00000000
00000001
00000100
00000001
00000100
00000010
,
00000000
00010000
00000000
00000000
00000000
00000000
00000000
00000000
,
00000000
00000000
00000000
00000000
00000000
00000000
00000000
00000010
,
00001000
00000001
00000010
00000000
00000000
00000000
00000000
00000000
,
00000000
00000001
00000000
00000000
,
00000000
00000000
00000000
00000000
00000000
00000100
00000010
00000000
,
00010000
00000000
00000000
00000000
00001000
00000000
00000000
00000000
00000000
00000000
00010000
00001000
00010000
00000000
00000000
00000000
,
00001000
00000000
00000000
00000000
01000000
00100000
00000000
00000000
,
10000000
00000000
01000000
00000000
00000000
00100000
00001000
00000000
,
00100000
00000000
00000000
00000000
00000000
00010000
10000000
00000000
,
00000000
00100000
00000000
00000000
00000000
00000000
10000000
00000000
00100000
00000000
00000000
00000000
01000000
00000000
00000000
00000000
,
00000000
00001000
00000000
00000000
00000000
01000000
00010000
00000000
,
10000000
00000000
01000000
00000000
00000000
10000000
00100000
00000000
,
01000000
00000000
00000000
00000000
00000000
00010000
00100000
00000000
,
00001000
00000000
00010000
00000100
00000000
00001000
00000000
00000000
,
00000010
00000000
00000000
00000000
00000000
00000100
00000001
00000000
,
00000010
00000000
00000100
00001000
00000000
00000001
00000000
00000000
,
00000100
00000000
00000010
00010000
,
00000100
00010000
00000010
00000100
,
00000000
00000000
00000001
00000010
,
00000000
00000000
00000000
00000000
,
00000000
00000000
00000000
00000001
,
00000000
00000000
00001000
00000001
00000000
00000000
00000010
00000000
,
00000001
00000100
00000000
00000000
,
00000010
00000000
00000000
00010000
00001000
00000000
01000000
00100000
,
00000000
10000000
01000000
00000000
00000000
00000000
00000000
00000000
,
10000000
01000000
00000000
00100000
,
00010000
00000000
00000000
10000000
00100000
00000000
00000000
00000000
,
01000000
00001000
00100000
00001000
,
00000000
01000000
00100000
00000000
00000000
00000000
10000000
00000000
,
00000000
00000000
01000000
10000000
00000000
00000000
00010000
00000000
,
10000000
01000000
00000000
00000000
,
10000000
00000000
00000000
00100000
01000000
00000000
00001000
00010000
,
00000000
00000010
00000100
00000000
00000001
00000000
00000000
00000000
,
00000010
00000001
00000000
00000010
,
00000100
00010000
00000000
00000000
00000000
00000000
00000000
00000000
,
00000000
00000000
00000000
00000000
,
00000000
00000000
00000000
00000100
00000001
00000000
00000100
00000000
,
00000000
00001000
00000100
00000010
00000000
00000001
00000000
00000000
,
00000000
00000000
00000010
00000001
00000010
00000000
00000001
00000000
00000000
00000000
00001000
00000000
00000000
00000000
00000001
00000000
,
00001000
00000100
00000000
00010000
00001000
00100000
00000000
00010000
,
00000000
10000000
00000000
00000000
01000000
00100000
00001000
00100000
,
00000000
00000000
00000000
10000000
00100000
00010000
00000000
00100000
,
00000000
01000000
00000000
00000000
10000000
01000000
00001000
00000000
,
01000000
10000000
00010000
10000000
00000000
00010000
00000000
00100000
,
00001000
00010000
00000000
00000000
00000100
00001000
00000001
00000100
,
00000001
00000100
00000010
00000100
00000010
00010000
00000000
00000000
,
00000000
00000010
00010000
00000010
00000000
00001000
00000000
00000001
,
00001000
00000001
00000100
00000001
00000100
00000001
00000000
00000000
,
00000010
00000000
00000000
00000000
,
00000000
00000000
00000000
00000000
00000000
00000000
00000000
00000100
,
00001000
00000010
00010000
00000000
00000000
00000000
00000000
00001000
,
01000000
00010000
00100000
00000000
00000000
01000000
10000000
00000000
,
00100000
10000000
00000000
00100000
10000000
00000000
00000000
00100000
,
01000000
00100000
01000000
00001000
00000000
01000000
00000000
00001000
,
01000000
00000000
00010000
00000000
10000000
00010000
00000000
10000000
00000000
00000000
00000000
00000000
00000000
00000000
00010000
00000000
,
10000000
00100000
10000000
01000000
00000000
00100000
00000000
00010000
,
01000000
00001000
00010000
00000000
00000010
00001000
00000000
00000100
,
00000010
00000001
00000100
00000001
00000000
00000100
00000000
00000000
,
00000000
00000000
00000000
00000000
,
00000000
00000000
00000000
00000010
00000100
00000010
00010000
00000000
,
00000000
00000000
00000000
00000000
,
00000000
00000000
00000000
00000100
,
00000000
00010000
00000000
00000100
,
00000010
00000001
00000010
00000001
,
00000000
00000000
00000000
00000000
00001000
00000000
00000000
00000001
,
00001000
00000000
00000000
00000000
00000001
00000000
00000100
00000000
00000000
00000000
00000010
00000000
00001000
00000000
00000000
00000010
,
00001000
00000000
00000010
00010000
,
00000000
00001000
01000000
00000000
,
00100000
00000000
10000000
00100000
,
01000000
00100000
00000000
01000000
00000000
00001000
00100000
00000000
,
00000000
00001000
00000000
00100000
,
01000000
10000000
01000000
10000000
,
00000000
00000000
00000000
00000000
00010000
00000000
00000000
10000000
,
00010000
00000000
10000000
00100000
00000000
10000000
00010000
00000000
,
01000000
00000000
00001000
00010000
,
00000000
00000000
00000010
00000000
00001000
00000001
00000000
00000000
,
00000000
00000000
00000000
00000000
,
00000000
00000000
00000000
00000000
,
00000000
00000100
00000000
00000001
,
00000000
00000100
00000010
00010000
,
00000000
00000000
00000010
00001000
,
00000001
00000010
00000001
00000000
,
00000000
00000010
00000000
00000100
,
00000000
00000000
00010000
00000000
00000100
00001000
00000001
00000000
,
00000000
00000000
00000000
00000100
,
00000000
00000001
00000000
00000000
00000010
00000100
00001000
00000000
,
00000000
00000010
00000000
00010000
,
00000000
00000000
00001000
00000000
01000000
00010000
00100000
00000000
,
01000000
10000000
00100000
01000000
,
00000000
00001000
01000000
00010000
,
10000000
00000000
00000000
00000000
00000000
01000000
10000000
00000000
,
00000000
00000000
00000000
01000000
00100000
00001000
00000000
00000000
,
00100000
00010000
00000000
00000000
00000000
00000000
00000000
00000000
,
10000000
00000000
00100000
10000000
00000000
01000000
00000000
00000000
,
00000000
00100000
00000000
00010000
,
00000000
00000000
01000000
00001000
00000000
00010000
00000010
00000000
,
00000000
00000000
00001000
00000000
00000100
00000000
00000010
00000001
,
00000000
00000000
00000100
00000010
00000000
00001000
00000001
00000000
,
00000010
00000100
00010000
00000010
,
00000000
00000000
00010000
00000000
00000100
00000010
00000001
00000000
,
00000000
00000000
00000100
00000001
,
00001000
00000001
00000000
00000100
00000001
00000010
00000100
00000000
,
00000000
00000000
00010000
00000000
00001000
00000000
00100000
01000000
,
00000000
00000000
10000000
00100000
00000000
00000000
10000000
00000000
,
00000000
00100000
01000000
00000000
00010000
00000000
10000000
01000000
,
00000000
00100000
00001000
01000000
00000000
00001000
00100000
01000000
,
10000000
00000000
00000000
00000000
00100000
00000000
10000000
00010000
,
00000000
00000000
10000000
00000000
00100000
10000000
00000000
00000000
,
00000000
00000000
00000000
00000000
00000000
01000000
00100000
00001000
,
00000000
00010000
00000000
00000100
00000010
00000001
00000000
00000000
,
00000000
00000000
00000100
00000000
00000001
00000100
00000000
00000000
,
00000010
00000000
00000000
00000000
00010000
00000010
00000000
00000001
,
00000000
00000010
00001000
00000000
00000010
00000000
00000000
00000100
,
00000000
00000001
00000100
00000000
00010000
00000000
00000000
00000000
,
00000000
00000000
00000100
00000000
00000001
00001000
00000000
00000000
,
00000001
00000000
00000000
00000000
00001000
00000010
00000000
00010000
,
00000000
00001000
01000000
00000000
00010000
10000000
00100000
01000000
,
00001000
01000000
10000000
01000000
00010000
01000000
00000000
00000000
,
00000000
00000000
00100000
00000000
10000000
00100000
00000000
00000000
,
00001000
00000000
00000000
00000000
00100000
10000000
00010000
10000000
,
00010000
01000000
00001000
00010000
00000010
00001000
00000001
00000010
,
00000100
00010000
00000100
00000000
00000001
00000000
00000100
00001000
,
00000000
00000000
00000100
00000000
00000010
00000001
00000000
00000000
,
00000010
00000000
00000000
00000000
00010000
00000010
00000001
00001000
,
00000001
00001000
00000100
00010000
00001000
00100000
00010000
10000000
,
01000000
00100000
00000000
00000000
00000000
00001000
00100000
00000000
,
10000000
00100000
00000000
00000000
,
00000000
00010000
00100000
01000000
,
10000000
01000000
00000000
00000000
00001000
00000000
00000000
00000000
;

//--------------- dance-double - LinkDubs12 ----------------
#NOTES:
     dance-double:
     LinkDubs12:
     Challenge:
     8:
     0.338,0.388,0,0,0.03:
00000000
00000000
00000000
00000000
,
00000000
00000000
00000000
00000000
,
00000000
00000000
00000000
00000000
,
00000000
00000000
00000000
00000000
,
00000000
00000000
00000000
00000000
,
00000001
00000000
00000010
00000000
00000001
00000000
00000010
00000100
,
00000000
00000010
00000000
00000000
00000000
00000000
00000000
00000100
,
00000000
00010000
00000100
00000000
00000000
00010000
00000100
00000000
,
00001000
00000001
00000000
00001000
00000000
00000001
00000000
00000000
,
00000010
00000001
00000010
00000000
00000001
00000000
00000000
00000100
,
00000010
00001000
00000100
00000000
00010000
00000000
00000000
00001000
,
00100000
00010000
00000000
00100000
00000000
00000000
00010000
00000000
10000000
00000000
01000000
00000000
10000000
00000000
01000000
00000000
,
00000000
00100000
00000000
01000000
00100000
00001000
00000000
00000000
,
01000000
00001000
01000000
00100000
00000000
00000000
00000000
10000000
,
00100000
10000000
00000000
00010000
00000000
00000000
10000000
00000000
,
00010000
00000000
10000000
01000000
00000000
10000000
00010000
00000000
,
00100000
00000000
00001000
00010000
00000000
00000000
00000000
00000100
,
00001000
00000001
00000000
00000010
00000000
00000001
00000000
00000010
,
00000100
00010000
00000000
00000100
00000000
00000000
00001000
00000001
,
00000000
00000100
00000000
00000000
00000000
00000001
00000100
00000000
,
00000010
00010000
00000010
00001000
,
00000001
00000010
00000001
00000100
,
00000000
00000000
00000010
00000000
00001000
00000100
00000000
00010000
,
00001000
00100000
00010000
00000000
01000000
00000000
00100000
00000000
,
10000000
01000000
00000000
00100000
00010000
10000000
00000000
00000000
,
00100000
00000000
00000000
01000000
00001000
00100000
00001000
00000000
,
01000000
00000000
00000000
00100000
10000000
01000000
10000000
00000000
,
00000000
00010000
10000000
01000000
10000000
00100000
00000000
01000000
,
00000000
00000000
00000000
00001000
00010000
00000010
00000100
00000001
,
00000000
00000000
00000010
00000000
00000000
00000000
00000001
00000000
00000010
00000000
00000100
00000000
00010000
00000100
00000000
00010000
,
00000000
00000000
00000000
00000100
00001000
00000100
00000010
00000001
,
00000000
00000010
00000000
00010000
00000010
00000001
00001000
00000000
,
00000001
00000000
00000000
00001000
00000100
00010000
00001000
00100000
,
00000000
00010000
00000000
00000000
10000000
00000000
00100000
00000000
,
10000000
00000000
00100000
00000000
01000000
00000000
00000000
00100000
,
01000000
00001000
01000000
00000000
00001000
00000000
01000000
00000000
,
00010000
10000000
00010000
10000000
,
00000000
00000000
00000000
00000000
00000000
00100000
10000000
00000000
,
00100000
00000000
00000000
00000000
10000000
00000000
00000000
00000000
00000000
00000000
00010000
10000000
00010000
00000000
00000000
00000000
,
01000000
00000000
00000000
00000000
00001000
00010000
00000000
00000000
,
00000010
00000000
00000000
00000000
00001000
00000000
00000000
00000000
00000000
00000000
00000100
00000010
00000001
00000000
00000000
00000000
,
00000100
00000000
00000000
00000000
00000000
00000001
00000100
00000000
,
00000000
00000010
00000000
00000000
00000000
00000000
00000100
00000000
00000010
00000000
00000000
00000000
00010000
00000000
00000000
00000000
,
00000000
00000100
00000000
00000000
00000000
00010000
00000100
00000000
,
00000010
00000000
00000000
00000000
00000001
00000000
00000000
00000000
00000000
00000000
00000010
00000001
00000010
00000000
00000000
00000000
,
00000001
00000000
00000000
00000000
00000000
00001000
00000001
00000000
,
00000100
00000000
00000001
00001000
00000000
00000010
00000000
00000000
,
00010000
00000000
00000000
00000000
00000000
00001000
01000000
00000000
,
00010000
00000000
10000000
00100000
00000000
10000000
00000000
00000000
,
00100000
00000000
01000000
00001000
,
01000000
00010000
10000000
01000000
,
00000000
00000000
10000000
01000000
,
00100000
00001000
00100000
00010000
,
10000000
00100000
00000000
10000000
,
00000000
00000000
01000000
00100000
00000000
00000000
00010000
00000000
,
01000000
00001000
00000000
00000000
,
00010000
00000000
00000000
00000010
00001000
00000000
00000100
00000010
,
00000000
00000001
00000100
00000000
00000000
00000000
00000000
00000000
,
00000010
00001000
00000000
00000001
,
00000010
00000000
00000000
00000100
00010000
00000000
00000000
00000000
,
00000010
00010000
00000100
00000010
,
00000000
00000001
00000100
00000000
00000000
00000000
00000001
00000000
,
00000000
00000000
00001000
00000001
00000000
00000000
00000100
00000000
,
00000001
00000010
00000000
00000000
,
00000100
00000000
00000000
00010000
00001000
00000000
00100000
01000000
,
00000000
00000000
10000000
00000000
00100000
00000000
00000000
10000000
00100000
00000000
00000000
00000000
00000000
00000000
00000000
00000000
,
01000000
00001000
00000000
01000000
,
10000000
01000000
00000000
00000000
00010000
00000000
01000000
00000000
,
00100000
10000000
00100000
00001000
,
00000000
00000000
00000000
00100000
10000000
00000000
00010000
00000000
,
00000000
10000000
00010000
01000000
00000000
00001000
00000000
00000000
,
00000000
00000000
00010000
00000010
00010000
00000000
00000010
00000000
00000000
00000000
00000100
00000000
00000000
00000000
00000001
00000000
,
00000100
00000010
00000000
00000100
00000010
00010000
00000000
00000010
,
00000000
00010000
00000000
00000000
00000010
00001000
00000001
00001000
,
00000000
00000001
00000000
00000100
00000001
00000100
00000000
00000001
,
00000000
00000010
00000000
00000000
00000100
00001000
00000010
00000000
,
00010000
00001000
01000000
00010000
00000000
00100000
00000000
01000000
,
10000000
00100000
00000000
00000000
10000000
00100000
01000000
00100000
,
01000000
00001000
00100000
00001000
00100000
01000000
00000000
00000000
,
00000000
00000000
10000000
01000000
10000000
00000000
00010000
00000000
00000000
00000000
10000000
00000000
00000000
00000000
00010000
00000000
,
10000000
00100000
10000000
00010000
01000000
00001000
00000000
00000000
,
00010000
00000010
00001000
00000001
,
00000100
00000000
00000001
00000000
00000100
00000000
00000000
00000010
,
00010000
00000010
00001000
00000000
00000000
00000000
00000000
00000001
,
00000010
00000001
00000010
00000000
00000000
00000100
00010000
00000000
,
00000100
00001000
00000000
00000001
00000100
00000000
00000000
00000001
,
00000010
00000100
00001000
00000010
00000000
00010000
00000000
00001000
,
01000000
00000000
00010000
00000000
00100000
01000000
00000000
00100000
00000000
00000000
00000000
00000000
00000000
00000000
01000000
00000000
,
10000000
00010000
10000000
01000000
00000000
00100000
00000000
00001000
,
01000000
00001000
00100000
00000000
01000000
10000000
00000000
00100000
,
10000000
00010000
10000000
00100000
00000000
10000000
00000000
00000000
,
01000000
00100000
00001000
00010000
,
00000100
00000000
00000000
00000010
00000001
00000100
00000001
00000000
,
00000100
00000010
00010000
00000010
,
00000001
00000010
00001000
00000010
,
00000000
00000100
00000000
00000001
,
00000100
00010000
00000100
00000001
,
00000000
00000000
00000000
00000000
00001000
00000000
00000000
00000001
,
00001000
00000000
00000000
00000000
00000010
00000000
00010000
00000000
00000000
00000000
00001000
00000000
01000000
00000000
00000000
00010000
,
01000000
00000000
00100000
10000000
,
00000000
01000000
00100000
00000000
,
01000000
00000000
00100000
00001000
,
00100000
00001000
00000000
00100000
00000000
00010000
10000000
00000000
,
00000000
00010000
00000000
10000000
,
01000000
10000000
01000000
10000000
,
00000000
00000000
00000000
00000000
00100000
00000000
00000000
01000000
,
00010000
00000000
00000000
00000000
00100000
00000000
00001000
00000000
00000000
00000000
00010000
00000000
00000100
00000000
00000000
00001000
,
00000100
00000000
00001000
00000001
,
00000000
00000000
00000010
00000000
00000001
00000010
00000000
00000000
,
00000100
00000010
00000100
00010000
,
00000010
00010000
00000010
00000100
,
00000000
00000001
00000000
00000100
,
00000000
00000001
00001000
00000001
,
00000000
00000000
00001000
00000001
,
00000010
00000001
00001000
00000000
,
00000000
00000100
00000000
00010000
,
00000000
00000000
00001000
00000000
00100000
00010000
10000000
00000000
,
00000000
00000000
00000000
01000000
,
00000000
10000000
00000000
01000000
00100000
00001000
00100000
00000000
,
00000000
00010000
00000000
10000000
,
00000000
00000000
00100000
00000000
10000000
00100000
01000000
00000000
,
00001000
01000000
00010000
10000000
,
00000000
01000000
10000000
00100000
,
01000000
00000000
00000000
00000000
00010000
00100000
00001000
00000000
,
00000000
00000000
00010000
00000100
00001000
00000010
00000100
00000000
,
00000001
00000010
00000000
00000000
00000000
00000000
00000000
00000000
,
00000100
00000000
00001000
00000001
00000000
00000100
00000000
00000000
,
00000000
00000010
00000000
00010000
,
00000000
00000100
00010000
00000010
,
00000000
00000100
00000001
00000010
,
00000000
00000000
00000001
00001000
00000000
00000001
00000010
00000000
,
00000001
00000100
00000010
00010000
,
00000000
00000000
00001000
00000000
01000000
00100000
10000000
00000000
,
00000000
00000000
01000000
10000000
,
01000000
00100000
00000000
00001000
00100000
10000000
00100000
00000000
,
00000000
00000000
00010000
00000000
00100000
00000000
01000000
10000000
,
00000000
00000000
01000000
00001000
00000000
00000000
01000000
00000000
,
00000000
10000000
00010000
00000000
10000000
00000000
00010000
00100000
,
00000000
00000000
00001000
00000000
00010000
00000000
00000100
00000000
00000000
00000000
00001000
00000000
00000001
00000000
00000100
00000010
,
00000100
00000000
00000000
00000000
00000001
00000000
00000010
00000100
,
00000000
00000000
00010000
00000000
00000010
00010000
00000000
00000000
,
00000000
00000000
00000000
00000000
00000000
00000100
00000010
00000001
,
00000000
00000100
00000000
00000001
00001000
00000001
00000000
00000000
,
00000000
00000000
00000100
00000000
00000001
00000010
00000000
00000000
,
00000100
00000000
00000000
00000000
00010000
00001000
00000000
00100000
,
00000000
01000000
10000000
00000000
00100000
00000000
00000000
10000000
,
00000000
00100000
01000000
00000000
00010000
00000000
00000000
00000000
,
00000000
00000000
10000000
00000000
01000000
00100000
00000000
00000000
,
00001000
00000000
00000000
00000000
01000000
00001000
00000000
00100000
,
00000000
01000000
10000000
00000000
00100000
10000000
00010000
10000000
,
00100000
10000000
01000000
00100000
00001000
00010000
00000000
00000000
,
00000000
00000000
00000100
00000000
00000010
00000001
00000000
00000000
,
00000100
00000000
00000000
00000000
00000001
00000100
00000010
00010000
,
00000010
00000001
00000010
00001000
00000010
00000100
00000001
00000100
,
00010000
00000100
00000001
00000000
00001000
00000000
00000001
00001000
,
00000000
00000000
00000010
00000000
00010000
00001000
00000000
00000000
,
01000000
00000000
00000000
00000000
00010000
10000000
00100000
01000000
,
00001000
01000000
10000000
01000000
00010000
01000000
00100000
10000000
,
00100000
00001000
00000000
00000000
00000000
00100000
10000000
00000000
,
00010000
10000000
00000000
00000000
,
00000000
00010000
01000000
00001000
,
00010000
00000010
00000000
00000000
00001000
00000000
00000000
00000000
;
