#TITLE:Always Something There to Remind Me;
#SUBTITLE:;
#ARTIST:Naked Eyes;
#TITLETRANSLIT:Always Something There to Remind Me;
#SUBTITLETRANSLIT:;
#ARTISTTRANSLIT:;
#GENRE:;
#CREDIT:;
#BANNER:AlwaysSomething-bn.png;
#BACKGROUND:AlwaysSomething-bg.png;
#LYRICSPATH:;
#CDTITLE:AlwaysSomething-cd.png;
#MUSIC:AlwaysSomething.ogg;
#OFFSET:1.880474;
#SAMPLESTART:20.000000;
#SAMPLELENGTH:10.000000;
#LASTBEATHINT:1.803312;
#SELECTABLE:YES;
#BPMS:0.000000=149.399994
,20.000000=149.600006
,44.000000=149.500000
,52.000000=149.399994
,396.000000=149.380005
;
#STOPS:224.000000=0.025000,
396.000000=0.025000
;
#BGCHANGES:;
#KEYSOUNDS:;
#ATTACKS:;

//---------------dance-single - LinkDude03----------------
#NOTES:
     dance-single:
     LinkDude03:
     Beginner:
     2:
     0.085142,0.090415,0.000000,0.018060,0.000000,132.000000,132.000000,0.000000,4.000000,0.000000,0.000000,0.085142,0.090415,0.000000,0.018060,0.000000,132.000000,132.000000,0.000000,4.000000,0.000000,0.000000:
0000
0000
0000
0000
,
0000
0000
0000
0000
,
0001
0000
0000
0000
,
0001
0000
0000
0000
,
1000
0000
0000
0000
,
1000
0000
0000
0000
,
0001
0000
0000
0000
,
0001
0000
0000
0000
,
1000
0000
0000
0000
,
1000
0000
0000
0000
,
0100
0000
0000
0000
,
0100
0000
0000
0000
,
1000
0000
0000
0000
,
1000
0000
0000
0000
,
0001
0000
0000
0000
,
0001
0000
0000
0000
,
0010
0000
0000
0000
,
0010
0000
0000
0000
,
0001
0000
0000
0000
,
0001
0000
0000
0000
,
0100
0000
0000
0000
,
0100
0000
0000
0000
,
0010
0000
0000
0000
,
0010
0000
0000
0000
,
1000
0000
0000
0000
,
1000
0000
0000
0000
,
0010
0000
0000
0000
,
0010
0000
0000
0000
,
1000
0000
0000
0000
,
1000
0000
0000
0000
,
0001
0000
0000
0000
,
0001
0000
0000
0000
,
0100
0000
0000
0000
,
0100
0000
0000
0000
,
0001
0000
0000
0000
,
0001
0000
0000
0000
,
0010
0000
0000
0000
,
0010
0000
0000
0000
,
0100
0000
0000
0000
,
0100
0000
0000
0000
,
1000
0000
0000
0000
,
1000
0000
0000
0000
,
0100
0000
0000
0000
,
0100
0000
0000
0000
,
1000
0000
0000
0000
,
1000
0000
0000
0000
,
0001
0000
0000
0000
,
0001
0000
0000
0000
,
0010
0000
0000
0000
,
0010
0000
0000
0000
,
0001
0000
0000
0000
,
0001
0000
0000
0000
,
0100
0000
0000
0000
,
0100
0000
0000
0000
,
0010
0000
0000
0000
,
0010
0000
0000
0000
,
1000
0000
0000
0000
,
1000
0000
0000
0000
,
0010
0000
0000
0000
,
0010
0000
0000
0000
,
1000
0000
0000
0000
,
1000
0000
0000
0000
,
0001
0000
0000
0000
,
0001
0000
0000
0000
,
0100
0000
0000
0000
,
0100
0000
0000
0000
,
0001
0000
0000
0000
,
0001
0000
0000
0000
,
0010
0000
0000
0000
,
0010
0000
0000
0000
,
0100
0000
0000
0000
,
0100
0000
0000
0000
,
1000
0000
0000
0000
,
1000
0000
0000
0000
,
0100
0000
0000
0000
,
0100
0000
0000
0000
,
1000
0000
0000
0000
,
1000
0000
0000
0000
,
0001
0000
0000
0000
,
0001
0000
0000
0000
,
0010
0000
0000
0000
,
0010
0000
0000
0000
,
0001
0000
0000
0000
,
0001
0000
0000
0000
,
0100
0000
0000
0000
,
0100
0000
0000
0000
,
0010
0000
0000
0000
,
0010
0000
0000
0000
,
1000
0000
0000
0000
,
1000
0000
0000
0000
,
0010
0000
0000
0000
,
0010
0000
0000
0000
,
1000
0000
0000
0000
,
1000
0000
0000
0000
,
0001
0000
0000
0000
,
0001
0000
0000
0000
,
0100
0000
0000
0000
,
0100
0000
0000
0000
,
0001
0000
0000
0000
,
0001
0000
0000
0000
,
0010
0000
0000
0000
,
0010
0000
0000
0000
,
0100
0000
0000
0000
,
0100
0000
0000
0000
,
1000
0000
0000
0000
,
1000
0000
0000
0000
,
0100
0000
0000
0000
,
0100
0000
0000
0000
,
1000
0000
0000
0000
,
1000
0000
0000
0000
,
0001
0000
0000
0000
,
0001
0000
0000
0000
,
0010
0000
0000
0000
,
0010
0000
0000
0000
,
0001
0000
0000
0000
,
0001
0000
0000
0000
,
0100
0000
0000
0000
,
0100
0000
0000
0000
,
0010
0000
0000
0000
,
0010
0000
0000
0000
,
1000
0000
0000
0000
,
1000
0000
0000
0000
,
0010
0000
0000
0000
,
0010
0000
0000
0000
,
1000
0000
0000
0000
,
1000
0000
0000
0000
,
0001
0000
0000
0000
,
0001
0000
0000
0000
,
0100
0000
0000
0000
,
0100
0000
0000
0000
,
0002
0000
0003
0000
,
0020
0000
0030
0000
,
0200
0000
0300
0000
,
2000
0000
3000
0000
;

//---------------dance-single - LinkDude06----------------
#NOTES:
     dance-single:
     LinkDude06:
     Easy:
     4:
     0.159319,0.181507,0.009030,0.153513,0.000000,247.000000,245.000000,2.000000,34.000000,34.000000,0.000000,0.159319,0.181507,0.009030,0.153513,0.000000,247.000000,245.000000,2.000000,34.000000,34.000000,0.000000:
0000
0000
0000
0000
,
0000
0000
0000
0000
,
0000
0001
0000
0001
,
0000
0010
0000
0010
,
0000
0100
0000
0100
,
0000
1000
0000
1000
,
0000
0010
0000
0010
,
0000
1000
0000
1000
,
0000
0001
0000
0001
,
0000
0100
0000
0100
,
0000
0001
0000
0001
,
0000
0100
0000
0100
,
0000
0010
0000
0010
,
0000
1000
0000
1000
,
0000
0100
0000
0100
,
0000
1000
0000
1000
,
0000
0001
0000
0001
,
0000
0010
0000
0010
,
0000
0001
0000
0001
,
0000
0010
0000
0010
,
0000
0100
0000
0100
,
0000
1000
0000
1000
,
0000
0010
0000
0010
,
0000
1000
0000
1000
,
0000
0001
0000
0001
,
0000
0100
0000
0100
,
0000
0001
0000
M002
,
0003
0100
0000
0100
,
0000
0010
0000
0010
,
0000
1000
0000
1000
,
0000
0100
0000
02M0
,
0300
200M
3000
1000
,
0000
M002
0003
0001
,
0000
0M20
0030
0010
,
0000
M002
0003
0001
,
0000
0M20
0030
0010
,
0000
02M0
0300
0100
,
0000
200M
3000
1000
,
0000
0M20
0030
0010
,
0000
200M
3000
1000
,
0000
0001
0000
0001
,
0000
0100
0000
0100
,
0000
0001
0000
0001
,
0000
0100
0000
0100
,
0000
0010
0000
0010
,
0000
1000
0000
1000
,
0000
0100
0000
0100
,
0000
1000
0000
1000
,
0000
0001
0000
0001
,
0000
0010
0000
0010
,
0000
0001
0000
0001
,
0000
0010
0000
0M20
,
0030
0100
0000
0100
,
0000
1000
0000
1000
,
0000
0010
0000
0010
,
0000
1000
0000
1000
,
0000
0000
0000
0000
,
0000
0001
0000
0001
,
0000
0100
0000
0100
,
0000
0001
0000
0001
,
0000
0100
0000
02M0
,
0300
0010
0000
0010
,
0000
1000
0000
1000
,
0000
0100
0000
0100
,
0000
1000
0000
1000
,
0000
0000
0000
M002
,
0003
0001
0000
0010
,
0000
0010
0000
0001
,
0000
0001
0000
0010
,
0000
0010
0000
0100
,
0000
0100
0000
1000
,
0000
1000
0000
0010
,
0000
0010
0000
1000
,
0000
1000
0000
0001
,
0000
M002
0003
0100
,
0000
02M0
0300
0001
,
0000
M002
0003
0100
,
0000
02M0
0300
0010
,
0000
0M20
0030
1000
,
0000
200M
3000
0100
,
0000
02M0
0300
1000
,
0000
200M
3000
0001
,
0000
M002
0003
0010
,
0000
0010
0000
0001
,
0000
0001
0000
0010
,
0000
0010
0000
0100
,
0000
0100
0000
1000
,
0000
1000
0000
0010
,
0000
0010
0000
1000
,
0000
1000
0000
0001
,
0000
0001
0000
0100
,
0000
0100
0000
0001
,
0000
0001
0000
0100
,
0000
0100
0000
0010
,
0000
0010
0000
200M
,
3000
1000
0000
0100
,
0000
0100
0000
1000
,
0000
1000
0000
0001
,
0000
0001
0000
0010
,
0000
0000
0000
0000
,
0000
0010
0000
0001
,
0000
0100
0000
1000
,
0000
0000
0000
0000
,
0000
0000
0000
0000
,
0000
0000
0000
0000
,
0000
0000
0000
M22M
,
0330
0000
0000
0000
,
0000
0000
0000
0000
,
0000
0000
0000
0000
,
0000
0000
0000
2MM2
,
3003
0001
0000
0100
,
0000
0010
0000
1000
,
0000
0100
0000
0010
,
0000
0001
0000
02M0
,
0300
0001
0000
0010
,
0000
0100
0000
1000
,
0000
0010
0000
0100
,
0000
0001
0000
0M20
,
0030
0001
0000
0100
,
0000
0010
0000
1000
,
0000
0100
0000
0010
,
0000
0001
0000
02M0
,
0300
0001
0000
0100
,
0000
1000
0000
0100
,
0000
0010
0000
0100
,
0000
0001
0000
0M20
,
0030
0001
0000
0010
,
0000
1000
0000
0010
,
0000
0100
0000
0010
,
0000
0001
0000
200M
,
3000
0001
0000
0100
,
0000
1000
0000
0010
,
0000
0001
0000
0100
,
0000
1000
0000
M002
,
0003
0000
0000
0000
;

//---------------dance-single - LinkDude09----------------
#NOTES:
     dance-single:
     LinkDude09:
     Medium:
     6:
     0.319927,0.332142,0.076757,0.067727,0.009030,496.000000,479.000000,17.000000,15.000000,55.000000,0.000000,0.319927,0.332142,0.076757,0.067727,0.009030,496.000000,479.000000,17.000000,15.000000,55.000000,0.000000:
0000
0000
0000
0000
,
0000
0000
0000
0000
,
0011
0001
0010
0000
,
1010
1000
0010
0000
,
0101
0001
0100
0000
,
1100
1000
0100
0000
,
1001
0100
0010
0000
,
1001
0010
0100
0000
,
0110
0001
1000
0000
,
0110
1000
0001
0000
,
1000
0001
0100
0010
,
1000
0001
0010
0100
,
1000
0001
0100
0010
,
1000
0001
0010
0100
,
1000
0001
0100
0010
,
1000
0001
0010
0100
,
1000
0001
0100
0010
,
1000
0001
0010
0100
,
1000
0001
0100
0010
,
1000
0001
0010
0100
,
0220
0000
0000
0330
,
2002
0000
0000
3003
,
0220
0000
0000
0330
,
1000
0010
0100
0010
,
1000
0100
0001
0100
,
1000
0001
0010
0001
,
1000
0100
0010
M10M
,
1000
0010
0001
0010
,
1000
0001
0100
0001
,
0100
0010
0100
1000
,
0100
0001
1000
0MM1
,
1000
0MM1
1000
0001
,
1000
0MM1
0010
0100
,
0010
1M0M
0010
0001
,
1000
0MM1
1000
0100
,
1000
01MM
0001
0100
,
1000
0MM1
0010
0100
,
0010
M10M
1000
0001
,
1000
0M1M
0100
0001
,
0100
M01M
1000
0001
,
0100
0010
0100
0010
,
2020
0000
0000
3030
,
0001
0100
0002
0000
,
0003
0000
1000
1000
,
0001
0001
0100
0100
,
0010
0010
1000
1000
,
0100
0100
0010
0010
,
0001
0001
0100
0100
,
0010
0010
1000
1000
,
0100
0100
0010
0010
,
0001
0001
0100
0100
,
0010
0010
1000
100M
,
0100
0100
0010
0010
,
0001
0001
0100
0100
,
0010
0010
1000
1000
,
0100
0100
0010
0010
,
0002
0003
0000
0000
0000
0000
1000
0000
0000
1000
0000
0000
,
1000
0000
0110
0000
,
0000
0000
0001
0001
,
0001
0000
0000
1100
,
1010
0000
0000
M00M
,
0010
0100
0001
1000
,
0001
1000
0100
0010
,
0001
0010
0100
1000
,
0010
0100
0001
0100
,
0001
0000
0010
0000
0010
0000
0001
0000
0010
MM00
0010
0000
,
0001
0010
0100
1000
,
0001
0100
0010
1000
,
0001
0010
0100
1000
,
0001
0100
0010
1000
,
0001
0010
0100
1000
,
0001
0100
0010
1000
,
0001
0010
0100
1000
,
0001
0100
0010
0001
,
0010
1M0M
0010
1000
,
0010
MM01
0010
1000
,
0010
1M0M
0001
0100
,
0001
M1M0
1000
0100
,
1000
01MM
0001
0010
,
0001
MM10
1000
0010
,
1000
0M1M
0001
0100
,
0001
M1M0
1000
0100
,
1000
01MM
0001
1000
,
0001
0010
0100
1000
,
0020
0000
0000
0030
,
0001
0100
1000
0000
,
0000
0000
0001
0010
,
0100
0010
0001
0010
,
1000
0010
0001
0010
,
0000
0000
0001
0010
,
0001
0000
1100
0000
,
1000
0100
0010
0100
,
0001
0100
1000
0100
,
0000
0000
1000
0100
,
1000
0000
0011
MM00
,
0001
0001
0010
0010
,
0100
0100
1000
1000
,
0010
0010
0100
0100
,
0001
0001
1000
1000
,
2000
3000
0000
0000
0000
0000
0001
0000
0000
0001
0000
0000
,
0001
0000
0001
0000
,
0000
0100
0001
1000
,
1000
1000
0100
1000
,
1000
1000
0001
1000
,
1000
1000
0010
1000
,
1000
1000
0001
01M0
,
0100
0100
0010
0100
,
0100
0100
1000
0100
,
0100
0100
0010
0100
,
0100
0100
0001
0M10
,
0010
0010
0100
0010
,
0010
0010
1000
0010
,
0010
0010
0100
0010
,
0010
0000
0000
0010
0000
0000
0002
0003
0000
M001
0000
0000
,
0001
0001
0010
0001
,
0001
0001
1000
0001
,
0001
0001
0100
0001
,
0001
0001
1000
0M10
,
0010
0010
0100
0010
,
0010
0010
0001
0010
,
0010
0010
0100
0010
,
0010
0010
1000
01M0
,
0100
0100
0010
0100
,
0100
0100
0001
0100
,
0100
0100
0010
0100
,
0100
0000
0000
0100
0000
0000
2000
3000
0000
100M
0000
0000
,
0100
0010
0001
1000
,
0100
0010
0001
1000
,
0010
0100
0001
1000
,
0010
0000
0000
0100
0000
0000
0002
0003
0000
M001
0000
0000
,
0010
0100
1000
0001
,
0010
0100
1000
0001
,
0100
0010
1000
0001
,
0100
0010
1000
M001
;

//---------------dance-single - LinkDude10----------------
#NOTES:
     dance-single:
     LinkDude10:
     Hard:
     7:
     0.439900,0.392532,0.000000,0.022576,0.372496,682.000000,682.000000,0.000000,5.000000,77.000000,0.000000,0.439900,0.392532,0.000000,0.022576,0.372496,682.000000,682.000000,0.000000,5.000000,77.000000,0.000000:
0000
0000
0M00
M000
,
00M0
0000
0000
M000
0000
0000
0001
0000
1000
0001
0000
1000
,
0001
1000
0100
0010
,
0001
0010
0100
1000
,
0001
0100
0010
1000
,
0010
0100
0001
1000
,
0001
1000
0100
0010
,
0001
0010
0100
1000
,
0001
0100
0010
1000
,
0010
0000
0000
0100
0000
0000
0001
0000
0000
1000
0000
0001
,
1000
0000
0001
1000
0000
0000
0100
0000
0000
0010
0000
0000
,
0001
0010
0100
1000
,
0001
0100
0010
1000
,
0010
0100
0001
1000
,
0001
1000
0100
0010
,
0001
0010
0100
1000
,
0001
0100
0010
1000
,
0010
0100
0001
1000
,
0100
0001
0100
1000
,
0100
0010
0001
1000
,
0010
0001
0010
1000
,
0010
0100
0001
0100
,
0010
0000
0000
1000
0000
0000
0001
0000
0000
1000
0000
0001
,
1000
0000
0001
1000
0000
0000
0010
0000
0000
0100
0000
0001
,
1000
0000
0001
1000
0000
0000
0100
0000
0000
0010
0000
0001
,
1000
0000
0001
1000
0000
0000
0010
0000
0000
0100
0000
0001
,
1000
0000
0001
1000
0000
0000
0001
0000
0000
1MM0
0000
0001
,
1000
0000
0001
1000
0000
0000
0100
0000
0000
0010
0000
0001
,
1000
0000
0001
1000
0000
0000
0010
0000
0000
0100
0000
0001
,
1000
0000
0001
1000
0000
0000
0100
0000
0000
0010
0000
0001
,
1000
0000
0001
1000
0000
0000
0001
0000
0000
1MM0
0000
0001
,
1000
0000
0001
1MM0
0000
0000
0010
0000
0000
0100
0000
0001
,
1000
0000
0001
1MM0
0000
0000
0100
0000
0000
0010
0000
0000
,
0001
1MMM
0010
0100
,
0001
1MMM
0100
0010
,
0001
1MMM
0010
0100
,
0001
1MMM
0100
0010
,
0001
1MMM
0010
0100
,
0001
1MMM
0100
0010
,
0001
1MMM
0100
1000
,
0100
0001
0100
1000
,
0001
1000
0010
1000
,
0010
0001
0010
1000
,
0001
0000
0000
0100
0000
0000
0001
0000
0000
0100
0000
0001
,
0100
0000
0001
0100
0000
0000
0001
0000
0000
0010
0000
0001
,
0010
0000
0001
0010
0000
0000
0100
0000
0000
1000
0000
0100
,
1000
0000
0100
1000
0000
0000
0010
0000
0000
1000
0000
0010
,
1000
0000
0010
1000
0000
0000
0001
0000
0000
1000
0000
0001
,
1000
0000
0001
1000
0000
0000
0010
0000
0000
0100
0000
0010
,
0100
0000
0010
0100
0000
0000
0001
0000
0000
1000
0000
0001
,
1000
0000
0001
1000
0000
0000
0100
0000
0000
0010
0000
0100
,
0010
0000
0100
0010
0000
0000
0100
0000
0000
1MMM
0000
0000
,
0100
0010
0100
1000
,
0001
0010
0100
0010
,
0001
1000
0010
0100
,
0010
1000
0001
1000
,
0002
0003
0000
0000
0000
0001
1000
0000
0001
1000
0000
0001
,
1000
0000
0000
0000
0000
0001
1000
0000
0000
0000
0000
0000
,
0000
0000
0000
0000
0000
0001
1000
0000
0001
1000
0000
0001
,
1000
0000
0001
0000
0000
0000
0000
0000
1000
0001
0000
0000
,
1000
0000
0000
0100
0000
0000
0010
0000
0000
0MM1
0000
1000
,
0001
0000
1000
0001
0000
0000
0010
0000
0000
0100
0000
1000
,
0001
0000
1000
0001
0000
0000
0100
0000
0000
0010
0000
1000
,
0001
0000
1000
0001
0000
0000
0010
0000
0000
0100
0000
1000
,
0001
0000
1000
0001
0000
0000
0100
0000
0000
0010
0000
0000
,
0100
0000
0010
0000
0010
0000
0100
0000
0001
M0M0
0001
0000
,
0100
0001
1000
0100
,
0010
0100
0001
0100
,
0010
0100
1000
0001
,
0100
0010
0100
1000
,
0100
0010
0100
0001
,
0010
0100
0010
1000
,
0010
0100
0010
0001
,
1000
0000
0000
0001
0000
0000
1000
0000
0000
0001
0000
1000
,
0001
0000
1000
0MM1
0000
0000
0010
0000
0000
0100
0000
1000
,
0001
0000
1000
0MM1
0000
0000
0100
0000
0000
0010
0000
1000
,
0001
0000
1000
0MM1
0000
0000
0010
0000
0000
0100
0000
1000
,
0001
0000
1000
0MM1
0000
0000
0100
0000
0000
0010
0000
1000
,
0001
0000
1000
0MM1
0000
0000
0010
0000
0000
0100
0000
1000
,
0001
0000
1000
0MM1
0000
0000
0100
0000
0000
0010
0000
1000
,
0001
0000
1000
0MM1
0000
0000
0010
0000
0000
0100
0000
1000
,
0001
0000
1000
0MM1
0000
0000
0100
0000
0000
0010
0000
1000
,
0001
0000
1000
0MM1
0000
0000
0010
0000
0000
0100
0000
1000
,
0001
0000
1000
0001
0000
0000
0100
0000
0000
0010
0000
0000
,
0100
0001
1000
0100
,
0010
0100
1000
0001
,
0100
0000
0000
0010
0000
0000
1000
0000
0000
0010
0000
1000
,
0010
0000
1000
0010
0000
0000
1000
0000
0000
0100
0000
1000
,
0100
0000
1000
0100
0000
0000
0010
0000
0000
0001
0000
0010
,
0001
0000
0010
0001
0000
0000
0100
0000
0000
0001
0000
0100
,
0001
0000
0100
0001
0000
0000
1000
0000
0000
0001
0000
1000
,
0001
0000
1000
0001
0000
0000
0100
0000
0000
0010
0000
0100
,
0010
0000
0100
0010
0000
0000
1000
0000
0000
0001
0000
1000
,
0001
0000
1000
0001
0000
0000
0010
0000
0000
0100
0000
0010
,
0100
0000
0010
0100
0000
0000
0010
0000
0000
0MM1
0000
0000
,
0100
0001
0100
0001
,
0010
0100
1000
0100
,
1000
0010
0100
0001
,
0100
0001
0010
0100
,
2000
3000
0000
0000
0000
1000
0001
0000
1000
0001
0000
1000
,
0001
0000
0000
0000
0000
1000
0001
0000
0000
0000
0000
0000
,
0000
0000
0000
0100
0000
0000
0001
0000
0000
1000
0000
0001
,
1000
0000
0100
1000
0000
0000
0001
0000
0000
1000
0000
0001
,
1000
0000
0010
1000
0000
0000
0001
0000
0000
1000
0000
0001
,
1000
0000
0100
1000
0000
0000
0001
0000
0000
1000
0000
0001
,
1000
0000
0010
1000
0000
0000
0001
0000
0000
M1M0
0000
0001
,
0100
0000
0001
0100
0000
0000
0010
0000
0000
0100
0000
0010
,
0100
0000
0010
0100
0000
0000
1000
0000
0000
0100
0000
1000
,
0100
0000
1000
0100
0000
0000
0001
0000
0000
0100
0000
0001
,
0100
0000
0001
0100
0000
0000
0001
0000
0000
MM10
0000
0001
,
0010
0000
0001
0010
0000
0000
0100
0000
0000
0010
0000
0100
,
0010
0000
0100
0010
0000
0000
1000
0000
0000
0010
0000
1000
,
0010
0000
1000
0010
0000
0000
0001
0000
0000
0010
0000
0001
,
0010
0000
0001
0010
0000
0000
0002
0003
0000
0MM1
0000
1000
,
0001
0000
0010
0001
0000
0000
1000
0000
0000
0001
0000
1000
,
0001
0000
0100
0001
0000
0000
1000
0000
0000
0001
0000
1000
,
0001
0000
0010
0001
0000
0000
1000
0000
0000
0001
0000
1000
,
0001
0000
0100
0001
0000
0000
1000
0000
0000
0M1M
0000
1000
,
0010
0000
1000
0010
0000
0000
0100
0000
0000
0010
0000
0100
,
0010
0000
0100
0010
0000
0000
0001
0000
0000
0010
0000
0001
,
0010
0000
0001
0010
0000
0000
1000
0000
0000
0010
0000
1000
,
0010
0000
1000
0010
0000
0000
1000
0000
0000
01MM
0000
1000
,
0100
0000
1000
0100
0000
0000
0010
0000
0000
0100
0000
0010
,
0100
0000
0010
0100
0000
0000
0001
0000
0000
0100
0000
0001
,
0100
0000
0001
0100
0000
0000
1000
0000
0000
0100
0000
1000
,
0100
0000
1000
0100
0000
0000
2000
3000
0000
1MM0
0000
0001
,
0100
0000
0001
0010
0000
0000
0001
0000
0000
1000
0000
0001
,
0100
0000
0001
0010
0000
0000
0001
0000
0000
1000
0000
0001
,
0010
0000
0001
0100
0000
0000
0001
0000
0000
1000
0000
0001
,
0010
0000
0001
0100
0000
0000
0002
0003
0000
0MM1
0000
1000
,
0010
0000
1000
0100
0000
0000
1000
0000
0000
0001
0000
1000
,
0010
0000
1000
0100
0000
0000
1000
0000
0000
0001
0000
1000
,
0100
0000
1000
0010
0000
0000
1000
0000
0000
0001
0000
1000
,
0100
0000
1000
0010
0000
0000
1000
0000
0000
MMM1
0000
0000
;

//---------------dance-single - LinkDude14----------------
#NOTES:
     dance-single:
     LinkDude14:
     Challenge:
     9:
     0.507626,0.543505,0.103847,0.040636,0.557615,787.000000,764.000000,23.000000,9.000000,87.000000,0.000000,0.507626,0.543505,0.103847,0.040636,0.557615,787.000000,764.000000,23.000000,9.000000,87.000000,0.000000:
0000
0000
0M00
M000
,
00M0
0000
0000
M000
0000
0000
0001
0100
0001
1000
0001
0010
,
0001
0000
0000
0010
0000
0001
0010
0000
0000
0011
0000
0000
,
1000
0000
0000
0100
0000
1000
0100
0000
0000
1100
0000
0000
,
0001
0000
0000
0100
0000
0001
0100
0000
0000
0101
0000
0000
,
1000
0000
0000
0010
0000
1000
0010
0000
0000
1010
0000
0000
,
0001
0000
0000
1000
0000
0001
1000
0000
0000
1001
0000
0000
,
0010
0000
0000
0100
0000
0010
0100
0000
0000
0110
0000
0000
,
0100
0000
0000
0010
0000
0100
0010
0000
0000
0110
0000
0000
,
0001
0000
0000
0000
0000
0000
1000
0000
0000
0000
0001
0000
1000
0000
0000
0000
0000
0000
1001
0000
0000
0000
0002
2003
,
3002
0003
0000
0000
0000
0000
1001
0000
0000
0000
0001
0000
1000
0000
0000
0000
0001
0000
1000
0000
0000
0000
0000
0000
,
0001
0000
0000
0101
0000
0100
0001
0000
0100
0001
0000
0000
,
0100
0000
0000
0110
0000
0010
0100
0000
0010
0100
0000
0000
,
0010
0000
0000
1010
0000
1000
0010
0000
1000
0010
0000
0000
,
1000
0000
0000
1100
0000
0100
1000
0000
0100
1000
0000
0000
,
0100
0000
0000
0110
0000
0010
0100
0000
0010
0100
0000
0000
,
0010
0000
0000
0011
0000
0001
0010
0000
0001
0010
0000
0000
,
0001
0000
0000
1001
0000
1000
0001
0000
1000
0001
0000
0000
,
1000
0000
0000
1010
0000
0010
1000
0000
0010
1000
0000
0000
,
0010
0000
0000
0110
0000
0100
0010
0000
0100
0010
0000
0000
,
0200
0001
0010
0001
,
0010
0001
0010
0001
,
0310
1001
0100
1001
,
0010
1001
0100
1001
,
0010
0000
0000
1001
0000
0000
0100
0000
0000
0010
0000
0001
,
1000
0000
0001
1000
0000
0000
0010
0000
0000
0100
0000
0001
,
1000
0000
0001
1000
0000
0000
0001
0000
0000
1MMM
0000
0001
,
1000
0000
0001
1000
0000
0000
0100
0000
0000
0010
0000
0001
,
1000
0000
0001
1000
0000
0000
0010
0000
0000
0100
0000
0001
,
1000
0000
0001
1000
0000
0000
0100
0000
0000
0010
0000
0001
,
1000
0000
0001
1000
0000
0000
0001
0000
0000
1MMM
0000
0001
,
1000
0000
0001
1MMM
0000
0000
0100
0000
0000
0010
0000
0001
,
1000
0000
0001
1MMM
0000
0000
0100
0000
0000
0010
0000
0001
,
1000
0000
0000
MMM1
0000
0000
0100
0000
0000
0010
0000
1000
,
0001
0000
0000
1MMM
0000
0000
0100
0000
0000
0010
0000
0001
,
1000
0000
0000
MMM1
0000
0000
0100
0000
0000
0010
0000
1000
,
0001
0000
0000
1MMM
0000
0000
0100
0000
0000
0010
0000
0001
,
1000
0000
0000
MMM1
0000
0000
0100
0000
0000
0010
0000
1000
,
0001
0000
0000
1MMM
0000
0000
0100
0000
0000
0010
0000
0001
,
1000
MMM1
0100
1000
,
0100
0010
0100
0001
,
0010
0100
0010
1000
,
0010
0100
0010
0001
,
1000
0000
0000
0100
0000
0000
1000
0000
0000
0100
0000
1000
,
0100
0000
1000
0100
0000
0000
1000
0000
0000
0010
0000
1000
,
0010
0000
1000
0010
0000
0000
0100
0000
0000
0001
0000
0100
,
0001
0000
0100
0001
0000
0000
0010
0000
0000
0001
0000
0010
,
0001
0000
0010
0001
0000
0000
1000
0000
0000
0001
0000
1000
,
0001
0000
1000
0001
0000
0000
0010
0000
0000
0100
0000
0010
,
0100
0000
0010
0100
0000
0000
1000
0000
0000
0001
0000
1000
,
0001
0000
1000
0001
0000
0000
0100
0000
0000
0010
0000
0100
,
0010
0000
0100
0010
0000
0000
0100
0000
0000
MMM1
0000
0000
,
0100
0010
0100
0001
,
1000
0010
0100
0010
,
1000
0001
0010
0100
,
0010
0001
1000
0001
,
2000
3000
0000
0000
0000
1000
0001
0000
1000
0001
0000
1000
,
0001
0000
0000
0000
0000
1000
0001
0000
0000
0000
0000
0000
,
0000
0000
0000
0000
0000
0001
1000
0000
0001
1000
0000
0001
,
1000
0000
0001
0000
0000
0000
0000
0000
1000
0001
0000
0000
,
1000
0100
0010
MMM1
,
1000
0001
1000
0001
0000
0000
0010
0000
0000
0100
0000
0000
,
1000
0001
1000
0001
0000
0000
0100
0000
0000
0010
0000
0000
,
1000
0001
1000
0001
0000
0000
0010
0000
0000
0100
0000
0000
,
1000
0001
1000
0001
0000
0000
0100
0000
0000
0010
0000
0000
,
0100
0000
0010
0000
0010
0000
0001
0000
0010
MM0M
0010
0000
,
0100
0001
1000
0100
,
0010
0100
0001
0100
,
0010
0100
1000
0001
,
0010
0100
0010
0001
,
0100
0010
0100
0001
,
0010
0100
0010
1000
,
0010
0100
0010
0001
,
1000
0000
0000
0001
0000
0000
1000
0000
0000
0001
0000
1000
,
0001
1000
0001
1MM0
0000
0000
0010
0000
0000
0100
0000
0001
,
1000
0001
1000
0MM1
0000
0000
0100
0000
0000
0010
0000
1000
,
0001
1000
0001
1MM0
0000
0000
0010
0000
0000
0100
0000
0001
,
1000
0001
1000
0MM1
0000
0000
0100
0000
0000
0010
0000
1000
,
0001
1000
0001
1MM0
0000
0000
0010
0000
0000
0100
0000
0001
,
1000
0001
1000
0MM1
0000
0000
0100
0000
0000
0010
0000
1000
,
0001
1000
0001
1MM0
0000
0000
0010
0000
0000
0100
0000
0001
,
1000
0001
1000
0MM1
0000
0000
0100
0000
0000
0010
0000
1000
,
0001
1000
0001
1MM0
0000
0000
0010
0000
0000
0100
0000
0001
,
1000
0001
1000
0001
0000
0000
0100
0000
0000
0010
0000
0000
,
0100
0001
1000
0100
,
0010
0100
1000
0001
,
0100
0000
0000
0010
0000
0000
1000
0000
0000
0010
0000
1000
,
0010
1000
0010
1000
0000
0000
0100
0000
0000
1000
0000
0100
,
1000
0100
1000
0100
0000
0000
0010
0000
0000
0001
0000
0010
,
0001
0010
0001
0010
0000
0000
0001
0000
0000
0100
0000
0001
,
0100
0001
0100
0001
0000
0000
1000
0000
0000
0001
0000
1000
,
0001
1000
0001
1000
0000
0000
0010
0000
0000
0100
0000
0010
,
0100
0010
0100
0010
0000
0000
1000
0000
0000
0001
0000
1000
,
0001
1000
0001
1000
0000
0000
0100
0000
0000
0010
0000
0100
,
0010
0100
0010
0100
0000
0000
0010
0000
0000
MMM1
0000
0000
,
0100
0001
0100
0001
,
0010
0100
1000
0100
,
1000
0010
0100
0001
,
0100
0001
0010
0100
,
2000
3000
0000
0000
0000
1000
0001
0000
1000
0001
0000
1000
,
0001
0000
0000
0000
0000
1000
0001
0000
0000
0000
0000
0000
,
0000
0000
0000
0100
0000
0000
0001
0000
0000
1000
0000
0001
,
1000
0000
0100
1000
0000
0000
0001
0000
0000
1000
0000
0001
,
1000
0010
1000
0001
0000
0000
1000
0000
0000
0001
0000
1000
,
0001
0010
0001
1000
0000
0000
0001
0000
0000
1000
0000
0001
,
1000
0100
1000
0001
0000
0000
0100
0000
0000
M0M1
0000
0100
,
0001
0100
0001
0100
0000
0000
0010
0000
0000
0100
0000
0010
,
0100
0010
0100
0010
0000
0000
0100
0000
0000
1000
0000
0100
,
1000
0100
1000
0100
0000
0000
0001
0000
0000
0100
0000
0001
,
0100
0001
0100
0001
0000
0000
0010
0000
0000
MM01
0000
0010
,
0001
0010
0001
0010
0000
0000
0100
0000
0000
0010
0000
0100
,
0010
0100
0010
0100
0000
0000
0010
0000
0000
1000
0000
0010
,
1000
0010
1000
0010
0000
0000
0001
0000
0000
0010
0000
0001
,
0010
0001
0010
0001
0000
0000
0002
0003
0000
MMM1
0000
1000
,
0001
0010
0001
1000
0000
0000
0001
0000
0000
1000
0000
0001
,
1000
0010
1000
0001
0000
0000
1000
0000
0000
0001
0000
1000
,
0001
0100
0001
1000
0000
0000
0001
0000
0000
1000
0000
0001
,
1000
0100
1000
0001
0000
0000
1000
0000
0010
1M0M
0000
0010
,
1000
0010
1000
0010
0000
0000
0100
0000
0010
0100
0000
0010
,
0100
0010
0100
0010
0000
0000
0100
0000
0001
0100
0000
0001
,
0100
0001
0100
0001
0000
0000
1000
0000
0001
1000
0000
0001
,
1000
0001
1000
0001
0000
0000
1000
0000
0100
10MM
0000
0100
,
1000
0100
1000
0100
0000
0000
0010
0000
0100
0010
0000
0100
,
0010
0100
0010
0100
0000
0000
0010
0000
0001
0010
0000
0001
,
0010
0001
0010
0001
0000
0000
1000
0000
0001
1000
0000
0001
,
1000
0001
1000
0001
0000
0000
2000
3000
0000
1MMM
0000
0001
,
0100
0000
0001
0010
0000
0000
0001
0000
0000
1000
0000
0001
,
0100
0000
0001
0010
0000
0000
0001
0000
0000
1000
0000
0001
,
0010
0000
0001
0100
0000
0000
0001
0000
0000
1000
0000
0001
,
0010
0000
0001
0100
0000
0000
0002
0003
0000
MMM1
0000
1000
,
0010
0000
1000
0100
0000
0000
1000
0000
0000
0001
0000
1000
,
0010
0000
1000
0100
0000
0000
1000
0000
0000
0001
0000
1000
,
0100
0000
1000
0010
0000
0000
1000
0000
0000
0001
0000
1000
,
0100
0000
1000
0010
0000
0000
1000
0000
0000
MMM1
0000
0000
;

//---------------dance-single - LinkDump16----------------
#NOTES:
     dance-single:
     LinkDump16:
     Edit:
     11:
     0.655335,0.754868,0.000000,0.081272,1.110715,1016.000000,1016.000000,0.000000,18.000000,4.000000,0.000000,0.655335,0.754868,0.000000,0.081272,1.110715,1016.000000,1016.000000,0.000000,18.000000,4.000000,0.000000:
0000
0000
0M00
M000
,
00M0
0000
0000
M000
0000
0000
0001
1000
0100
1000
0010
1000
,
0001
0100
0001
0010
,
0100
1000
0001
1000
,
0001
0010
0100
1000
,
0001
0010
0100
1000
0001
1000
0010
0100
0001
0010
0001
1000
,
0100
1000
0010
0100
,
0001
1000
0001
0010
,
0100
1000
0001
1000
,
0001
0010
0100
0010
0001
1000
0100
1000
0001
0010
0100
1000
,
0001
0010
0001
1000
,
0100
1000
0010
0100
,
0001
0010
0001
1000
,
0100
1000
0001
0010
,
0001
1000
0100
0010
0001
1000
0100
1000
0001
0010
0100
0010
,
0001
1000
0001
1000
,
0100
0010
0100
1000
,
0001
0010
0001
1000
,
0100
1000
0001
0010
0001
0100
0010
1000
0001
1000
0100
0010
,
0001
1000
0100
0010
,
0001
1000
0001
1000
0100
0010
0100
0010
0001
1000
0001
1000
,
0100
0010
0001
1000
,
0001
0100
0010
1000
,
0001
1000
0100
0010
0001
0100
0010
1000
0001
1000
0001
0100
,
0010
1000
0100
0010
0001
1000
0001
1000
0100
0010
0001
0100
,
0001
1000
0010
1000
,
0001
0100
0010
1000
,
0001
0100
0010
1000
0001
1000
0001
0100
0010
0100
0010
1000
,
0001
1000
0001
0100
0010
1000
0001
0100
0001
1000
0010
1000
,
0001
0100
0010
0100
,
0001
1000
0010
1000
0001
0100
0001
1000
0010
0100
0010
1000
,
0001
1000
0001
0100
,
0010
0100
0001
1000
,
0001
1000
0010
0100
,
0001
1000
0010
0100
,
0001
1000
0010
1000
0001
0100
0001
0010
0100
1000
0010
1000
,
0001
0100
0001
1000
,
0010
0100
0001
1000
,
0001
1000
0010
0100
,
0001
0010
0100
1000
0001
1000
0010
0100
0001
1000
0001
0010
,
0001
1000
0001
0100
,
0001
0010
0100
1000
0010
1000
0001
0100
0001
1000
0010
1000
,
0001
0100
0010
1000
,
0001
0100
0001
1000
,
0010
0100
0010
1000
0001
1000
0001
0100
0010
0100
0001
1000
,
0010
1000
0001
0100
0001
1000
0010
1000
0100
0010
0001
1000
,
0001
0100
0010
1000
,
0001
0100
0010
1000
,
0001
1000
0001
0100
0010
0100
0010
1000
0001
1000
0001
0100
,
0010
1000
0001
1000
0100
0010
0001
1000
0001
0100
0010
1000
,
0100
0010
0001
1000
,
0001
1000
0100
0010
0001
0100
0010
1000
0001
1000
0001
0100
,
0010
1000
0100
1000
,
0001
0010
0001
1000
,
0100
0010
0001
1000
,
0100
0010
0001
1000
0001
1000
0100
0010
0100
0010
0001
1000
,
0002
0003
2000
3000
0200
0300
0020
0030
0002
0003
2000
3000
,
0100
1000
0001
0010
0001
1000
0100
0010
0100
1000
0001
0010
,
0001
1000
0100
1000
,
0001
0010
0100
0010
0001
1000
0001
1000
0100
0010
0100
1000
,
0001
1000
0001
0010
,
0100
1000
0001
0010
0100
1000
0001
0010
0001
1000
0100
1000
,
0010
0100
0001
0010
0001
1000
0100
1000
0001
0010
0100
1000
,
0001
1000
0001
0010
0100
1000
0010
0100
0001
1000
0001
0010
,
0100
1000
0001
1000
0010
0100
0001
0010
0001
1000
0100
1000
,
0020
0030
0200
0300
0002
0003
2000
3000
0002
0003
2000
3000
,
0010
0100
0001
1000
0010
0100
0001
1000
0001
0010
0100
1000
,
0010
1000
0001
0100
,
0001
0010
0100
1000
0001
1000
0010
0100
0001
1000
0001
1000
,
0010
0100
0010
1000
,
0001
0100
0001
1000
0010
0100
0001
1000
0010
1000
0001
1000
,
0001
0100
0001
0010
,
0100
1000
0010
1000
0001
0100
0010
0100
0010
1000
0001
0100
,
0010
1000
0001
0100
0010
0100
0001
1000
0010
1000
0100
0010
,
0001
0100
0001
1000
,
0010
0100
0010
1000
,
0001
0100
0010
0100
,
0010
1000
0001
1000
,
0100
0010
0001
0100
0010
1000
0001
0100
0010
1000
0100
0010
,
0001
0100
0001
1000
,
0010
1000
0100
0010
,
0001
0100
0010
1000
,
0100
0010
0001
1000
0100
0010
0001
0100
0010
1000
0001
1000
,
0100
0010
0100
0010
,
0001
1000
0001
0100
0010
1000
0100
0010
0001
0100
0010
1000
,
0100
1000
0001
0010
,
0100
0010
0001
1000
,
0100
0010
0001
1000
0100
0010
0100
0010
0001
1000
0001
1000
,
0100
0010
0100
0010
0001
1000
0100
0010
0100
1000
0001
0010
,
0100
0010
0001
1000
,
0100
1000
0001
0010
,
0100
0010
0100
1000
0001
0010
0001
1000
0100
0010
0100
0010
,
0001
1000
0100
1000
0010
0100
0001
0010
0100
1000
0001
0010
,
0100
1000
0001
0010
,
0100
0010
0100
1000
0001
1000
0001
0010
0100
0010
0100
1000
,
0001
0010
0100
1000
,
0010
0100
0001
0010
,
0100
1000
0001
1000
,
0010
0100
0001
0010
0100
1000
0010
0100
0001
1000
0001
0010
,
0200
0300
0020
0030
0200
0300
2000
3000
0002
0003
2000
3000
,
0010
0100
0010
0100
0001
1000
0010
0100
0001
1000
0010
0100
,
0001
0010
0100
1000
,
0010
1000
0001
0100
0001
0010
0100
1000
0010
0100
0001
1000
,
0010
0100
0010
0100
0001
1000
0010
1000
0001
0100
0010
0100
,
0001
1000
0010
0100
,
0010
0000
0000
1000
0000
0000
0001
1000
0100
1000
0010
1000
,
0001
0100
0001
0010
0100
1000
0010
0100
0001
0010
0100
1000
,
0001
0010
0100
1000
0010
0100
0001
1000
0001
0010
0100
0010
,
0100
1000
0001
1000
,
0010
0000
0000
0100
0000
0000
0001
0010
0100
1000
0010
0100
,
0001
0010
0001
1000
0100
0010
0100
1000
0001
0010
0100
1000
,
0001
0010
0100
0010
0100
1000
0001
1000
0001
0010
0100
0010
,
0100
1000
0001
0010
,
0100
0000
0000
0010
0000
0000
0001
1000
0100
0010
0100
1000
,
0001
0010
0001
1000
0100
0010
0100
0010
0001
1000
0100
1000
,
0001
0010
0100
0010
0100
1000
0001
0010
0001
0100
0010
1000
,
0100
0010
0001
1000
,
0100
0000
0000
0010
0000
0000
0001
1000
0100
0010
0100
0010
,
0001
1000
0001
1000
0100
0010
0100
0010
0001
1000
0100
0010
,
0001
0100
0010
1000
0100
0010
0001
1000
0001
0100
0010
1000
,
0100
0010
0001
0100
,
0010
0000
0000
1000
0000
0000
0001
1000
0100
0010
0100
0010
,
0001
1000
0001
0100
0010
0100
0010
1000
0001
0100
0010
1000
,
0001
0100
0010
1000
0100
0010
0001
0100
0001
1000
0010
1000
,
0100
0010
0001
0100
,
0010
0000
0000
1000
0000
0000
0001
0100
0010
0100
0010
1000
,
0001
0100
0001
1000
0010
0100
0010
1000
0001
0100
0010
0100
,
0001
1000
0010
1000
0100
0010
0001
0100
0001
1000
0010
0100
,
0010
0100
0001
1000
,
0010
0000
0000
0100
0000
0000
0001
1000
0010
0100
0010
1000
,
0001
0100
0001
0010
0100
1000
0010
1000
0001
0100
0010
0100
,
0001
1000
0010
0100
0010
0100
0001
1000
0001
0010
0100
1000
,
0010
0100
0001
1000
,
0010
0100
0001
0010
;

//---------------dance-double - LinkDubs03----------------
#NOTES:
     dance-double:
     LinkDubs03:
     Beginner:
     2:
     0.085142,0.090415,0.000000,0.018060,0.000000,132.000000,132.000000,0.000000,4.000000,0.000000,0.000000,0.085142,0.090415,0.000000,0.018060,0.000000,132.000000,132.000000,0.000000,4.000000,0.000000,0.000000:
00000000
00000000
00000000
00000000
,
00000000
00000000
00000000
00000000
,
00000010
00000000
00000000
00000000
,
00000010
00000000
00000000
00000000
,
00010000
00000000
00000000
00000000
,
00010000
00000000
00000000
00000000
,
00000010
00000000
00000000
00000000
,
00000010
00000000
00000000
00000000
,
00001000
00000000
00000000
00000000
,
00001000
00000000
00000000
00000000
,
00000010
00000000
00000000
00000000
,
00000010
00000000
00000000
00000000
,
00010000
00000000
00000000
00000000
,
00010000
00000000
00000000
00000000
,
00001000
00000000
00000000
00000000
,
00001000
00000000
00000000
00000000
,
00100000
00000000
00000000
00000000
,
00100000
00000000
00000000
00000000
,
00010000
00000000
00000000
00000000
,
00010000
00000000
00000000
00000000
,
01000000
00000000
00000000
00000000
,
01000000
00000000
00000000
00000000
,
00010000
00000000
00000000
00000000
,
00010000
00000000
00000000
00000000
,
00100000
00000000
00000000
00000000
,
00100000
00000000
00000000
00000000
,
00001000
00000000
00000000
00000000
,
00001000
00000000
00000000
00000000
,
01000000
00000000
00000000
00000000
,
01000000
00000000
00000000
00000000
,
00010000
00000000
00000000
00000000
,
00010000
00000000
00000000
00000000
,
01000000
00000000
00000000
00000000
,
01000000
00000000
00000000
00000000
,
00001000
00000000
00000000
00000000
,
00001000
00000000
00000000
00000000
,
00100000
00000000
00000000
00000000
,
00100000
00000000
00000000
00000000
,
00001000
00000000
00000000
00000000
,
00001000
00000000
00000000
00000000
,
00010000
00000000
00000000
00000000
,
00010000
00000000
00000000
00000000
,
00000100
00000000
00000000
00000000
,
00000100
00000000
00000000
00000000
,
00001000
00000000
00000000
00000000
,
00001000
00000000
00000000
00000000
,
00000100
00000000
00000000
00000000
,
00000100
00000000
00000000
00000000
,
00010000
00000000
00000000
00000000
,
00010000
00000000
00000000
00000000
,
00000010
00000000
00000000
00000000
,
00000010
00000000
00000000
00000000
,
00001000
00000000
00000000
00000000
,
00001000
00000000
00000000
00000000
,
00000100
00000000
00000000
00000000
,
00000100
00000000
00000000
00000000
,
00010000
00000000
00000000
00000000
,
00010000
00000000
00000000
00000000
,
00001000
00000000
00000000
00000000
,
00001000
00000000
00000000
00000000
,
00100000
00000000
00000000
00000000
,
00100000
00000000
00000000
00000000
,
00001000
00000000
00000000
00000000
,
00001000
00000000
00000000
00000000
,
01000000
00000000
00000000
00000000
,
01000000
00000000
00000000
00000000
,
00010000
00000000
00000000
00000000
,
00010000
00000000
00000000
00000000
,
00100000
00000000
00000000
00000000
,
00100000
00000000
00000000
00000000
,
00010000
00000000
00000000
00000000
,
00010000
00000000
00000000
00000000
,
00100000
00000000
00000000
00000000
,
00100000
00000000
00000000
00000000
,
00001000
00000000
00000000
00000000
,
00001000
00000000
00000000
00000000
,
00010000
00000000
00000000
00000000
,
00010000
00000000
00000000
00000000
,
00000100
00000000
00000000
00000000
,
00000100
00000000
00000000
00000000
,
00001000
00000000
00000000
00000000
,
00001000
00000000
00000000
00000000
,
00000010
00000000
00000000
00000000
,
00000010
00000000
00000000
00000000
,
00010000
00000000
00000000
00000000
,
00010000
00000000
00000000
00000000
,
00000010
00000000
00000000
00000000
,
00000010
00000000
00000000
00000000
,
00001000
00000000
00000000
00000000
,
00001000
00000000
00000000
00000000
,
00000100
00000000
00000000
00000000
,
00000100
00000000
00000000
00000000
,
00010000
00000000
00000000
00000000
,
00010000
00000000
00000000
00000000
,
00000100
00000000
00000000
00000000
,
00000100
00000000
00000000
00000000
,
00001000
00000000
00000000
00000000
,
00001000
00000000
00000000
00000000
,
00000010
00000000
00000000
00000000
,
00000010
00000000
00000000
00000000
,
00010000
00000000
00000000
00000000
,
00010000
00000000
00000000
00000000
,
00000100
00000000
00000000
00000000
,
00000100
00000000
00000000
00000000
,
00001000
00000000
00000000
00000000
,
00001000
00000000
00000000
00000000
,
00000010
00000000
00000000
00000000
,
00000010
00000000
00000000
00000000
,
00010000
00000000
00000000
00000000
,
00010000
00000000
00000000
00000000
,
00001000
00000000
00000000
00000000
,
00001000
00000000
00000000
00000000
,
01000000
00000000
00000000
00000000
,
01000000
00000000
00000000
00000000
,
00010000
00000000
00000000
00000000
,
00010000
00000000
00000000
00000000
,
00100000
00000000
00000000
00000000
,
00100000
00000000
00000000
00000000
,
00010000
00000000
00000000
00000000
,
00010000
00000000
00000000
00000000
,
01000000
00000000
00000000
00000000
,
01000000
00000000
00000000
00000000
,
00001000
00000000
00000000
00000000
,
00001000
00000000
00000000
00000000
,
00100000
00000000
00000000
00000000
,
00100000
00000000
00000000
00000000
,
00010000
00000000
00000000
00000000
,
00010000
00000000
00000000
00000000
,
01000000
00000000
00000000
00000000
,
01000000
00000000
00000000
00000000
,
00002000
00000000
00003000
00000000
,
00020000
00000000
00030000
00000000
,
00200000
00000000
00300000
00000000
,
02000000
00000000
03000000
00000000
;

//---------------dance-double - LinkDubs06----------------
#NOTES:
     dance-double:
     LinkDubs06:
     Easy:
     4:
     0.159319,0.181507,0.009030,0.153513,0.000000,247.000000,245.000000,2.000000,34.000000,34.000000,0.000000,0.159319,0.181507,0.009030,0.153513,0.000000,247.000000,245.000000,2.000000,34.000000,34.000000,0.000000:
00000000
00000000
00000000
00000000
,
00000000
00000000
00000000
00000000
,
00000000
00000001
00000000
00000001
,
00000000
00000010
00000000
00000010
,
00000000
00000100
00000000
00000100
,
00000000
00001000
00000000
00001000
,
00000000
00000010
00000000
00000010
,
00000000
00001000
00000000
00001000
,
00000000
00000010
00000000
00000010
,
00000000
00001000
00000000
00001000
,
00000000
00000010
00000000
00000010
,
00000000
00001000
00000000
00001000
,
00000000
00000100
00000000
00000100
,
00000000
00010000
00000000
00010000
,
00000000
00001000
00000000
00001000
,
00000000
00010000
00000000
00010000
,
00000000
00001000
00000000
00001000
,
00000000
00010000
00000000
00010000
,
00000000
00001000
00000000
00001000
,
00000000
00010000
00000000
00010000
,
00000000
00100000
00000000
00100000
,
00000000
01000000
00000000
01000000
,
00000000
00010000
00000000
00010000
,
00000000
01000000
00000000
01000000
,
00000000
00010000
00000000
00010000
,
00000000
01000000
00000000
01000000
,
00000000
00010000
00000000
M0020000
,
00030000
01000000
00000000
01000000
,
00000000
00100000
00000000
00100000
,
00000000
10000000
00000000
10000000
,
00000000
01000000
00000000
02M00000
,
03000000
200M0000
30000000
10000000
,
00000000
M0020000
00030000
00010000
,
00000000
0M200000
00300000
00100000
,
00000000
M0020000
00030000
00010000
,
00000000
0M200000
00300000
00100000
,
00000000
02M00000
03000000
01000000
,
00000000
200M0000
30000000
10000000
,
00000000
00M20000
00030000
00010000
,
00000000
0200M000
03000000
01000000
,
00000000
00001000
00000000
00001000
,
00000000
00100000
00000000
00100000
,
00000000
00001000
00000000
00001000
,
00000000
00010000
00000000
00010000
,
00000000
00001000
00000000
00001000
,
00000000
00010000
00000000
00010000
,
00000000
00001000
00000000
00001000
,
00000000
00010000
00000000
00010000
,
00000000
00000010
00000000
00000010
,
00000000
00000100
00000000
00000100
,
00000000
00000010
00000000
00000010
,
00000000
00000100
00000000
0000M200
,
00000300
00001000
00000000
00001000
,
00000000
00010000
00000000
00010000
,
00000000
00000100
00000000
00000100
,
00000000
00010000
00000000
00010000
,
00000000
00000000
00000000
00000000
,
00000000
00000100
00000000
00000100
,
00000000
00010000
00000000
00010000
,
00000000
00000100
00000000
00000100
,
00000000
00010000
00000000
0002M000
,
00030000
00001000
00000000
00001000
,
00000000
00100000
00000000
00100000
,
00000000
00010000
00000000
00010000
,
00000000
00100000
00000000
00100000
,
00000000
00000000
00000000
0M002000
,
00003000
00001000
00000000
00010000
,
00000000
00010000
00000000
00001000
,
00000000
00001000
00000000
00010000
,
00000000
00010000
00000000
00100000
,
00000000
00100000
00000000
01000000
,
00000000
01000000
00000000
00010000
,
00000000
00010000
00000000
01000000
,
00000000
01000000
00000000
00010000
,
00000000
M0020000
00030000
01000000
,
00000000
02M00000
03000000
00010000
,
00000000
M0020000
00030000
01000000
,
00000000
02M00000
03000000
00100000
,
00000000
0M200000
00300000
10000000
,
00000000
200M0000
30000000
01000000
,
00000000
02M00000
03000000
10000000
,
00000000
200M0000
30000000
00010000
,
00000000
M0020000
00030000
00100000
,
00000000
00100000
00000000
00010000
,
00000000
00010000
00000000
00100000
,
00000000
00100000
00000000
01000000
,
00000000
01000000
00000000
10000000
,
00000000
10000000
00000000
00100000
,
00000000
00100000
00000000
01000000
,
00000000
01000000
00000000
00001000
,
00000000
00001000
00000000
00100000
,
00000000
00100000
00000000
00001000
,
00000000
00001000
00000000
00010000
,
00000000
00010000
00000000
00001000
,
00000000
00001000
00000000
000200M0
,
00030000
00010000
00000000
00001000
,
00000000
00001000
00000000
00010000
,
00000000
00010000
00000000
00000010
,
00000000
00000010
00000000
00000100
,
00000000
00000000
00000000
00000000
,
00000000
00000100
00000000
00000010
,
00000000
00000100
00000000
00001000
,
00000000
00000000
00000000
00000000
,
00000000
00000000
00000000
00000000
,
00000000
00000000
00000000
00000000
,
00000000
00000000
00000000
0000M22M
,
00000330
00000000
00000000
00000000
,
00000000
00000000
00000000
00000000
,
00000000
00000000
00000000
00000000
,
00000000
00000000
00000000
00002MM2
,
00003003
00000001
00000000
00000100
,
00000000
00000010
00000000
00001000
,
00000000
00000100
00000000
00000010
,
00000000
00000001
00000000
000002M0
,
00000300
00000001
00000000
00000010
,
00000000
00000100
00000000
00001000
,
00000000
00000100
00000000
00001000
,
00000000
00000010
00000000
0000M200
,
00000300
00000010
00000000
00001000
,
00000000
00000100
00000000
00010000
,
00000000
00001000
00000000
00000100
,
00000000
00000010
00000000
00002M00
,
00003000
00000010
00000000
00001000
,
00000000
00010000
00000000
00001000
,
00000000
00000100
00000000
00001000
,
00000000
00000010
00000000
0000M200
,
00000300
00000010
00000000
00000100
,
00000000
00010000
00000000
00000100
,
00000000
00001000
00000000
00000100
,
00000000
00000010
00000000
000200M0
,
00030000
00001000
00000000
00100000
,
00000000
01000000
00000000
00010000
,
00000000
00001000
00000000
00100000
,
00000000
01000000
00000000
0M002000
,
00003000
00000000
00000000
00000000
;

//---------------dance-double - LinkDubs09----------------
#NOTES:
     dance-double:
     LinkDubs09:
     Medium:
     6:
     0.319927,0.332142,0.076757,0.067727,0.009030,496.000000,479.000000,17.000000,15.000000,55.000000,0.000000,0.319927,0.332142,0.076757,0.067727,0.009030,496.000000,479.000000,17.000000,15.000000,55.000000,0.000000:
00000000
00000000
00000000
00000000
,
00000000
00000000
00000000
00000000
,
00000011
00000001
00000010
00000000
,
00001010
00001000
00000010
00000000
,
00000101
00000001
00000100
00000000
,
00001100
00001000
00000100
00000000
,
00001001
00000100
00000010
00000000
,
00001001
00000010
00000100
00000000
,
00000110
00000001
00001000
00000000
,
00000110
00001000
00000010
00000000
,
00010000
00000010
00001000
00000100
,
00010000
00000010
00000100
00001000
,
00010000
00001000
00100000
00010000
,
01000000
00001000
00010000
00100000
,
01000000
00001000
00100000
00010000
,
01000000
00010000
00100000
01000000
,
10000000
00010000
01000000
00100000
,
10000000
00010000
00100000
01000000
,
10000000
00010000
01000000
00100000
,
10000000
00010000
00100000
01000000
,
02200000
00000000
00000000
03300000
,
20020000
00000000
00000000
30030000
,
02200000
00000000
00000000
03300000
,
01000000
00010000
00100000
00010000
,
01000000
00100000
00001000
00100000
,
01000000
00001000
00010000
00001000
,
00010000
00001000
00000100
000M10M0
,
00010000
00000100
00000010
00000100
,
00010000
00000010
00001000
00000010
,
00001000
00000100
00001000
00010000
,
00001000
00000010
00001000
00000MM1
,
00001000
00000MM1
00001000
00000001
,
00001000
00000MM1
00000010
00000100
,
00000010
00001M0M
00000010
00000001
,
00010000
0000MM10
00010000
00001000
,
00010000
00001MM0
00000010
00001000
,
00010000
0000MM10
00000100
00001000
,
00000100
000M10M0
00010000
00001000
,
01000000
00M1M000
00100000
00001000
,
00100000
0M01M000
01000000
00001000
,
00100000
00010000
00100000
00010000
,
02020000
00000000
00000000
03030000
,
00010000
01000000
00020000
00000000
,
00030000
00000000
10000000
10000000
,
00010000
00010000
01000000
01000000
,
00100000
00100000
10000000
10000000
,
01000000
01000000
00100000
00100000
,
00010000
00010000
00100000
00100000
,
00010000
00010000
01000000
01000000
,
00100000
00100000
00010000
00010000
,
00001000
00001000
00010000
00010000
,
00001000
00001000
00010000
000100M0
,
00001000
00001000
00000100
00000100
,
00000010
00000010
00001000
00001000
,
00000100
00000100
00001000
00001000
,
00000100
00000100
00000010
00000010
,
00000002
00000003
00000000
00000000
00000000
00000000
00001000
00000000
00000000
00001000
00000000
00000000
,
00001000
00000000
00000110
00000000
,
00000000
00000000
00000001
00000001
,
00000001
00000000
00000000
00001100
,
00001010
00000000
00000000
0000M00M
,
00000010
00000100
00000001
00001000
,
00000010
00010000
00001000
00000100
,
00000010
00000100
00001000
00010000
,
00000100
00001000
00000010
00001000
,
00000010
00000000
00000100
00000000
00000100
00000000
00000010
00000000
00000100
000MM000
00000100
00000000
,
00000010
00000100
00001000
00010000
,
00001000
00100000
00010000
01000000
,
00001000
00010000
00100000
01000000
,
00001000
00100000
00010000
01000000
,
00010000
00100000
01000000
10000000
,
00010000
01000000
00100000
10000000
,
00010000
00100000
01000000
10000000
,
00010000
00100000
00010000
00001000
,
00010000
01M0M000
00010000
01000000
,
00010000
0MM01000
00010000
01000000
,
00010000
01M0M000
00001000
00010000
,
00000100
000M1M00
00010000
00001000
,
00010000
00001MM0
00000010
00000100
,
00000010
000MM100
00010000
00000100
,
00001000
00000M1M
00000001
00000100
,
00000001
0000M1M0
00001000
00000100
,
00001000
000001MM
00000001
00001000
,
00000010
00000100
00001000
00010000
,
00000200
00000000
00000000
00000300
,
00000010
00001000
00010000
00000000
,
00000000
00000000
00000010
00000100
,
00001000
00000100
00000010
00000100
,
00010000
00000100
00000010
00010000
,
00000000
00000000
00001000
00010000
,
00001000
00000000
01100000
00000000
,
01000000
00100000
00010000
00100000
,
00001000
00100000
01000000
00100000
,
00000000
00000000
01000000
00100000
,
01000000
00000000
00110000
MM000000
,
00010000
00010000
00100000
00100000
,
01000000
01000000
10000000
10000000
,
00100000
00100000
01000000
01000000
,
00010000
00010000
01000000
01000000
,
02000000
03000000
00000000
00000000
00000000
00000000
00001000
00000000
00000000
00001000
00000000
00000000
,
00001000
00000000
00001000
00000000
,
00000000
00100000
00001000
00010000
,
00010000
00010000
00001000
00010000
,
00010000
00010000
00000010
00010000
,
00010000
00010000
00000100
00010000
,
00010000
00010000
00000010
000001M0
,
00000100
00000100
00000010
00000100
,
00000100
00000100
00001000
00000100
,
00000100
00000100
00000010
00000100
,
00000100
00000100
00000010
0000M100
,
00000100
00000100
00001000
00000100
,
00000100
00000100
00010000
00000100
,
00000100
00000100
00001000
00000100
,
00000100
00000000
00000000
00000100
00000000
00000000
00002000
00003000
00000000
0M001000
00000000
00000000
,
00001000
00001000
00010000
00001000
,
00001000
00001000
01000000
00001000
,
00001000
00001000
00100000
00010000
,
00010000
00010000
10000000
0M100000
,
00100000
00100000
01000000
00100000
,
00100000
00100000
00010000
00100000
,
00100000
00100000
01000000
00010000
,
00010000
00010000
01000000
001M0000
,
00100000
00100000
00010000
00100000
,
00100000
00100000
00001000
00100000
,
00100000
00100000
00010000
00100000
,
00100000
00000000
00000000
00100000
00000000
00000000
00020000
00030000
00000000
000100M0
00000000
00000000
,
00001000
00000100
00000010
00010000
,
00001000
00000100
00000010
00010000
,
00000100
00001000
00000010
00001000
,
00000010
00000000
00000000
00000100
00000000
00000000
00000002
00000003
00000000
0000M001
00000000
00000000
,
00000010
00000100
00001000
00000001
,
00000010
00000100
00001000
00000010
,
00001000
00000100
00010000
00000010
,
00001000
00000100
00010000
000M0010
;

//---------------dance-double - LinkDubs10----------------
#NOTES:
     dance-double:
     LinkDubs10:
     Hard:
     7:
     0.439900,0.392532,0.000000,0.022576,0.372496,682.000000,682.000000,0.000000,5.000000,77.000000,0.000000,0.439900,0.392532,0.000000,0.022576,0.372496,682.000000,682.000000,0.000000,5.000000,77.000000,0.000000:
00000000
00000000
0M000000
M0000000
,
00M00000
00000000
00000000
M0000000
00000000
00000000
00000001
00000000
00001000
00000001
00000000
00001000
,
00000001
00001000
00000100
00000010
,
00000001
00000010
00000100
00001000
,
00000010
00001000
00000100
00010000
,
00000100
00001000
00000010
00010000
,
00000010
00010000
00001000
00000100
,
00000010
00000100
00001000
00010000
,
00001000
00100000
00010000
01000000
,
00010000
00000000
00000000
00100000
00000000
00000000
00001000
00000000
00000000
01000000
00000000
00001000
,
01000000
00000000
00010000
10000000
00000000
00000000
01000000
00000000
00000000
00100000
00000000
00000000
,
00010000
00100000
01000000
10000000
,
00010000
01000000
00100000
10000000
,
00100000
01000000
00010000
01000000
,
00001000
01000000
00100000
00010000
,
00001000
00010000
00100000
01000000
,
00001000
00100000
00010000
01000000
,
00010000
00100000
00001000
00010000
,
00001000
00000010
00001000
00010000
,
00001000
00000100
00000010
00010000
,
00000100
00000010
00000100
00010000
,
00000100
00001000
00000010
00001000
,
00000100
00000000
00000000
00010000
00000000
00000000
00000010
00000000
00000000
00001000
00000000
00000001
,
00001000
00000000
00000001
00001000
00000000
00000000
00000010
00000000
00000000
00000100
00000000
00000001
,
00001000
00000000
00000001
00001000
00000000
00000000
00000100
00000000
00000000
00000010
00000000
00000001
,
00001000
00000000
00000010
00010000
00000000
00000000
00000100
00000000
00000000
00001000
00000000
00000010
,
00010000
00000000
00000010
00010000
00000000
00000000
00000010
00000000
00000000
0001MM00
00000000
00001000
,
01000000
00000000
00001000
01000000
00000000
00000000
00100000
00000000
00000000
00010000
00000000
00001000
,
01000000
00000000
00001000
01000000
00000000
00000000
00010000
00000000
00000000
00100000
00000000
00001000
,
01000000
00000000
00010000
10000000
00000000
00000000
01000000
00000000
00000000
00100000
00000000
00010000
,
10000000
00000000
00010000
10000000
00000000
00000000
00010000
00000000
00000000
1MM00000
00000000
00010000
,
10000000
00000000
00010000
1MM00000
00000000
00000000
00100000
00000000
00000000
01000000
00000000
00010000
,
01000000
00000000
00001000
01MM0000
00000000
00000000
00100000
00000000
00000000
00010000
00000000
00000000
,
00001000
01MMM000
00010000
00100000
,
00001000
0001MMM0
00001000
00000100
,
00000010
0001MMM0
00000100
00001000
,
00000010
0001MMM0
00001000
00000100
,
00000010
00001MMM
00000010
00000100
,
00000001
00001MMM
00000100
00000010
,
00000001
00001MMM
00000100
00001000
,
00000100
00000001
00000100
00001000
,
00000010
00010000
00000100
00010000
,
00000100
00000010
00000100
00010000
,
00000010
00000000
00000000
00001000
00000000
00000000
00000010
00000000
00000000
00001000
00000000
00000010
,
00001000
00000000
00000010
00001000
00000000
00000000
00000010
00000000
00000000
00000100
00000000
00000010
,
00000100
00000000
00000010
00000100
00000000
00000000
00001000
00000000
00000000
00010000
00000000
00001000
,
00010000
00000000
00001000
00010000
00000000
00000000
00000100
00000000
00000000
00010000
00000000
00000100
,
00010000
00000000
00000100
00010000
00000000
00000000
00001000
00000000
00000000
01000000
00000000
00001000
,
01000000
00000000
00001000
01000000
00000000
00000000
00010000
00000000
00000000
00100000
00000000
00010000
,
00100000
00000000
00010000
00100000
00000000
00000000
00001000
00000000
00000000
01000000
00000000
00010000
,
10000000
00000000
00010000
10000000
00000000
00000000
01000000
00000000
00000000
00100000
00000000
01000000
,
00100000
00000000
01000000
00100000
00000000
00000000
01000000
00000000
00000000
1MMM0000
00000000
00000000
,
01000000
00100000
01000000
10000000
,
00010000
00100000
01000000
00100000
,
00010000
01000000
00010000
00100000
,
00010000
01000000
00001000
01000000
,
00002000
00003000
00000000
00000000
00000000
00001000
01000000
00000000
00001000
00010000
00000000
00000010
,
00010000
00000000
00000000
00000000
00000000
00000010
00010000
00000000
00000000
00000000
00000000
00000000
,
00000000
00000000
00000000
00000000
00000000
00000010
00010000
00000000
00000010
00010000
00000000
00000010
,
00001000
00000000
00000001
00000000
00000000
00000000
00000000
00000000
00001000
00000001
00000000
00000000
,
00001000
00000000
00000000
00000100
00000000
00000000
00000010
00000000
00000000
00000MM1
00000000
00001000
,
00000001
00000000
00001000
00000001
00000000
00000000
00000010
00000000
00000000
00000100
00000000
00001000
,
00000010
00000000
00010000
00000010
00000000
00000000
00001000
00000000
00000000
00000100
00000000
00010000
,
00000010
00000000
00010000
00000010
00000000
00000000
00000100
00000000
00000000
00001000
00000000
00010000
,
00001000
00000000
01000000
00001000
00000000
00000000
00100000
00000000
00000000
00010000
00000000
00000000
,
00100000
00000000
00010000
00000000
00010000
00000000
00100000
00000000
00001000
0M0M0000
00001000
00000000
,
00100000
00001000
01000000
00100000
,
00010000
00100000
00001000
00100000
,
00010000
00100000
01000000
00010000
,
01000000
00100000
01000000
10000000
,
01000000
00100000
01000000
00010000
,
00100000
01000000
00100000
10000000
,
00100000
01000000
00100000
00010000
,
01000000
00000000
00000000
00001000
00000000
00000000
01000000
00000000
00000000
00001000
00000000
01000000
,
00001000
00000000
01000000
00MM1000
00000000
00000000
00010000
00000000
00000000
00100000
00000000
01000000
,
00001000
00000000
00010000
0000MM10
00000000
00000000
00001000
00000000
00000000
00000100
00000000
00010000
,
00000010
00000000
00010000
0000MM10
00000000
00000000
00000100
00000000
00000000
00001000
00000000
00010000
,
00000010
00000000
00001000
00000MM1
00000000
00000000
00000100
00000000
00000000
00000010
00000000
00001000
,
00000001
00000000
00001000
00000MM1
00000000
00000000
00000010
00000000
00000000
00000100
00000000
00001000
,
00000001
00000000
00001000
00000MM1
00000000
00000000
00000100
00000000
00000000
00000010
00000000
00001000
,
00000010
00000000
00010000
0000MM10
00000000
00000000
00000100
00000000
00000000
00001000
00000000
00010000
,
00000010
00000000
00010000
0000MM10
00000000
00000000
00001000
00000000
00000000
00000100
00000000
00010000
,
00001000
00000000
01000000
00MM1000
00000000
00000000
00010000
00000000
00000000
00100000
00000000
01000000
,
00001000
00000000
01000000
00001000
00000000
00000000
00100000
00000000
00000000
00010000
00000000
00000000
,
00100000
00001000
01000000
00100000
,
00010000
00100000
01000000
00010000
,
01000000
00000000
00000000
00100000
00000000
00000000
10000000
00000000
00000000
00100000
00000000
10000000
,
00100000
00000000
10000000
00100000
00000000
00000000
10000000
00000000
00000000
01000000
00000000
10000000
,
01000000
00000000
10000000
01000000
00000000
00000000
00100000
00000000
00000000
00010000
00000000
00100000
,
00010000
00000000
00100000
00010000
00000000
00000000
01000000
00000000
00000000
00010000
00000000
01000000
,
00010000
00000000
01000000
00001000
00000000
00000000
01000000
00000000
00000000
00001000
00000000
01000000
,
00001000
00000000
01000000
00001000
00000000
00000000
00100000
00000000
00000000
00010000
00000000
00100000
,
00010000
00000000
00100000
00010000
00000000
00000000
01000000
00000000
00000000
00001000
00000000
01000000
,
00001000
00000000
01000000
00001000
00000000
00000000
00000100
00000000
00000000
00001000
00000000
00000100
,
00001000
00000000
00000100
00001000
00000000
00000000
00000100
00000000
00000000
0000MM10
00000000
00000000
,
00001000
00000010
00001000
00000010
,
00000100
00001000
00010000
00001000
,
00010000
00000010
00000100
00000001
,
00000100
00000001
00000010
00000100
,
00002000
00003000
00000000
00000000
00000000
00001000
00000001
00000000
00001000
00000001
00000000
00001000
,
00000001
00000000
00000000
00000000
00000000
00001000
00000010
00000000
00000000
00000000
00000000
00000000
,
00000000
00000000
00000000
00001000
00000000
00000000
00000010
00000000
00000000
00010000
00000000
00000010
,
00010000
00000000
00001000
00010000
00000000
00000000
00000010
00000000
00000000
00010000
00000000
00001000
,
01000000
00000000
00010000
01000000
00000000
00000000
00001000
00000000
00000000
01000000
00000000
00001000
,
01000000
00000000
00100000
01000000
00000000
00000000
00010000
00000000
00000000
10000000
00000000
00010000
,
10000000
00000000
00100000
10000000
00000000
00000000
00010000
00000000
00000000
M1M00000
00000000
00010000
,
01000000
00000000
00010000
01000000
00000000
00000000
00100000
00000000
00000000
01000000
00000000
00100000
,
01000000
00000000
00100000
01000000
00000000
00000000
10000000
00000000
00000000
01000000
00000000
10000000
,
01000000
00000000
10000000
01000000
00000000
00000000
00010000
00000000
00000000
01000000
00000000
00010000
,
01000000
00000000
00010000
01000000
00000000
00000000
00001000
00000000
00000000
0MM10000
00000000
00001000
,
00010000
00000000
00001000
00010000
00000000
00000000
00100000
00000000
00000000
00010000
00000000
00100000
,
00010000
00000000
00100000
00010000
00000000
00000000
01000000
00000000
00000000
00010000
00000000
01000000
,
00010000
00000000
01000000
00010000
00000000
00000000
00001000
00000000
00000000
00010000
00000000
00001000
,
00010000
00000000
00001000
00010000
00000000
00000000
00000020
00000030
00000000
0000MM10
00000000
00010000
,
00000010
00000000
00000100
00000010
00000000
00000000
00010000
00000000
00000000
00000010
00000000
00010000
,
00000010
00000000
00001000
00000010
00000000
00000000
00010000
00000000
00000000
00000010
00000000
00010000
,
00000010
00000000
00000100
00000010
00000000
00000000
00010000
00000000
00000000
00000010
00000000
00010000
,
00000010
00000000
00001000
00000010
00000000
00000000
00001000
00000000
00000000
00000M1M
00000000
00001000
,
00000010
00000000
00001000
00000010
00000000
00000000
00000100
00000000
00000000
00000010
00000000
00000100
,
00000010
00000000
00000100
00000010
00000000
00000000
00000001
00000000
00000000
00000010
00000000
00000001
,
00000010
00000000
00000001
00000010
00000000
00000000
00010000
00000000
00000000
00000100
00000000
00010000
,
00000100
00000000
00010000
00000100
00000000
00000000
00010000
00000000
00000000
00001MM0
00000000
00010000
,
00001000
00000000
00010000
00001000
00000000
00000000
00010000
00000000
00000000
00100000
00000000
00010000
,
00100000
00000000
00010000
00100000
00000000
00000000
00001000
00000000
00000000
00100000
00000000
00001000
,
00100000
00000000
00001000
00100000
00000000
00000000
01000000
00000000
00000000
00100000
00000000
01000000
,
00100000
00000000
01000000
00100000
00000000
00000000
20000000
30000000
00000000
1MM00000
00000000
00010000
,
01000000
00000000
00010000
00100000
00000000
00000000
00010000
00000000
00000000
10000000
00000000
00010000
,
01000000
00000000
00010000
00100000
00000000
00000000
00010000
00000000
00000000
10000000
00000000
00010000
,
00100000
00000000
00010000
01000000
00000000
00000000
00010000
00000000
00000000
10000000
00000000
00010000
,
00100000
00000000
00010000
01000000
00000000
00000000
00002000
00003000
00000000
00MM1000
00000000
01000000
,
00010000
00000000
01000000
00100000
00000000
00000000
01000000
00000000
00000000
00001000
00000000
01000000
,
00010000
00000000
01000000
00100000
00000000
00000000
01000000
00000000
00000000
00001000
00000000
00010000
,
00001000
00000000
00010000
00000100
00000000
00000000
00010000
00000000
00000000
00000010
00000000
00010000
,
00001000
00000000
00010000
00000100
00000000
00000000
00010000
00000000
00000000
000MMM10
00000000
00000000
;

//---------------dance-double - LinkDubs14----------------
#NOTES:
     dance-double:
     LinkDubs14:
     Challenge:
     9:
     0.507626,0.543505,0.103847,0.040636,0.557615,787.000000,764.000000,23.000000,9.000000,87.000000,0.000000,0.507626,0.543505,0.103847,0.040636,0.557615,787.000000,764.000000,23.000000,9.000000,87.000000,0.000000:
00000000
00000000
0M000000
M0000000
,
00M00000
00000000
00000000
M0000000
00000000
00000000
00000001
00000100
00000001
00001000
00000001
00000010
,
00000001
00000000
00000000
00000010
00000000
00000001
00000010
00000000
00000000
00000011
00000000
00000000
,
00001000
00000000
00000000
00000100
00000000
00001000
00000100
00000000
00000000
00001100
00000000
00000000
,
00000010
00000000
00000000
00001000
00000000
00000010
00001000
00000000
00000000
00001010
00000000
00000000
,
00010000
00000000
00000000
00000100
00000000
00010000
00000100
00000000
00000000
00010100
00000000
00000000
,
00001000
00000000
00000000
01000000
00000000
00001000
01000000
00000000
00000000
01001000
00000000
00000000
,
00010000
00000000
00000000
00100000
00000000
00010000
00100000
00000000
00000000
00110000
00000000
00000000
,
01000000
00000000
00000000
00100000
00000000
01000000
00100000
00000000
00000000
01100000
00000000
00000000
,
00010000
00000000
00000000
00000000
00000000
00000000
10000000
00000000
00000000
00000000
00010000
00000000
10000000
00000000
00000000
00000000
00000000
00000000
10010000
00000000
00000000
00000000
00020000
20030000
,
30020000
00030000
00000000
00000000
00000000
00000000
10010000
00000000
00000000
00000000
00010000
00000000
10000000
00000000
00000000
00000000
00010000
00000000
10000000
00000000
00000000
00000000
00000000
00000000
,
00010000
00000000
00000000
00101000
00000000
00100000
00001000
00000000
00100000
00001000
00000000
00000000
,
00100000
00000000
00000000
00110000
00000000
00010000
00100000
00000000
00010000
00100000
00000000
00000000
,
00010000
00000000
00000000
00010100
00000000
00010000
00000100
00000000
00010000
00000100
00000000
00000000
,
00010000
00000000
00000000
00011000
00000000
00001000
00010000
00000000
00001000
00010000
00000000
00000000
,
00001000
00000000
00000000
00000110
00000000
00000010
00000100
00000000
00000010
00000100
00000000
00000000
,
00000010
00000000
00000000
00000011
00000000
00000001
00000010
00000000
00000001
00000010
00000000
00000000
,
00000001
00000000
00000000
00001001
00000000
00001000
00000001
00000000
00001000
00000001
00000000
00000000
,
00001000
00000000
00000000
00010100
00000000
00000100
00010000
00000000
00000100
00010000
00000000
00000000
,
00000100
00000000
00000000
00011000
00000000
00010000
00001000
00000000
00010000
00001000
00000000
00000000
,
00020000
00000100
00001000
00000100
,
00001000
00100000
00001000
00000100
,
00031000
01001000
00100000
01001000
,
00010000
01001000
00100000
01001000
,
00010000
00000000
00000000
01001000
00000000
00000000
00100000
00000000
00000000
00010000
00000000
00001000
,
01000000
00000000
00010000
10000000
00000000
00000000
00100000
00000000
00000000
01000000
00000000
00010000
,
10000000
00000000
00010000
10000000
00000000
00000000
00010000
00000000
00000000
1MMM0000
00000000
00010000
,
10000000
00000000
00010000
10000000
00000000
00000000
01000000
00000000
00000000
00100000
00000000
00010000
,
01000000
00000000
00001000
01000000
00000000
00000000
00010000
00000000
00000000
00100000
00000000
00001000
,
01000000
00000000
00001000
01000000
00000000
00000000
00100000
00000000
00000000
00010000
00000000
00001000
,
00010000
00000000
00000010
00010000
00000000
00000000
00000010
00000000
00000000
0001MMM0
00000000
00000010
,
00010000
00000000
00000010
0001MMM0
00000000
00000000
00001000
00000000
00000000
00000100
00000000
00000010
,
00010000
00000000
00000010
00001MMM
00000000
00000000
00000100
00000000
00000000
00000010
00000000
00000001
,
00001000
00000000
00000000
0000MMM1
00000000
00000000
00000100
00000000
00000000
00000010
00000000
00001000
,
00000001
00000000
00000000
00001MMM
00000000
00000000
00000100
00000000
00000000
00000010
00000000
00000001
,
00001000
00000000
00000000
000MMM10
00000000
00000000
00001000
00000000
00000000
00000100
00000000
00010000
,
00000010
00000000
00000000
0001MMM0
00000000
00000000
00001000
00000000
00000000
00000100
00000000
00000010
,
00010000
00000000
00000000
000MMM10
00000000
00000000
00001000
00000000
00000000
00010000
00000000
01000000
,
00001000
00000000
00000000
01MMM000
00000000
00000000
00100000
00000000
00000000
00010000
00000000
00001000
,
01000000
0MMM1000
00100000
01000000
,
00100000
00010000
00100000
00010000
,
00100000
01000000
00100000
10000000
,
00100000
01000000
00100000
00010000
,
10000000
00000000
00000000
01000000
00000000
00000000
10000000
00000000
00000000
01000000
00000000
10000000
,
01000000
00000000
10000000
01000000
00000000
00000000
10000000
00000000
00000000
00100000
00000000
10000000
,
00100000
00000000
10000000
00100000
00000000
00000000
01000000
00000000
00000000
00010000
00000000
01000000
,
00010000
00000000
01000000
00010000
00000000
00000000
00100000
00000000
00000000
00010000
00000000
00100000
,
00010000
00000000
00100000
00010000
00000000
00000000
01000000
00000000
00000000
00001000
00000000
01000000
,
00001000
00000000
01000000
00001000
00000000
00000000
00100000
00000000
00000000
01000000
00000000
00100000
,
01000000
00000000
00100000
01000000
00000000
00000000
10000000
00000000
00000000
00010000
00000000
10000000
,
00010000
00000000
10000000
00010000
00000000
00000000
00100000
00000000
00000000
00010000
00000000
00100000
,
00010000
00000000
00100000
00010000
00000000
00000000
00100000
00000000
00000000
0MMM1000
00000000
00000000
,
00100000
00010000
00100000
00001000
,
00010000
00000100
00001000
00000100
,
00010000
00000010
00000100
00001000
,
00000100
00000010
00010000
00000010
,
00002000
00003000
00000000
00000000
00000000
00001000
00000001
00000000
00001000
00000001
00000000
00001000
,
00000001
00000000
00000000
00000000
00000000
00001000
00000001
00000000
00000000
00000000
00000000
00000000
,
00000000
00000000
00000000
00000000
00000000
00000001
00001000
00000000
00000001
00001000
00000000
00000001
,
00001000
00000000
00000001
00000000
00000000
00000000
00000000
00000000
00001000
00000001
00000000
00000000
,
00001000
00000100
00000010
0000MMM1
,
00001000
00000010
00010000
00000010
00000000
00000000
00000100
00000000
00000000
00001000
00000000
00000000
,
00010000
00000010
00010000
00000010
00000000
00000000
00001000
00000000
00000000
00000100
00000000
00000000
,
00010000
00001000
01000000
00001000
00000000
00000000
00010000
00000000
00000000
00100000
00000000
00000000
,
01000000
00001000
01000000
00001000
00000000
00000000
00100000
00000000
00000000
00010000
00000000
00000000
,
01000000
00000000
00100000
00000000
00100000
00000000
00010000
00000000
00100000
MM0M0000
00100000
00000000
,
01000000
00010000
10000000
01000000
,
00100000
01000000
00010000
01000000
,
00100000
01000000
10000000
00010000
,
00100000
01000000
00100000
00010000
,
00100000
00010000
00100000
00001000
,
00010000
00100000
00010000
01000000
,
00010000
00100000
00010000
00001000
,
00010000
00000000
00000000
00000010
00000000
00000000
00010000
00000000
00000000
00000010
00000000
00010000
,
00000010
00010000
00000010
0001MM00
00000000
00000000
00000100
00000000
00000000
00001000
00000000
00000010
,
00001000
00000001
00001000
00000MM1
00000000
00000000
00000100
00000000
00000000
00000010
00000000
00001000
,
00000001
00001000
00000001
00001MM0
00000000
00000000
00000010
00000000
00000000
00000100
00000000
00000001
,
00001000
00000010
00010000
0000MM10
00000000
00000000
00001000
00000000
00000000
00000100
00000000
00010000
,
00000010
00010000
00000010
0001MM00
00000000
00000000
00000100
00000000
00000000
00001000
00000000
00000010
,
00010000
00001000
01000000
00MM1000
00000000
00000000
00100000
00000000
00000000
00010000
00000000
01000000
,
00001000
01000000
00001000
01MM0000
00000000
00000000
00010000
00000000
00000000
00100000
00000000
00010000
,
10000000
00010000
10000000
0MM10000
00000000
00000000
01000000
00000000
00000000
00100000
00000000
10000000
,
00010000
10000000
00010000
1MM00000
00000000
00000000
00100000
00000000
00000000
01000000
00000000
00010000
,
01000000
00001000
01000000
00001000
00000000
00000000
00100000
00000000
00000000
00010000
00000000
00000000
,
00100000
00001000
01000000
00100000
,
00010000
00100000
00010000
00000010
,
00001000
00000000
00000000
00000100
00000000
00000000
00010000
00000000
00000000
00000100
00000000
00010000
,
00000100
00010000
00000100
00010000
00000000
00000000
00001000
00000000
00000000
00010000
00000000
00001000
,
00010000
00001000
00010000
00001000
00000000
00000000
00000010
00000000
00000000
00000001
00000000
00000010
,
00000001
00000010
00000001
00000010
00000000
00000000
00000001
00000000
00000000
00000100
00000000
00000001
,
00000100
00000001
00000100
00000001
00000000
00000000
00001000
00000000
00000000
00000001
00000000
00001000
,
00000001
00001000
00000001
00001000
00000000
00000000
00000100
00000000
00000000
00001000
00000000
00000100
,
00001000
00000100
00001000
00000100
00000000
00000000
00010000
00000000
00000000
00000010
00000000
00010000
,
00000010
00010000
00001000
01000000
00000000
00000000
00100000
00000000
00000000
00010000
00000000
00100000
,
00010000
00100000
00010000
00100000
00000000
00000000
00010000
00000000
00000000
0MMM1000
00000000
00000000
,
00100000
00001000
00100000
00010000
,
00100000
01000000
10000000
01000000
,
10000000
00100000
01000000
00010000
,
01000000
00010000
00100000
01000000
,
20000000
30000000
00000000
00000000
00000000
10000000
00010000
00000000
10000000
00010000
00000000
10000000
,
00010000
00000000
00000000
00000000
00000000
10000000
00010000
00000000
00000000
00000000
00000000
00000000
,
00000000
00000000
00000000
00100000
00000000
00000000
00001000
00000000
00000000
01000000
00000000
00001000
,
01000000
00000000
00100000
01000000
00000000
00000000
00001000
00000000
00000000
01000000
00000000
00001000
,
01000000
00010000
01000000
00001000
00000000
00000000
01000000
00000000
00000000
00001000
00000000
00010000
,
00000010
00000100
00000010
00010000
00000000
00000000
00000010
00000000
00000000
00010000
00000000
00000010
,
00010000
00001000
00010000
00000010
00000000
00000000
00000100
00000000
00000000
0000M0M1
00000000
00000100
,
00000001
00000100
00000001
00000100
00000000
00000000
00000010
00000000
00000000
00000100
00000000
00000010
,
00000100
00000010
00000100
00000010
00000000
00000000
00000100
00000000
00000000
00010000
00000000
00001000
,
00010000
00001000
00010000
00001000
00000000
00000000
00000010
00000000
00000000
00001000
00000000
00000010
,
00001000
00000010
00001000
00000010
00000000
00000000
00000100
00000000
00000000
000MM010
00000000
00000100
,
00000010
00000100
00000010
00000100
00000000
00000000
00010000
00000000
00000000
00001000
00000000
00010000
,
00001000
00010000
00001000
00010000
00000000
00000000
00001000
00000000
00000000
01000000
00000000
00010000
,
01000000
00010000
01000000
00010000
00000000
00000000
00001000
00000000
00000000
00010000
00000000
00001000
,
00010000
00001000
00010000
00001000
00000000
00000000
00020000
00030000
00000000
MMM10000
00000000
10000000
,
00010000
00100000
00010000
10000000
00000000
00000000
00010000
00000000
00000000
10000000
00000000
00010000
,
10000000
00100000
10000000
00010000
00000000
00000000
10000000
00000000
00000000
00010000
00000000
01000000
,
00001000
00100000
00001000
01000000
00000000
00000000
00001000
00000000
00000000
01000000
00000000
00001000
,
01000000
00100000
01000000
00001000
00000000
00000000
00010000
00000000
00000100
0001M0M0
00000000
00000100
,
00010000
00000100
00010000
00000100
00000000
00000000
00001000
00000000
00000100
00001000
00000000
00000100
,
00001000
00000100
00001000
00000100
00000000
00000000
00001000
00000000
00000010
00001000
00000000
00000010
,
00001000
00000010
00001000
00000010
00000000
00000000
00001000
00000000
00000001
00001000
00000000
00000001
,
00001000
00000001
00001000
00000001
00000000
00000000
00001000
00000000
00000100
000010MM
00000000
00000100
,
00001000
00000100
00001000
00000100
00000000
00000000
00001000
00000000
00010000
00001000
00000000
00010000
,
00001000
00010000
00001000
00010000
00000000
00000000
00001000
00000000
00000100
00001000
00000000
00000100
,
00010000
00001000
00010000
00001000
00000000
00000000
01000000
00000000
00001000
01000000
00000000
00001000
,
01000000
00001000
01000000
00001000
00000000
00000000
20000000
30000000
00000000
1MMM0000
00000000
00010000
,
01000000
00000000
00010000
00100000
00000000
00000000
00010000
00000000
00000000
10000000
00000000
00010000
,
01000000
00000000
00010000
00100000
00000000
00000000
00010000
00000000
00000000
01000000
00000000
00001000
,
00010000
00000000
00001000
00100000
00000000
00000000
00001000
00000000
00000000
01000000
00000000
00001000
,
00010000
00000000
00001000
00100000
00000000
00000000
00002000
00003000
00000000
0MMM1000
00000000
00010000
,
00000100
00000000
00010000
00001000
00000000
00000000
00010000
00000000
00000000
00000010
00000000
00010000
,
00000100
00000000
00010000
00001000
00000000
00000000
00010000
00000000
00000000
00000010
00000000
00001000
,
00000100
00000000
00001000
00000010
00000000
00000000
00001000
00000000
00000000
00000001
00000000
00001000
,
00000100
00000000
00001000
00000010
00000000
00000000
00001000
00000000
00000000
0000MMM1
00000000
00000000
;

//---------------dance-double - LinkDump16----------------
#NOTES:
     dance-double:
     LinkDump16:
     Edit:
     11:
     0.655335,0.754868,0.000000,0.081272,1.110715,1016.000000,1016.000000,0.000000,18.000000,4.000000,0.000000,0.655335,0.754868,0.000000,0.081272,1.110715,1016.000000,1016.000000,0.000000,18.000000,4.000000,0.000000:
00000000
00000000
0M000000
M0000000
,
00M00000
00000000
00000000
M0000000
00000000
00000000
00000001
00001000
00000100
00001000
00000010
00001000
,
00000001
00000100
00000001
00000010
,
00000100
00001000
00000010
00010000
,
00000010
00001000
00000100
00010000
,
00000010
00001000
00000100
00010000
00001000
01000000
00010000
00100000
00001000
00100000
00001000
01000000
,
00010000
01000000
00010000
00100000
,
00001000
01000000
00010000
01000000
,
00100000
10000000
00010000
10000000
,
00010000
01000000
00100000
01000000
00010000
01000000
00010000
01000000
00001000
00100000
00010000
01000000
,
00001000
00100000
00001000
00010000
,
00000100
00010000
00000100
00001000
,
00000010
00001000
00000010
00010000
,
00000100
00010000
00000010
00001000
,
00000010
00001000
00000010
00000100
00000001
00001000
00000010
00001000
00000001
00000100
00000010
00000100
,
00000001
00001000
00000010
00010000
,
00000100
00001000
00000100
00010000
,
00000010
00001000
00000010
00010000
,
00000100
00010000
00001000
00100000
00001000
00100000
00010000
01000000
00001000
01000000
00010000
00100000
,
00001000
01000000
00010000
00100000
,
00001000
01000000
00010000
10000000
00100000
01000000
00100000
01000000
00010000
10000000
00010000
10000000
,
00100000
01000000
00010000
01000000
,
00001000
00100000
00010000
01000000
,
00001000
01000000
00010000
00100000
00001000
00100000
00010000
01000000
00001000
00010000
00000010
00001000
,
00000100
00010000
00000100
00001000
00000010
00010000
00000010
00001000
00000010
00000100
00000001
00000010
,
00000001
00001000
00000100
00001000
,
00000001
00000010
00000100
00001000
,
00000010
00001000
00000100
00010000
00000010
00010000
00000010
00001000
00000100
00001000
00000100
00010000
,
00001000
01000000
00001000
00100000
00010000
01000000
00001000
00100000
00001000
01000000
00010000
01000000
,
00010000
00100000
01000000
00100000
,
00010000
10000000
01000000
10000000
00010000
00100000
00010000
01000000
00010000
00100000
00010000
01000000
,
00001000
01000000
00001000
00100000
,
00010000
00100000
00001000
00010000
,
00000010
00010000
00000100
00001000
,
00000010
00010000
00000100
00001000
,
00000010
00001000
00000010
00001000
00000001
00000100
00000001
00000010
00000100
00001000
00000010
00001000
,
00000010
00001000
00000010
00010000
,
00000100
00001000
00000010
00010000
,
00000010
00010000
00000100
00001000
,
00000010
00001000
00000100
00010000
00001000
01000000
00010000
00100000
00001000
01000000
00001000
00100000
,
00001000
01000000
00010000
01000000
,
00010000
00100000
01000000
10000000
00100000
10000000
00010000
01000000
00010000
01000000
00010000
01000000
,
00001000
00100000
00010000
01000000
,
00001000
00100000
00001000
00010000
,
00000100
00001000
00000100
00010000
00000010
00010000
00000010
00001000
00000100
00001000
00000010
00001000
,
00000100
00001000
00000001
00000010
00000001
00001000
00000100
00001000
00000010
00000100
00000001
00001000
,
00000010
00001000
00000100
00010000
,
00000010
00001000
00000100
00010000
,
00000010
00010000
00001000
00100000
00010000
00100000
00010000
01000000
00001000
01000000
00001000
00100000
,
00010000
01000000
00010000
10000000
00100000
01000000
00010000
10000000
00010000
00100000
01000000
10000000
,
00100000
01000000
00010000
01000000
,
00001000
01000000
00010000
00100000
00001000
00100000
00010000
01000000
00001000
00010000
00000010
00001000
,
00000100
00010000
00000100
00010000
,
00000010
00001000
00000010
00001000
,
00000010
00000100
00000001
00001000
,
00000010
00000100
00000001
00001000
00000001
00001000
00000010
00000100
00000010
00000100
00000001
00001000
,
00000020
00000030
00020000
00030000
00000200
00000300
00002000
00003000
00000020
00000030
00020000
00030000
,
00000100
00010000
00000010
00001000
00000010
00010000
00000100
00001000
00000100
00010000
00001000
00100000
,
00001000
01000000
00010000
01000000
,
00001000
00100000
00010000
00100000
00001000
01000000
00010000
10000000
00100000
01000000
00100000
10000000
,
00010000
10000000
00010000
01000000
,
00100000
10000000
00010000
01000000
00100000
10000000
00010000
01000000
00010000
01000000
00010000
01000000
,
00010000
00100000
00001000
00100000
00001000
01000000
00010000
01000000
00001000
00100000
00010000
01000000
,
00001000
00010000
00000010
00001000
00000100
00010000
00000100
00001000
00000010
00010000
00000010
00001000
,
00000100
00010000
00000010
00001000
00000010
00000100
00000001
00000010
00000001
00001000
00000100
00001000
,
00000020
00000030
00000200
00000300
00000002
00000003
00002000
00003000
00000020
00000030
00020000
00030000
,
00000100
00001000
00000010
00010000
00000100
00001000
00000010
00010000
00001000
00100000
00010000
01000000
,
00010000
01000000
00001000
00100000
,
00001000
00100000
00010000
01000000
00010000
10000000
00100000
01000000
00010000
10000000
00010000
10000000
,
00100000
01000000
00100000
10000000
,
00010000
01000000
00010000
01000000
00010000
00100000
00001000
01000000
00010000
01000000
00001000
01000000
,
00001000
00100000
00001000
00100000
,
00010000
01000000
00010000
01000000
00001000
00100000
00010000
00100000
00010000
01000000
00001000
00100000
,
00010000
01000000
00001000
00100000
00010000
00100000
00001000
00010000
00000100
00010000
00000100
00001000
,
00000010
00001000
00000010
00010000
,
00000100
00001000
00000100
00010000
,
00000010
00001000
00000100
00001000
,
00000100
00010000
00000010
00001000
,
00000010
00000100
00000001
00000010
00000100
00001000
00000001
00000010
00000100
00001000
00000010
00000100
,
00000001
00000010
00000001
00001000
,
00000100
00001000
00000010
00000100
,
00000001
00000010
00000100
00001000
,
00000010
00000100
00000001
00001000
00000010
00000100
00000001
00000010
00000100
00001000
00000010
00010000
,
00000100
00001000
00000100
00001000
,
00000010
00010000
00000010
00001000
00000100
00010000
00000100
00001000
00000010
00001000
00000100
00010000
,
00000100
00010000
00001000
00100000
,
00010000
00100000
00001000
01000000
,
00010000
00100000
00001000
01000000
00010000
00100000
00010000
00100000
00001000
01000000
00010000
10000000
,
00100000
01000000
00100000
01000000
00010000
10000000
00100000
01000000
00100000
10000000
00010000
01000000
,
00100000
01000000
00010000
01000000
,
00010000
01000000
00001000
00100000
,
00010000
00100000
00010000
01000000
00001000
00100000
00001000
00010000
00000100
00001000
00000100
00001000
,
00000010
00010000
00000100
00010000
00000100
00001000
00000010
00001000
00000100
00010000
00000010
00001000
,
00000100
00010000
00000010
00001000
,
00000100
00001000
00000100
00010000
00000010
00001000
00000001
00000010
00000100
00000010
00000100
00001000
,
00000001
00000010
00000100
00001000
,
00000010
00000100
00000001
00000010
,
00000100
00001000
00000010
00010000
,
00000100
00001000
00000010
00001000
00000100
00010000
00000100
00001000
00000010
00010000
00001000
00100000
,
00020000
00030000
00200000
00300000
00020000
00030000
02000000
03000000
00002000
00003000
02000000
03000000
,
00010000
00100000
00010000
00100000
00001000
01000000
00010000
00100000
00001000
01000000
00010000
00100000
,
00001000
00100000
00010000
01000000
,
00010000
01000000
00010000
00100000
00010000
01000000
00100000
10000000
01000000
00100000
00010000
10000000
,
01000000
00100000
01000000
00100000
00010000
01000000
00010000
01000000
00001000
00100000
00010000
00100000
,
00001000
01000000
00010000
00100000
,
00010000
00000000
00000000
01000000
00000000
00000000
00001000
00010000
00000100
00010000
00000100
00010000
,
00000010
00001000
00000010
00001000
00000100
00010000
00000100
00001000
00000010
00001000
00000100
00010000
,
00000010
00001000
00000100
00010000
00000100
00001000
00000010
00001000
00000001
00000010
00000100
00000010
,
00000100
00001000
00000001
00001000
,
00000010
00000000
00000000
00000100
00000000
00000000
00000001
00000010
00000100
00001000
00000010
00000100
,
00000001
00000010
00000001
00001000
00000100
00000010
00000100
00001000
00000010
00001000
00000100
00010000
,
00000010
00001000
00000100
00001000
00000100
00010000
00001000
01000000
00001000
00100000
00010000
00100000
,
00010000
01000000
00001000
00100000
,
00010000
00000000
00000000
00100000
00000000
00000000
00001000
01000000
00010000
00100000
00010000
01000000
,
00010000
01000000
00010000
10000000
00100000
01000000
00100000
01000000
00010000
10000000
00100000
10000000
,
00010000
01000000
00100000
01000000
00100000
10000000
00010000
01000000
00010000
00100000
01000000
10000000
,
00100000
01000000
00010000
01000000
,
00010000
00000000
00000000
00100000
00000000
00000000
00001000
01000000
00010000
00100000
00010000
00100000
,
00001000
00010000
00000010
00010000
00000100
00001000
00000100
00001000
00000010
00010000
00000100
00001000
,
00000010
00001000
00000100
00010000
00000100
00001000
00000010
00001000
00000001
00000010
00000100
00001000
,
00000010
00000100
00000001
00000010
,
00000100
00000000
00000000
00001000
00000000
00000000
00000010
00010000
00000100
00001000
00000100
00001000
,
00000010
00010000
00000010
00001000
00000100
00001000
00000100
00010000
00001000
00100000
00010000
01000000
,
00001000
00100000
00010000
01000000
00010000
00100000
00001000
00100000
00001000
01000000
00010000
01000000
,
00010000
00100000
00001000
00100000
,
00010000
00000000
00000000
01000000
00000000
00000000
00010000
00100000
01000000
00100000
01000000
10000000
,
00010000
00100000
00010000
10000000
01000000
00100000
01000000
10000000
00010000
00100000
01000000
00100000
,
00010000
01000000
00010000
01000000
00010000
00100000
00001000
00100000
00001000
01000000
00010000
00100000
,
00010000
00100000
00001000
00010000
,
00000100
00000000
00000000
00001000
00000000
00000000
00000010
00010000
00000100
00001000
00000100
00010000
,
00000010
00001000
00000010
00001000
00000100
00010000
00000100
00010000
00000010
00001000
00000100
00001000
,
00000010
00001000
00000010
00000100
00000010
00000100
00000001
00001000
00000001
00000010
00000100
00001000
,
00000010
00000100
00000001
00001000
,
00000010
00000100
00000001
00000010
;
