#TITLE:50 Ways To Say Goodbye;
#SUBTITLE:Sensibility Validation;
#ARTIST:Train;
#TITLETRANSLIT:;
#SUBTITLETRANSLIT:;
#ARTISTTRANSLIT:;
#GENRE:;
#CREDIT:;
#MUSIC:50 Ways To Say Goodbye.ogg;
#BANNER:50 Ways to Say Goodbye-bn.png;
#BACKGROUND:50 Ways to Say Goodbye-bg.png;
#CDTITLE:GazeboCD.png;
#SAMPLESTART:44.595;
#SAMPLELENGTH:29.900;
#SELECTABLE:YES;
#OFFSET:-0.539;
#BPMS:0.000=140.000;
#STOPS:;
#BGCHANGES:;
#FGCHANGES:;

//--------------- dance-single - LinkDude03 ----------------
#NOTES:
     dance-single:
     LinkDude03:
     Beginner:
     2:
     0,0,0,0,0:
0002
0003
0000
1000
,
0002
0000
0003
0000
,
2000
3000
0000
0100
,
0020
0000
0030
0000
,
0002
0003
0000
1000
,
0020
0030
0000
1000
,
0200
0300
0000
1000
,
0200
0000
0300
0000
,
1000
0000
0001
0000
,
1000
0000
0200
0000
,
0300
0000
1000
0000
,
0100
0000
0020
0000
,
0030
0000
0001
0000
,
0010
0000
0001
0000
,
2000
0000
3000
0000
,
2002
0000
0000
0000
,
3003
0000
1000
0000
,
0010
0000
2000
0000
,
3000
0000
0010
0000
,
0100
0000
0020
0000
,
0030
0000
0100
0000
,
0001
0000
0100
0000
,
0020
0000
0000
0000
,
0000
0000
0030
0000
,
1000
0001
1000
0001
,
1000
0001
1000
0000
,
01M0
0000
0010
0000
,
0001
0000
1000
0000
,
0010
0000
1000
0000
,
0100
0000
0010
0000
,
0001
0000
0010
0000
,
0001
0000
1000
0000
,
2002
0000
0000
0000
,
0000
0000
3003
0000
,
1000
0000
0001
0000
,
0100
0000
0010
0000
,
0100
0000
0001
0000
,
1000
0000
0001
0000
,
0100
0000
0001
0000
,
1000
0000
0001
0000
,
2000
0000
3000
0000
,
0010
0000
0100
0000
,
0002
0003
0000
1000
,
0200
0000
0300
0000
,
2000
3000
0000
0010
,
2000
0000
3000
0000
,
0020
0030
0000
1000
,
0002
0003
0000
1000
,
0002
0003
0000
0100
,
0002
0000
0000
0000
,
0003
0000
0100
0000
,
0010
0000
2000
0000
,
3000
0000
0001
0000
,
1000
0000
0200
0000
,
0300
0000
0010
0000
,
0001
0000
0010
0000
,
0220
0000
0000
0000
,
0000
0000
0000
0000
,
0330
0000
0010
0000
,
0100
0000
2000
0000
,
3000
0000
0100
0000
,
0010
0000
0002
0000
,
0003
0000
0010
0000
,
0001
0000
1000
0000
,
2020
0000
0000
0000
,
0000
0000
3030
0000
,
1000
0010
1000
0010
,
1000
0010
1000
0000
,
0001
0000
0100
0000
,
0010
0000
2000
0000
,
3000
0000
0010
0000
,
1000
0000
0001
0000
,
0010
0000
0100
0000
,
1000
0000
0100
0000
,
0020
0000
0030
0000
,
0002
0000
0003
0000
,
M010
0000
0001
0000
,
1000
0000
0002
0000
,
0003
0000
0010
0000
,
0001
0000
1000
0000
,
0001
0000
1000
0000
,
0010
0000
0100
0000
,
0002
0000
0003
0000
,
1000
0000
0100
0000
,
1000
0000
0010
0000
,
1000
0000
0020
0000
,
0030
0000
1000
0000
,
0001
0000
2000
0000
,
3000
0000
0010
0000
,
1000
0000
0010
0000
,
0200
0000
0300
0000
,
0002
0000
0003
0000
,
0100
0000
0001
0000
,
1000
0000
0100
0000
,
0010
0000
0100
0000
,
1000
0000
0100
0000
,
0020
0000
0000
0000
,
0030
0000
0100
0000
,
2200
0000
0000
0000
,
0000
0000
3300
0000
,
0100
1000
0100
1000
,
0100
1000
0100
0000
,
1000
0001
1000
0001
,
1000
0001
1000
0000
,
01M0
0000
1000
0000
,
0010
0000
2000
0000
,
3000
0000
0010
0000
,
1000
0000
0001
0000
,
0010
0000
0100
0000
,
1000
0000
0100
0000
,
0020
0000
0030
0000
,
0200
0000
0300
0000
,
1000
0000
0001
0000
,
1000
0000
0200
0000
,
0300
0000
1000
0000
,
0001
0000
1000
0000
,
0001
0000
0010
0000
,
0100
0000
1000
0000
,
2002
0000
0000
0000
,
0000
0000
3003
0000
,
1000
0000
0001
0000
,
0010
0000
0002
0000
,
0003
0000
0010
0000
,
0001
0000
1000
0000
,
0001
0000
0010
0000
,
0001
0000
0010
0000
,
0200
0000
0300
0000
,
2000
0000
3000
0000
,
001M
0000
1000
0000
,
0100
0000
0020
0000
,
0030
0000
0001
0000
,
0100
0000
0010
0000
,
0100
0000
0001
0000
,
0100
0000
0010
0000
,
2000
0000
3000
0000
,
0010
0000
1000
0000
,
0001
0000
0000
0010
0000
0000
0002
0000
,
0000
0000
0003
0000
,
0010
0000
0000
0001
0000
0000
0020
0000
,
0000
0000
0000
0000
,
0000
0000
0000
0030
;

//--------------- dance-single - LinkDude07 ----------------
#NOTES:
     dance-single:
     LinkDude07:
     Easy:
     5:
     0,0,0,0,0:
0002
0000
0003
1000
,
0002
0000
0003
1000
,
0200
0000
0300
0010
,
0002
0000
0003
1000
,
0020
0000
0030
1000
,
0200
0000
0300
1000
,
0200
0000
0300
1000
,
0002
0000
0000
0000
,
0003
1000
0010
1000
,
0020
0030
0110
0000
,
0000
0001
0010
0001
,
2000
3000
1010
0000
,
0000
1000
0010
1000
,
0100
0010
0100
0010
,
0002
0000
0000
0003
,
0011
0000
0000
0000
,
0000
0001
1000
0010
,
1000
0000
0000
0001
0000
0020
0000
0000
,
0030
0001
0100
0001
,
0100
0000
0000
0001
0000
2000
0000
0000
,
3000
0010
1000
0010
,
0100
0001
0010
0001
,
2000
0000
0000
3000
,
1010
0000
0000
0000
0000
0000
0000
1000
,
0001
1000
0001
1000
0001
1000
0001
1000
,
0001
1000
0001
1000
0001
0000
0000
0000
,
01M0
0001
1000
0100
,
1000
0010
1000
0020
,
0030
1000
0001
1000
,
0100
1000
0100
0010
,
0001
0100
0001
1000
,
0100
0010
0100
1000
,
0020
0000
0000
0030
,
0110
0000
0000
0010
,
0100
0001
0100
0010
,
1000
0100
1000
0002
,
0003
0100
0001
0010
,
0001
0010
0001
1000
,
0100
1000
0100
0010
,
0001
0100
0001
1000
,
0200
0000
0000
0300
,
0010
0001
0100
0010
,
0200
0000
0300
0001
,
2000
0000
3000
0001
,
0200
0000
0300
0001
,
2000
0000
3000
0001
,
2000
0000
3000
0010
,
0200
0000
0300
0001
,
2000
0000
3000
0100
,
2000
0000
0000
0000
,
3000
0010
1000
0010
,
2000
3000
0001
2000
,
3000
0100
1000
0100
,
0020
0030
0001
0200
,
0300
0001
1000
0100
,
0010
0100
1000
0010
,
0200
0000
0000
0000
,
0001
0001
0002
0000
,
0303
1000
0010
1000
,
0100
0000
0000
1000
0000
0002
0000
0000
,
0003
0100
0001
0010
,
0002
0003
0002
0000
,
0003
1000
0100
1000
,
0100
0010
0001
0100
,
0002
0000
0000
0003
,
0101
0000
0000
0000
0000
0000
0000
0001
,
0100
0001
0100
0001
0100
0001
0100
0010
,
0100
0010
0100
0010
0100
0000
0000
0000
,
0001
0100
0010
1000
,
0010
0100
0001
2000
,
3000
0100
1000
0001
,
1000
0010
1000
0010
,
0100
0001
0010
0001
,
1000
0100
0010
0001
,
0020
0000
0000
0030
,
0110
0000
0000
0000
,
M010
0100
0010
0001
,
0010
0100
1000
0020
,
0030
1000
0001
0010
,
0001
0100
0001
0100
,
0001
1000
0010
1000
,
0010
0100
0001
0010
,
0002
0000
0000
0003
,
1000
0010
0100
0001
,
0010
0100
0010
0001
,
2000
3000
1001
0000
,
0000
1000
0100
0010
,
0002
0003
0011
0000
,
0000
0001
0010
0100
,
2000
3000
0010
1000
,
0200
0000
0000
0300
,
1100
0000
0000
0000
,
0100
1000
0001
1000
,
0020
0030
1010
0000
,
0010
0100
0001
0010
,
0200
0300
0110
0000
,
0002
0000
0000
0000
,
0003
0100
0010
1000
,
0100
0020
0000
0000
,
0000
0000
0000
0000
0030
0000
0000
0100
,
0010
0100
0010
0100
0010
0100
0010
0100
,
0010
0100
0010
0100
0010
0000
0000
0100
,
1000
0100
1000
0100
1000
0100
1000
0100
,
1000
0100
1000
0100
1000
0000
0000
0000
,
010M
0010
0001
1000
,
0001
0010
0001
2000
,
3000
0001
1000
0010
,
0100
0001
1000
0100
,
1000
0010
0100
0010
,
1000
0001
1000
0100
,
2000
0000
0000
3000
,
1100
0000
0000
0000
,
1000
0001
0100
0001
,
1000
0100
0010
0200
,
0300
1000
0010
0100
,
0010
0100
0001
0100
,
0010
1000
0100
1000
,
0001
0100
0001
0010
,
0002
0000
0000
0000
,
0000
1000
1003
1000
,
0100
1000
0100
0010
,
0001
0100
0001
2000
,
3000
0100
0010
0001
,
0100
0010
0100
0001
,
1000
0001
0100
0001
,
1000
0001
1000
0100
,
0020
0000
0000
0030
,
0011
0000
0000
0000
,
M010
0001
1000
0010
,
1000
0010
1000
0002
,
0003
1000
0100
1000
,
0100
0010
0001
0100
,
0001
1000
0100
0010
,
0100
1000
0010
0100
,
0020
0000
0000
0030
,
0100
0001
0200
0300
,
001M
0000
0000
100M
0000
0000
010M
0000
,
0000
1000
0001
0000
,
M010
0000
0000
M001
0000
0000
M200
0000
,
0000
0000
0000
0000
,
0000
0000
0000
0300
;

//--------------- dance-single - LinkDude09 ----------------
#NOTES:
     dance-single:
     LinkDude09:
     Medium:
     6:
     0,0,0,0,0:
0002
0000
0003
1000
,
0002
0000
0000
0003
0000
0010
0001
0010
,
0002
0000
0003
1000
,
0200
0000
0000
0300
0000
1000
0100
1000
,
0200
0000
0300
1000
,
0002
0000
0003
1000
,
0020
0000
0030
1000
,
0100
0010
0001
0200
,
0300
0001
1000
0010
,
1000
0000
0000
0010
2000
0000
0000
0000
,
3000
0100
0010
0100
,
1000
0000
0000
0001
2000
0000
0000
0000
,
3000
0000
0010
0000
1000
0000
0100
1000
,
0000
0000
0001
0000
0010
0001
0000
0020
,
0000
0000
0000
0030
,
0110
0000
0000
0000
,
0000
0001
0010
0001
,
1000
0000
0000
0100
0000
2000
0000
0000
,
3000
0010
0100
0001
,
0010
0000
0000
0001
0000
0020
0000
0000
,
0030
0000
0100
0000
1000
0100
0000
0010
,
0000
0000
0100
0010
0000
0100
0000
2000
,
0000
0000
0000
0000
0000
3000
0000
0000
,
1010
0000
0000
0000
0000
0000
0000
1000
,
0010
1000
0010
1000
0010
1000
0100
1000
,
0100
1000
0001
1000
0001
0000
0000
0000
,
01M0
0000
0001
0100
0001
0000
1000
0000
,
0010
0000
0100
0001
0100
0000
0001
0000
,
0000
0100
0001
0000
0100
0001
0000
1000
,
0000
0010
1000
0000
0010
0000
0100
0000
,
0001
0000
0010
0001
0000
0010
0000
0100
,
0000
1000
0000
0001
0000
1000
0001
2000
,
0000
0000
0000
3000
0000
0001
0100
0001
,
0200
0000
0000
0000
0300
0000
0010
1000
,
0010
0000
1000
0001
1000
0000
0010
0000
,
1000
0000
0001
0100
0001
0000
1000
0000
,
0000
0010
0000
1000
0010
0000
1000
0010
,
0000
1000
0010
0000
0100
0000
0001
0000
,
1000
0000
0001
1000
0000
0010
0000
1000
,
0000
0001
0000
0100
0000
0001
0100
0002
,
0000
0000
0000
0000
0000
0003
0000
0010
,
0001
0000
0010
0001
0000
0000
0010
0002
,
0000
0000
0003
0010
,
0200
0000
0000
0300
0000
0010
0001
0010
,
0002
0000
0003
1000
,
0200
0000
0000
0300
0000
0010
0100
0010
,
0200
0000
0300
1000
,
0002
0000
0003
0010
,
0200
0000
0300
1000
,
0010
1000
0001
0100
,
0001
0010
0001
0100
,
0001
0000
0000
0100
0002
0000
0000
0000
,
0003
1000
0100
0010
,
0001
0000
0000
0010
0002
0000
0000
0000
,
0003
0000
1000
0000
0010
1000
0000
0001
,
0000
0000
1000
0001
0000
0010
0000
0200
,
0000
0000
0300
1000
,
0001
0200
0001
0001
,
0301
1000
0100
0010
,
0001
0000
0000
1000
0000
0200
0000
0000
,
0300
1000
0010
1000
,
0100
0000
0000
1000
0200
0000
0000
0000
,
0300
0000
1000
0000
0010
1000
0000
0100
,
0000
0010
0000
0001
0000
0000
0010
0002
,
0000
0000
0000
0003
,
1001
0000
0000
0000
0000
0000
0000
0001
,
1000
0001
1000
0001
1000
0001
0100
0001
,
0100
0001
0010
0001
0010
0000
0000
0000
,
0001
0000
0010
0100
0010
0000
0001
0000
,
0010
0000
0001
1000
0001
0000
1000
0000
,
0000
0010
0000
1000
0010
0000
1000
0001
,
1000
0000
0001
0010
0001
0000
0100
0000
,
0010
0000
0100
0010
0000
1000
0000
0001
,
0000
0010
0000
0001
0000
1000
0001
2000
,
0000
0000
0000
3000
0000
0100
1000
0100
,
2000
0000
0000
0000
0000
0000
3000
0000
0000
0000
0001
0000
0000
1000
0000
0000
,
0M10
0000
1000
0001
1000
0000
0010
0000
,
1000
0000
0010
1000
0010
0000
0100
0000
,
0000
0001
0000
0100
0001
0000
0100
0001
,
0000
0100
0000
0010
0000
1000
0000
0000
,
0100
0000
0010
0100
0000
0010
0000
0001
,
0000
0100
0000
0010
0000
1000
0010
2000
,
0000
0000
0000
0000
0000
3000
0000
0001
,
1000
0000
0001
1000
0000
0000
0100
1000
,
0000
0001
1000
0100
,
1000
0000
0000
0100
2000
0000
0000
0000
,
3000
0001
0010
0001
,
1000
0000
0000
0001
2000
0000
0000
0000
,
3000
0001
0100
0010
,
1000
0000
0000
0010
1000
0000
0001
0000
,
0020
0000
0000
0000
0000
0030
0000
0000
,
0110
0000
0000
0000
0000
0000
0000
0100
,
1000
0000
0100
1000
0100
0000
1000
0100
,
0000
0000
0010
0001
0000
0000
1000
0001
,
0000
0000
1000
0001
1000
0000
0001
1000
,
0000
0000
0010
0200
0000
0300
0000
0002
,
0000
0000
0000
0003
0002
0000
0000
0000
,
0003
0000
1000
0010
0000
0100
0000
0001
,
0000
2000
0000
0001
0001
0000
0000
0001
,
0001
0000
0000
0001
3001
0000
0000
1000
,
0001
1000
0001
1000
0001
1000
0010
1000
,
0010
1000
0100
1000
0100
0000
0000
1000
,
0100
1000
0100
1000
0100
1000
0010
1000
,
0010
1000
0001
1000
0001
0000
1000
0001
,
01M0
0000
0001
0100
0001
0000
1000
0000
,
0001
0000
1000
0001
1000
0000
0001
0000
,
0000
0100
0001
0000
0100
0001
0000
1000
,
0000
0001
1000
0000
0001
0000
0010
0000
,
0001
0000
0100
0001
0000
1000
0000
0001
,
0000
0010
0000
0001
0000
0100
0001
0200
,
0000
0000
0000
0300
0000
0001
0100
0001
,
0200
0000
0000
0000
0300
0000
0001
0100
,
0001
0000
1000
0010
1000
0000
0010
0000
,
0100
0000
0001
0100
0001
0000
1000
0000
,
0000
0010
0000
1000
0010
0000
1000
0010
,
0000
1000
0010
0000
0100
0000
0001
0000
,
1000
0000
0010
1000
0000
0100
0000
0010
,
0000
0001
0000
0100
0000
0001
1000
0002
,
0000
0000
0000
0000
,
0003
0000
0100
0000
0001
0000
0010
0100
,
0010
0000
0001
1000
0001
0000
0100
0000
,
0001
1000
0001
0000
1000
0000
0100
0000
,
0000
0010
0000
0001
0010
0000
0100
0000
,
1000
0100
1000
0000
0010
0000
1000
0000
,
0001
0000
1000
0001
0000
1000
0000
0100
,
0000
0010
0000
0001
0000
0100
0001
0200
,
0000
0000
0000
0300
0000
0010
0100
0010
,
0200
0000
0000
0000
0000
0000
0300
0000
0000
0000
0001
0000
0000
1000
0000
0000
,
0M10
0000
0100
0010
0100
0000
0010
0000
,
1000
0000
0100
1000
0100
0000
0010
0000
,
0000
0001
0000
0100
0001
0100
0000
0001
,
0000
1000
0000
0100
0000
1000
0000
0000
,
0010
0000
0100
0010
0000
0100
0000
0001
,
0000
1000
0000
0100
0000
0010
0100
0020
,
0000
0000
0000
0000
0000
0030
0000
0001
,
0010
0000
0001
0010
0000
0000
0100
1000
,
01M0
0000
0000
10M0
0000
0000
00M2
0000
,
0003
0010
0002
0003
,
0M10
0000
0000
0M01
0000
0000
2M00
0000
,
0000
0000
0000
0000
,
0000
0000
0000
3000
;

//--------------- dance-single - Cut from Gazebo ----------------
#NOTES:
     dance-single:
     Cut from Gazebo:
     Hard:
     8:
     0,0,0,0,0:
0002
0000
0000
0203
,
0320
0000
0000
0000
0030
0010
0100
0001
,
0200
0000
0000
0320
,
0032
0000
0000
0000
0003
0001
1000
0010
,
0020
0000
0000
0230
,
0302
0000
0003
0020
,
0230
0000
0000
2300
,
3002
0203
0320
2030
,
3001
1000
0010
1000
0100
1000
0001
0010
,
0001
1000
0100
0010
0100
1000
0001
1000
,
0001
0100
0010
1000
0100
1000
0001
0010
,
0001
1000
0001
0100
0010
1000
0001
1000
,
0001
0010
0001
1000
0100
1000
0001
0100
,
0010
1000
0001
1000
0001
0010
0100
1000
,
0001
1000
0010
1000
0000
1000
0000
1000
,
0001
0010
0100
1000
0001
1000
0100
0010
,
0001
1000
0010
1000
0100
1000
0001
0010
,
0001
1000
0100
0010
0100
1000
0001
1000
,
0001
0100
0010
1000
0100
1000
0001
0010
,
0001
1000
0001
0100
0010
1000
0001
1000
,
0001
0010
0001
1000
0100
1000
0001
0100
,
0010
1000
0001
1000
0001
0010
0100
1000
,
0001
1000
0010
1000
0000
1000
0000
1000
,
0001
0010
0100
0010
0000
0010
0000
0040
,
0000
0000
0000
0000
,
0000
0000
0000
0030
0001
1000
2000
0000
,
3001
0010
0100
1000
0001
1000
0010
0100
,
0001
0010
0100
1000
0001
1000
0010
0100
,
0001
0010
0100
0010
0100
0010
0001
1000
,
0100
1000
0001
0100
0010
1000
0001
1000
,
0100
0010
0001
0100
0010
1000
0001
0010
,
0001
0100
0001
0100
0010
1000
0001
0002
,
1000
1000
1000
1000
1003
0001
1000
0010
,
0020
0000
0000
0000
2030
0001
0001
0001
,
3001
0010
0100
1000
0001
1000
0010
0100
,
0001
0010
0100
1000
0001
1000
0010
0100
,
0001
0010
0100
0010
0100
0010
0001
1000
,
0100
1000
0001
0100
0010
1000
0001
1000
,
0100
0010
0001
0100
0010
1000
0001
0010
,
0001
0100
0001
0100
0010
1000
0001
0002
,
0010
0010
0010
0010
0013
0001
1000
0010
,
0200
0000
0310
0020
0000
0000
1030
1000
,
0002
0000
0000
0023
,
0230
0000
0000
0000
0300
0010
0100
1000
,
0020
0000
0000
0230
,
0302
0000
0000
0000
0003
0001
1000
0100
,
0200
0000
0000
0320
,
0032
0000
0003
0200
,
0320
0000
0000
2030
,
3002
0023
0230
2300
,
3001
1000
0100
1000
0010
1000
0001
0100
,
0001
1000
0010
0100
0010
1000
0001
1000
,
0001
0010
0100
1000
0010
1000
0001
0100
,
0001
1000
0001
0010
0100
1000
0001
1000
,
0001
0100
0001
1000
0010
1000
0001
0010
,
0100
1000
0001
1000
0001
0100
0010
1000
,
0001
0000
1000
0000
0100
0000
1000
0000
0000
0000
1000
0000
0002
0000
0000
0003
,
0002
0203
0320
2030
,
3001
1000
0100
1000
0010
1000
0001
0100
,
0001
1000
0010
0100
0010
1000
0001
1000
,
0001
0010
0100
1000
0010
1000
0001
0100
,
0001
1000
0001
0010
0100
1000
0001
1000
,
0001
0100
0001
1000
0010
1000
0001
0010
,
0100
1000
0001
1000
0001
0100
0010
1000
,
0001
1000
0100
1000
0000
1000
0000
1000
,
0010
0100
0001
0001
0000
0001
0000
0010
,
0100
0010
0001
0010
0100
0010
0001
0010
,
0100
0010
0010
0001
1000
0010
2000
0001
,
3001
0010
0100
1000
0001
1000
0010
0100
,
0001
0010
0100
1000
0001
1000
0010
0100
,
0001
0010
0100
0010
0100
0010
0001
1000
,
0100
1000
0001
0100
0010
1000
0001
1000
,
0100
0010
0001
0010
0100
1000
0001
0010
,
0001
0100
0001
0100
0010
1000
0001
0002
,
1000
1000
1000
1000
1003
0001
1000
0100
,
0200
0000
0000
0000
0000
0000
0000
0000
2300
0000
0010
0000
0000
0010
0000
0000
,
3010
1000
0100
1000
0001
1000
0010
0100
,
0001
0010
0100
1000
0001
1000
0010
0100
,
0001
0010
0100
0010
0100
0010
0001
1000
,
0100
1000
0001
0100
0010
1000
0001
1000
,
0100
0010
0001
0100
0010
1000
0001
0010
,
0001
0100
0001
0100
0010
1000
0001
0002
,
0010
0010
0010
0010
0013
0001
1000
0010
,
0200
0000
0310
0020
0000
0000
1030
1000
,
0001
2000
3200
0320
,
0230
0000
0000
1300
2000
0000
0100
0000
,
3001
2000
3020
0230
,
0320
0000
0000
1030
2000
0000
0010
0000
,
3001
2000
3200
2300
,
3002
0000
0000
0023
0032
0000
0203
0000
,
0320
0000
0000
0000
0000
0000
0000
1030
,
2000
0000
0000
0000
0000
3001
0001
0010
,
0100
1000
0100
1000
0002
0000
0013
0002
,
0000
0000
1003
2000
0000
0000
3010
0200
,
0000
0301
0100
0001
2000
0000
3010
2000
,
0000
0000
3001
0002
0000
0000
0003
0020
,
0000
0000
0230
0000
,
0300
0000
1000
0010
0000
0010
0000
0010
,
0000
0200
0000
0000
0000
0302
0000
0000
,
0000
0000
0000
0000
0000
0000
0000
1003
,
0100
1000
0001
1000
0100
1000
0001
1000
,
0100
1000
1000
0001
2000
0000
3000
1000
,
1000
0001
0001
0100
0100
0010
0010
1000
,
1000
0001
0001
0100
0100
0010
0100
0001
,
0100
0001
0010
0001
1000
0001
0100
0010
,
1000
0100
0010
0001
1000
0001
0100
0010
,
1000
0100
0010
0100
0010
0100
1000
0001
,
0010
0001
1000
0010
0100
0001
1000
0001
,
0010
0100
1000
0100
0010
0001
1000
0100
,
1000
0010
1000
0010
0100
0001
1000
2000
,
0001
0001
0001
0001
3001
1000
0001
0100
,
0200
0000
0000
0000
0302
1000
1000
1000
,
1003
0100
0010
0001
1000
0001
0100
0010
,
1000
0100
0010
0001
1000
0001
0100
0010
,
1000
0100
0010
0100
0010
0100
1000
0001
,
0010
0001
1000
0010
0100
0001
1000
0001
,
0010
0100
1000
0100
0010
0001
1000
0100
,
1000
0010
1000
0010
0100
0001
1000
2000
,
0100
0100
0100
0100
3100
1000
0001
0100
,
0001
0100
0001
1000
0010
0100
0001
0100
,
0001
1000
0100
1000
0001
1000
0010
0100
,
0001
0010
0100
1000
0001
1000
0010
0100
,
0001
0010
0100
0010
0100
0010
0001
1000
,
0100
1000
0001
0100
0010
1000
0001
1000
,
0100
0010
0001
0010
0100
1000
0001
0010
,
0001
0100
0001
0100
0010
1000
0001
0002
,
1000
1000
1000
1000
1003
0001
1000
0100
,
0200
0000
0000
0000
0000
0000
0000
0000
2300
0000
0010
0000
0000
0010
0000
0000
,
3010
1000
0100
1000
0001
1000
0010
0100
,
0001
0010
0100
1000
0001
1000
0010
0100
,
0001
0010
0100
0010
0100
0010
0001
1000
,
0100
1000
0001
0100
0010
1000
0001
1000
,
0100
0010
0001
0010
0100
1000
0001
0010
,
0001
0100
0001
0100
0010
1000
0001
0002
,
0010
0010
0010
0010
0013
0001
1000
0010
,
0200
0000
0310
0020
0000
0000
1030
1000
,
0200
0000
1300
2000
0000
3000
0002
0000
,
1003
0000
1000
0000
1000
0001
0100
0010
,
0020
1000
1030
2000
0000
3000
0002
0000
,
0000
0000
0000
0000
,
0000
0000
0000
0000
,
0000
0000
0000
0000
,
0003
0000
0000
0000
;

//--------------- dance-single - Gazebo ----------------
#NOTES:
     dance-single:
     Gazebo:
     Challenge:
     10:
     0.691,0.722,0.069,0.398,0.37,1075,17,98,0,0,0,0.691,0.722,0.069,0.398,0.37,1075,17,98,0,0,0:
0002
0000
0000
0203
,
0320
0000
0000
0000
0000
0000
0000
0000
0030
0000
0010
0100
0001
1000
0001
0010
,
0200
0000
0000
0320
,
0032
0000
0000
0000
0000
0000
0000
0000
0000
0000
0000
0000
0000
0000
0000
0000
0000
0000
0000
0000
0000
0000
0000
0000
0003
0000
0000
0000
0000
0000
0001
0000
0000
1000
0000
0000
0010
0000
0000
0100
0000
0000
0010
0000
1000
0000
0001
0000
,
0020
0000
0000
0230
,
2300
0000
3000
0020
,
0230
0000
0000
0302
,
2003
3200
0320
0032
,
1003
0000
0000
0001
0010
0001
0010
0000
0000
0001
0000
0000
0100
0000
0000
0001
0000
0000
1000
0000
0000
0010
0000
0000
,
1000
0000
0000
0001
0100
0001
0100
0000
0000
0010
0000
0000
0100
0000
0000
0001
0000
0000
1000
0000
0000
0001
0000
0000
,
1000
0000
0000
0100
0010
0100
0010
0000
0000
0001
0000
0000
0100
0000
0000
0001
0000
0000
1000
0000
0000
0010
0000
0000
,
1000
0000
0000
0001
1000
0001
1000
0000
0000
0100
0000
0000
0010
0000
0000
0001
0000
0000
1000
0000
0000
0001
0000
0000
,
1000
0000
0000
0010
1000
0010
1000
0000
0000
0001
0000
0000
0100
0000
0000
0001
0000
0000
1000
0000
0000
0100
0000
0000
,
0010
0000
0000
0001
1000
0001
1000
0000
0000
0001
0000
0000
1000
0000
0000
0010
0000
0000
0100
0000
0000
0001
0000
0000
,
1000
0000
0000
0001
0010
0001
0010
0000
0000
0001
0000
0000
0000
0000
0000
0001
0000
0000
0000
0000
0000
0001
0000
0000
,
1000
0000
0000
0000
0000
0000
0010
0000
0100
0000
0010
0000
0100
0000
0000
0000
0000
0000
0001
0000
0000
0100
0000
0000
0001
0000
0000
0000
0000
0000
1000
0000
0000
0000
0000
0000
0100
0000
0000
0000
0000
0000
0010
0000
0000
0000
0000
0000
,
0001
0000
0000
1000
0010
1000
0010
0000
0000
1000
0000
0000
0100
0000
0000
1000
0000
0000
0001
0000
0000
0010
0000
0000
,
0001
0000
0000
1000
0100
1000
0100
0000
0000
0010
0000
0000
0100
0000
0000
1000
0000
0000
0001
0000
0000
1000
0000
0000
,
0001
0000
0000
0100
0010
0100
0010
0000
0000
1000
0000
0000
0100
0000
0000
1000
0000
0000
0001
0000
0000
0010
0000
0000
,
0001
0000
0000
1000
0001
1000
0001
0000
0000
0100
0000
0000
0010
0000
0000
1000
0000
0000
0001
0000
0000
1000
0000
0000
,
0001
0000
0000
0010
0001
0010
0001
0000
0000
1000
0000
0000
0100
0000
0000
1000
0000
0000
0001
0000
0000
0100
0000
0000
,
0010
0000
0000
1000
0001
1000
0001
0000
0000
1000
0000
0000
0001
0000
0000
0010
0000
0000
0100
0000
0000
1000
0000
0000
,
0001
0000
0000
1000
0010
1000
0010
0000
0000
1000
0000
0000
0000
0000
0000
1000
0000
0000
0000
0000
0000
1000
0000
0000
,
0001
0000
0000
0010
0100
0010
0100
0000
0000
0010
0000
0000
0000
0000
0000
0010
0000
0000
0000
0000
0000
0010
0000
0000
,
0000
0000
0000
0000
,
0000
0000
0000
0000
0001
0001
2001
0000
,
3001
0010
0001
0010
0100
0000
1000
0000
0001
0000
1000
0000
0010
0000
0100
0000
,
0001
0010
0001
0010
0100
0000
1000
0000
0001
0000
1000
0000
0010
0000
0100
0000
,
0001
0010
0100
0010
0100
0010
0001
1000
,
0100
0000
1000
0000
0001
0000
0100
0000
0010
1000
0010
0000
1000
0001
1000
0000
,
0100
0010
0100
0010
0001
0000
0100
0010
0100
0010
1000
0000
0001
0000
0010
0000
,
0001
0100
0001
0100
0010
1000
0001
0002
,
1000
0000
1000
0000
1000
0000
1000
0000
1003
0000
0001
1000
0010
0100
0010
1000
,
0020
0000
0000
0000
2030
0001
0001
0001
,
3001
0010
0001
0010
0100
0000
1000
0000
0001
0000
1000
0000
0010
0000
0100
0000
,
0001
0010
0001
0010
0100
0000
1000
0000
0001
0000
1000
0000
0010
0000
0100
0000
,
0001
0010
0100
0010
0100
0010
0001
1000
,
0100
0000
1000
0000
0001
0000
0100
0000
0010
1000
0010
0000
1000
0001
1000
0000
,
0100
0010
0100
0010
0001
0000
0100
0010
0100
0010
1000
0000
0001
0000
0010
0000
,
0001
0100
0001
0100
0010
1000
0001
0002
,
0010
0010
0010
0010
0013
0001
1000
0010
,
0200
0000
0310
0020
0000
0000
1030
1000
,
0002
0000
0000
0023
,
0230
0000
0000
0000
0000
0000
0000
0000
0300
0000
0100
0010
0001
1000
0001
0100
,
0020
0000
0000
0230
,
0302
0000
0000
0000
0000
0000
0000
0000
0000
0000
0000
0000
0000
0000
0000
0000
0000
0000
0000
0000
0000
0000
0000
0000
0003
0000
0000
0000
0000
0000
0001
0000
0000
1000
0000
0000
0100
0000
0000
0010
0000
0000
0100
0000
1000
0000
0001
0000
,
0200
0000
0000
0320
,
2030
0000
3000
0200
,
0320
0000
0000
0032
,
2003
3020
0230
0302
,
1003
0000
0000
0001
0100
0001
0100
0000
0000
0001
0000
0000
0010
0000
0000
0001
0000
0000
1000
0000
0000
0100
0000
0000
,
1000
0000
0000
0001
0010
0001
0010
0000
0000
0100
0000
0000
0010
0000
0000
0001
0000
0000
1000
0000
0000
0001
0000
0000
,
1000
0000
0000
0010
0100
0010
0100
0000
0000
0001
0000
0000
0010
0000
0000
0001
0000
0000
1000
0000
0000
0100
0000
0000
,
1000
0000
0000
0001
1000
0001
1000
0000
0000
0010
0000
0000
0100
0000
0000
0001
0000
0000
1000
0000
0000
0001
0000
0000
,
1000
0000
0000
0100
1000
0100
1000
0000
0000
0001
0000
0000
0010
0000
0000
0001
0000
0000
1000
0000
0000
0010
0000
0000
,
0100
0000
0000
0001
1000
0001
1000
0000
0000
0001
0000
0000
1000
0000
0000
0100
0000
0000
0010
0000
0000
0001
0000
0000
,
1000
0000
0000
0000
0000
0000
0001
0000
0100
0000
0001
0000
0100
0000
0000
0000
0000
0000
0001
0000
0000
0000
0000
0000
0000
0000
0000
0000
0000
0000
0001
0000
0000
0000
0000
0000
2000
0000
0000
0000
0000
0000
0000
0000
0000
3000
0000
0000
,
2000
3200
0320
0032
,
1003
0000
0000
0001
0100
0001
0100
0000
0000
0001
0000
0000
0010
0000
0000
0001
0000
0000
1000
0000
0000
0100
0000
0000
,
1000
0000
0000
0001
0010
0001
0010
0000
0000
0100
0000
0000
0010
0000
0000
0001
0000
0000
1000
0000
0000
0001
0000
0000
,
1000
0000
0000
0010
0100
0010
0100
0000
0000
0001
0000
0000
0010
0000
0000
0001
0000
0000
1000
0000
0000
0100
0000
0000
,
1000
0000
0000
0001
1000
0001
1000
0000
0000
0010
0000
0000
0100
0000
0000
0001
0000
0000
1000
0000
0000
0001
0000
0000
,
1000
0000
0000
0100
1000
0100
1000
0000
0000
0001
0000
0000
0010
0000
0000
0001
0000
0000
1000
0000
0000
0010
0000
0000
,
0100
0000
0000
0001
1000
0001
1000
0000
0000
0001
0000
0000
1000
0000
0000
0100
0000
0000
0010
0000
0000
0001
0000
0000
,
1000
0000
0000
0001
0100
0001
0100
0000
0000
0001
0000
0000
0000
0000
0000
0001
0000
0000
0000
0000
0000
0001
0000
0000
,
0010
0000
0000
0100
1000
0100
1000
0000
0000
1000
0000
0000
0000
0000
0000
1000
0000
0000
0000
0000
0000
0010
0000
0000
,
0100
0010
1000
0010
0100
0010
1000
0010
,
0100
0000
0010
0000
0010
0000
1000
0000
0001
0010
0001
0010
0002
0000
1000
0000
,
1003
0010
1000
0010
0100
0000
0001
0000
1000
0000
0001
0000
0010
0000
0100
0000
,
1000
0010
1000
0010
0100
0000
0001
0000
1000
0000
0001
0000
0010
0000
0100
0000
,
1000
0010
0100
0010
0100
0010
1000
0001
,
0100
0000
0001
0000
1000
0000
0100
0000
0010
0001
0010
0000
0001
1000
0001
0000
,
0100
0010
0100
0010
1000
0000
0100
0010
0100
0010
0001
0000
1000
0000
0010
0000
,
1000
0100
1000
0100
0010
0001
1000
2000
,
0001
0000
0001
0000
0001
0000
0001
0000
3001
0000
1000
0001
0010
0100
0010
0001
,
0020
0000
0000
0000
0000
0000
0000
0000
0032
0000
1000
0000
0000
1000
0000
0000
,
1003
0010
1000
0010
0100
0000
0001
0000
1000
0000
0001
0000
0010
0000
0100
0000
,
1000
0010
1000
0010
0100
0000
0001
0000
1000
0000
0001
0000
0010
0000
0100
0000
,
1000
0010
0100
0010
0100
0010
1000
0001
,
0100
0000
0001
0000
1000
0000
0100
0000
0010
0001
0010
0000
0001
1000
0001
0000
,
0100
0010
0100
0010
1000
0000
0100
0010
0100
0010
0001
0000
1000
0000
0010
0000
,
1000
0100
1000
0100
0010
0001
1000
2000
,
0010
0010
0010
0010
3010
1000
0001
0010
,
0200
0000
0310
0020
0000
0000
0031
0001
,
1000
0002
0203
0320
,
0230
0000
0000
0301
0002
0000
0100
0000
,
1003
0002
0023
0230
,
0320
0000
0000
0031
0002
0000
0010
0000
,
1003
0002
0203
0302
,
2003
0000
0000
3020
2030
0000
3200
0000
,
0320
0000
0000
0000
0000
0000
0000
0000
0000
0000
0000
0000
0000
0000
0130
1000
,
0002
0000
0000
0000
0000
0000
0000
0000
0000
0000
1003
0000
1000
0010
1000
0010
,
0100
0001
0100
0001
2000
0000
3010
2000
,
0000
0000
3001
0002
0000
0000
0013
0200
,
0000
1300
0100
1000
0002
0000
0013
0002
,
0000
0000
1003
2000
0000
0000
3000
0020
,
0000
0000
0230
0000
,
0300
0000
0001
0010
0000
0010
0000
0010
,
0000
0200
0000
0000
0000
2300
0000
0000
,
0000
0000
0000
0000
0000
0000
0000
3001
,
0100
0001
1000
0001
0100
0001
1000
0001
,
0100
0001
0001
1000
0002
0000
0003
1001
,
0011
1000
1100
0001
0101
1000
1010
0001
,
0011
0000
1000
0000
1001
0000
0001
0000
1010
0000
0010
0000
0100
0001
0100
0001
,
1000
0100
1000
0100
0010
0000
0001
0000
1000
0000
0001
0000
0100
0000
0010
0000
,
1000
0100
1000
0100
0010
0000
0001
0000
1000
0000
0001
0000
0100
0000
0010
0000
,
1000
0100
0010
0100
0010
0100
1000
0001
,
0010
0000
0001
0000
1000
0000
0010
0000
0100
0001
0100
0000
0001
1000
0001
0000
,
0010
0100
0010
0100
1000
0000
0010
0100
0010
0100
0001
0000
1000
0000
0100
0000
,
1000
0010
1000
0010
0100
0001
1000
2000
,
0001
0000
0001
0000
0001
0000
0001
0000
3001
0000
1000
0001
0100
0010
0100
0001
,
0200
0000
0000
0000
0302
1000
1000
1000
,
1003
0100
1000
0100
0010
0000
0001
0000
1000
0000
0001
0000
0100
0000
0010
0000
,
1000
0100
1000
0100
0010
0000
0001
0000
1000
0000
0001
0000
0100
0000
0010
0000
,
1000
0100
0010
0100
0010
0100
1000
0001
,
0010
0000
0001
0000
1000
0000
0010
0000
0100
0001
0100
0000
0001
1000
0001
0000
,
0010
0100
0010
0100
1000
0000
0010
0100
0010
0100
0001
0000
1000
0000
0100
0000
,
1000
0010
1000
0010
0100
0001
1000
2000
,
0100
0100
0100
0100
3100
1000
0001
0100
,
0001
0000
0101
0000
0101
0000
1000
0000
1001
0000
0001
0000
1000
0001
1000
0001
,
1000
0010
1000
0010
0100
0000
0001
0000
1000
0000
0001
0000
0010
0000
0100
0000
,
1000
0010
1000
0010
0100
0000
0001
0000
1000
0000
0001
0000
0010
0000
0100
0000
,
1000
0010
0100
0010
0100
0010
1000
0001
,
0100
0000
0001
0000
1000
0000
0100
0000
0010
0001
0010
0000
0001
1000
0001
0000
,
0100
0010
0100
0010
1000
0000
0100
0010
0100
0010
0001
0000
1000
0000
0010
0000
,
1000
0100
1000
0100
0010
0001
1000
2000
,
0001
0000
0001
0000
0001
0000
0001
0000
3001
0000
1000
0001
0010
0100
0010
0001
,
0020
0000
0000
0000
0000
0000
0000
0000
0032
0000
1000
0000
0000
1000
0000
0000
,
1003
0010
1000
0010
0100
0000
0001
0000
1000
0000
0001
0000
0010
0000
0100
0000
,
1000
0010
1000
0010
0100
0000
0001
0000
1000
0000
0001
0000
0010
0000
0100
0000
,
1000
0010
0100
0010
0100
0010
1000
0001
,
0100
0000
0001
0000
1000
0000
0100
0000
0010
0001
0010
0000
0001
1000
0001
0000
,
0100
0010
0100
0010
1000
0000
0100
0010
0100
0010
0001
0000
1000
0000
0010
0000
,
1000
0100
1000
0100
0010
0001
1000
2000
,
0010
0010
0010
0010
3010
1000
0001
0010
,
0200
0000
0310
0020
0000
0000
0031
0001
,
0200
0000
0301
1002
0000
0003
2010
0000
,
3001
0000
0000
0000
0000
0000
0001
0000
0000
0000
0000
0000
0001
0000
0000
1000
0100
1000
0100
0000
0000
0010
0000
0000
,
0021
0001
0031
1002
0000
0003
2010
0000
,
0000
0000
0000
0000
,
0000
0000
0000
0000
,
0000
0000
0000
0000
,
3000
0000
0000
0000
;

//--------------- dance-single - Gazebo ----------------
#NOTES:
     dance-single:
     Gazebo:
     Edit:
     12:
     1,0.924,0.069,0.187,1,1703,17,46,0,0,0,1,0.924,0.069,0.187,1,1703,17,46,0,0,0:
0002
0000
0000
0203
,
0320
0000
0000
0000
0000
0000
0000
0000
0030
0000
0010
0100
0001
1000
0001
0010
,
0200
0000
0000
0320
,
0032
0000
0000
0000
0000
0000
0000
0000
0000
0000
0000
0000
0000
0000
0000
0000
0000
0000
0000
0000
0000
0000
0000
0000
0003
0000
0000
0000
0000
0000
0001
0000
0000
1000
0000
0000
0010
0000
0000
0100
0000
0000
0010
0000
1000
0000
0001
0000
,
0020
0000
0000
0230
,
2300
0000
3000
0020
,
0230
0000
0000
0302
,
2003
3200
0320
0032
,
1003
0000
0000
0001
0010
0001
0010
0000
0000
0001
0000
0000
0100
0000
0000
0001
0000
0000
1000
0000
0000
0010
0000
0000
,
1000
0000
0000
0001
0100
0001
0100
0000
0000
0010
0000
0000
0100
0000
0000
0001
0000
0000
1000
0000
0000
0001
0000
0000
,
1000
0000
0000
0100
0010
0100
0010
0000
0000
0001
0000
0000
0100
0000
0000
0001
0000
0000
1000
0000
0000
0010
0000
0000
,
1000
0000
0000
0001
1000
0001
1000
0000
0000
0100
0000
0000
0010
0000
0000
0001
0000
0000
1000
0000
0000
0001
0000
0000
,
1000
0000
0000
0010
1000
0010
1000
0000
0000
0001
0000
0000
0100
0000
0000
0001
0000
0000
1000
0000
0000
0100
0000
0000
,
0010
0000
0000
0001
1000
0001
1000
0000
0000
0001
0000
0000
1000
0000
0000
0010
0000
0000
0100
0000
0000
0001
0000
0000
,
1000
0000
0000
0001
0010
0001
0010
0000
0000
0001
0000
0000
0000
0000
0000
0001
0000
0000
0000
0000
0000
0001
0000
0000
,
1000
0000
0000
0000
0000
0000
0010
0000
0100
0000
0010
0000
0100
0000
0000
0000
0000
0000
0001
0000
0000
0100
0000
0000
0001
0000
0000
0000
0000
0000
1000
0000
0000
0000
0000
0000
0100
0000
0000
0000
0000
0000
0010
0000
0000
0000
0000
0000
,
0001
0000
0000
1000
0010
1000
0010
0000
0000
1000
0000
0000
0100
0000
0000
1000
0000
0000
0001
0000
0000
0010
0000
0000
,
0001
0000
0000
1000
0100
1000
0100
0000
0000
0010
0000
0000
0100
0000
0000
1000
0000
0000
0001
0000
0000
1000
0000
0000
,
0001
0000
0000
0100
0010
0100
0010
0000
0000
1000
0000
0000
0100
0000
0000
1000
0000
0000
0001
0000
0000
0010
0000
0000
,
0001
0000
0000
1000
0001
1000
0001
0000
0000
0100
0000
0000
0010
0000
0000
1000
0000
0000
0001
0000
0000
1000
0000
0000
,
0001
0000
0000
0010
0001
0010
0001
0000
0000
1000
0000
0000
0100
0000
0000
1000
0000
0000
0001
0000
0000
0100
0000
0000
,
0010
0000
0000
1000
0001
1000
0001
0000
0000
1000
0000
0000
0001
0000
0000
0010
0000
0000
0100
0000
0000
1000
0000
0000
,
0001
0000
0000
1000
0010
1000
0010
0000
0000
1000
0000
0000
0000
0000
0000
1000
0000
0000
0000
0000
0000
1000
0000
0000
,
0001
0000
0000
0010
0100
0010
0100
0000
0000
0010
0000
0000
0000
0000
0000
0010
0000
0000
0000
0000
0000
0010
0000
0000
,
0000
0000
0000
0000
,
0000
0000
0000
0000
0001
0001
2001
0000
,
3001
0010
0001
0010
0100
1000
0001
1000
0001
0100
0001
0100
0010
1000
0010
1000
,
0001
0010
0001
0010
0100
1000
0001
1000
0001
0100
0001
0100
0010
1000
0010
1000
,
0001
1000
0100
0010
0100
1000
0001
0100
0001
0010
0100
0010
0100
1000
0001
1000
,
0010
1000
0001
0100
0001
1000
0001
0010
0100
0010
0100
1000
0001
0100
0001
0100
,
0001
0010
0100
1000
0001
0100
0001
0010
0100
1000
0001
0100
0001
1000
0100
0010
,
0100
0010
0001
1000
0010
1000
0001
0100
0001
0100
0010
1000
0001
0010
0100
1000
,
0100
0010
0100
1000
0100
0010
0100
1000
0001
1000
0010
0100
0001
0010
0001
1000
,
0001
0100
0010
0100
0001
0100
0010
1000
0001
0010
0100
0010
0001
1000
0010
1000
,
0001
0010
0001
0010
0100
1000
0001
1000
0001
0100
0001
0100
0010
1000
0010
1000
,
0001
0010
0001
0010
0100
1000
0001
1000
0001
0100
0001
0100
0010
1000
0010
1000
,
0001
1000
0100
0010
0100
1000
0001
0010
0001
1000
0100
1000
0001
0100
0001
0010
,
0100
0010
0001
1000
0010
1000
0001
0010
0100
0010
0100
1000
0001
0100
0001
0100
,
0001
0010
0100
1000
0001
0100
0001
0010
0100
1000
0001
0100
0001
1000
0100
0010
,
0100
0010
0001
1000
0010
1000
0001
0100
0001
0100
0010
1000
0001
0010
0001
1000
,
0010
0100
0010
1000
0010
0100
0010
1000
0010
0100
0001
1000
0001
0010
0100
1000
,
0001
0100
0001
0100
0010
1000
0001
0010
0001
0010
0100
1000
0001
0100
0010
1000
,
0002
0000
0000
0023
,
0230
0000
0000
0000
0000
0000
0000
0000
0300
0000
0100
0010
0001
1000
0001
0100
,
0020
0000
0000
0230
,
0302
0000
0000
0000
0000
0000
0000
0000
0000
0000
0000
0000
0000
0000
0000
0000
0000
0000
0000
0000
0000
0000
0000
0000
0003
0000
0000
0000
0000
0000
0001
0000
0000
1000
0000
0000
0100
0000
0000
0010
0000
0000
0100
0000
1000
0000
0001
0000
,
0200
0000
0000
0320
,
2030
0000
3000
0200
,
0320
0000
0000
0032
,
2003
3020
0230
0302
,
1003
0000
0000
0001
0100
0001
0100
0000
0000
0001
0000
0000
0010
0000
0000
0001
0000
0000
1000
0000
0000
0100
0000
0000
,
1000
0000
0000
0001
0010
0001
0010
0000
0000
0100
0000
0000
0010
0000
0000
0001
0000
0000
1000
0000
0000
0001
0000
0000
,
1000
0000
0000
0010
0100
0010
0100
0000
0000
0001
0000
0000
0010
0000
0000
0001
0000
0000
1000
0000
0000
0100
0000
0000
,
1000
0000
0000
0001
1000
0001
1000
0000
0000
0010
0000
0000
0100
0000
0000
0001
0000
0000
1000
0000
0000
0001
0000
0000
,
1000
0000
0000
0100
1000
0100
1000
0000
0000
0001
0000
0000
0010
0000
0000
0001
0000
0000
1000
0000
0000
0010
0000
0000
,
0100
0000
0000
0001
1000
0001
1000
0000
0000
0001
0000
0000
1000
0000
0000
0100
0000
0000
0010
0000
0000
0001
0000
0000
,
1000
0000
0000
0000
0000
0000
0001
0000
0100
0000
0001
0000
0100
0000
0000
0000
0000
0000
0001
0000
0000
0000
0000
0000
0000
0000
0000
0000
0000
0000
0001
0000
0000
0000
0000
0000
2000
0000
0000
0000
0000
0000
0000
0000
0000
3000
0000
0000
,
2000
3200
0320
0032
,
1003
0000
0000
0001
0100
0001
0100
0000
0000
0001
0000
0000
0010
0000
0000
0001
0000
0000
1000
0000
0000
0100
0000
0000
,
1000
0000
0000
0001
0010
0001
0010
0000
0000
0100
0000
0000
0010
0000
0000
0001
0000
0000
1000
0000
0000
0001
0000
0000
,
1000
0000
0000
0010
0100
0010
0100
0000
0000
0001
0000
0000
0010
0000
0000
0001
0000
0000
1000
0000
0000
0100
0000
0000
,
1000
0000
0000
0001
1000
0001
1000
0000
0000
0010
0000
0000
0100
0000
0000
0001
0000
0000
1000
0000
0000
0001
0000
0000
,
1000
0000
0000
0100
1000
0100
1000
0000
0000
0001
0000
0000
0010
0000
0000
0001
0000
0000
1000
0000
0000
0010
0000
0000
,
0100
0000
0000
0001
1000
0001
1000
0000
0000
0001
0000
0000
1000
0000
0000
0100
0000
0000
0010
0000
0000
0001
0000
0000
,
1000
0000
0000
0001
0100
0001
0100
0000
0000
0001
0000
0000
0000
0000
0000
0001
0000
0000
0000
0000
0000
0001
0000
0000
,
0010
0000
0000
0100
1000
0100
1000
0000
0000
1000
0000
0000
0000
0000
0000
1000
0000
0000
0000
0000
0000
0010
0000
0000
,
0100
0010
1000
0010
0100
0010
1000
0010
,
0100
0000
0010
0000
0010
0000
1000
0000
0001
0010
0001
0010
0002
0000
1000
0000
,
1003
0010
1000
0010
0100
0001
1000
0001
1000
0100
1000
0100
0010
0001
0010
0001
,
1000
0010
1000
0010
0100
0001
1000
0001
1000
0100
1000
0100
0010
0001
0010
0001
,
1000
0001
0100
0010
0100
0001
1000
0100
1000
0010
0100
0010
0100
0001
1000
0001
,
0010
0001
1000
0100
1000
0001
1000
0010
0100
0010
0100
0001
1000
0100
1000
0100
,
1000
0010
0100
0001
1000
0100
1000
0010
0100
0001
1000
0100
1000
0001
0100
0010
,
0100
0010
1000
0001
0010
0001
1000
0100
1000
0100
0010
0001
1000
0010
0100
0001
,
0100
0010
0100
0001
0100
0010
0100
0001
1000
0001
0010
0100
1000
0010
1000
0001
,
1000
0100
0010
0100
1000
0100
0010
0001
1000
0010
0100
0010
1000
0001
0010
0001
,
1000
0010
1000
0010
0100
0001
1000
0001
1000
0100
1000
0100
0010
0001
0010
0001
,
1000
0010
1000
0010
0100
0001
1000
0001
1000
0100
1000
0100
0010
0001
0010
0001
,
1000
0001
0100
0010
0100
0001
1000
0010
1000
0001
0100
0001
1000
0100
1000
0010
,
0100
0010
1000
0001
0010
0001
1000
0010
0100
0010
0100
0001
1000
0100
1000
0100
,
1000
0010
0100
0001
1000
0100
1000
0010
0100
0001
1000
0100
1000
0001
0100
0010
,
0100
0010
1000
0001
0010
0001
1000
0100
1000
0100
0010
0001
1000
0010
1000
0001
,
0010
0100
0010
0001
0010
0100
0010
0001
0010
0100
1000
0001
1000
0010
0100
0001
,
1000
0100
1000
0100
0010
0001
1000
0010
1000
0010
0100
0001
1000
0100
0010
0001
,
1000
0010
1000
0010
1000
0100
1000
0001
0100
0010
0100
0001
1000
0100
1000
0001
,
1000
0100
0010
0001
0010
0001
1000
0010
0100
0010
0100
0001
1000
0100
0010
0001
,
0100
0001
0100
0001
1000
0010
1000
0001
0010
0100
0010
0001
1000
0010
1000
0001
,
1000
0010
0100
0001
0100
0001
1000
0100
0010
0100
0010
0001
1000
0010
0100
0001
,
1000
0010
1000
0010
1000
0100
1000
0001
0100
0010
0100
0001
1000
0100
1000
0001
,
0100
0010
1000
0010
0100
0010
1000
0100
0010
0001
0010
0001
1000
0010
1000
0001
,
0010
0100
0010
0001
0010
0100
0010
0001
0010
0100
1000
0001
1000
0001
0100
0010
,
1000
0001
0100
0001
1000
0001
0100
0001
1000
0000
0010
0000
0100
0001
0100
0001
,
1000
0100
1000
0001
1000
0100
1000
0001
1000
0010
0100
0010
1000
0100
0010
0100
,
0010
0001
1000
0001
0100
0001
0100
0001
1000
0010
1000
0010
1000
0100
1000
0100
,
0010
0001
1000
0001
0010
0001
1000
0001
0100
0010
0100
0001
1000
0100
0010
0100
,
0010
0001
1000
0010
1000
0001
0100
0001
0010
0001
0010
0001
0010
0100
1000
0001
,
0100
0010
0100
0001
0100
0010
1000
0001
0010
0100
1000
0100
0010
0100
1000
0001
,
1000
0010
1000
0001
0100
0001
0010
0100
0010
0100
1000
0001
0010
0001
1000
0010
,
1000
0010
0100
0001
0100
0001
1000
0100
1000
0001
0010
0001
1000
0001
0100
0010
,
1000
0001
0100
0001
1000
0001
0010
0100
1000
0001
0010
0001
1000
0001
0100
0010
,
0100
0001
1000
0001
0100
0001
1000
0001
,
0100
0001
0001
1000
0002
0000
0003
1001
,
0011
1000
1100
0001
0101
1000
1010
0001
,
0011
0000
1000
0000
1001
0000
0001
0000
1010
0000
0010
0000
0100
0001
0100
0001
,
1000
0100
1000
0100
0010
0001
1000
0001
1000
0010
1000
0010
0100
0001
0100
0001
,
1000
0100
1000
0100
0010
0001
1000
0001
1000
0010
1000
0010
0100
0001
0100
0001
,
1000
0001
0010
0100
0010
0001
1000
0010
1000
0100
0010
0100
0010
0001
1000
0001
,
0100
0001
1000
0010
1000
0001
1000
0100
0010
0100
0010
0001
1000
0010
1000
0010
,
1000
0100
0010
0001
1000
0010
1000
0100
0010
0001
1000
0010
1000
0001
0010
0100
,
0010
0100
1000
0001
0100
0001
1000
0010
1000
0010
0100
0001
1000
0100
0010
0001
,
0010
0100
0010
0001
0010
0100
0010
0001
1000
0001
0100
0010
1000
0100
1000
0001
,
1000
0010
0100
0010
1000
0010
0100
0001
1000
0100
0010
0100
1000
0001
0100
0001
,
1000
0100
1000
0100
0010
0001
1000
0001
1000
0010
1000
0010
0100
0001
0100
0001
,
1000
0100
1000
0100
0010
0001
1000
0001
1000
0010
1000
0010
0100
0001
0100
0001
,
1000
0001
0010
0100
0010
0001
1000
0100
1000
0001
0010
0001
1000
0010
1000
0100
,
0010
0100
1000
0001
0100
0001
1000
0100
0010
0100
0010
0001
1000
0010
1000
0010
,
1000
0100
0010
0001
1000
0010
1000
0100
0010
0001
1000
0010
1000
0001
0010
0100
,
0010
0100
1000
0001
0100
0001
1000
0010
1000
0010
0100
0001
1000
0100
1000
0001
,
0100
0010
0100
0001
0100
0010
0100
0001
0100
0010
1000
0001
1000
0100
1000
0001
,
1000
0000
0101
0000
0101
0000
1000
0000
1001
0000
0001
0000
1000
0100
1000
0100
,
1000
0010
1000
0010
0100
0001
1000
0001
1000
0100
1000
0100
0010
0001
0010
0001
,
1000
0010
1000
0010
0100
0001
1000
0001
1000
0100
1000
0100
0010
0001
0010
0001
,
1000
0001
0100
0010
0100
0001
1000
0100
1000
0010
0100
0010
0100
0001
1000
0001
,
0010
0001
1000
0100
1000
0001
1000
0010
0100
0010
0100
0001
1000
0100
1000
0100
,
1000
0010
0100
0001
1000
0100
1000
0010
0100
0001
1000
0100
1000
0001
0100
0010
,
0100
0010
1000
0001
0010
0001
1000
0100
1000
0100
0010
0001
1000
0010
0100
0001
,
0100
0010
0100
0001
0100
0010
0100
0001
1000
0001
0010
0100
1000
0010
1000
0001
,
1000
0100
0010
0100
1000
0100
0010
0001
1000
0010
0100
0010
1000
0001
0010
0001
,
1000
0010
1000
0010
0100
0001
1000
0001
1000
0100
1000
0100
0010
0001
0010
0001
,
1000
0010
1000
0010
0100
0001
1000
0001
1000
0100
1000
0100
0010
0001
0010
0001
,
1000
0001
0100
0010
0100
0001
1000
0010
1000
0001
0100
0001
1000
0100
1000
0010
,
0100
0010
1000
0001
0010
0001
1000
0010
0100
0010
0100
0001
1000
0100
1000
0100
,
1000
0010
0100
0001
1000
0100
1000
0010
0100
0001
1000
0100
1000
0001
0100
0010
,
0100
0010
1000
0001
0010
0001
1000
0100
1000
0100
0010
0001
1000
0010
1000
0001
,
0010
0100
0010
0001
0010
0100
0010
0001
0010
0100
1000
0001
1000
0010
0100
0001
,
1000
0100
1000
0100
0010
0001
1000
0010
1000
0001
0100
0010
0100
0001
1000
0100
,
0020
0000
0031
1002
0000
0003
2010
0000
,
3001
0000
0000
0000
0000
0000
0001
0000
0000
0000
0000
0000
0001
0000
0000
1000
0100
1000
0100
0000
0000
0010
0000
0000
,
0021
0001
0031
1002
0000
0003
2010
0000
,
0000
0000
0000
0000
,
0000
0000
0000
0000
,
0000
0000
0000
0000
,
3000
0000
0000
0000
;

//--------------- dance-double - LinkDubs03 ----------------
#NOTES:
     dance-double:
     LinkDubs03:
     Beginner:
     2:
     0,0,0,0,0:
00200000
00300000
00000000
10000000
,
00200000
00000000
00300000
00000000
,
20000000
30000000
00000000
00100000
,
02000000
00000000
03000000
00000000
,
00200000
00300000
00000000
01000000
,
00020000
00030000
00000000
10000000
,
00020000
00030000
00000000
10000000
,
00020000
00000000
00030000
00000000
,
01000000
00000000
00010000
00000000
,
01000000
00000000
00002000
00000000
,
00003000
00000000
00100000
00000000
,
00001000
00000000
00200000
00000000
,
00300000
00000000
00001000
00000000
,
00010000
00000000
00001000
00000000
,
00020000
00000000
00030000
00000000
,
00022000
00000000
00000000
00000000
,
00033000
00000000
00010000
00000000
,
00000100
00000000
00020000
00000000
,
00030000
00000000
00000100
00000000
,
00001000
00000000
00000020
00000000
,
00000030
00000000
00001000
00000000
,
00000010
00000000
00000100
00000000
,
00000020
00000000
00000000
00000000
,
00000000
00000000
00000030
00000000
,
00001000
00000001
00001000
00000001
,
00001000
00000001
00001000
00000000
,
000001M0
00000000
00000010
00000000
,
00000001
00000000
00000100
00000000
,
00000001
00000000
00000100
00000000
,
00000001
00000000
00001000
00000000
,
00000001
00000000
00001000
00000000
,
00000010
00000000
00000100
00000000
,
00000220
00000000
00000000
00000000
,
00000000
00000000
00000330
00000000
,
00000100
00000000
00000010
00000000
,
00001000
00000000
00000010
00000000
,
00001000
00000000
00000100
00000000
,
00010000
00000000
00000100
00000000
,
00010000
00000000
00001000
00000000
,
00010000
00000000
00001000
00000000
,
00020000
00000000
00030000
00000000
,
00001000
00000000
01000000
00000000
,
00002000
00003000
00000000
01000000
,
00020000
00000000
00030000
00000000
,
00200000
00300000
00000000
00010000
,
00200000
00000000
00300000
00000000
,
00020000
00030000
00000000
10000000
,
00020000
00030000
00000000
10000000
,
02000000
03000000
00000000
00100000
,
02000000
00000000
00000000
00000000
,
03000000
00000000
00100000
00000000
,
01000000
00000000
20000000
00000000
,
30000000
00000000
00100000
00000000
,
10000000
00000000
02000000
00000000
,
03000000
00000000
10000000
00000000
,
01000000
00000000
10000000
00000000
,
20020000
00000000
00000000
00000000
,
00000000
00000000
00000000
00000000
,
30030000
00000000
01000000
00000000
,
00100000
00000000
02000000
00000000
,
03000000
00000000
00010000
00000000
,
10000000
00000000
00020000
00000000
,
00030000
00000000
10000000
00000000
,
00010000
00000000
00100000
00000000
,
00202000
00000000
00000000
00000000
,
00000000
00000000
00303000
00000000
,
00100000
00001000
00100000
00001000
,
00100000
00001000
00100000
00000000
,
00001000
00000000
00010000
00000000
,
00000100
00000000
00020000
00000000
,
00030000
00000000
00000010
00000000
,
00010000
00000000
00000010
00000000
,
00001000
00000000
00000100
00000000
,
00001000
00000000
00000100
00000000
,
00000020
00000000
00000030
00000000
,
00000200
00000000
00000300
00000000
,
0000M010
00000000
00000001
00000000
,
00001000
00000000
00000002
00000000
,
00000003
00000000
00001000
00000000
,
00000001
00000000
00000100
00000000
,
00000001
00000000
00000100
00000000
,
00000001
00000000
00000010
00000000
,
00000002
00000000
00000003
00000000
,
00000010
00000000
00000001
00000000
,
00001000
00000000
00000001
00000000
,
00001000
00000000
00000200
00000000
,
00000300
00000000
00000010
00000000
,
00000100
00000000
00000020
00000000
,
00000030
00000000
00000100
00000000
,
00001000
00000000
00000100
00000000
,
00002000
00000000
00003000
00000000
,
00000020
00000000
00000030
00000000
,
00010000
00000000
00000010
00000000
,
00010000
00000000
00001000
00000000
,
00010000
00000000
00001000
00000000
,
00010000
00000000
00001000
00000000
,
02000000
00000000
00000000
00000000
,
03000000
00000000
00010000
00000000
,
02020000
00000000
00000000
00000000
,
00000000
00000000
03030000
00000000
,
00010000
01000000
00010000
01000000
,
00010000
01000000
00010000
00000000
,
10000000
00100000
10000000
00100000
,
10000000
00100000
10000000
00000000
,
001M0000
00000000
01000000
00000000
,
00100000
00000000
02000000
00000000
,
03000000
00000000
00010000
00000000
,
10000000
00000000
00010000
00000000
,
01000000
00000000
00100000
00000000
,
01000000
00000000
00010000
00000000
,
20000000
00000000
30000000
00000000
,
00020000
00000000
00030000
00000000
,
01000000
00000000
00001000
00000000
,
01000000
00000000
00002000
00000000
,
00003000
00000000
00100000
00000000
,
00001000
00000000
00100000
00000000
,
00001000
00000000
00010000
00000000
,
00001000
00000000
00010000
00000000
,
00022000
00000000
00000000
00000000
,
00000000
00000000
00033000
00000000
,
00010000
00000000
00000010
00000000
,
00010000
00000000
00000200
00000000
,
00000300
00000000
00010000
00000000
,
00000100
00000000
00001000
00000000
,
00000010
00000000
00001000
00000000
,
00000010
00000000
00000100
00000000
,
00000020
00000000
00000030
00000000
,
00000200
00000000
00000300
00000000
,
0000M010
00000000
00001000
00000000
,
00000001
00000000
00002000
00000000
,
00003000
00000000
00000001
00000000
,
00000010
00000000
00000001
00000000
,
00000010
00000000
00000001
00000000
,
00000100
00000000
00000001
00000000
,
00000200
00000000
00000300
00000000
,
00000001
00000000
00001000
00000000
,
00000001
00000000
00000000
00001000
00000000
00000000
00000020
00000000
,
00000000
00000000
00000030
00000000
,
00000100
00000000
00000000
00000010
00000000
00000000
00000200
00000000
,
00000000
00000000
00000000
00000000
,
00000000
00000000
00000000
00000300
;

//--------------- dance-double - LinkDubs07 ----------------
#NOTES:
     dance-double:
     LinkDubs07:
     Easy:
     5:
     0,0,0,0,0:
00200000
00000000
00300000
10000000
,
00200000
00000000
00300000
10000000
,
00200000
00000000
00300000
01000000
,
00200000
00000000
00300000
01000000
,
00020000
00000000
00030000
10000000
,
00020000
00000000
00030000
10000000
,
00020000
00000000
00030000
01000000
,
00020000
00000000
00000000
00000000
,
00030000
01000000
00001000
00100000
,
00002000
00003000
00101000
00000000
,
00000000
00001000
00010000
00001000
,
00020000
00030000
00010010
00000000
,
00000000
00010000
00000100
00010000
,
00000100
00001000
00000010
00001000
,
00000020
00000000
00000000
00000030
,
00000110
00000000
00000000
00000000
,
00000000
00000010
00000100
00000001
,
00001000
00000000
00000000
00000001
00000000
00002000
00000000
00000000
,
00003000
00000001
00000010
00000001
,
00000010
00000000
00000000
00000001
00000000
00000200
00000000
00000000
,
00000300
00000001
00000100
00000001
,
00001000
00000010
00001000
00000010
,
00020000
00000000
00000000
00030000
,
00010010
00000000
00000000
00000000
00000000
00000000
00000000
00010000
,
00001000
00010000
00001000
00010000
00001000
00010000
00001000
00010000
,
00001000
00010000
00001000
00010000
00001000
00000000
00000000
00000000
,
01M00000
00001000
01000000
00010000
,
00100000
00010000
00100000
00010000
,
00000000
10000000
00010000
10000000
,
01000000
00100000
01000000
00100000
,
01000000
10000000
00100000
10000000
,
01000000
10000000
01000000
10000000
,
00200000
00000000
00000000
00300000
,
01100000
00000000
00000000
00100000
,
01000000
00010000
10000000
00010000
,
10000000
00010000
01000000
00020000
,
00030000
01000000
00001000
00100000
,
00001000
00100000
00001000
00010000
,
00001000
00010000
00000100
00010000
,
00000010
00010000
00000010
00001000
,
00000200
00000000
00000000
00000300
,
00001000
00000100
00000010
00000100
,
00000020
00000000
00000030
00000001
,
00002000
00000000
00003000
00000001
,
00002000
00000000
00003000
00000001
,
00000200
00000000
00000300
00000001
,
00000200
00000000
00000300
00000001
,
00000020
00000000
00000030
00000001
,
00000020
00000000
00000030
00000001
,
00002000
00000000
00000000
00000000
,
00003000
00000001
00001000
00000100
,
00000020
00000030
00000100
00000020
,
00000030
00000100
00001000
00000100
,
00002000
00003000
00000010
00020000
,
00030000
00000010
00010000
00001000
,
00010000
00001000
00010000
00001000
,
02000000
00000000
00000000
00000000
,
00001000
00001000
00002000
00000000
,
03003000
01000000
00010000
00100000
,
00010000
00000000
00000000
10000000
00000000
00020000
00000000
00000000
,
00030000
10000000
01000000
00100000
,
02000000
03000000
02000000
00000000
,
03000000
10000000
00100000
10000000
,
00100000
01000000
00100000
01000000
,
00020000
00000000
00000000
00030000
,
01010000
00000000
00000000
00000000
00000000
00000000
00000000
00010000
,
01000000
00010000
01000000
00010000
01000000
00010000
01000000
00001000
,
01000000
00001000
01000000
00001000
01000000
00000000
00000000
00000000
,
00001000
00010000
00001000
00010000
,
00000100
00010000
00000010
00020000
,
00030000
00000010
00001000
00000100
,
00001000
00000100
00000010
00000100
,
00000010
00000001
00001000
00000001
,
00001000
00000001
00000100
00000001
,
00000200
00000000
00000000
00000300
,
00000101
00000000
00000000
00000000
,
00000M10
00000001
00000010
00000001
,
00001000
00000001
00001000
00000200
,
00000300
00000010
00000100
00000010
,
00000100
00001000
00000100
00001000
,
00000010
00010000
00000010
00010000
,
00001000
00010000
00001000
00010000
,
00002000
00000000
00000000
00003000
,
00100000
00001000
00100000
00010000
,
01000000
00010000
01000000
00010000
,
20000000
30000000
10010000
00000000
,
00000000
10000000
00100000
01000000
,
00200000
00300000
01100000
00000000
,
00000000
00010000
10000000
01000000
,
20000000
30000000
00100000
10000000
,
00200000
00000000
00000000
00300000
,
10100000
00000000
00000000
00000000
,
01000000
00100000
01000000
00100000
,
00020000
00030000
00110000
00000000
,
00010000
00100000
00010000
00100000
,
00002000
00003000
00101000
00000000
,
00002000
00000000
00000000
00000000
,
00003000
01000000
00001000
01000000
,
00001000
00020000
00000000
00000000
,
00000000
00000000
00000000
00000000
00030000
00000000
00000000
00001000
,
00010000
00001000
00010000
00001000
00010000
00001000
00010000
00001000
,
00010000
00001000
00010000
00001000
00010000
00000000
00000000
00000100
,
00001000
00000100
00001000
00000100
00001000
00000100
00001000
00000100
,
00001000
00000100
00001000
00000100
00001000
00000000
00000000
00000000
,
000001M0
00001000
00000010
00001000
,
00000001
00001000
00000001
00002000
,
00003000
00000100
00001000
00000100
,
00010000
00000100
00010000
00001000
,
00010000
00001000
00010000
00001000
,
00100000
00001000
00100000
00010000
,
02000000
00000000
00000000
03000000
,
01010000
00000000
00000000
00000000
,
01000000
00010000
10000000
00010000
,
10000000
00100000
01000000
00200000
,
00300000
01000000
00100000
10000000
,
01000000
10000000
00100000
10000000
,
00100000
10000000
00100000
01000000
,
00100000
01000000
00010000
01000000
,
00020000
00000000
00000000
00000000
,
00000000
10000000
10030000
10000000
,
00010000
01000000
00001000
00100000
,
00001000
00100000
00001000
00010000
,
00000000
00001000
00010000
00000100
,
00010000
00000100
00001000
00000100
,
00001000
00000100
00001000
00000001
,
00001000
00000001
00000010
00000001
,
00000020
00000000
00000000
00000030
,
00000011
00000000
00000000
00000000
,
00000M10
00000001
00000010
00000001
,
00000010
00000001
00000100
00000002
,
00000003
00000100
00000001
00001000
,
00000001
00001000
00000010
00000100
,
00000010
00000100
00000010
00001000
,
00000010
00001000
00000100
00010000
,
00000200
00000000
00000000
00000300
,
00010000
00001000
00020000
00030000
,
00001M00
00000000
00000000
00010M00
00000000
00000000
00001M00
00000000
,
00000000
01000000
00001000
00000000
,
0100M000
00000000
00000000
0001M000
00000000
00000000
0020M000
00000000
,
00000000
00000000
00000000
00000000
,
00000000
00000000
00000000
00300000
;

//--------------- dance-double - LinkDubs09 ----------------
#NOTES:
     dance-double:
     LinkDubs09:
     Medium:
     6:
     0,0,0,0,0:
00200000
00000000
00300000
10000000
,
00200000
00000000
00000000
00300000
00000000
10000000
01000000
10000000
,
02000000
00000000
03000000
00100000
,
00020000
00000000
00000000
00030000
00000000
10000000
00010000
10000000
,
00020000
00000000
00030000
01000000
,
00020000
00000000
00030000
00100000
,
00002000
00000000
00003000
00100000
,
00001000
01000000
00001000
00020000
,
00030000
00001000
00010000
00000010
,
00010000
00000000
00000000
00000100
00020000
00000000
00000000
00000000
,
00030000
00000100
00001000
00000010
,
00001000
00000000
00000000
00000010
00000200
00000000
00000000
00000000
,
00000300
00000000
00000010
00000000
00000100
00000000
00000001
00001000
,
00000000
00000000
00000001
00000000
00001000
00000001
00000000
00000020
,
00000000
00000000
00000000
00000030
,
00000011
00000000
00000000
00000000
,
00000000
00000010
00000001
00000100
,
00000001
00000000
00000000
00001000
00000000
00000200
00000000
00000000
,
00000300
00000010
00000100
00001000
,
00000010
00000000
00000000
00010000
00000000
00002000
00000000
00000000
,
00003000
00000000
00010000
00000000
00001000
01000000
00000000
00001000
,
00000000
00000000
00010000
00001000
00000000
01000000
00000000
00002000
,
00000000
00000000
00000000
00003000
,
01001000
00000000
00000000
00000000
00000000
00000000
00000000
00001000
,
01000000
00001000
01000000
00001000
00100000
00001000
00100000
00001000
,
00010000
00001000
00010000
00001000
00010000
00000000
00000000
00000000
,
000001M0
00000000
00010000
00000100
00010000
00000000
00000100
00000000
,
00001000
00000000
00000001
00001000
00000001
00000000
00000100
00000000
,
00000000
00000001
00000100
00000000
00000001
00000010
00000000
00000001
,
00000000
00001000
00000001
00000000
00001000
00000000
00000010
00000000
,
00000100
00000000
00000010
00000100
00000000
00000010
00000000
00001000
,
00000000
00000100
00000000
00010000
00000000
00000100
00010000
00000200
,
00000000
00000000
00000000
00000300
00000000
00010000
00001000
00010000
,
00002000
00000000
00000000
00000000
00003000
00000000
00100000
00001000
,
00100000
00000000
00001000
00100000
00001000
00000000
00100000
00000000
,
00010000
00000000
01000000
00010000
01000000
00000000
00010000
00000000
,
00000000
10000000
00000000
00100000
10000000
00000000
00100000
01000000
,
00000000
00100000
10000000
00000000
00100000
00000000
10000000
00000000
,
00010000
00000000
10000000
01000000
00000000
10000000
00000000
01000000
,
00000000
00100000
00000000
01000000
00000000
00100000
00010000
00200000
,
00000000
00000000
00000000
00000000
00000000
00300000
00000000
00010000
,
10000000
00000000
00010000
01000000
00000000
00000000
00010000
00200000
,
00000000
00000000
00300000
00001000
,
00200000
00000000
00000000
00300000
00000000
00001000
01000000
00001000
,
02000000
00000000
03000000
00001000
,
00020000
00000000
00000000
00030000
00000000
00000010
00010000
00000010
,
00020000
00000000
00030000
00000100
,
00002000
00000000
00003000
00000010
,
00002000
00000000
00003000
00000010
,
00000100
00000010
00000100
00000001
,
00001000
00000001
00001000
00000001
,
00000010
00000000
00000000
00000001
00000020
00000000
00000000
00000000
,
00000030
00000001
00000100
00000001
,
00001000
00000000
00000000
00000100
00000020
00000000
00000000
00000000
,
00000030
00000000
00000100
00000000
00001000
00000010
00000000
00010000
,
00000000
00000000
00001000
00010000
00000000
00001000
00000000
02000000
,
00000000
00000000
03000000
00010000
,
00100000
00020000
01000000
01000000
,
01030000
00100000
10000000
01000000
,
10000000
00000000
00000000
01000000
00000000
00200000
00000000
00000000
,
00300000
00010000
10000000
00010000
,
01000000
00000000
00000000
00001000
02000000
00000000
00000000
00000000
,
03000000
00000000
00001000
00000000
00010000
00001000
00000000
00010000
,
00000000
00000100
00000000
00001000
00000000
00000000
00000100
00000020
,
00000000
00000000
00000000
00000030
,
00000011
00000000
00000000
00000000
00000000
00000000
00000000
00000010
,
00000001
00000010
00000001
00000100
00000001
00000100
00000001
00001000
,
00000001
00001000
00000001
00001000
00000001
00000000
00000000
00000000
,
00001000
00000000
00000010
00001000
00000010
00000000
00001000
00000000
,
00000100
00000000
00010000
00000100
00010000
00000000
00000100
00000000
,
00000000
00010000
00000000
00001000
00100000
00000000
00001000
00100000
,
00001000
00000000
00100000
00010000
00100000
00000000
00010000
00000000
,
01000000
00000000
00010000
10000000
00000000
00010000
00000000
10000000
,
00000000
00100000
00000000
01000000
00000000
00100000
01000000
00200000
,
00000000
00000000
00000000
00300000
00000000
10000000
01000000
10000000
,
02000000
00000000
00000000
00000000
00000000
00000000
03000000
00000000
00000000
00000000
10000000
00000000
00000000
00010000
00000000
00000000
,
0M100000
00000000
01000000
00100000
01000000
00000000
00100000
00000000
,
00010000
00000000
10000000
00010000
10000000
00000000
00010000
00000000
,
00000000
01000000
00000000
00010000
00100000
00000000
00001000
00100000
,
00000000
00001000
00000000
01000000
00000000
00001000
00000000
00000000
,
00010000
00000000
00001000
00010000
00000000
00000010
00000000
00010000
,
00000000
00000100
00000000
00010000
00000000
00000100
00001000
00000200
,
00000000
00000000
00000000
00000000
00000000
00000300
00000000
00001000
,
00000010
00000000
00000100
00000010
00000000
00000000
00000100
00000001
,
00000000
00001000
00000001
00001000
,
00000001
00000000
00000000
00000010
00000002
00000000
00000000
00000000
,
00000003
00000010
00000001
00000100
,
00000001
00000000
00000000
00001000
00000200
00000000
00000000
00000000
,
00000300
00000010
00000100
00001000
,
00000010
00000000
00000000
00010000
00001000
00000000
00010000
00000000
,
00002000
00000000
00000000
00003000
,
01001000
00000000
00000000
00000000
00000000
00000000
00000000
00010000
,
01000000
00000000
00010000
01000000
00010000
00000000
01000000
00100000
,
00000000
00000000
10000000
00100000
00000000
00000000
10000000
00010000
,
00000000
00000000
01000000
00010000
01000000
00000000
00010000
01000000
,
00000000
00000000
00001000
02000000
00000000
03000000
00000000
00002000
,
00000000
00003000
00020000
00000000
,
00030000
00000000
00000100
00010000
00000000
00000100
00000000
00001000
,
00000000
00000002
00000000
00000100
00000100
00000000
00000000
00000100
,
00000100
00000000
00000000
00000100
00000103
00000000
00000000
00000100
,
00000010
00000100
00000010
00000100
00000010
00001000
00000010
00001000
,
00000010
00010000
00000010
00010000
00000010
00000000
00000000
00010000
,
00001000
00010000
00001000
00010000
00001000
00100000
00001000
00100000
,
00001000
01000000
00001000
01000000
00001000
00000000
01000000
00001000
,
01M00000
00000000
00010000
01000000
00010000
00000000
10000000
00000000
,
00010000
00000000
10000000
00100000
10000000
00000000
00100000
00000000
,
00000000
01000000
00010000
00000000
01000000
00010000
00000000
10000000
,
00000000
00100000
10000000
00000000
00100000
00000000
10000000
00000000
,
01000000
00000000
00100000
01000000
00000000
00100000
00000000
00010000
,
00000000
10000000
00000000
00010000
00000000
01000000
00010000
02000000
,
00000000
00000000
00000000
03000000
00000000
00001000
01000000
00001000
,
02000000
00000000
00000000
00000000
03000000
00000000
00001000
00010000
,
00001000
00000000
00010000
00001000
00010000
00000000
00000010
00000000
,
00010000
00000000
00000100
00010000
00000100
00000000
00001000
00000000
,
00000000
00000010
00000000
00000100
00000010
00000000
00000100
00000010
,
00000000
00000100
00000010
00000000
00001000
00000000
00000010
00000000
,
00001000
00000000
00000001
00000100
00000000
00000001
00000000
00000100
,
00000000
00000010
00000000
00000100
00000000
00000010
00001000
00000020
,
00000000
00000000
00000000
00000000
,
00000030
00000000
00000100
00000000
00000010
00000000
00010000
00000010
,
00010000
00000000
00001000
00010000
00001000
00000000
01000000
00000000
,
00010000
00100000
00010000
00000000
10000000
00000000
00100000
00000000
,
00000000
01000000
00000000
00100000
10000000
00000000
01000000
00000000
,
10000000
01000000
10000000
00000000
00010000
00000000
10000000
00000000
,
00010000
00000000
01000000
00001000
00000000
01000000
00000000
00001000
,
00000000
00010000
00000000
00000010
00000000
00010000
00000100
00020000
,
00000000
00000000
00000000
00030000
00000000
00000100
00001000
00000100
,
00002000
00000000
00000000
00000000
00000000
00000000
00003000
00000000
00000000
00000000
00000001
00000000
00000000
00001000
00000000
00000000
,
00000M10
00000000
00001000
00000001
00001000
00000000
00000001
00000000
,
00000100
00000000
00000010
00000100
00000010
00000000
00000100
00000000
,
00000000
00000010
00000000
00001000
00000010
00001000
00000000
00000100
,
00000000
00001000
00000000
00000100
00000000
00010000
00000000
00000000
,
00000010
00000000
00010000
00001000
00000000
00010000
00000000
00001000
,
00000000
00010000
00000000
00001000
00000000
00100000
00001000
00200000
,
00000000
00000000
00000000
00000000
00000000
00300000
00000000
00010000
,
01000000
00000000
00010000
01000000
00000000
00000000
00010000
10000000
,
00M10000
00000000
00000000
10M00000
00000000
00000000
02M00000
00000000
,
03000000
10000000
00020000
00030000
,
01M00000
00000000
00000000
00M10000
00000000
00000000
20M00000
00000000
,
00000000
00000000
00000000
00000000
,
00000000
00000000
00000000
30000000
;

//--------------- dance-double - Cut from Gazebo ----------------
#NOTES:
     dance-double:
     Cut from Gazebo:
     Hard:
     8:
     0,0,0,0,0:
00100000
00000000
00000000
10000000
,
01000000
00000000
00000000
00000000
00000000
00100000
00010000
10000000
,
00010000
00000000
00000000
01000000
,
00001000
00000000
00000000
00000000
00000000
00100000
00001000
00010000
,
00000010
00000000
00000000
00010000
,
00000100
00000000
00000000
00001000
,
00000010
00000000
00000000
00000100
,
00000001
00001000
00000001
00000010
,
00000001
00000100
00000001
00001000
00000010
00000100
00000010
00001000
,
00000100
00010000
00001000
00010000
00001000
01000000
00010000
00100000
,
00010000
10000000
01000000
00100000
01000000
10000000
01000000
10000000
,
00100000
01000000
00010000
10000000
00010000
00100000
00001000
01000000
,
00001000
00010000
00000010
00010000
00000100
00001000
00000010
00000100
,
00000001
00001000
00000001
00000010
00000001
00000100
00000001
00001000
,
00000010
00000100
00000010
00001000
00000000
00000100
00000000
00010000
,
00001000
00010000
00001000
00100000
00010000
01000000
00010000
10000000
,
00100000
01000000
00100000
10000000
01000000
10000000
00100000
01000000
,
00010000
10000000
00010000
00100000
00001000
01000000
00001000
00010000
,
00000100
00010000
00000010
00001000
00000100
00000010
00000001
00001000
,
00000001
00000100
00000001
00000010
00000001
00001000
00000100
00000010
,
00000100
00001000
00000010
00010000
00001000
00010000
00001000
00100000
,
00010000
01000000
00010000
10000000
00100000
01000000
00100000
10000000
,
00100000
10000000
01000000
00100000
00000000
00010000
00000000
10000000
,
00010000
01000000
00001000
00100000
00000000
00001000
00000000
00040000
,
00000000
00000000
00000000
00000000
,
00000000
00000000
00000000
00030000
00000100
00010000
00000010
00000000
,
00001000
00000100
00000010
00000001
00001000
00000001
00000100
00000001
,
00000010
00000001
00001000
00000100
00000010
00000100
00001000
00000010
,
00010000
00001000
00010000
00001000
01000000
00010000
00100000
00010000
,
10000000
01000000
00100000
01000000
10000000
00100000
10000000
01000000
,
00100000
00010000
10000000
00010000
01000000
00001000
00100000
00001000
,
00010000
00000010
00010000
00000100
00001000
00000010
00000100
00000001
,
00001000
00000001
00000010
00000001
00000100
00000001
00001000
00000010
,
00000100
00000000
00000000
00000000
00000010
00001000
00000100
00010000
,
00001000
00010000
00001000
01000000
00010000
00100000
00010000
10000000
,
01000000
00100000
01000000
10000000
01000000
10000000
00100000
01000000
,
00010000
10000000
00010000
00100000
00001000
01000000
00001000
00010000
,
00000010
00010000
00000100
00001000
00000010
00000100
00000001
00001000
,
00000001
00000010
00000001
00000100
00000001
00001000
00000010
00000100
,
00000010
00001000
00000100
00010000
00001000
00010000
00001000
00100000
,
00010000
01000000
00010000
10000000
00100000
01000000
00100000
10000000
,
01000000
00000000
10000000
00100000
00000000
00000000
01000000
00010000
,
10000000
00000000
00000000
00010000
,
00100000
00000000
00000000
00000000
00000000
00001000
01000000
00001000
,
00010000
00000000
00000000
00000100
,
00010000
00000000
00000000
00000000
00000000
00000010
00001000
00000100
,
00000010
00000000
00000000
00000001
,
00001000
00000000
00000000
00000001
,
00000100
00000000
00000000
00000001
,
00000010
00000001
00001000
00000100
,
00000010
00000100
00001000
00000010
00010000
00001000
00010000
00001000
,
00100000
00010000
01000000
00010000
10000000
00100000
01000000
00100000
,
10000000
00100000
10000000
01000000
00100000
00010000
10000000
00010000
,
01000000
00001000
00100000
00001000
00010000
00000100
00010000
00000010
,
00001000
00000100
00000010
00000001
00001000
00000001
00000100
00000001
,
00000010
00000001
00001000
00000100
00000010
00000100
00001000
00000010
,
00010000
00001000
00010000
00001000
00000000
01000000
00010000
00000000
,
00100000
00010000
10000000
01000000
,
00100000
01000000
10000000
00100000
10000000
01000000
00100000
00010000
,
10000000
00010000
01000000
00001000
00100000
00001000
00010000
00000010
,
00010000
00000100
00001000
00000010
00000100
00000001
00001000
00000001
,
00000010
00000001
00000100
00000001
00001000
00000010
00000100
00000010
,
00001000
00000100
00010000
00001000
00010000
00001000
01000000
00010000
,
00100000
00010000
10000000
01000000
00100000
01000000
10000000
01000000
,
10000000
00100000
01000000
00010000
00000000
10000000
00000000
00010000
,
00100000
00001000
01000000
00001000
00000000
00010000
00000000
00000010
,
00010000
00000100
00001000
00000010
00000100
00000001
00001000
00000001
,
00000010
00000001
00000100
00000001
00001000
00000010
00000100
00000010
,
00001000
00000100
00010000
00001000
00010000
00001000
00100000
00010000
,
01000000
00010000
10000000
00100000
01000000
00100000
10000000
01000000
,
10000000
00100000
01000000
00010000
10000000
00010000
00100000
00001000
,
01000000
00001000
00010000
00000100
00010000
00000010
00001000
00000100
,
00000010
00000001
00001000
00000001
00000100
00000001
00000010
00000001
,
00001000
00000100
00000010
00000100
00001000
00000010
00010000
00001000
,
00010000
00001000
00100000
00010000
01000000
00010000
10000000
00100000
,
01000000
00000000
00000000
00000000
00000000
00000000
00000000
00000000
00100000
00000000
10000000
00000000
00000000
00010000
00000000
00000000
,
00100000
01000000
00100000
00010000
10000000
00010000
01000000
00001000
,
00100000
00001000
00010000
00000100
00010000
00000010
00001000
00000100
,
00000010
00000001
00001000
00000001
00000100
00000001
00000010
00000001
,
00001000
00000100
00000010
00000100
00001000
00000010
00010000
00001000
,
00010000
00001000
01000000
00010000
00100000
00010000
10000000
01000000
,
00100000
01000000
10000000
00100000
10000000
01000000
00100000
00010000
,
10000000
00010000
01000000
00001000
00100000
00001000
00010000
00000010
,
00010000
00000000
00000100
00001000
00000000
00000000
00000010
00000100
,
00000001
00001000
00000001
00000010
,
00000001
00000000
00000000
00000100
00000001
00000000
00001000
00000000
,
00000010
00000100
00000010
00001000
,
00000100
00000000
00000000
00010000
00001000
00000000
00010000
00000000
,
00001000
01000000
00010000
00100000
,
00010000
00000000
00000000
10000000
01000000
00000000
00100000
00000000
,
01000000
00000000
00000000
00000000
00000000
00000000
00000000
10000000
,
01000000
00000000
00000000
00000000
00000000
10000000
00100000
01000000
,
00010000
10000000
00010000
00100000
00001000
00000000
01000000
00001000
,
00000000
00000000
00010000
00000010
00000000
00000000
00010000
00000100
,
00000000
00001000
00000010
00000100
00000001
00000000
00001000
00000001
,
00000000
00000000
00000010
00000001
00000000
00000000
00000000
00000100
,
00000000
00000000
00000001
00000000
,
00000000
00000000
00001000
00000010
00000000
00000100
00000000
00000010
,
00000000
00001000
00000000
00000000
00000000
00000100
00000000
00000000
,
00000000
00000000
00000000
00000000
00000000
00000000
00000000
00010000
,
00001000
00010000
00001000
00100000
00010000
01000000
00010000
10000000
,
00100000
01000000
00100000
10000000
01000000
00000000
00000000
10000000
,
00100000
01000000
00010000
10000000
00010000
00100000
00001000
01000000
,
00001000
00010000
00000100
00010000
00000010
00001000
00000100
00000010
,
00000100
00001000
00000001
00000100
00000001
00000010
00000001
00001000
,
00000100
00000010
00000100
00001000
00000010
00010000
00001000
00010000
,
00001000
00100000
00010000
01000000
00010000
10000000
00100000
01000000
,
00100000
10000000
00100000
10000000
01000000
00100000
00010000
10000000
,
00010000
01000000
00001000
00100000
00001000
00010000
00000100
00010000
,
00000010
00001000
00000100
00000010
00000001
00001000
00000001
00000100
,
00000001
00000010
00000001
00001000
00000100
00000010
00000100
00001000
,
00000010
00000000
00000000
00000000
00010000
00001000
00010000
00001000
,
01000000
00010000
00100000
00010000
10000000
01000000
00100000
01000000
,
10000000
00100000
10000000
01000000
00100000
00010000
10000000
00010000
,
01000000
00001000
00100000
00001000
00010000
00000010
00010000
00000100
,
00001000
00000010
00000100
00000001
00001000
00000001
00000010
00000001
,
00000100
00000001
00001000
00000010
00000100
00000010
00001000
00000100
,
00010000
00001000
00010000
00001000
01000000
00010000
00100000
00010000
,
10000000
01000000
00100000
01000000
10000000
01000000
10000000
00100000
,
01000000
00010000
10000000
00010000
00100000
00001000
01000000
00001000
,
00010000
00000010
00010000
00000100
00001000
00000010
00000100
00000001
,
00001000
00000001
00000010
00000001
00000100
00000001
00001000
00000010
,
00000100
00000010
00001000
00000100
00010000
00001000
00010000
00001000
,
00100000
00010000
01000000
00010000
10000000
00100000
01000000
00100000
,
10000000
01000000
10000000
00100000
01000000
00010000
10000000
00010000
,
00100000
00001000
01000000
00001000
00010000
00000100
00010000
00000010
,
00001000
00000100
00000010
00000001
00001000
00000001
00000100
00000001
,
00000010
00000000
00000000
00000000
00000000
00000000
00000000
00000000
00000001
00000000
00001000
00000000
00000000
00000100
00000000
00000000
,
00000010
00000100
00001000
00000010
00010000
00001000
00010000
00001000
,
00100000
00010000
01000000
00010000
10000000
00100000
01000000
00100000
,
10000000
00100000
10000000
01000000
00100000
00010000
10000000
00010000
,
01000000
00001000
00100000
00001000
00010000
00000100
00010000
00000010
,
00001000
00000100
00000010
00000001
00001000
00000001
00000100
00000001
,
00000010
00000001
00001000
00000100
00000010
00000100
00001000
00000010
,
00010000
00001000
00010000
00001000
01000000
00010000
00100000
00010000
,
10000000
00000000
01000000
00100000
00000000
00000000
01000000
10000000
,
00100000
00000000
10000000
01000000
00000000
00000000
00100000
00000000
,
00010000
00000000
10000000
00000000
00010000
01000000
00001000
00100000
,
00001000
00010000
00000010
00010000
00000000
00000000
00000100
00000000
;
