#TITLE:Schnappi the Krokodil;
#SUBTITLE:;
#ARTIST:Schnappi;
#CREDIT:Leonux;
#MUSIC:Schnappi-the-Krokodil.mp3;
#SELECTABLE:YES;
#BACKGROUND:;
#BANNER:;
#CDTITLE:;
#DISPLAYBPM:130.000:130.000;
#OFFSET:-0.27898;
#SAMPLESTART:20.125;
#SAMPLELENGTH:13.385;
#BPMS:0=129.999,5=130.005,6=129.999,12=130.005,13=129.999,18=130.005,19=129.999,25=130.005,26=129.999,33=130.005,34=129.999,41=130.005,42=129.999,49=130.005,50=129.999,57=130.005,58=129.999,65=130.005,66=129.999,73=130.005,74=129.999,81=130.005,82=129.999,89=130.005,90=129.999,97=130.005,98=129.999,104=130.005,105=129.999,108=130.005,109=129.999,112=130.005,113=129.999,116=130.005,117=129.999,120=130.005,121=129.999,124=130.005,125=129.999,128=130.005,129=129.999,132=130.005,133=129.999,136=130.005,137=129.999,140=130.005,141=129.999,144=130.005,145=129.999,148=130.005,149=129.999,152=130.005,153=129.999,156=130.005,157=129.999,160=130.005,161=129.999,164=130.005,165=129.999,168=130.005,169=129.999,172=130.005,173=129.999,176=130.005,177=129.999,180=130.005,181=129.999,184=130.005,185=129.999;
#STOPS:;

//---------------dance-single - ----------------
#NOTES:
     dance-single:
     :
     Easy:
     2:
     0.000,0.000,0.000,0.000,0.000:
0000
0000
0000
0000
,
0000
0001
0000
1000
,
0000
0010
0000
0100
,
0000
1000
0000
0000
,
0000
1000
0000
0010
,
0000
0001
0000
0000
,
0000
0001
0000
1000
,
0000
0200
0300
0000
,
0000
1000
0000
0001
,
0000
0010
0000
0000
,
0000
1000
0000
0001
,
0000
0001
0000
0100
,
0000
1000
0000
0010
,
0000
0001
0000
0100
,
0000
0010
0000
0100
,
0000
1000
0000
0001
,
0000
0001
0000
1000
,
0000
0100
0000
0010
,
0000
0010
0000
0100
,
0000
1000
0000
0001
,
0000
0010
0000
0100
,
0000
0001
0000
1000
,
0000
0100
0000
0010
,
0000
1000
0000
0001
,
0000
0001
0000
1000
,
0000
0200
0000
0300
,
0000
0000
0000
2002
,
0000
3003
0000
1001
,
0000
1001
0000
1001
,
0000
2002
0000
3003
,
0000
0001
0000
0010
,
0000
0100
0000
1000
,
0000
1000
0000
0100
,
0000
0010
0000
0001
,
0000
1000
0000
0001
,
0000
0100
0000
0010
,
0000
0001
0000
1000
,
0000
0100
0000
0010
,
0000
0100
0000
0001
,
0000
1000
0000
0010
,
0000
1000
0000
0001
,
0000
0100
0000
0010
,
0000
1000
0000
0001
,
0000
1000
0000
0100
,
0000
0010
0000
0100
,
0000
1000
0000
0002
,
0003
0000
0000
0000
,
0000
0000
0000
0000
,
0000
0000
0000
0000
;

//---------------dance-single - ----------------
#NOTES:
     dance-single:
     :
     Medium:
     5:
     0.000,0.000,0.000,0.000,0.000:
0000
0000
0000
0000
,
0000
1000
0001
1000
,
0000
0100
0010
0100
,
1000
0002
0003
0000
,
0001
1000
0100
0010
,
0100
2000
0000
3000
,
0000
1000
0001
0100
,
0010
0020
0000
0030
,
0000
1000
0001
0100
,
0010
1000
0000
1001
,
0000
0010
0100
0020
,
0030
1000
0001
1000
,
0000
0010
0100
2000
,
3000
0100
0010
0001
,
0000
1000
0001
0100
,
0010
0100
0001
1000
,
0000
1000
0100
0010
,
0001
0010
0100
1000
,
0000
0001
0100
0010
,
1000
0010
0000
0000
,
1000
0001
0100
0010
,
1000
0001
0000
0000
,
0000
1000
0100
0010
,
0100
2000
0000
3000
,
0000
0001
0100
0010
,
1000
0200
0300
0000
,
0000
0000
0000
2002
,
0000
0000
3003
1001
,
1001
1001
1001
1001
,
1001
2002
0000
3003
,
0000
0100
0010
0002
,
0003
0010
0100
2000
,
3000
0100
0100
0200
,
0300
0010
0010
0020
,
0030
0001
0100
2000
,
3000
1000
0100
0002
,
0003
0010
0100
0002
,
0003
0100
0010
2000
,
3000
0001
0001
0002
,
0003
1000
1000
2000
,
3000
0100
0010
0100
,
0000
0001
1000
0100
,
0000
0010
0100
0001
,
0000
1000
0001
0100
,
0000
0001
1000
0010
,
0000
0010
1000
0020
,
0030
0000
0000
0000
,
0000
0000
0000
0000
,
0000
0000
0000
0000
;

//---------------dance-single - ----------------
#NOTES:
     dance-single:
     :
     Hard:
     7:
     0.000,0.000,0.000,0.000,0.000:
0000
0000
0000
0000
,
0000
0000
0100
0000
1000
0001
1000
0000
,
0000
1000
0001
0100
,
0010
0100
0020
0000
0030
0000
0000
0000
,
0001
0010
0001
0000
1000
0000
0100
0000
,
0010
0100
0010
0000
1000
0000
0001
0000
,
0010
0100
0001
1000
,
0001
1000
0001
0000
1000
0000
0100
0000
,
0010
0001
0010
0100
,
0010
0100
0010
0000
1000
0000
0001
0000
,
0000
0000
1000
0000
0001
0000
1000
0001
,
0000
0000
0001
0001
1000
1000
0002
0000
,
0003
0000
0010
0000
0100
0000
0010
0100
,
0000
0000
0010
0010
0100
0100
0020
0000
,
0030
0000
1000
0000
0001
0000
0001
1000
,
0000
0000
1000
1000
0001
0001
2000
0000
,
3000
0000
0100
0000
0010
0000
0100
0010
,
0000
0000
0010
0010
0100
0100
0020
0000
,
0030
1000
0001
0001
,
0010
0100
0010
0000
0000
0000
1000
0000
,
0100
1000
0010
0001
,
0010
0100
1000
0000
0001
0000
0100
0000
,
0010
0100
1000
0001
,
0100
0010
0001
0000
0001
0000
1000
0000
,
0100
0010
0100
0010
,
0100
1000
0010
0000
0100
0000
0001
0000
,
1000
0000
0000
2002
,
0000
0000
3003
1001
,
1001
1001
1001
1001
,
1001
0000
0000
0000
0000
0000
0000
0000
0000
0000
0000
0000
0000
0000
0000
0000
0000
0000
0000
0000
0000
0000
0000
0000
1001
0000
0000
0000
0000
0000
0000
0000
0000
0000
0000
0000
2002
0000
0000
0000
0000
0000
0000
0000
0000
0000
0000
0000
0000
0000
0000
0000
0000
0000
0000
0000
0000
0000
0000
0000
0000
0000
0000
0000
0000
0000
0000
0000
0000
0000
0000
0000
0000
0000
0000
0000
0000
0000
0000
0000
0000
0000
0000
0000
0000
0000
0000
0000
0000
0000
0000
0000
0000
0000
0000
3000
,
0000
0003
0000
0000
0000
0000
0000
0000
0000
0000
0000
0000
0000
0000
0000
0000
0000
0000
0000
0000
0000
0000
0000
0000
0000
0000
0000
0000
0000
0000
0000
0000
0000
0000
0000
0000
0000
0000
0000
0000
0000
0000
0000
0000
0000
0000
0000
0000
0001
0000
0000
0000
0000
0000
0000
0000
0000
0000
0000
0000
0000
0000
0000
0000
0000
0000
0000
0000
0000
0000
0000
0000
0000
0000
0000
0000
0000
0000
0000
0000
0000
0000
0000
0000
0000
0000
0000
0000
0000
0000
0000
0000
0000
0000
0000
0000
1000
0000
0000
0000
0000
0000
0000
0000
0000
0000
0000
0000
0000
0000
0000
0000
0000
0000
0000
0000
0000
0000
0000
0000
0000
0000
0000
0000
0000
0000
0000
0000
0000
0000
0000
0000
0000
0000
0000
0000
0000
0000
0000
0000
0000
0000
0000
0000
0100
0000
0000
0000
0000
0000
0000
0000
0000
0000
0000
0000
0000
0000
0000
0000
0000
0000
0000
0000
0000
0000
0000
0000
0010
0000
0000
0000
0000
0000
0000
0000
0000
0000
0000
0000
0000
0000
0000
0000
0000
0000
0000
0000
0000
0000
0000
0000
,
0000
0000
0010
0100
1000
0001
0100
0000
,
0000
0000
0010
0000
0100
0000
0001
1000
,
0000
0000
1000
0100
0010
0001
0100
0000
,
0000
0000
1000
0000
0001
0000
0100
0010
,
0000
0000
0010
0100
1000
0010
0001
0000
,
0000
0000
0100
0000
0010
0000
0001
0100
,
0000
0000
0100
1000
0010
0001
0010
0000
,
0000
0000
1000
0000
0100
0000
0010
0100
,
0000
0000
0010
0100
1000
0010
0001
0000
,
0000
0000
1000
0000
0100
0000
0010
0001
,
0000
0000
0001
0010
0100
1000
1000
0000
,
0000
0000
1000
0000
0010
0000
0001
0010
,
0000
0000
1000
0100
0010
0001
0001
0000
,
0000
1001
0110
1001
,
0000
0000
0010
0100
0010
0100
0020
0000
,
0030
0000
0000
0000
,
0000
0000
0000
0000
,
0000
0000
0000
0000
;
