#TITLE:wander+wonder+wand;
#SUBTITLE:;
#ARTIST:uma;
#TITLETRANSLIT:;
#SUBTITLETRANSLIT:;
#ARTISTTRANSLIT:;
#CREDIT:Grithokskulk;
#BANNER:wander+wonder+wand.png;
#BACKGROUND:wander+wonder+wand-bg.png;
#LYRICSPATH:;
#CDTITLE:SOUND VOLTEX.png;
#MUSIC:wander+wonder+wand.mp3;
#OFFSET:-6.879;
#SAMPLESTART:12.935;
#SAMPLELENGTH:15.000;
#SELECTABLE:YES;
#BPMS:0.000=157.000;
#STOPS:;
#BGCHANGES:;

//---------------dance-single - ----------------
#NOTES:
     dance-single:
     :
     Easy:
     4:
     0.284,0.325,0.061,0.131,0.000: // measure 1
1000
0100
1000
0100
,  // measure 2
1000
0010
1000
0010
,  // measure 3
0100
0010
0100
0010
,  // measure 4
0200
0000
0000
0300
,  // measure 5
0100
0001
0010
0001
,  // measure 6
0020
0030
0002
0003
,  // measure 7
0100
0001
1000
0100
,  // measure 8
2000
3000
0010
0010
,  // measure 9
0000
0100
0001
0010
,  // measure 10
0002
0003
1000
1000
,  // measure 11
0100
1000
0010
0100
,  // measure 12
0020
0000
0000
0030
,  // measure 13
0100
0100
0001
0001
,  // measure 14
0010
0010
0100
0100
,  // measure 15
0010
0010
0100
0100
,  // measure 16
1000
1000
0010
0000
,  // measure 17
0010
0010
0100
0100
,  // measure 18
0001
0001
0010
0010
,  // measure 19
0100
0100
0010
0010
,  // measure 20
0002
0000
0000
0003
,  // measure 21
1000
0100
1000
0000
,  // measure 22
0010
0100
0010
0000
,  // measure 23
0100
0010
0100
0010
,  // measure 24
0100
0001
0100
0001
,  // measure 25
1000
0100
1000
0000
,  // measure 26
0001
0100
0001
0000
,  // measure 27
0010
0100
0100
0001
,  // measure 28
0100
0100
0100
0100
,  // measure 29
0010
1000
0010
0000
,  // measure 30
1000
0100
1000
0000
,  // measure 31
0002
0003
2000
3000
,  // measure 32
0100
0010
0100
1000
,  // measure 33
0010
0100
0100
0001
,  // measure 34
0100
0100
0100
0010
,  // measure 35
1001
0000
0110
0000
,  // measure 36
1001
0110
1001
0000
,  // measure 37
2000
0000
0000
0000
,  // measure 38
0000
0000
0000
3000
,  // measure 39
0002
0000
0000
0000
,  // measure 40
0000
0000
0000
0003
,  // measure 41
0200
0000
0000
0000
,  // measure 42
0000
0000
0000
0300
,  // measure 43
0002
0000
0000
0000
,  // measure 44
0000
0000
0000
0003
,  // measure 45
0010
0010
0010
0100
,  // measure 46
0010
0010
0100
0010
,  // measure 47
0010
0100
0010
0010
,  // measure 48
0100
0010
0001
0100
,  // measure 49
0010
0100
0100
0010
,  // measure 50
0100
0100
0010
0100
,  // measure 51
0100
0010
0100
0100
,  // measure 52
0001
1000
0000
1001
,  // measure 53
1000
0100
1000
0000
,  // measure 54
0001
0100
0001
0000
,  // measure 55
0010
0001
0100
0001
,  // measure 56
0010
0100
1000
0000
,  // measure 57
0000
1000
0010
0000
,  // measure 58
0100
0001
0100
0000
,  // measure 59
0001
1000
0100
1000
,  // measure 60
0010
0010
0010
0000
,  // measure 61
0000
0100
0100
0001
,  // measure 62
0100
0100
0100
0010
,  // measure 63
1000
0100
0010
0001
,  // measure 64
0100
0010
1000
0000
,  // measure 65
0000
1000
1000
0001
,  // measure 66
0100
0100
0010
1000
,  // measure 67
0100
1000
0010
0100
,  // measure 68
0001
1000
2002
3003
;

//---------------dance-single - ----------------
#NOTES:
     dance-single:
     :
     Medium:
     6:
     0.450,0.445,0.192,0.244,0.000:
1000
0000
0100
0000
0010
0100
0010
0100
,
0000
0010
0010
0000
0000
0000
0000
0000
,
0001
0000
0100
0000
0010
0100
0010
0100
,
0000
0010
0010
0000
0000
0000
0110
0000
,
1000
0001
1000
0000
0001
0010
0001
0010
,
0000
0001
0001
0000
0100
0000
0101
0000
,
0010
0100
0010
0000
1000
0001
1000
0001
,
0000
1000
1000
0000
0100
0000
0110
0000
,
0000
0000
0000
0000
0100
1000
0100
1000
,
0000
0010
0010
0000
1000
0001
1000
0000
,
0001
0000
0011
0000
0010
0001
0010
0001
,
0000
0100
0100
0000
0010
0100
0010
0000
,
2000
0001
3001
2000
,
0100
3100
2000
0010
,
3010
2000
0100
3100
,
1000
0010
1000
0000
0001
0100
0001
0000
,
0002
0010
0013
0002
,
0100
0103
0002
0010
,
0013
0002
1000
1003
,
2002
0000
0000
3003
,
0100
0010
0100
0010
0100
0000
0010
0100
,
0010
1000
0001
1001
,
0001
1000
0001
1000
0001
0000
1000
0001
,
1000
0000
0001
1000
0001
0000
1001
0000
,
0100
0001
0100
0001
0100
0000
0001
0100
,
0001
0000
0100
0001
0100
0000
0101
0000
,
1000
0100
1000
0100
1000
0000
0100
1000
,
0100
0000
1000
0100
1000
0000
1100
0000
,
1000
0010
1000
0000
0001
0100
0001
0000
,
0010
0001
0010
0000
1000
0010
1000
0000
,
0001
1000
0001
1000
0001
0000
1000
0001
,
1000
0001
1000
0000
0010
0100
0010
0000
,
1000
0100
1000
0100
1000
0000
0001
0010
,
0001
0000
0100
0001
0100
0000
0110
0000
,
0001
0000
0000
1000
0001
0000
0000
1000
,
0001
1000
0001
1000
0001
0000
1001
0000
,
0200
0000
0000
0000
,
0320
0000
0000
0000
,
0230
0000
0000
0000
,
0302
0000
0000
0000
,
0023
0000
0000
0000
,
0230
0000
0000
0000
,
0320
0000
0000
0000
,
0032
0000
1000
1003
,
2000
0100
3100
2000
,
0010
3010
2000
0100
,
3100
2000
0010
3010
,
1000
0001
1000
0000
0001
1000
0001
0000
,
0002
0100
0103
0002
,
0010
0013
0002
1000
,
1003
0002
0100
0103
,
1001
0110
2002
3003
,
1000
0100
1000
0000
0010
0000
0100
0100
,
0000
0010
0010
0000
0100
0001
0100
0000
,
0001
0010
0001
0000
1000
0000
0100
0100
,
0000
1000
1000
0000
0010
0100
0010
0000
,
0000
0000
1000
0001
1000
0000
0001
0001
,
0000
0010
0010
0000
0001
0010
0001
0000
,
1000
0100
1000
0000
0010
0100
0010
0100
,
0000
0010
0010
0000
0110
0000
1001
0000
,
1010
0000
1000
0000
0100
1000
0100
0000
,
1000
0010
1000
0000
0001
0000
1001
0000
,
0000
0000
0001
0000
0010
0001
0010
0000
,
0001
0100
0001
0000
0100
0000
0110
0000
,
0000
0000
1000
0000
0100
1000
0100
0000
,
1000
0010
1000
0000
0001
0000
1001
0000
,
0010
0100
0010
0100
0010
0000
0100
0000
,
1000
0001
0100
0001
1000
0000
1001
0000
,
0110
0000
0000
0000
;

//---------------dance-single - ----------------
#NOTES:
     dance-single:
     :
     Hard:
     8:
     0.578,0.534,0.375,0.244,0.057:
1000
0001
1000
0001
,
0100
0010
0100
0010
,
1000
0100
1000
0000
0001
0100
0001
0000
,
2002
0000
0000
0000
0000
0000
0000
0000
0000
0000
0000
3003
0000
0000
0000
0000
,
1000
0100
0010
0000
0010
0100
1000
0020
,
0000
0100
0130
0000
0001
0010
0001
0100
,
0010
1000
0100
0000
0001
0100
1000
0020
,
0000
0100
0130
0001
0010
0001
0100
0010
,
0000
0000
1000
0000
0010
0100
1000
0200
,
0000
0010
0310
0000
0100
0001
0010
0100
,
0010
0001
0010
0000
0001
0100
0010
2000
,
0000
0100
3100
0000
1000
0100
0001
0100
,
1000
0010
1010
0000
1010
0000
0001
0010
,
0011
0000
0011
0000
0001
0100
0110
0000
,
0110
0000
1000
0001
0011
0000
0011
0000
,
1000
0100
0001
0100
1000
0010
0001
0010
,
0100
0000
1001
0000
1001
0000
0100
0010
,
0011
0000
0011
0000
1000
0010
0101
0000
,
0101
0000
1000
0100
0110
0000
1001
0000
,
0110
0000
0000
0100
0010
0000
0000
0100
0010
0000
0000
0000
1001
0000
0000
0000
,
1000
0000
0100
0000
0010
0000
0100
0000
1000
0000
0000
0010
0000
0000
0100
0000
,
0010
0000
0000
1000
0000
0000
0001
0000
0010
0000
0000
0000
0001
0000
0000
0000
,
0100
0010
0100
1000
0100
0001
0100
0010
,
0100
1000
0100
0001
0100
1000
0100
0001
,
0010
0000
0001
0000
0100
0000
0010
0000
1000
0000
0000
0100
0000
0000
0001
0000
,
0100
0000
0000
1000
0000
0000
0010
0000
0100
0000
0000
0000
0010
0000
0000
0000
,
1000
0010
0001
0010
1000
0010
0100
0010
,
1000
0010
0001
0010
1000
0010
0100
0001
,
1000
0000
0100
0000
0010
0000
0100
0000
1000
0000
0000
0001
0000
0000
0010
0000
,
0001
0000
0000
0100
0000
0000
0010
0000
0100
0000
0000
0000
0001
0000
0000
0000
,
1000
0100
0001
0100
1000
0100
0001
0100
,
1000
0100
0010
0100
0010
0100
1000
0100
,
0010
0000
0001
0000
1000
0000
0001
0000
0010
0000
0000
0100
0000
0000
0010
0000
,
0001
0000
0000
0100
0000
0000
1000
0000
0100
0000
0000
0000
0010
0000
0000
0000
,
0110
0000
0000
0001
1001
0000
0000
1000
,
0001
1000
0001
1000
0001
0010
0100
1000
,
0020
0000
0100
0000
1000
0000
0100
0100
,
0000
1000
2000
0000
0000
0000
3030
0000
,
2000
0000
0100
0000
0010
0000
0100
0100
,
0000
0010
0020
0000
0000
0000
3030
0000
,
0002
0000
0100
0000
0010
0000
1000
1000
,
0000
0100
0200
0000
0000
0000
0303
0000
,
2000
0000
0100
0000
0010
0000
0100
0100
,
0000
0001
0002
0000
0000
0000
3003
0000
,
1000
0100
0110
0000
0110
0000
1000
0001
,
0101
0000
0101
0000
0001
0010
1100
0000
,
1100
0000
1000
0010
0110
0000
0110
0000
,
1000
0100
0001
0100
1000
0010
0001
0010
,
0100
0001
0011
0000
0011
0000
1000
0001
,
0110
0000
0110
0000
1000
0010
0101
0000
,
0101
0000
0000
0000
0001
0000
0010
0000
1100
0000
0000
0000
1100
0000
0000
0100
,
1000
0000
0000
0010
0100
0000
0000
0001
1000
0000
0000
0000
0110
0000
0000
0000
,
1000
0100
0020
0000
0130
1000
0010
0200
,
0000
0001
0301
0000
0001
0010
1000
0010
,
0001
0100
0010
1000
0100
0010
0100
2000
,
0000
0100
3100
0000
1000
0100
0010
0000
,
0000
0100
2000
0000
3010
0010
0100
0020
,
0000
0100
0130
0000
0001
0010
0100
0010
,
0001
0100
0020
0000
1030
0100
0010
0010
,
0100
1000
0010
0100
0001
0000
1001
0000
,
0000
0000
2000
0000
3100
0010
0100
2000
,
0000
0001
3002
0000
0103
0001
0010
0100
,
0010
0000
0011
0000
1100
0000
1000
0020
,
0000
0100
0230
0000
0310
1000
0100
0010
,
0000
0000
0020
0000
0130
0010
0100
2000
,
0000
0010
3020
0000
0130
1000
0100
0001
,
0010
0100
0001
0100
1000
0010
0001
0010
,
1000
0100
0010
0001
0100
0000
1001
0000
,
0110
0000
0000
0000
;

//---------------dance-single - ----------------
#NOTES:
     dance-single:
     :
     Challenge:
     9:
     0.660,0.623,0.087,0.262,0.375:
0001
0000
0000
0000
0010
0000
0000
0000
0001
0000
0000
0000
0010
0000
0000
0001
,
0100
0000
0000
0000
0010
0000
0000
0000
0100
0000
0000
0000
0010
0000
0000
1000
,
0100
0000
0010
0000
0100
0000
0010
0000
0001
1000
0001
1000
0001
1000
0001
0000
,
0200
0000
0000
0000
0010
0010
0310
0000
,
1000
0000
0000
1000
0100
0000
0000
0000
1000
0100
0010
0100
1000
0000
0010
0000
,
0000
0000
0100
0000
0100
0000
0010
0000
0100
0001
0100
0000
0001
0000
0010
0000
,
0100
0000
0010
0000
0011
0000
0000
0000
0001
0100
0010
0100
0001
0000
1000
0000
,
0000
0000
0100
0000
0100
0000
0010
0100
0010
0000
0100
0000
1000
0000
0010
0000
,
MMMM
0000
0000
0000
0110
0000
0000
0000
0100
0001
0100
0010
1000
0000
0100
0000
,
0000
0000
0010
0000
0010
0000
0100
1000
0100
0000
1000
0010
1000
0000
0010
0000
,
0100
0000
0010
0000
0001
0000
0010
0000
1000
0100
1000
0010
0100
0000
0001
0000
,
0000
0010
0010
0100
0010
0001
1001
0000
,
2000
0010
0001
0000
0001
0000
3002
0100
,
0010
0000
0010
0000
0203
1000
0010
0000
,
0010
0000
0302
1000
0100
0000
0100
0000
,
0023
1000
0001
0000
0031
0010
0100
1000
,
0020
0100
1000
0000
1000
0000
0230
1000
,
0001
0000
0001
0000
0320
0100
1000
0000
,
1000
0000
0230
1000
0001
0000
0301
0000
,
0010
0001
0100
0010
1000
0100
0010
0000
0000
1001
0000
0000
,
1000
0000
0100
0000
0010
0100
0000
0000
1000
0000
0000
1000
0010
0000
0100
0000
,
0010
0100
0000
0010
1000
0000
0010
0100
0000
0001
0010
0000
0100
0000
0010
0000
,
0001
0100
1000
0100
0010
0100
1000
0100
,
0010
0100
0001
0100
1000
0100
0001
0100
,
0010
0000
1000
0000
0001
0010
0000
0000
0100
0000
0000
0100
0010
0000
0001
0000
,
0100
1000
0000
0100
0010
0000
0100
0001
0000
0100
0010
0000
0100
0000
0010
0000
,
1000
0100
0001
0100
0010
0100
1000
0100
,
0010
0100
1000
0100
0001
0100
0010
0100
,
1000
0000
0010
0000
0100
0010
0000
0000
1000
0000
0000
1000
0001
0000
0010
0000
,
0001
0100
0000
0001
0010
0000
0001
1000
0000
0001
0100
0000
0001
0000
0010
0000
,
0100
0010
0001
0010
1000
0010
0001
0010
,
0100
0010
0001
0010
1000
0010
0001
0010
,
0100
0000
1000
0000
0010
0100
0000
0000
0001
0000
0000
0001
0010
0000
0001
0000
,
0100
0010
0000
0100
1000
0000
0100
0001
0000
0100
0010
0000
1000
0000
0100
0000
,
0110
0000
0000
1000
1001
0000
0000
0001
,
0101
1000
1100
0001
0011
0100
1000
0010
,
0200
0000
1000
0000
0010
0000
0001
0302
,
0000
0010
0020
0000
0000
0000
0033
0000
,
0200
0000
0001
0000
1000
0000
0010
0020
,
0300
0100
0200
0000
0000
0000
0330
0000
,
2000
0000
0001
0000
0010
0000
0100
0200
,
3000
0010
0020
0000
0000
0000
0330
0000
,
0200
0000
1000
0000
0301
0100
1000
0020
,
0000
0100
0200
0000
0000
0000
0330
0000
,
0002
0100
1000
0000
1000
0000
0203
1000
,
0010
0000
0010
0000
0302
0010
0100
0000
,
0100
0000
0023
1000
0001
0000
0001
0000
,
0130
0010
0001
0100
1000
0100
0010
1000
,
0200
0001
0010
0000
0010
0000
2300
0010
,
0001
0000
0001
0000
3020
0001
1000
0000
,
1000
0000
0230
1000
0001
0000
0301
0000
,
0010
0000
0100
0010
0000
0100
0010
0000
0000
MMMM
0000
0000
,
1000
0000
0100
0000
0010
0000
0000
0000
0100
1000
0100
0010
0100
0000
0000
0000
,
1000
0000
0000
0000
0000
0000
0001
0000
0000
0100
0000
0000
0000
0000
0000
0001
0000
0000
0010
0000
0000
0000
0000
0000
0001
0000
0000
0000
0100
0000
0000
0000
0010
0000
0000
0000
1000
0000
0000
0000
0100
0000
0000
0000
0010
0000
0000
0000
,
0001
0000
0000
0001
0100
0000
0000
0000
0001
0010
0001
0100
0010
0000
0100
0000
,
0001
1000
1000
0100
0010
0100
1000
0010
,
MMMM
0000
0000
0000
0100
0000
0001
0000
0010
0000
0001
0000
0100
0010
0100
1000
,
0100
0000
0001
0000
0010
0000
0001
0000
0100
1000
0100
0001
0010
0000
0100
0000
,
0010
0000
0001
0000
0100
0010
0100
0001
0010
0000
0100
0000
0010
0000
0001
0000
,
0100
0000
1000
0000
0100
0000
0001
0000
0010
0000
1000
0000
0010
0001
0010
0100
,
MMMM
0000
0000
0000
1100
0000
0000
0000
1000
0010
0100
0010
1000
0000
0010
0000
,
0000
0000
0000
0100
0000
0000
0100
0000
0000
0000
0000
0000
0001
0000
0010
0000
1000
0000
0001
0000
0100
0000
1000
0000
,
0010
0000
0000
0010
0100
0000
0000
0000
1000
0100
0010
0000
0100
0000
1000
0000
,
0100
0000
0001
0000
0010
0001
0000
0010
0100
0000
1000
0000
0100
0010
0100
0000
,
MMMM
0000
0000
0000
1000
0000
0010
0000
0100
0000
0010
0000
1000
0100
0010
0100
,
1000
0000
0010
0000
0100
0000
0010
0000
1000
0001
0010
0001
0100
0000
0010
0000
,
0100
0000
1000
0000
0100
0001
0100
0010
0100
0000
0001
0000
0010
0000
0100
0000
,
1000
0000
0010
0000
0100
0000
0010
0000
1000
0000
0001
0000
0010
0100
1000
0010
,
0100
0000
0000
0000
;
