#TITLE:uen;
#SUBTITLE:;
#ARTIST:Shonen Radio;
#TITLETRANSLIT:;
#SUBTITLETRANSLIT:;
#ARTISTTRANSLIT:;
#CREDIT:Grithokskulk;
#BANNER:uen.png;
#BACKGROUND:uen-bg.png;
#LYRICSPATH:;
#CDTITLE:pop'n music.png;
#MUSIC:uen.mp3;
#OFFSET:-8.434;
#SAMPLESTART:70.495;
#SAMPLELENGTH:15.000;
#SELECTABLE:YES;
#BPMS:0.000=200.000,112.000=100.000,128.000=200.000;
#STOPS:;
#BGCHANGES:;

//---------------dance-single - ----------------
#NOTES:
     dance-single:
     :
     Easy:
     4:
     0.264,0.379,0.101,0.252,0.000: // measure 1
1000
0000
0100
0000
,  // measure 2
0010
0000
0100
0000
,  // measure 3
1000
0000
0001
0000
,  // measure 4
0100
0000
0010
0000
,  // measure 5
0200
0000
0300
0000
,  // measure 6
0020
0000
0030
0000
,  // measure 7
2000
0000
3000
0000
,  // measure 8
2000
0000
3000
0000
,  // measure 9
0002
0000
0003
0000
,  // measure 10
0020
0000
0030
0000
,  // measure 11
0002
0000
0003
0000
,  // measure 12
0002
0000
0003
0000
,  // measure 13
0100
0001
0010
0000
,  // measure 14
0200
0000
0000
0000
,  // measure 15
0300
0000
0010
0000
,  // measure 16
0001
0000
0100
0000
,  // measure 17
0002
0000
0003
0000
,  // measure 18
2000
0000
3000
0000
,  // measure 19
0001
0010
0100
1000
,  // measure 20
0010
0000
0110
0000
,  // measure 21
0100
0001
0100
0000
,  // measure 22
0001
0000
0010
0000
,  // measure 23
0100
0000
0010
0000
,  // measure 24
0001
0100
0010
0100
,  // measure 25
0001
1000
0100
0000
,  // measure 26
1000
0000
0010
0000
,  // measure 27
0100
0000
0110
0000
,  // measure 28
1000
0001
0010
0000
,  // measure 29
0100
0000
0220
0330
,  // measure 30
0001
0000
2002
3003
,  // measure 31
1000
0000
2020
3030
,  // measure 32
0001
0000
0022
0033
,  // measure 33
0100
0100
0100
0000
,  // measure 34
0220
0000
0330
0000
,  // measure 35
0001
0001
0001
0000
,  // measure 36
2002
0000
3003
0000
,  // measure 37
1000
1000
1000
0000
,  // measure 38
2200
0000
3300
0000
,  // measure 39
0001
0001
0001
0000
,  // measure 40
0022
0000
0033
0001
,  // measure 41
0100
0001
0000
0000
,  // measure 42
0000
0000
0000
0000
,  // measure 43
0000
0000
0000
0000
,  // measure 44
0000
0000
0000
1000
,  // measure 45
0100
1000
0000
0000
,  // measure 46
0000
0000
0000
0000
,  // measure 47
0000
0000
0000
0000
,  // measure 48
0000
0000
0000
0000
,  // measure 49
0010
0010
0010
0000
,  // measure 50
0100
0100
0100
0000
,  // measure 51
0001
1000
0010
0000
,  // measure 52
1000
0001
0010
0000
,  // measure 53
0001
0001
1000
1000
,  // measure 54
0010
0010
0100
0100
,  // measure 55
0020
0000
0030
0000
,  // measure 56
0200
0000
0300
0000
,  // measure 57
0001
1000
0001
0000
,  // measure 58
0010
0010
0010
0000
,  // measure 59
0100
1000
0100
0000
,  // measure 60
0010
0010
0010
0000
,  // measure 61
0001
0000
1001
0000
,  // measure 62
1000
0000
1001
0000
,  // measure 63
0100
0000
0001
0000
,  // measure 64
0010
0000
0001
0000
,  // measure 65
0100
0100
0100
0000
,  // measure 66
0001
0001
0001
0000
,  // measure 67
1000
1000
1000
0000
,  // measure 68
0100
0100
0100
0000
,  // measure 69
0010
0100
1000
0100
,  // measure 70
0010
0100
0001
0100
,  // measure 71
0010
0100
1000
0010
,  // measure 72
0100
0001
0010
0010
,  // measure 73
0000
0001
0010
0100
,  // measure 74
1000
0010
0100
0000
,  // measure 75
0000
0001
1000
0100
,  // measure 76
0010
0100
1000
0010
,  // measure 77
0100
0000
0010
0000
,  // measure 78
1000
0000
0001
0000
,  // measure 79
0010
0010
0100
0100
,  // measure 80
1000
1000
0001
0100
,  // measure 81
0020
0000
0000
0000
,  // measure 82
0000
0000
0000
0000
,  // measure 83
0030
0000
0000
0000
;

//---------------dance-single - ----------------
#NOTES:
     dance-single:
     :
     Medium:
     6:
     0.478,0.620,0.370,0.387,0.000:
0100
0000
0110
0000
,
1000
0000
1001
0000
,
0001
0000
0011
0000
,
0010
0000
0110
0000
,
0002
0100
0000
0000
0003
0000
0000
0000
,
0020
0100
0000
0000
0030
0000
0000
0000
,
0020
1000
0000
0000
0030
0000
0000
0000
,
0200
0010
0000
0000
0300
0000
0000
0000
,
0001
0001
0011
0010
,
0100
0100
0110
0010
,
0001
0001
1001
1000
,
0010
0000
0100
0000
0010
1000
0010
0000
,
1000
0100
0020
0130
,
0200
1000
0001
0010
,
1000
1000
0320
0031
,
0002
0103
0200
0310
,
0020
1000
0001
0001
,
0230
1000
0001
0001
,
0302
0023
0230
2300
,
3020
0030
0110
0000
,
1000
0001
1000
0000
0001
0000
0010
0000
,
0100
0010
0100
0000
0010
0000
0001
0000
,
0100
0001
0100
0000
0001
0000
1000
0000
,
0100
1000
0100
0000
1000
0000
0010
0000
,
0100
0010
0100
0000
0010
1000
0010
0000
,
1000
0001
1000
0000
0001
0010
0001
0000
,
1000
0001
0010
0110
,
0010
0001
0100
0000
0010
1000
0100
0010
,
0200
0000
0320
0000
,
0230
0000
2300
0000
,
3020
0000
0000
0130
0002
0000
0000
0003
,
0010
0010
0100
0100
1000
0001
1001
0000
,
0100
0001
0100
0000
0001
0000
0001
0000
,
1000
0100
1000
0000
0100
0000
0100
0000
,
0010
0100
0010
0000
0100
0000
0100
0000
,
1000
0001
1000
0000
0001
0000
0001
0000
,
0100
0001
0100
0000
0010
0000
1000
0000
,
0100
1000
0100
0000
0010
0000
0001
0000
,
1000
0001
1000
0000
0010
0000
0100
0000
,
0001
0010
0001
0000
1000
0000
0100
0000
,
0020
0100
0000
0000
,
0000
0000
0000
0000
,
0000
0000
0000
0000
,
0030
0000
0000
0001
,
2000
0001
0000
0000
,
0000
0000
0000
0000
,
0000
0000
0000
0000
,
3000
0000
0000
0000
0000
0000
0001
0100
,
0000
0000
0010
0000
0010
0000
0100
0010
,
0100
0000
0001
0000
0001
0000
0010
0100
,
0010
0000
0001
0000
0001
0000
1000
0010
,
1000
0100
0100
1000
,
0010
0100
0010
0000
1000
0001
1000
0000
,
0001
0010
0001
0000
1000
0010
1000
0000
,
0001
0200
0010
0000
0310
0000
0100
0000
,
0001
2000
0100
0000
3100
0000
0010
0100
,
0010
0000
1000
0000
0010
0000
0100
0001
,
0100
0000
0001
0000
1000
0000
0100
1000
,
0100
0000
1000
0000
0010
0000
0100
0010
,
0100
0010
1000
0001
,
0010
0001
0010
0001
0000
0011
0000
0000
,
0001
1000
0001
1000
0000
1001
0000
0000
,
0220
0330
2002
3003
,
2200
3300
0022
0033
,
0001
0001
0100
0000
0010
0010
1000
0000
,
0100
0100
0001
0000
0100
0100
0010
0000
,
0001
0001
1000
0000
0010
0010
0100
0000
,
0001
0010
0100
1000
,
1001
0100
0101
0100
,
0110
0100
1100
0100
,
0110
0100
0101
0100
,
0010
0100
0001
0010
0100
0000
0010
0000
,
0001
0011
0101
0110
,
1010
1100
2002
0000
,
3003
1001
0101
0110
,
1010
1100
0110
0011
,
2200
3300
0022
0033
,
0202
0303
2020
3030
,
1010
0010
0110
0010
,
0011
0010
0110
0010
,
2002
0000
0000
0000
,
0000
0000
0000
0000
,
3003
0000
0000
0000
;

//---------------dance-single - ----------------
#NOTES:
     dance-single:
     :
     Hard:
     9:
     0.667,0.953,0.193,0.445,0.034:
0100
0100
1000
1000
0100
0100
0001
0001
,
0010
0010
1000
1000
0010
0010
0001
0001
,
0100
0100
0010
0010
1000
1000
0100
0100
,
0001
0001
0100
0100
1000
1000
0010
0010
,
0200
0000
0000
0000
,
0302
0000
0000
0000
,
0023
0000
0000
0000
,
0230
0000
0000
0000
,
0320
0001
1000
0001
,
0230
0001
0010
1000
,
0320
1000
0001
0100
,
0032
0000
0100
0000
0013
0001
0100
0010
,
2000
3200
0320
0100
,
0032
0100
1000
0100
,
0010
0100
0023
1000
,
0032
0100
0023
0001
,
0230
0001
0010
0010
,
2300
0001
0010
0010
,
3200
0320
0230
2300
,
3002
0000
0100
0000
0023
0100
0130
0000
,
0010
0001
0100
0000
0010
1000
0100
0000
,
0001
0100
1000
0010
0100
0001
0010
0000
,
0001
0100
1000
0000
1000
0100
0010
0000
,
0010
1000
0100
0010
0100
1000
0010
0000
,
0010
0100
0001
0000
0001
0010
0001
0000
,
0001
0100
1000
0100
0010
1000
0100
0000
,
0010
0100
1000
0000
0001
0010
1000
0000
,
1000
0010
0001
0100
1000
0100
0010
0010
,
0020
0000
0000
0000
0000
0000
0001
0000
0000
0000
0000
1030
0200
0000
0000
0001
0000
0000
0001
0000
0000
1000
0000
0000
,
2300
0000
0000
0000
0000
0000
0010
0000
0000
0000
0000
3100
0020
0000
0000
0001
0000
0000
0100
0000
0000
0100
0000
0000
,
0032
0100
0100
2003
3200
0010
1000
1300
,
1000
1000
0010
0010
0100
0100
0001
0001
1000
0100
0010
0001
1000
0000
0101
0000
,
1000
0010
0100
0010
1000
0100
0100
0000
,
0001
0100
0010
0001
0100
0000
0101
0000
,
1000
0010
0001
0010
0100
0001
0001
0000
,
0010
1000
0010
0001
0100
0000
0110
0000
,
0001
0001
1000
0100
0010
0100
1000
0010
,
0100
0100
0010
1000
0100
0000
1100
0000
,
0010
0010
0001
0000
0100
0100
0010
0000
,
0010
0100
0001
0010
0100
0000
0010
0000
,
2001
0100
0001
0100
,
0010
0010
0001
0001
,
0100
0100
0010
0010
,
0001
0000
3010
0000
0100
0001
0010
0000
,
1002
0100
0010
0010
,
0100
0100
1000
1000
,
0013
0001
0100
0000
0010
1000
0100
0000
,
0010
0001
0100
0010
1000
0000
0000
0000
,
0010
0100
1000
0100
0001
0100
0010
0010
,
1000
0100
0001
0100
0010
0100
1000
1000
,
0010
0001
0010
1000
0010
0100
0001
0001
,
0010
1000
0010
0001
0020
0000
0230
0000
,
0310
0001
0011
0000
0001
0100
0101
0000
,
0100
0010
0110
0000
0010
1000
1010
0000
,
1000
0100
0001
0200
0010
0000
0310
0000
,
0001
0100
1000
0200
0310
0000
0110
0000
,
1000
0010
0100
0010
1000
1000
0100
0001
,
0100
0010
0001
0100
1000
1000
0100
0010
,
1000
0100
0010
0100
1000
1000
0001
0010
,
1000
0010
0001
0100
0020
0000
0230
0000
,
0301
0010
0100
1100
0000
1001
0000
0000
,
0001
0100
0010
1010
0000
1100
0000
0000
,
1000
1000
0200
0000
0310
0010
0200
0000
,
1300
1000
0010
0010
0200
0000
0302
0000
,
1003
1000
0100
0100
0010
0010
0100
0100
,
1000
1000
0010
0010
0001
0001
0010
0010
,
0100
0100
0001
0001
0010
0010
1000
1000
,
0010
0010
0001
0000
0100
0010
1000
0000
,
2100
3001
0102
1003
,
2010
3001
0012
1003
,
2010
3100
0012
0103
,
0001
0100
1000
0200
0010
0000
0301
0000
,
1000
0100
0001
0100
1000
0100
0010
0100
,
1000
0100
0010
0100
0001
0100
0010
0100
,
1000
0010
0100
0010
1000
0010
0001
0010
,
0100
0010
1000
0010
0001
0010
0100
0010
,
1000
0010
1000
0010
0100
0001
0100
0001
,
0010
0001
0010
0001
1000
0100
1000
0100
,
0012
0103
2010
3100
,
0001
0010
1000
0001
0100
1000
0100
0010
,
0002
0000
0000
0000
,
0000
0000
0000
0000
,
0200
0000
0000
0000
,
0000
0000
0000
0000
,
0303
0000
0000
0000
;
