#TITLE:thunder;
#SUBTITLE:HOUSE NATION Remix;
#ARTIST:Remix by Sunset In Ibiza (SII);
#TITLETRANSLIT:;
#SUBTITLETRANSLIT:;
#ARTISTTRANSLIT:;
#CREDIT:Grithokskulk;
#BANNER:thunder HOUSE NATION Remix.png;
#BACKGROUND:thunder HOUSE NATION Remix-bg.png;
#LYRICSPATH:;
#CDTITLE:beatmania IIDX.png;
#MUSIC:thunder HOUSE NATION Remix.mp3;
#OFFSET:-7.561;
#SAMPLESTART:57.695;
#SAMPLELENGTH:15.000;
#SELECTABLE:YES;
#BPMS:0.000=128.000;
#STOPS:;
#BGCHANGES:;

//---------------dance-single - ----------------
#NOTES:
     dance-single:
     :
     Easy:
     3:
     0.200,0.211,0.026,0.247,0.000: // measure 1
1000
1000
1000
1000
,  // measure 2
0001
0001
0001
0001
,  // measure 3
0100
0100
0100
0100
,  // measure 4
0010
0010
0010
0010
,  // measure 5
2000
0000
0000
0000
,  // measure 6
0000
0000
0000
3000
,  // measure 7
0002
0000
0000
0000
,  // measure 8
0000
0000
0000
0003
,  // measure 9
0200
0000
0000
0000
,  // measure 10
0000
0000
0000
0300
,  // measure 11
0020
0000
0030
1000
,  // measure 12
0200
0000
0300
0010
,  // measure 13
0200
0000
0300
0010
,  // measure 14
0200
0000
0300
0010
,  // measure 15
0002
0000
0003
1000
,  // measure 16
0002
0000
0003
1000
,  // measure 17
0200
0000
0300
0010
,  // measure 18
0200
0000
0300
1000
,  // measure 19
0020
0000
0030
0100
,  // measure 20
0020
0000
0000
0000
,  // measure 21
0000
0000
0000
0000
,  // measure 22
0000
0000
0000
0000
,  // measure 23
0000
0000
0000
0030
,  // measure 24
0100
0100
0100
0000
,  // measure 25
0001
0001
0001
0000
,  // measure 26
0010
0010
0100
0100
,  // measure 27
1000
0001
1001
1000
,  // measure 28
2000
0000
3000
0001
,  // measure 29
0002
0000
0003
0100
,  // measure 30
0200
0000
0300
0010
,  // measure 31
0020
0000
0030
1000
,  // measure 32
2000
0000
3000
0100
,  // measure 33
0200
0000
0300
1000
,  // measure 34
2000
0000
3000
0001
,  // measure 35
0002
0000
0003
0010
,  // measure 36
0200
0000
0300
0010
,  // measure 37
0002
0000
0003
0100
,  // measure 38
0020
0000
0030
1000
,  // measure 39
0200
0000
0300
1000
,  // measure 40
0020
0000
0030
0100
,  // measure 41
0002
0000
0003
0010
,  // measure 42
0200
0000
0300
0010
,  // measure 43
0002
0000
0003
1001
,  // measure 44
1000
1000
1000
1000
,  // measure 45
0001
0001
0001
0001
,  // measure 46
0100
0100
0100
0100
,  // measure 47
0010
0010
0010
0010
,  // measure 48
1000
1000
1000
1000
,  // measure 49
0100
0100
0100
0100
,  // measure 50
0010
0010
0010
0010
,  // measure 51
0001
0001
0001
0001
,  // measure 52
1000
0100
1000
0100
,  // measure 53
0010
0001
0010
0001
,  // measure 54
1000
0010
1000
0010
,  // measure 55
0100
0001
0100
0001
,  // measure 56
1001
0000
0000
0000
;

//---------------dance-single - ----------------
#NOTES:
     dance-single:
     :
     Medium:
     6:
     0.377,0.398,0.068,0.476,0.000:
1000
0000
0100
1000
0100
0000
1100
0000
,
0010
0000
0001
0010
0001
0000
0011
0000
,
0100
0000
0001
0100
0001
0000
0101
0000
,
1000
0000
0010
1000
0010
0000
1010
0000
,
0220
0000
0000
0030
,
0002
0000
0000
0300
,
0020
0000
0000
0003
,
0200
0000
0000
0030
,
2000
0000
0000
0300
,
0002
0000
0000
3000
,
0200
0000
0000
0003
,
0020
0000
0000
0330
,
2000
0000
3100
0010
0100
0000
0020
0000
,
0032
0000
0103
0010
0100
0000
0002
0000
,
2003
0000
3100
1000
0100
0000
0020
0000
,
0032
0000
0103
0001
0100
0000
0020
0000
,
2030
0000
3100
1000
0100
0000
2000
0000
,
3002
0000
0103
0010
0100
0000
0002
0000
,
0023
0000
0130
1000
0100
0000
0020
0000
,
0200
0000
0000
0000
,
0000
0000
0000
0000
,
0000
0000
0000
0000
,
0000
0000
0000
0330
,
1000
0000
0100
0000
0010
0100
1000
0000
,
0001
0000
0100
0000
0010
0100
0001
0000
,
1000
0001
1000
0000
0100
0010
0100
0000
,
0110
1001
0110
0002
,
2003
0000
3100
1000
0010
1000
0200
0000
,
0320
0000
0031
0100
0010
0100
0002
0000
,
2003
0000
3100
1000
0001
0100
0002
0000
,
2003
0000
3100
0010
0100
1000
0020
0000
,
0230
0000
0301
1000
0010
1000
0002
0000
,
0023
0000
0130
1000
0100
0010
0002
0000
,
0203
0000
0310
0100
0001
1000
0200
0000
,
2300
0000
3010
0100
0010
1000
0200
0000
,
0302
0000
0103
1000
0010
0100
0002
0000
,
2003
0000
3010
0100
1000
0100
0002
0000
,
2003
0000
3100
0010
0100
1000
0002
0000
,
0203
0000
0301
0010
1000
0010
0002
0000
,
2003
0000
3010
0001
0010
1000
0200
0000
,
0320
0000
0130
1000
0010
0100
0002
0000
,
0023
0000
0031
0100
1000
0100
0002
0000
,
2000
0000
0000
3003
,
1000
0000
0100
0000
0010
0100
1000
0010
,
0100
0000
0001
0000
0010
0001
0100
0010
,
0100
0000
0001
0000
1000
0100
0001
0100
,
1000
0000
0010
0000
0100
1000
0100
0001
,
0010
0000
0100
0000
1000
0000
1000
0100
,
0010
0000
0001
0000
0010
0100
0010
0000
,
0001
0000
1000
0000
0010
0100
0010
0000
,
1000
0000
0001
0000
0010
0100
0010
0000
,
0001
0010
0100
1000
0100
0000
0100
0000
,
1000
0100
0010
0001
0010
0000
0010
0000
,
0001
0100
0010
1000
0010
0000
0010
0000
,
1000
0010
0100
0001
1000
0010
0100
0001
,
1000
0000
0000
0000
;

//---------------dance-single - ----------------
#NOTES:
     dance-single:
     :
     Hard:
     9:
     0.566,0.491,0.026,0.153,0.625:
1000
0000
0000
1000
0100
0000
0010
0000
0100
0000
1000
0000
0010
0000
0000
0000
,
0010
0000
0000
0010
0100
0000
0001
0000
0010
0000
0100
0000
0010
0000
0000
0000
,
0001
0000
0000
0001
0100
0000
0010
0000
1000
0000
0100
0000
0010
0000
0000
0000
,
0001
0000
0001
0000
0001
0000
1000
0001
0000
1000
0000
0010
0000
0100
0010
0100
,
0020
0000
0000
0000
1000
0000
0000
1000
0000
0000
1000
0000
0000
1030
0000
0000
,
0000
2000
0000
0000
0100
0000
0000
0000
0100
0000
0100
0000
3100
0000
0000
0000
,
0020
0000
0000
0000
0100
0000
0000
0100
0000
0000
0100
0000
0000
0130
0000
0000
,
0000
2000
0000
0000
0010
0000
0000
0000
0010
0000
0010
0000
3010
0000
0000
0000
,
0200
0000
0000
0000
0001
0000
0000
0001
0000
0000
0001
0000
0000
0301
0000
0000
,
0000
0002
0000
0000
0010
0000
0000
0010
0000
0000
0010
0000
0013
0000
0000
0000
,
0200
0000
0000
0000
0010
0000
0000
0010
0000
0000
0010
0000
0000
0310
0000
0000
,
0020
0000
0000
0000
0001
0000
0000
0001
0000
0000
0001
0000
0000
0031
0000
0000
,
1000
0000
0000
1000
0100
0000
0000
0100
0010
0000
0000
0010
0001
0000
0100
0000
,
0010
0000
0000
0010
1000
0000
0000
1000
0100
0000
0000
0100
0010
0000
0100
0000
,
1000
0000
0000
1000
0001
0000
0000
0001
0100
0000
0000
0100
0010
0000
0100
0000
,
0001
0000
0000
0001
0010
0000
0000
0010
0100
0000
0000
0100
0010
0000
0001
0000
,
0100
0000
0000
0100
0010
0000
0000
0010
1000
0000
0000
1000
0100
0000
0010
0000
,
0100
0000
0000
0100
1000
0000
0000
1000
0001
0000
0000
0001
0100
0000
0010
0000
,
0100
0000
0000
0100
0001
0000
0000
0001
1000
0000
0000
1000
0200
0000
0000
0000
,
0310
0000
0000
0000
0010
0000
0000
0010
0000
0000
0010
0000
0000
0010
0001
0020
,
0001
0000
0000
0000
0001
0000
0000
0001
0000
0000
0031
0000
0000
0001
1000
0002
,
1000
0000
0000
0000
1000
0000
0000
1000
0000
0000
1003
0000
0000
1000
0010
2000
,
0010
0000
0000
0000
0010
0000
0000
0010
0000
0000
3010
0000
0000
0010
0100
0010
,
0100
0000
0100
0000
0100
0000
0100
0001
0000
0001
0000
0001
0000
0001
0010
0001
,
0010
0000
0010
0000
0010
0000
0010
0100
0000
0100
0000
0100
0000
0100
1000
0100
,
1000
1000
0010
0010
0100
0100
0001
0001
,
1001
0110
2002
3003
,
1000
0000
0000
1000
0100
0000
1000
0000
0010
0100
0010
0000
0100
0000
0001
0000
,
0010
0000
0000
0010
0001
0000
0010
0000
0100
1000
0010
0000
0100
0000
0010
0000
,
0100
0000
0000
0100
0001
0000
1000
0000
0100
0010
0100
0000
1000
0000
0010
0000
,
0100
0000
0000
0100
0001
0000
1000
0000
0100
0010
0100
0000
1000
0000
0010
0000
,
0100
0000
0000
0100
0001
0000
0010
0000
0001
1000
0001
0000
1000
0000
0010
0000
,
0100
0000
0000
0100
0001
0000
1000
0000
0100
0010
0100
0000
1000
0000
0010
0000
,
0100
0000
0000
0100
0001
0000
1000
0000
0100
0001
0100
0000
1000
0000
0010
0000
,
0100
0000
0000
0100
0001
0000
0100
0000
0010
1000
0010
0000
1000
0100
1000
0000
,
0100
0000
0000
0100
1000
0000
0010
0000
0100
0001
0100
0000
0010
0100
0010
0000
,
1000
0000
0000
1000
0100
0000
1000
0000
0001
0100
0001
0000
1000
0010
1000
0000
,
0100
0000
0000
0100
1000
0000
0001
0000
0010
0100
0010
0000
0001
0100
0001
0000
,
1000
0000
0000
1000
0010
0000
0100
0000
0001
0010
0001
0000
1000
0100
1000
0000
,
0010
0000
0000
0010
0100
0000
0001
0000
1000
0100
1000
0000
0001
0010
0001
0000
,
1000
0000
0000
1000
0100
0000
0001
0000
0100
1000
0100
0000
1000
0010
1000
0000
,
0010
0000
0000
0010
0001
0000
0010
0000
1000
0010
1000
0000
0100
0010
0100
0000
,
0010
0000
0001
0000
0100
0000
0010
1000
0000
0100
0000
1000
0000
0001
0100
0010
,
0100
0000
0000
0100
0001
0000
1000
0000
0100
0000
0001
0000
0100
0000
1000
0000
,
0010
0000
0000
0010
0100
0000
0001
0000
0010
0000
1000
0000
0010
0000
0001
0000
,
0100
0000
0000
0100
0010
0000
1000
0000
0010
0000
0001
0000
0010
0000
1000
0000
,
0100
0000
0000
0100
0010
0000
0001
0000
0100
0000
1000
0000
0100
0000
0001
0000
,
2000
0000
0000
0000
0100
0000
0000
0100
0000
0000
3100
0000
0000
0010
0100
0010
,
0200
0000
0000
0000
0010
0000
0000
0010
0000
0000
0310
0000
0000
0010
0001
0010
,
0002
0000
0000
0000
1000
0000
0000
1000
0000
0000
1003
0000
0000
1000
0010
1000
,
0020
0000
0000
0000
0100
0000
0000
0100
0000
0000
0130
0000
0000
0100
0001
0100
,
0001
0000
0010
0000
0010
0000
0100
0010
0000
0001
0000
0100
0000
0010
0100
0010
,
1000
0000
0100
0000
0100
0000
0010
0100
0000
1000
0000
0010
0000
0100
0010
0100
,
0001
0000
0010
0000
0010
0000
0100
1000
0000
0010
0000
1000
0000
0100
0010
0100
,
1000
0100
1000
0100
0010
0001
0010
0001
1000
0010
1000
0010
0100
0001
0100
0001
,
0010
0000
0000
0000
;
