#TITLE:taboo tears you up 2008;
#SUBTITLE:;
#ARTIST:REDALiCE;
#TITLETRANSLIT:;
#SUBTITLETRANSLIT:;
#ARTISTTRANSLIT:;
#CREDIT:Grithokskulk;
#BANNER:taboo tears you up 2008.png;
#BACKGROUND:taboo tears you up 2008-bg.png;
#LYRICSPATH:;
#CDTITLE:SOUND VOLTEX.png;
#MUSIC:taboo tears you up 2008.mp3;
#OFFSET:-6.775;
#SAMPLESTART:46.655;
#SAMPLELENGTH:15.000;
#SELECTABLE:YES;
#BPMS:0.000=180.000;
#STOPS:;
#BGCHANGES:;

//---------------dance-single - ----------------
#NOTES:
     dance-single:
     :
     Easy:
     4:
     0.300,0.302,0.078,0.183,0.000: // measure 1
1000
0010
1000
0100
,  // measure 2
2000
3000
0002
0003
,  // measure 3
0100
0010
0100
0001
,  // measure 4
0200
0000
0000
0300
,  // measure 5
0010
0100
0001
0100
,  // measure 6
0010
0100
0002
0003
,  // measure 7
1000
0100
1000
0010
,  // measure 8
1000
0100
2000
3000
,  // measure 9
0010
1000
0010
0100
,  // measure 10
0010
1000
0020
0030
,  // measure 11
0100
0001
0100
0010
,  // measure 12
0200
0000
0000
0300
,  // measure 13
0002
0000
0000
0003
,  // measure 14
2000
0000
0000
3000
,  // measure 15
0200
0000
0000
0300
,  // measure 16
2000
0000
0000
3000
,  // measure 17
0020
0000
0000
0030
,  // measure 18
0200
0000
0000
0300
,  // measure 19
0020
0000
0000
0030
,  // measure 20
0100
0100
0100
0000
,  // measure 21
0001
0000
0000
0001
,  // measure 22
0010
0000
0000
0010
,  // measure 23
0001
0000
0000
0000
,  // measure 24
0010
0000
0000
0000
,  // measure 25
0100
0000
0000
0000
,  // measure 26
1000
0000
0000
0000
,  // measure 27
0001
0000
0010
0000
,  // measure 28
0100
0000
1000
0000
,  // measure 29
2002
0000
0000
0000
,  // measure 30
0000
0000
0000
3003
,  // measure 31
1000
1000
0100
1000
,  // measure 32
0100
0100
0010
0100
,  // measure 33
0010
0010
0001
0010
,  // measure 34
0001
0010
0100
1000
,  // measure 35
0001
0001
0010
0001
,  // measure 36
0010
0010
0100
0010
,  // measure 37
0100
0100
1000
0100
,  // measure 38
1000
0100
0010
0000
,  // measure 39
0001
0001
0100
0001
,  // measure 40
0100
0100
0010
0100
,  // measure 41
0010
0010
1000
0010
,  // measure 42
1000
0010
0100
0001
,  // measure 43
1000
1000
0010
1000
,  // measure 44
0010
0010
0100
0010
,  // measure 45
0100
0100
0001
0100
,  // measure 46
0002
0000
0000
0003
,  // measure 47
1000
0000
0100
0000
,  // measure 48
0010
0000
0100
0100
,  // measure 49
0010
0000
0100
0000
,  // measure 50
0010
0000
0100
0100
,  // measure 51
1000
0000
0001
0000
,  // measure 52
1000
0000
0001
0001
,  // measure 53
0100
0000
0001
0000
,  // measure 54
0010
0010
0010
0000
,  // measure 55
0100
0000
0110
0000
,  // measure 56
1000
0000
1001
0000
,  // measure 57
0010
0000
0110
0000
,  // measure 58
1000
0000
1001
0000
,  // measure 59
0100
0000
0101
0000
,  // measure 60
0010
0000
1010
0000
,  // measure 61
1000
0000
1100
0000
,  // measure 62
0002
0003
2000
3000
,  // measure 63
0001
0100
0001
0001
,  // measure 64
1000
0100
1000
0000
,  // measure 65
0010
0100
0010
0010
,  // measure 66
0100
0010
0100
0000
,  // measure 67
0001
0010
0001
0001
,  // measure 68
1000
0010
1000
0000
,  // measure 69
0001
0100
0001
0001
,  // measure 70
2000
3000
0200
0300
,  // measure 71
1000
0100
1000
0100
,  // measure 72
0010
0001
0010
0001
,  // measure 73
0100
0001
0100
0001
,  // measure 74
1000
0010
1000
0000
,  // measure 75
0100
0010
0100
0010
,  // measure 76
1000
0001
1000
0001
,  // measure 77
1000
0010
0100
0001
,  // measure 78
1001
0000
0000
0000
;

//---------------dance-single - ----------------
#NOTES:
     dance-single:
     :
     Medium:
     6:
     0.447,0.440,0.052,0.096,0.000:
1000
0010
0100
0010
,
1000
0000
0100
0010
0001
0000
0001
0000
,
0100
0010
0100
0010
,
2000
0000
0000
0001
0002
0000
3003
0000
,
1001
0010
0100
0010
,
1000
0000
0001
0010
0100
0000
0010
0000
,
0011
0100
0010
0100
,
0001
0000
1000
0100
0010
0000
0110
0000
,
0100
1000
0010
0100
,
0001
0000
1000
0001
0010
0000
0011
0000
,
0001
0100
0010
1000
,
0002
0000
0000
1000
2000
0000
3003
0000
,
1000
0000
0100
0100
0000
0000
0010
0000
,
0100
0000
1000
1000
0000
0000
0010
0000
,
0100
0000
0001
0001
0000
0000
0010
0000
,
0001
0000
0100
0100
0000
0000
0010
0000
,
0100
0000
0001
0001
0000
0000
0010
0000
,
0100
0000
0010
0010
0000
0000
0100
0000
,
1000
0000
0010
0010
0000
0000
1000
0000
,
0001
0000
1000
0001
0000
0001
1000
0001
,
0010
0010
0100
0100
,
0010
0010
0100
0100
,
1000
0000
0000
0001
0010
0000
0001
0000
,
0100
0000
0000
0010
0100
0000
0001
0000
,
0010
0000
0000
0100
1000
0000
0010
0000
,
1000
0000
0000
0100
0010
0000
0001
0000
,
0100
0000
0000
0010
0100
0000
0000
0001
,
0010
0100
1000
0010
0100
0001
0010
0100
,
2000
0000
0000
0000
,
0000
0000
0000
3000
,
0010
0000
0100
0010
0100
0000
0001
0010
,
0001
0000
1000
0000
0100
0010
0000
0000
,
0100
0000
1000
0010
1000
0000
0001
0010
,
0001
0000
0100
0010
0100
0000
0110
0000
,
1000
0000
0001
0010
0001
0000
1000
0010
,
1000
0000
0001
0000
0100
0010
0000
0000
,
0100
0000
0001
0010
0001
0000
1000
0010
,
0100
0000
0010
0100
0010
0000
0000
0000
,
1000
0000
0100
1000
0100
0000
0010
0001
,
0010
0000
0001
0100
0010
0100
0000
0000
,
0001
0000
1000
0100
1000
0000
0001
0010
,
0001
0000
0100
0010
0100
0000
0110
0000
,
1000
0000
0001
0010
0001
0000
1000
0010
,
1000
0000
0100
1000
0010
1000
0000
0000
,
0010
0000
0100
0010
0100
0000
0001
1000
,
0002
0000
0000
0003
,
1000
0100
0000
0100
0000
0100
0000
0100
,
0000
0100
0000
0010
0100
1000
0010
0000
,
0100
0001
0000
0001
0000
0001
0000
0001
,
0000
0001
0000
0010
0100
1000
0010
0000
,
0100
0010
0000
0010
0000
0010
0000
0010
,
0000
0010
0000
0010
1000
0001
0010
0000
,
0100
0010
0000
0010
0000
0010
0000
0010
,
0200
0000
0000
0300
,
0010
0001
0000
0001
0000
0001
0000
0000
,
0100
0010
0000
0010
0000
0010
0000
0000
,
0100
1000
0000
1000
0000
1000
0000
0000
,
0100
0010
0000
0010
0000
0010
0000
0000
,
1000
0100
0000
0100
0000
0100
0000
0000
,
0010
0100
0000
0100
0000
0100
0000
0000
,
0010
0001
0000
0001
0000
0001
0000
0001
,
0200
0000
0000
0300
,
0010
0100
0010
0000
1000
0001
1000
0000
,
0100
0010
0100
0000
0010
0001
0010
0000
,
0001
0100
0001
0000
1000
0100
1000
0000
,
0010
0100
0010
0000
1000
0001
1000
0000
,
0001
0010
0001
0000
0100
0001
0100
0000
,
0010
0100
0010
0000
1000
0100
1000
0000
,
0001
0010
0001
0000
0100
0010
0100
0000
,
0002
0000
0000
1000
2000
0000
3003
0000
,
0000
0100
0000
0010
0000
0100
0000
0001
,
0000
0010
0000
0100
0000
0010
0000
0001
,
0000
0100
0000
0010
0000
0100
0000
0001
,
0000
1000
0000
0100
0000
1000
0000
0010
,
0000
0100
0000
0010
0000
1000
0000
0100
,
0000
1000
0000
0010
0000
0100
0000
0001
,
0000
0010
0000
0100
0000
1000
0000
0001
,
2000
0000
0000
3000
;

//---------------dance-single - ----------------
#NOTES:
     dance-single:
     :
     Hard:
     9:
     0.694,0.609,0.139,0.113,0.174:
1000
0000
0000
1000
0001
0000
0000
0001
0010
0000
0000
0010
0100
0000
0000
0100
,
1000
0000
0000
1000
0010
0000
0000
0010
0100
0000
0000
0100
0001
0000
0000
0001
,
1000
0000
0000
1000
0100
0000
0000
0100
1000
0000
0000
1000
0010
0000
0000
0010
,
2000
0000
0000
0001
0002
0000
3003
0000
,
1000
0000
0000
1000
0001
0000
0000
0001
0010
0000
0000
0010
0001
0000
0000
0001
,
0100
0000
0000
0100
0001
0000
0000
0001
1000
0000
0000
1000
0100
0000
0000
0100
,
0010
0000
0000
0010
1000
0000
0000
1000
0010
0000
0000
0010
0001
0000
0000
0001
,
0010
0000
0000
0010
0100
0000
0000
0100
1000
0000
0000
1000
0001
0000
0000
0001
,
1000
0000
0000
1000
0001
0000
0000
0001
0010
0000
0000
0010
0100
0000
0000
0100
,
1000
0000
0000
1000
0010
0000
0000
0010
0100
0000
0000
0100
0001
0000
0000
0001
,
1000
0000
0000
1000
0100
0000
0000
0100
0010
0000
0000
0010
0001
0000
0000
0001
,
2000
0000
0000
0001
0002
0000
3003
0000
,
0100
0100
0100
0100
0000
1000
0001
0000
,
0010
0010
0010
0010
0000
0100
1000
0000
,
0001
0001
0001
0001
0000
1000
0010
0000
,
0100
0100
0100
0100
0000
0010
1000
0000
,
0001
1000
0010
1000
0000
0001
1000
0000
,
0100
0001
0010
0001
0000
1000
0001
0000
,
1000
0001
0010
0100
0000
0010
0100
0000
,
1000
0010
0001
0010
0000
1000
0100
0000
,
1000
0010
1000
0010
0000
0100
0010
1000
,
0001
0010
0001
0010
0000
0100
0010
0001
,
0100
0010
0100
0010
0000
1000
0100
0010
,
0001
0100
0001
0100
0000
0010
1000
0100
,
0010
0100
0010
0100
0000
1000
0010
0100
,
0010
1000
0010
1000
0000
0001
0010
0100
,
0010
0001
0010
0001
1000
0010
1000
0010
,
0001
0010
1000
0001
0100
0010
1000
0001
,
2002
0000
0000
0000
,
0000
0000
0000
0000
3003
0000
1000
0001
,
0010
0001
0010
0100
0010
1000
0010
0001
,
0010
1000
0010
0001
0010
1000
0010
0100
,
0010
0001
0010
0100
0010
0001
0010
0100
,
1001
0000
0110
0000
1001
0000
0010
1000
,
0100
1000
0100
0001
0100
1000
0100
0001
,
0100
0010
0100
1000
0100
0010
0100
1000
,
0100
0001
0100
0010
0100
0001
0100
0000
,
1100
0000
0011
0000
0101
0000
0100
0010
,
1000
0100
1000
0001
1000
0010
1000
0100
,
1000
0001
1000
0100
1000
0010
1000
0100
,
1000
0001
1000
0010
1000
0001
1000
0100
,
1100
0011
0101
1010
,
0001
0010
0001
0100
0001
0010
0001
1000
,
0001
0100
0001
0010
0001
1000
0001
0010
,
0001
1000
0001
0100
0001
0010
0001
1000
,
2002
0000
0000
3003
,
0001
0010
0100
0010
0000
0100
1000
0010
,
0100
0010
1000
0001
0000
0001
0010
0000
,
0001
0010
0100
0010
0001
0100
0000
0100
,
0010
1000
0100
1000
0001
0000
1001
0000
,
1000
0010
0001
0010
1000
0100
0000
0100
,
1000
0010
0100
0001
0010
1000
0010
0000
,
0010
0001
0100
0010
0100
0001
0000
0001
,
1000
0100
1000
0010
0100
0000
0001
0000
,
0010
0001
0100
0010
1000
0100
1100
0000
,
1000
0100
0010
0001
0100
0100
0010
0000
,
0100
0001
0010
0100
0010
0001
0101
0000
,
0001
0100
0010
1000
0100
0100
1000
0000
,
1000
0100
0001
0100
1000
1000
1010
0000
,
1000
0010
0001
0010
0100
0001
0010
0000
,
0100
0010
0001
0100
0010
0010
0100
0001
,
2000
0000
0000
0001
0002
0000
3003
0000
,
0010
1000
0100
0010
0100
1000
0100
0001
,
0100
1000
0010
0001
0010
1000
0100
0010
,
0001
0100
1000
0100
0001
0010
0100
0001
,
0100
1000
0010
0001
0010
1000
0100
1000
,
0010
0001
0010
1000
0100
1000
0010
0100
,
0001
0010
1000
0010
0001
1000
0100
0010
,
1000
0010
0001
0100
1000
0100
0001
0010
,
0002
0000
0000
1000
2000
0000
3003
0000
,
0100
0001
0010
1000
0010
0001
0100
0010
,
1000
0001
0010
0100
1000
0010
0100
0001
,
1000
0010
0001
0010
0100
0001
0010
1000
,
0010
0100
1000
0001
0100
0010
1000
0100
,
0010
0001
1000
0010
0100
0001
0010
1000
,
0010
0100
1000
0010
0100
1000
0100
0001
,
0010
1000
0010
0001
0100
1000
0100
0001
,
0020
0000
0000
0000
0000
0100
0130
0000
;
