#TITLE:positive dance;
#SUBTITLE:"Final RAVE";
#ARTIST:Cranky;
#TITLETRANSLIT:;
#SUBTITLETRANSLIT:;
#ARTISTTRANSLIT:;
#CREDIT:Grithokskulk;
#BANNER:positive dance Final RAVE.png;
#BACKGROUND:positive dance Final RAVE-bg.png;
#LYRICSPATH:;
#CDTITLE:grithokskulk.png;
#MUSIC:positive dance Final RAVE.mp3;
#OFFSET:-3.133;
#SAMPLESTART:110.275;
#SAMPLELENGTH:15.000;
#SELECTABLE:YES;
#BPMS:0.000=150.000;
#STOPS:200.000=0.400
,201.000=0.400
;
#BGCHANGES:;

//---------------dance-single - ----------------
#NOTES:
     dance-single:
     :
     Easy:
     3:
     0.252,0.309,0.061,0.136,0.000: // measure 1
0001
0010
0100
1000
,  // measure 2
0001
0010
0100
1000
,  // measure 3
0001
0010
0100
1000
,  // measure 4
0001
0010
0100
1000
,  // measure 5
0001
0100
0010
1000
,  // measure 6
0001
0100
0010
1000
,  // measure 7
0001
0100
0010
1000
,  // measure 8
0200
0000
0000
0300
,  // measure 9
1000
0010
0100
0010
,  // measure 10
1000
0010
0100
0010
,  // measure 11
1000
0010
0100
0010
,  // measure 12
1000
0010
0100
0010
,  // measure 13
1000
0001
0010
0001
,  // measure 14
1000
0001
0010
0001
,  // measure 15
1000
0001
0010
0001
,  // measure 16
0200
0000
0000
0300
,  // measure 17
0001
0001
0001
0010
,  // measure 18
0001
0100
0010
0100
,  // measure 19
0010
0010
0010
0010
,  // measure 20
1000
0100
1000
0010
,  // measure 21
0200
0000
0300
0010
,  // measure 22
0002
0000
0000
0003
,  // measure 23
0020
0000
0030
0100
,  // measure 24
2000
3000
0002
0003
,  // measure 25
0100
0100
0100
0100
,  // measure 26
0010
0100
0001
0010
,  // measure 27
0100
0100
0010
0010
,  // measure 28
0001
0100
0010
1000
,  // measure 29
0200
0000
0000
0300
,  // measure 30
2000
0000
0000
3000
,  // measure 31
0002
0000
0003
0100
,  // measure 32
0020
0030
0200
0300
,  // measure 33
2002
0000
0000
0000
,  // measure 34
0000
0000
0000
0000
,  // measure 35
0000
0000
0000
0000
,  // measure 36
0000
0000
3003
0000
,  // measure 37
0000
0000
0000
0000
,  // measure 38
0000
0000
0000
0000
,  // measure 39
0000
0000
0000
0000
,  // measure 40
1001
0000
0000
0000
,  // measure 41
0001
0000
0000
0000
,  // measure 42
0100
0000
0000
0000
,  // measure 43
0010
0000
0000
0000
,  // measure 44
0100
0000
0000
0000
,  // measure 45
0001
0000
0000
0000
,  // measure 46
1000
0000
0000
0000
,  // measure 47
0100
0000
0000
0000
,  // measure 48
1000
0100
1000
0000
,  // measure 49
0001
0100
0001
0000
,  // measure 50
0010
0100
0010
0000
,  // measure 51
1001
0110
0001
0100
,  // measure 52
0010
1000
0100
1000
,  // measure 53
0010
0100
0001
0010
,  // measure 54
0001
0100
0010
0100
,  // measure 55
0001
1000
0100
1000
,  // measure 56
0010
0100
0001
0010
,  // measure 57
0001
1000
0100
1000
,  // measure 58
0010
0100
0002
0000
,  // measure 59
0000
0003
1000
0100
,  // measure 60
1000
0100
0010
0001
,  // measure 61
0010
0001
1000
0010
,  // measure 62
1000
0010
0100
0001
,  // measure 63
0100
0001
0010
0010
,  // measure 64
0100
0100
1000
1000
,  // measure 65
0010
0010
0100
0100
,  // measure 66
0001
0010
0200
0000
,  // measure 67
0000
0300
0110
0000
,  // measure 68
1001
0000
0100
0100
,  // measure 69
0010
0010
2000
0000
,  // measure 70
0000
3000
0002
0000
,  // measure 71
0000
0003
1001
0000
,  // measure 72
0110
0000
1000
1000
,  // measure 73
0100
0100
2000
0000
,  // measure 74
0000
3000
0020
0000
,  // measure 75
0000
0030
0100
0100
,  // measure 76
0001
0001
0010
0001
,  // measure 77
0100
0010
1000
1000
,  // measure 78
0100
0100
1000
0100
,  // measure 79
0010
0100
1000
1000
,  // measure 80
0001
0001
1000
0010
,  // measure 81
0100
0001
0010
0010
,  // measure 82
0100
0100
1000
0001
,  // measure 83
0100
0010
0110
0000
;

//---------------dance-single - ----------------
#NOTES:
     dance-single:
     :
     Medium:
     6:
     0.390,0.449,0.191,0.238,0.000:
1000
0100
0010
0001
,
1000
0100
0010
0001
,
1000
0100
0010
0001
,
1000
0100
0010
0001
,
1000
0010
1000
0000
0001
0010
0001
0000
,
1000
0100
1000
0000
0001
0100
0001
0000
,
1000
0010
1000
0000
0001
0000
0010
0100
,
2000
0000
0000
3000
,
0001
0100
0001
0000
0010
0100
0010
0000
,
0001
0010
0001
0000
1000
0010
1000
0000
,
0001
0100
0001
0000
1000
0100
1000
0000
,
0010
0100
0010
0000
1000
0010
1000
0000
,
0001
0010
0100
0000
0100
1000
0010
0000
,
1000
0010
0100
0000
0100
0010
0001
0000
,
0001
0100
0010
0000
0010
0100
0001
0000
,
2002
0000
0000
3003
,
1100
0000
0011
0000
0001
0100
0010
0000
,
0100
0001
0100
0010
1000
0000
1010
0000
,
1100
0000
0011
0000
1000
0001
1000
0000
,
0001
0010
0100
0010
0001
0000
1000
0000
,
0020
0100
1000
0130
,
0002
0010
1000
0013
,
0002
0100
0010
0103
,
0220
0330
2002
3003
,
1010
0110
0101
0001
,
0010
0001
0010
0000
0001
0100
0001
0000
,
1000
0000
0100
0000
1000
0010
1000
0000
,
0010
0000
0100
0001
0010
0001
0100
0000
,
0020
0100
1000
0130
,
0002
0010
1000
0013
,
2000
0100
0010
3100
,
2002
3003
0220
0330
,
2002
0000
0000
0000
,
0000
0000
0000
0000
,
0000
0000
0000
0000
,
0000
0000
0000
3003
,
0000
0000
0000
0000
,
0000
0000
0000
0000
,
0000
0000
0000
0000
,
2100
0000
0000
0000
,
3200
0000
0000
0000
,
2300
0000
0000
0000
,
3020
0000
0000
0000
,
0230
0000
0000
0000
,
0320
0000
0000
0000
,
2030
0000
0000
0000
,
3002
0000
0000
0000
,
0013
0100
0010
0000
,
1000
0001
1000
0000
0001
0000
0000
0000
,
0100
0010
1000
0000
,
0002
0000
1001
0000
1000
0100
1000
0000
,
0001
0100
0001
0000
1000
0010
1000
0000
,
0001
0010
0001
0000
1000
0100
1000
0000
,
0010
0100
0010
0000
1000
0001
1000
0000
,
0001
0010
0001
0000
0100
0001
0100
0000
,
0010
0100
0010
0000
1000
0001
1000
0000
,
0100
1000
0100
0000
1000
0010
1000
0000
,
0010
0000
0100
0001
0020
0000
0000
0000
,
0000
0000
0030
0000
0100
1000
0100
0000
,
1000
0010
1000
0000
0001
0100
0001
0000
,
0010
0001
0010
0000
0100
1000
0100
0000
,
1000
0010
1000
0000
0010
0100
0010
0000
,
0100
0001
0100
0000
0001
1000
0001
0000
,
0010
0100
0010
0000
0001
0010
0001
0000
,
1000
0010
1000
0000
0001
0100
0010
0000
,
1000
0100
0010
0000
2002
0000
0000
0000
,
0000
3003
1100
1000
,
1001
0001
0101
1010
,
0100
0010
1000
0100
0020
0000
0100
0000
,
0130
0110
2000
0001
,
3001
0000
1001
0000
0001
0100
0010
0000
,
0010
1000
0100
0000
0011
0000
1100
0000
,
0010
1000
0010
0000
0200
0000
0010
0000
,
0310
0110
0020
0100
,
0130
0000
1001
0000
1000
0100
1000
0000
,
0001
0000
0001
0000
0100
0001
0100
0000
,
0010
0000
0010
0000
0100
0001
0100
0000
,
1000
0100
1000
0000
0010
0100
0010
1000
,
0010
0000
1001
0000
1000
0100
1000
0000
,
0010
0000
1000
0000
0100
0010
0001
0000
,
0010
0000
0010
0000
0001
0100
0001
0000
,
1000
0100
1000
0000
0001
0100
0010
0100
,
0001
1000
1001
0000
;

//---------------dance-single - ----------------
#NOTES:
     dance-single:
     :
     Hard:
     7:
     0.488,0.505,0.163,0.191,0.177:
1000
0000
0100
0000
1000
0000
0000
0000
0001
0000
0000
0100
0001
0000
0000
0000
,
1000
0010
1000
0000
0001
0010
0001
0000
,
1000
0100
1000
0000
0010
0100
0010
0000
,
1000
0001
1000
0000
0001
0010
0001
0000
,
0100
0001
0100
0010
0100
0001
0100
0000
,
0001
1000
0100
1000
0001
1000
0100
0000
,
1000
0010
0100
0001
0010
0000
0200
0000
,
0020
0000
0000
0330
,
0100
0000
1000
0000
0010
0000
0000
0010
0100
0000
0010
0000
1000
0000
0000
1000
,
0001
0000
0010
0000
0001
0000
0000
0001
0100
0000
0010
0000
0100
0000
0000
0100
,
0001
0000
0010
0000
0100
0000
0000
0100
1000
0000
0001
0000
0100
0000
0000
0100
,
1000
0000
0100
0000
0001
0000
0000
0001
1000
0000
0100
0000
0001
0000
0000
0001
,
0100
1000
0010
0100
0001
0010
0001
0000
,
0001
0100
0010
1000
0100
0010
0100
0000
,
0100
1000
0010
0100
0001
0000
2000
0000
,
0002
0000
0000
3003
,
1100
0000
0011
0000
0001
0100
0010
0000
,
0010
0000
0100
0000
0001
0000
0000
0001
0010
0000
0001
0000
0100
0000
0010
0000
,
1000
0100
0010
0000
0010
0100
1000
0000
,
1000
0010
0001
0010
0100
0000
0001
0000
,
0020
0000
1000
0000
0001
0000
0130
1000
,
0020
0000
0001
0000
1030
0010
0100
0001
,
0020
0000
1000
0000
0001
0000
0130
1000
,
0020
0000
0000
0000
0100
0030
0001
0000
0010
0000
0001
0000
1000
0000
0100
0000
,
0011
0000
0110
0000
1000
0100
0010
0000
,
0001
0000
0100
0000
0010
0000
0000
0010
0100
0000
0001
0000
1000
0000
0100
0000
,
0010
0000
0000
0000
0100
0000
0000
0100
1000
0000
0010
0000
0100
0000
0001
0000
,
0010
0001
0001
0000
0100
0010
1000
0001
,
0200
0000
0000
0000
1000
0000
0000
0000
0001
0300
0000
0000
0010
0000
0100
0000
,
0002
0000
0010
0000
0103
0001
0010
0100
,
2000
0000
0100
0000
3010
0100
0010
0000
,
2020
3030
0202
0303
,
2002
0000
0000
0000
,
0000
0000
0000
0000
,
0000
0000
0000
0000
,
0000
0000
3003
0000
,
0000
0000
0000
0000
,
0000
0000
0000
0000
,
0100
1000
0000
0000
0000
0000
0000
0000
0000
0000
0000
0000
0000
0000
0000
0000
,
2200
0000
0000
0300
,
0020
0000
0000
3000
,
0200
0000
0000
0030
,
0000
0010
0310
0000
,
0200
0000
0010
0010
,
0020
0300
1000
1000
,
2000
0030
0002
3000
,
0020
0000
0000
0033
,
0100
0000
1000
0000
0010
0100
0010
0000
,
1000
0100
0010
0100
1000
0010
0010
0000
,
0100
0000
0000
0000
0001
0000
0000
0001
0010
0000
0001
0000
0100
0000
0010
0000
,
0000
0000
0000
0000
0110
0000
0000
1000
0100
0000
0010
0000
0100
0000
0000
1000
,
0001
0000
0100
0000
0001
0000
0000
0010
0001
0000
0100
0000
0010
0000
0000
1000
,
0010
0000
0100
0000
0001
0000
0000
0010
0001
0000
0100
0000
0001
0000
0000
1000
,
0100
0000
0001
0000
0100
0000
0000
0100
1000
0000
0010
0000
0100
0000
0000
0001
,
0010
0000
0001
0000
0100
0000
0000
0010
0100
0000
0001
0000
0010
0000
0000
0100
,
1000
0000
0010
0000
0100
0000
0000
0001
0100
0000
0010
0000
0100
0000
0000
0001
,
1000
0000
0100
0000
0001
0000
0000
0001
0100
0000
1000
0000
0010
0000
0000
0010
,
0100
0000
0001
0000
0100
0000
0000
0010
1000
0000
0100
0000
0010
0000
0000
0100
,
1000
0010
0100
0000
0001
0010
0000
0010
,
0001
0100
0000
0100
0010
0100
0000
0100
,
0010
1000
0000
1000
0100
0001
0000
0001
,
0100
1000
0000
1000
0010
0100
0000
0100
,
0010
1000
0000
1000
0100
0010
0000
0010
,
0001
0100
0000
0100
0010
0100
0000
0100
,
0001
1000
0000
1000
0100
0010
0000
0010
,
0100
1000
0000
0001
2002
0000
0000
0000
,
0000
0000
0000
0000
3003
0000
0000
0000
1100
0000
0000
1000
0010
0000
0000
0000
,
0101
0000
0000
0001
0010
0000
0000
0000
0011
0000
0000
0010
0100
0000
0000
0100
,
1000
0010
0100
0010
1000
0100
0100
0010
,
0001
0100
0000
0100
0000
0000
0000
0000
0010
0000
0100
0000
0100
0000
0001
0000
,
1000
0100
0000
0100
0000
0000
1000
0000
1100
0000
0000
1000
0010
0000
0000
0000
,
0110
0000
0000
0100
0001
0000
0000
0000
0011
0000
0000
0001
1000
0000
0000
1000
,
0010
0100
0001
0010
0100
1000
1000
0010
,
0100
0001
0000
0001
0000
0000
1000
0000
0100
0000
0001
0000
0100
0000
1000
0000
,
0010
0000
0110
0000
1000
0100
0010
0100
,
1000
0010
0000
0100
0000
0000
0001
0000
0010
0000
0001
0000
0100
0000
0010
0000
,
0110
0000
1001
0000
0010
0001
0100
0001
,
0010
0100
0000
1000
0000
0000
0001
0000
0100
0000
0010
0000
1000
0000
0001
0000
,
0011
0000
1100
0000
0010
0100
0001
0010
,
0100
0010
0000
0001
0000
0000
0100
0000
1000
0000
0100
0000
0001
0000
0010
0000
,
0110
0000
1100
0000
1000
0010
0100
0010
,
1000
0001
0000
0010
0000
0000
0001
0000
0100
0000
0010
0000
0100
0000
0001
0000
,
1000
0000
0100
0010
0011
0000
0000
0000
;
