#TITLE:ninth;
#SUBTITLE:(Chronometric Re-production+);
#ARTIST:sta;
#TITLETRANSLIT:;
#SUBTITLETRANSLIT:;
#ARTISTTRANSLIT:;
#CREDIT:Grithokskulk;
#BANNER:ninth (Chronometric Re-production+).png;
#BACKGROUND:ninth (Chronometric Re-production+)-bg.png;
#LYRICSPATH:;
#CDTITLE:grithokskulk.png;
#MUSIC:ninth (Chronometric Re-production+).mp3;
#OFFSET:-6.477;
#SAMPLESTART:68.815;
#SAMPLELENGTH:15.000;
#SELECTABLE:YES;
#BPMS:0.000=153.000;
#STOPS:;
#BGCHANGES:;

//---------------dance-single - ----------------
#NOTES:
     dance-single:
     :
     Easy:
     4:
     0.308,0.315,0.168,0.395,0.000: // measure 1
1000
0000
1000
0100
,  // measure 2
0000
0100
1000
0000
,  // measure 3
0001
0000
0001
0100
,  // measure 4
0000
0100
0001
0000
,  // measure 5
0010
0010
0100
0100
,  // measure 6
1000
1000
0001
0001
,  // measure 7
0100
0100
0010
0010
,  // measure 8
0100
0100
0001
0001
,  // measure 9
0010
0010
0001
0001
,  // measure 10
1000
1000
0100
0100
,  // measure 11
1000
1000
0001
0001
,  // measure 12
0100
0100
0010
0110
,  // measure 13
0020
0030
1000
1000
,  // measure 14
0100
0000
0010
0001
,  // measure 15
0200
0300
0020
0030
,  // measure 16
1000
0100
0010
0100
,  // measure 17
2000
3000
0002
0003
,  // measure 18
0100
0001
0010
0001
,  // measure 19
0200
0300
0020
0030
,  // measure 20
1000
1000
0100
0100
,  // measure 21
2000
3000
0010
0010
,  // measure 22
0200
0300
0001
0001
,  // measure 23
0020
0030
0002
0003
,  // measure 24
2002
0000
0000
3003
,  // measure 25
1000
0000
0100
0000
,  // measure 26
0010
0000
0100
0000
,  // measure 27
1000
0000
0001
0000
,  // measure 28
0100
0000
0001
0000
,  // measure 29
0010
0010
0001
0001
,  // measure 30
0100
0100
0001
0001
,  // measure 31
1000
1000
0100
0100
,  // measure 32
0010
0100
1000
0000
,  // measure 33
0002
0003
0100
0001
,  // measure 34
0020
0030
0002
0003
,  // measure 35
0200
0300
0001
1000
,  // measure 36
0200
0300
1000
0000
,  // measure 37
2000
3000
0010
0100
,  // measure 38
0002
0003
0001
0000
,  // measure 39
0020
0030
0100
1000
,  // measure 40
0002
0003
2000
3000
,  // measure 41
2002
0000
3003
1000
,  // measure 42
0020
0030
0100
0001
,  // measure 43
0220
0000
0330
1000
,  // measure 44
0001
0000
0100
0010
,  // measure 45
2020
0000
3030
0100
,  // measure 46
0010
0000
0001
1000
,  // measure 47
0202
0000
0000
0303
,  // measure 48
2002
0000
0000
3003
,  // measure 49
2200
0000
3300
0010
,  // measure 50
0001
0000
0100
0001
,  // measure 51
2002
0000
3003
1000
,  // measure 52
0100
0000
1000
0010
,  // measure 53
0220
0000
0330
1000
,  // measure 54
0010
0000
0100
0001
,  // measure 55
0101
0000
1001
0000
,  // measure 56
1100
0000
0100
0100
,  // measure 57
0011
0000
1010
0000
,  // measure 58
0110
0000
0001
0001
,  // measure 59
1001
0000
0000
0000
;

//---------------dance-single - ----------------
#NOTES:
     dance-single:
     :
     Medium:
     6:
     0.456,0.516,0.168,0.306,0.000:
1000
0000
0000
0100
1000
0000
0100
0000
,
0000
1000
0100
0000
0010
0000
0001
0000
,
0100
0000
0000
0001
0100
0000
0001
0000
,
0000
0100
0001
0000
0020
0000
0030
0000
,
0100
0000
1000
0100
1000
0000
0001
0100
,
0001
0000
1000
0100
1000
0000
0010
0100
,
0010
0000
1000
0010
1000
0000
0001
0010
,
0001
0000
1000
0010
1000
0000
0001
0100
,
0001
0000
0010
0100
0010
0000
0001
1000
,
0001
0000
1000
0100
1000
0000
0010
0100
,
0010
0000
1000
0001
1000
0000
0001
0010
,
0001
0000
0100
0001
0100
0000
0010
1000
,
0010
0000
0000
1000
1000
0000
0000
0100
,
0100
0000
0000
0010
0010
0000
0001
0100
,
0001
0000
0000
1000
1000
0000
0000
0010
,
0010
0000
0000
0100
0100
0000
0010
1000
,
0010
0000
0000
1000
1000
0000
0000
0100
,
0100
0000
0000
0010
0010
0000
0100
1000
,
0100
0000
0000
0010
0010
0000
0000
0001
,
0001
0000
0100
0001
0100
0000
0010
1000
,
0010
0000
0000
1000
1000
0000
0000
0001
,
0001
0000
0000
0010
0010
0000
0000
0001
,
0001
0000
0000
0100
0100
0000
0000
0010
,
0010
0000
0100
0010
0100
0000
0001
0000
,
2200
3300
0022
0033
,
0202
0303
0220
0330
,
0202
0303
2002
3003
,
2200
3300
0220
0330
,
0100
0000
1000
0000
0010
0100
0010
0000
,
0100
0000
0001
0000
1000
0100
1000
0000
,
0001
0100
0001
0000
0010
0001
0010
0000
,
0001
1000
0001
1000
0001
0000
1001
0000
,
2200
3300
0001
0100
,
0110
0000
0000
0010
1000
0000
0100
1000
,
0100
0000
0000
0010
0001
0000
0100
0010
,
0100
0000
0000
0001
0100
0000
0010
1000
,
1010
0000
1000
0100
,
1100
0000
0000
0010
0001
0000
0010
0001
,
0100
0000
0001
0100
0010
0000
0010
1000
,
0100
1000
0100
1000
0100
0000
0010
0001
,
0200
0000
0000
0010
0310
0000
0100
0001
,
0020
0000
0000
0100
0130
0000
1000
0010
,
0200
0000
0000
0001
0301
0000
1000
0100
,
0020
0000
0000
0100
0130
0000
1000
0010
,
0200
0000
0000
0001
0301
0000
0010
0001
,
2000
0000
0000
0100
3100
0000
1000
0010
,
0100
0001
0010
0100
,
1000
0100
0010
1001
,
0002
0000
0000
0100
0103
0000
0010
0100
,
0020
0000
0000
1000
1030
0000
0100
1000
,
0200
0000
0000
0010
0310
0000
0001
0010
,
0002
0000
0000
1000
1003
0000
0010
0100
,
0020
0000
0000
0100
0130
0000
0001
0010
,
0002
0000
0000
0010
0013
0000
0100
1000
,
0100
0010
0001
1001
,
0001
0010
0100
1001
,
1000
0100
1000
0000
0001
0100
0001
0000
,
1000
0010
1000
0000
0001
0010
0001
0000
,
1001
0000
0000
0000
;

//---------------dance-single - ----------------
#NOTES:
     dance-single:
     :
     Hard:
     8:
     0.579,0.516,0.158,0.148,0.489:
1000
0000
0000
1000
0100
0000
1000
0000
0100
0000
0100
0000
1000
0000
0000
0000
,
1100
0000
0000
1000
0100
0010
0001
0000
0000
1000
0100
0010
,
0001
0000
0000
0001
0100
0000
0001
0000
0100
0000
0100
0000
0001
0000
0000
0000
,
0101
0000
0200
0300
0200
0300
0200
0300
,
0010
0000
0000
1000
0000
0000
0100
0000
0010
0000
0000
0100
0000
0000
1000
0000
,
0010
0000
0000
0100
0000
0000
0001
0000
0010
0000
0000
0001
0000
0000
0100
0000
,
0010
0000
0000
0100
0000
0000
0001
0000
1000
0000
0000
0100
0000
0000
0001
0000
,
0100
0000
0000
0010
0000
0000
0001
0000
0100
0000
0010
0000
0100
0000
0001
0000
,
1000
0000
0000
0100
0000
0000
0010
0000
0100
0000
0000
1000
0000
0000
0010
0000
,
0100
0000
0000
0010
0000
0000
1000
0000
0001
0000
0000
0010
0000
0000
0001
0000
,
0100
0000
0000
1000
0000
0000
0100
0000
0001
0000
0000
0010
0000
0000
0001
0000
,
0100
0000
0000
0010
0000
0000
0100
0000
0010
0000
1000
0000
0100
0000
0010
0000
,
0100
0000
0000
0000
1000
0000
0010
0000
0100
0010
0000
0000
0100
0000
0010
0000
,
1000
0000
0000
0000
0100
0000
0010
0000
0001
0000
0000
0001
0000
0000
0001
0000
,
0100
0000
0001
0100
0010
0000
0100
0010
,
1000
0010
0000
0000
1000
0100
0000
0000
0010
0001
0000
0000
0010
0100
0000
0000
,
1000
0000
0000
1000
0000
0000
0010
0000
0100
0000
0000
0000
0001
0000
0000
0001
,
0100
0010
1000
0000
0100
0001
0100
1000
,
0020
0000
0000
0100
0000
0000
0130
0000
0002
0000
0000
0010
0000
0000
0013
0000
,
0200
0000
0000
1000
0000
0000
1300
0000
0020
0000
0000
0100
0000
0000
0130
0000
,
0001
0100
0000
0000
0010
0000
0100
0000
0001
0000
1000
0000
0100
0000
0000
0000
,
0010
0001
0000
0000
1000
0000
0100
0000
0001
0000
0100
0000
1000
0000
0000
0000
,
0001
0100
0000
0000
0010
0000
0100
0000
0001
0010
0000
0000
0100
0000
0001
0000
,
0100
1000
0000
0000
0010
0000
0100
0000
0001
1000
0000
0000
0100
0000
0010
0000
,
0200
0000
2000
0300
,
0020
3000
0200
0030
,
0002
0300
0020
0003
,
0200
0030
1300
1100
,
1000
0000
0000
0000
0100
0000
0000
0100
1000
0000
0000
0000
0010
0000
0000
0010
,
0100
0000
0000
0000
0001
0000
0000
0001
0010
0000
0001
0000
0100
0000
0000
0000
,
0010
0000
0000
0010
0100
0000
0000
0000
0001
0000
0000
0001
0010
0000
0000
0000
,
0001
0100
1000
0100
0010
0000
0110
0000
,
0101
0000
0000
0000
0010
0000
0001
0000
0010
0000
0000
0010
0100
0000
0000
0100
,
1000
0000
0000
0000
1000
0000
0010
0000
0100
0000
0000
0100
0001
0000
0000
0001
,
1000
0000
0000
0000
1000
0000
0100
0000
1000
0000
0000
1000
0010
0000
0000
0010
,
0100
0000
0001
0010
0001
0100
0010
1000
,
0100
0000
0000
0000
0100
0000
1000
0000
0010
0000
0000
0010
0100
0000
0000
0100
,
0001
0000
0000
0000
0001
0000
0010
0000
0001
0000
0000
0001
1000
0000
0000
1000
,
0100
0010
0100
0000
0100
1000
0100
0000
,
0011
0000
1100
0000
1010
0000
0001
0100
,
0010
0000
0000
0010
1000
0000
0000
1000
0100
0000
0000
0100
0001
0000
0000
0001
,
0100
0000
0000
0100
1000
0000
0000
1000
0010
0000
0000
0010
0100
0000
0001
0000
,
0010
0000
0000
0010
0001
0000
0000
0001
0100
0000
0000
0100
1000
0000
0000
1000
,
0100
0000
0000
0100
0010
0000
0000
0010
1000
0000
0000
1000
0100
0000
0010
0000
,
0100
0000
0000
0100
1000
0000
0000
1000
0010
0000
0000
0010
0100
0000
0001
0000
,
0010
0000
0000
0010
0001
0000
0000
0001
0100
0000
0000
0100
0001
0000
1000
0000
,
0100
1000
0010
1000
0100
0100
0110
0000
,
0010
0001
0100
0010
1000
1000
1001
0000
,
1000
0000
0000
1000
0100
0000
0000
0100
0001
0000
0001
0000
0100
0000
0000
0100
,
0010
0000
0000
0010
0001
0000
0000
0001
0100
0000
1000
0000
0100
0000
0010
0000
,
1000
0000
0000
1000
0100
0000
0000
0100
0001
0000
0000
0001
0100
0000
0000
0100
,
0010
0000
0000
0010
0001
0000
0000
0001
1000
0000
0010
0000
0001
0000
0010
0000
,
1000
0000
0000
1000
0001
0000
0000
0001
0010
0000
0000
0010
1000
0000
0000
1000
,
0010
0000
0000
0010
0001
0000
0000
0001
0100
0000
0000
0100
1000
0000
0100
0000
,
0010
0000
0000
1000
0000
0100
1000
0000
0010
0000
0000
0100
0000
0001
0100
0000
,
0010
0000
0000
1000
0000
0100
1000
0000
0001
0000
0000
0010
0000
0001
0100
0000
,
0120
1000
0001
0130
,
1010
0101
0011
1100
,
1001
0000
0000
0000
;
