#TITLE:neu;
#SUBTITLE:BSP style;
#ARTIST:cosMo@BousouP;
#TITLETRANSLIT:;
#SUBTITLETRANSLIT:;
#ARTISTTRANSLIT:;
#CREDIT:Grithokskulk;
#BANNER:neu -BSP style-.png;
#BACKGROUND:neu BSP style-bg.png;
#LYRICSPATH:;
#CDTITLE:SOUND VOLTEX.png;
#MUSIC:neu BSP style.mp3;
#OFFSET:-3.826;
#SAMPLESTART:64.595;
#SAMPLELENGTH:15.000;
#SELECTABLE:YES;
#BPMS:0.000=130.000,164.000=199.000;
#STOPS:;
#BGCHANGES:;

//---------------dance-single - ----------------
#NOTES:
     dance-single:
     :
     Easy:
     3:
     0.229,0.262,0.036,0.136,0.000: // measure 1
0010
0100
0000
0001
,  // measure 2
0010
0001
0000
0100
,  // measure 3
0010
0100
0000
0001
,  // measure 4
1000
0001
0000
0100
,  // measure 5
0010
0100
0000
0100
,  // measure 6
1000
0100
0000
1000
,  // measure 7
0010
1000
0000
0001
,  // measure 8
1000
0100
0010
0001
,  // measure 9
0000
0100
0010
1000
,  // measure 10
0100
1000
0010
0000
,  // measure 11
0100
0000
0010
0100
,  // measure 12
0001
0010
0100
0000
,  // measure 13
0000
0010
0001
0010
,  // measure 14
0001
0100
0010
1000
,  // measure 15
0010
0000
0100
0000
,  // measure 16
0100
0010
1000
0000
,  // measure 17
0000
0100
0010
0100
,  // measure 18
0000
0001
1000
0001
,  // measure 19
0000
0100
0001
0100
,  // measure 20
0000
0010
0100
0010
,  // measure 21
0000
1000
0100
1000
,  // measure 22
0000
0001
0100
0001
,  // measure 23
0000
1000
0010
1000
,  // measure 24
0000
0001
0010
0001
,  // measure 25
0200
0300
0020
0030
,  // measure 26
2000
3000
0100
1000
,  // measure 27
0020
0030
0200
0300
,  // measure 28
0002
0013
0100
0010
,  // measure 29
0002
0003
0200
0300
,  // measure 30
0020
0030
1000
0010
,  // measure 31
0200
0000
0300
0001
,  // measure 32
0020
0000
0000
0000
,  // measure 33
0030
0000
0000
0000
,  // measure 34
0220
0000
0000
0000
,  // measure 35
0000
0330
0000
0100
,  // measure 36
0100
0100
0000
1000
,  // measure 37
1000
1000
0000
0001
,  // measure 38
2002
0000
0000
0000
,  // measure 39
0000
3003
0000
0000
,  // measure 40
0001
0001
0001
0000
,  // measure 41
0000
0100
0100
0000
,  // measure 42
0110
0000
0000
0000
,  // measure 43
0000
1000
0100
1000
,  // measure 44
0100
1000
0010
0000
,  // measure 45
0000
0100
0001
0100
,  // measure 46
0001
0100
0010
0100
,  // measure 47
0001
0000
1000
0000
,  // measure 48
0100
1000
0100
0010
,  // measure 49
0100
1000
0010
0100
,  // measure 50
0001
1000
0001
0000
,  // measure 51
0000
0001
0010
0100
,  // measure 52
1000
0010
0100
0000
,  // measure 53
0000
0001
0100
0010
,  // measure 54
0100
0001
0010
0100
,  // measure 55
1000
0000
0001
0000
,  // measure 56
0100
0000
0010
0000
,  // measure 57
0100
0010
0100
0001
,  // measure 58
1000
0100
0010
0000
,  // measure 59
1001
0000
0000
0000
;

//---------------dance-single - ----------------
#NOTES:
     dance-single:
     :
     Medium:
     5:
     0.353,0.367,0.271,0.054,0.000:
1000
0100
1000
1000
0000
0000
0000
0000
,
0001
0100
0001
0001
0000
0000
0000
0000
,
0010
0100
0010
0010
0000
0000
0000
0000
,
0001
0100
0001
0001
0000
0000
0100
0000
,
0010
1000
0010
0010
0000
0000
1000
0000
,
0100
1000
0100
0100
0000
0000
0010
0000
,
0001
0010
0001
0001
0000
0010
0001
0000
,
0101
1010
1100
0011
,
0000
0000
0100
0000
0010
0000
0100
0010
,
0100
0000
0001
1000
0001
0000
0000
1000
,
0100
0000
0000
0100
1000
0000
0010
0100
,
0010
0000
0010
1000
0010
0000
0000
0000
,
0000
0000
1000
0000
0100
0000
0010
0100
,
0010
0000
0100
0000
1000
0010
1000
0000
,
0001
0000
0000
0100
0100
0000
0000
0010
,
0010
1000
0100
0000
,
0000
0010
0100
0000
1000
0000
0001
0100
,
0000
0100
0010
0000
1000
0000
0100
1000
,
0000
1000
0010
0000
0100
0000
0001
0010
,
0000
0010
0001
0000
0100
0000
0010
1000
,
0000
0100
1000
0000
0010
0000
0100
0010
,
0000
1000
0001
0000
0010
0000
0100
1000
,
0000
0100
0010
0000
0100
0000
1000
0001
,
0100
0001
0010
0001
,
1000
1000
0100
0100
,
0010
0000
0000
0000
0010
0100
1000
0000
,
0010
0000
0000
0010
0100
0000
0001
0000
,
1001
0000
1000
0100
1000
0000
0001
0000
,
0100
0000
0000
0100
0010
0000
1000
0010
,
1000
0000
0100
0010
0100
0000
1000
0000
,
0002
0000
0100
0000
0013
0000
0100
0010
,
0200
1000
0310
1000
,
0010
0000
0010
0000
0010
1000
0100
0010
,
0002
0000
0000
0000
,
0003
0000
0100
0100
0000
0000
0010
0000
,
1000
0000
0100
0100
0000
0000
0110
0000
,
0010
0000
0001
0001
0000
0000
1001
0000
,
0200
0000
0000
0000
,
0300
0000
0010
0010
0000
0000
0110
0000
,
1000
0000
0100
0100
0000
0000
1100
0000
,
0010
0000
0001
0001
0000
0000
0110
0000
,
2002
0000
3003
0000
,
0000
1000
0100
0010
,
0110
1100
1001
0000
,
0000
0001
0100
0010
,
0101
0110
1010
0100
,
1000
0000
0000
1000
0100
0000
0010
0000
,
0100
0000
1000
0000
0010
0000
0100
0001
,
0100
0001
0010
0100
,
0110
1100
0011
0000
,
0000
0001
1000
0010
,
0110
1001
1100
0000
,
0000
0001
0010
0100
,
1100
0011
0101
0001
,
1000
0000
0000
1000
0100
0000
0010
0000
,
0100
0000
1000
0010
1000
0000
0001
0010
,
0001
0100
0010
1000
,
1010
0101
1001
0000
,
0110
0000
0000
0000
;

//---------------dance-single - ----------------
#NOTES:
     dance-single:
     :
     Hard:
     7:
     0.551,0.499,0.208,0.299,0.000:
1000
0100
0010
0010
0000
0100
1000
0010
,
0100
0001
0010
0010
0000
0001
0100
1000
,
0100
0001
0010
0010
0000
0100
0010
0001
,
0100
0010
1000
0100
0001
0100
1000
0010
,
0100
0002
0010
0013
0000
0001
0100
1000
,
0100
0020
1000
1030
0000
0100
1000
0100
,
0001
0200
0010
0310
0000
0001
0100
0010
,
1010
1100
0011
0101
,
0000
0000
0010
0000
1000
0000
0100
1000
,
0010
0000
0100
0001
0010
0000
0100
0010
,
0002
0000
0100
0100
0103
0000
0010
1000
,
0100
0001
0100
1000
0010
0000
0100
0010
,
0110
0000
1000
0000
0100
0000
0010
0100
,
1000
0000
0010
0100
0001
0010
0100
1000
,
0020
0000
0100
0100
0230
0000
0301
0001
,
1001
0000
1100
0000
0011
0000
0100
0001
,
0010
0100
1000
0100
0001
0100
0010
0100
,
0000
0001
0100
0001
1000
0001
0010
0001
,
0000
0010
1000
0010
0001
0010
0100
0010
,
0000
0001
0100
0001
1000
0001
0010
0001
,
0000
0100
1000
0100
0001
0100
0010
0100
,
0000
0001
0010
0001
0100
0001
1000
0001
,
0000
0010
1000
0010
0001
0010
1000
0010
,
0100
1000
0010
0010
0100
0001
0010
0010
,
0200
0000
1300
0100
2000
0000
3010
1000
,
0020
0000
0130
0010
2000
0100
3200
0010
,
0320
0000
0031
0010
0002
0000
0103
0001
,
0200
0000
0310
1000
0200
0000
0310
0100
,
2000
0000
3001
0100
0002
0010
0023
0100
,
0230
0000
1300
0100
2000
0000
3020
0000
,
0230
0000
0301
0010
0100
0010
0001
0001
,
0200
0000
0310
1000
0100
0010
0100
0100
,
0000
1000
0100
0010
0001
0100
0010
1000
,
0200
0000
0010
0000
1000
0000
0010
0010
,
1300
0000
0100
0100
0010
0001
0100
1000
,
0200
0000
0310
0010
1000
0001
0010
0001
,
2000
0000
3010
0010
0100
0001
0010
0100
,
2000
0000
0100
0000
0001
0000
0010
0010
,
3100
0000
1000
1000
0010
0100
0001
0010
,
0001
0000
0100
0100
0010
0100
1000
0100
,
0001
0000
0010
0010
0100
1000
0010
0100
,
0220
0000
0330
0000
1000
0100
0010
0001
,
1000
0010
0100
0010
1000
0010
0100
0010
,
1000
0010
1000
0001
0010
0000
0100
0000
,
1000
0001
1000
0001
0010
0001
0100
0001
,
1000
0001
0100
0001
0010
0001
0100
0010
,
1000
0000
0100
1000
0100
0000
0010
0001
,
0010
0000
0001
0000
0100
0000
0010
0100
,
0110
1010
1100
0011
,
1001
0110
2002
3003
,
0010
0100
0001
0100
1000
0100
0010
0100
,
0001
0100
0010
0100
0001
0000
1000
0100
,
1000
0000
0001
1000
0010
1000
0100
1000
,
0010
1000
0001
1000
0100
1000
0010
1000
,
0100
0000
0010
0001
0100
0000
0010
1000
,
0100
0000
1000
0000
0100
0000
0010
0001
,
0100
0101
1010
1100
,
0011
1001
0220
0330
,
1001
0000
0000
0000
;
