#TITLE:milky ice bear;
#SUBTITLE:;
#ARTIST:S-C-U;
#TITLETRANSLIT:;
#SUBTITLETRANSLIT:;
#ARTISTTRANSLIT:;
#CREDIT:Grithokskulk;
#BANNER:milky ice bear.png;
#BACKGROUND:milky ice bear-bg.png;
#LYRICSPATH:;
#CDTITLE:REFLEC BEAT.png;
#MUSIC:milky ice bear.mp3;
#OFFSET:-5.676;
#SAMPLESTART:68.915;
#SAMPLELENGTH:15.000;
#SELECTABLE:YES;
#BPMS:0.000=147.000;
#STOPS:;
#BGCHANGES:;

//---------------dance-single - ----------------
#NOTES:
     dance-single:
     :
     Easy:
     3:
     0.251,0.228,0.269,0.152,0.000: // measure 1
0000
0100
0000
0010
,  // measure 2
0000
1000
1000
1000
,  // measure 3
0000
0000
0000
0000
0000
2002
0000
0000
,  // measure 4
0000
0000
0000
3003
,  // measure 5
0000
0000
0000
0010
,  // measure 6
0010
0100
0000
0001
,  // measure 7
0001
0010
0000
2000
,  // measure 8
3000
0020
0030
0100
,  // measure 9
0010
0110
0000
0001
,  // measure 10
0010
0001
0000
1000
,  // measure 11
0010
1000
0000
1001
,  // measure 12
0000
0110
0000
0000
,  // measure 13
0100
0100
0000
0110
,  // measure 14
0000
1001
0000
0110
,  // measure 15
0000
1001
0000
0110
,  // measure 16
0000
1001
0000
0110
,  // measure 17
0000
1001
0000
0011
,  // measure 18
0000
0101
0000
1100
,  // measure 19
0000
1010
0000
0011
,  // measure 20
0000
0101
0000
1100
,  // measure 21
0000
1010
0000
0000
,  // measure 22
0010
0010
0000
0100
,  // measure 23
0100
0010
0000
2000
,  // measure 24
3000
0002
0003
0010
,  // measure 25
0010
0100
0000
0010
,  // measure 26
0000
0001
0000
0100
,  // measure 27
0100
0010
0000
0200
,  // measure 28
0300
0002
0003
2000
,  // measure 29
0000
3000
1001
0000
,  // measure 30
0001
0001
0000
0020
,  // measure 31
0030
0020
0030
0000
,  // measure 32
0100
0100
0000
0020
,  // measure 33
0030
0020
0030
0000
,  // measure 34
0001
0001
0000
2000
,  // measure 35
3000
2000
3000
0000
,  // measure 36
0100
0100
0000
0000
,  // measure 37
1000
1000
0000
0010
,  // measure 38
0010
0100
0100
0010
,  // measure 39
0000
0000
0000
1001
,  // measure 40
0000
0110
0000
0001
,  // measure 41
1000
0100
0000
1000
,  // measure 42
0010
1000
0010
0100
,  // measure 43
0010
0000
0110
0000
,  // measure 44
0001
0001
0000
0010
,  // measure 45
0000
0001
0000
0100
,  // measure 46
0001
0010
0100
0000
,  // measure 47
0010
0010
0000
0110
,  // measure 48
0000
1001
0000
0010
,  // measure 49
0100
0010
0000
1000
,  // measure 50
0000
0100
0000
0010
,  // measure 51
0100
1000
0000
1001
,  // measure 52
0000
0110
0000
0100
,  // measure 53
0010
0100
0000
0001
,  // measure 54
0010
0100
0000
1000
,  // measure 55
0000
0001
0000
1001
,  // measure 56
0000
0001
0010
0001
,  // measure 57
0000
1000
0010
1000
,  // measure 58
0000
0001
0010
0100
,  // measure 59
0000
0010
0010
0100
,  // measure 60
0000
0010
0001
0010
,  // measure 61
0000
1000
0010
1000
,  // measure 62
0000
0001
0100
0001
,  // measure 63
0000
0010
0000
2200
,  // measure 64
0000
0000
0000
0000
0000
3300
0000
0000
;

//---------------dance-single - ----------------
#NOTES:
     dance-single:
     :
     Medium:
     5:
     0.389,0.371,0.215,0.045,0.018:
0000
0100
0000
0100
0000
0000
0020
0000
,
0000
0100
0000
0100
0000
0230
0000
0000
,
0000
0000
0000
0300
0000
2002
0000
0000
,
0000
0000
0000
0000
0000
3003
0000
1000
,
1000
0000
0001
0000
0010
0000
0001
0100
,
0001
0000
0010
0000
0110
0000
0010
0100
,
0010
0000
0001
0000
1001
0000
1000
0010
,
1000
0000
0010
0000
0100
0100
0000
0010
,
0010
0000
1000
0001
1000
0000
0001
0010
,
0001
0000
1000
0000
1010
0000
0010
0100
,
0010
0000
0100
0000
0101
0000
1000
0100
,
1000
0000
0001
0010
0001
0010
0000
0001
,
0001
1000
0010
0110
,
0000
1001
0000
1100
,
0000
0011
0000
0101
,
0000
0110
0000
1010
,
0000
1100
0000
1001
,
0000
0011
0000
0110
,
0000
0011
0000
0101
,
0000
0000
0000
0000
1010
0000
0000
0000
0000
0000
0000
0000
0100
0000
0000
0100
,
0000
0000
0100
0000
0000
0100
0000
0000
0100
0000
0000
0000
0010
0000
0000
0000
,
0100
0000
1000
0010
1000
0000
0001
0001
,
1000
1000
0010
0000
0100
0000
0110
0000
,
0000
0000
0010
0000
0000
0000
1000
1000
,
0100
0100
0010
0000
0100
0000
1000
0000
,
0001
0100
0001
0000
0010
0100
0010
0000
,
0001
0100
0010
0110
,
0000
0000
1000
0000
0000
0000
0001
0001
,
0001
0001
0000
1000
1000
0000
0000
0100
,
1000
0000
0010
0000
0100
0000
0001
0010
,
0001
0000
1000
0010
0000
0000
0000
1000
,
1000
0000
0100
0000
1000
0000
0010
1000
,
0010
0000
0100
0001
0100
0001
0000
0010
,
0010
0000
0001
0000
0010
0000
0100
0010
,
0100
0000
1000
0001
1000
0000
0000
0001
,
0001
0000
0100
0000
0010
0010
0000
0100
,
0100
0000
0001
0000
0010
0010
0000
0100
,
0100
0000
0010
0000
0001
1000
0000
0000
,
0000
0000
0000
0000
0000
0000
1000
0010
,
1000
0000
0010
0000
0100
0000
0000
0100
0000
0000
0100
0000
0000
0000
0000
0000
,
0010
0000
0000
0000
0100
0000
0000
0100
0000
0000
0100
0000
0000
0000
0000
0000
,
0001
0000
0010
0001
0010
0000
0100
1000
,
0100
1000
0000
1001
0000
0000
0000
0001
,
0001
0000
0100
0000
0010
0000
0100
0010
,
0100
0000
0001
1000
0001
0000
0010
0100
,
0010
0000
0001
0000
1000
1000
0000
0010
,
0010
0000
0100
0000
0110
0000
0001
1000
,
0001
1000
0001
0000
0000
1000
0000
0000
,
0100
0000
0010
0000
0000
0100
0000
0000
,
0010
0000
0100
1000
0100
0000
0010
0001
,
0010
0001
0000
1001
0000
0000
0000
1000
,
0010
0000
0100
0000
0010
0000
1000
0001
,
1000
0000
0001
0000
0010
0000
0100
0010
,
0100
0000
1000
0001
1000
0001
0000
0100
,
0100
0000
0010
0100
0010
0000
1000
0000
,
0001
0000
0010
0001
0010
0000
0001
0000
,
0100
0000
0010
0100
0010
0000
1000
0000
,
0100
0000
1000
0010
1000
0010
0000
0100
,
0100
0000
0001
0010
0001
0000
1000
0000
,
0010
0000
0100
0010
0100
0000
0001
0000
,
0010
0000
0100
0010
0100
0000
0010
0000
,
0001
0000
1000
0010
1000
0010
0000
0100
,
0100
0000
0001
0000
1000
0200
0000
0000
,
0000
0000
0000
0000
0000
0300
0000
0000
;

//---------------dance-single - ----------------
#NOTES:
     dance-single:
     :
     Hard:
     9:
     0.630,0.570,0.215,0.197,0.453:
0000
1000
0000
0001
0000
0000
0020
0000
,
0000
1000
0000
0001
0000
0200
0000
0000
,
0000
0000
0000
0330
0000
2002
0000
0000
,
0000
0000
0000
0000
3003
0000
0000
1000
,
1000
0000
1000
0100
0000
0000
0010
0000
0100
0000
1000
0000
0010
0000
0010
0000
,
0100
0000
0001
0010
0000
0010
0001
0000
0100
0000
0010
0000
1000
0000
1000
0000
,
0100
0000
1000
0010
0000
0010
0100
0000
0001
0000
0010
0000
0100
0000
0100
0000
,
0010
0000
0001
0100
0000
0100
1000
0000
0100
0000
0010
0000
0000
0000
1000
0000
,
1000
0000
0001
1000
0000
1000
0001
0000
0100
0000
0100
0000
0010
0000
0100
0000
,
0001
0000
0010
0100
0000
0100
0010
0000
0001
0000
0100
0000
0010
0000
0010
0000
,
1000
0000
0100
0010
0000
0010
0100
0000
1000
0000
0001
0000
0100
0000
0100
0000
,
1000
0000
0100
0010
0000
0010
0100
0000
0001
0000
0010
0000
0000
0000
0001
0000
,
0010
0000
0100
0000
0010
0000
0100
0000
1000
0000
0010
0000
0210
0000
0000
0010
,
0000
0000
0310
0000
2000
0000
0000
0100
0000
0000
3100
0000
0002
0000
0000
0100
,
0000
0000
0103
0000
0020
0000
0000
0001
0000
0000
0031
0000
0200
0000
0000
1000
,
0000
0000
1300
0000
0200
0000
0000
0001
0000
0000
0301
0000
0020
0000
0000
0100
,
0000
0000
0130
0000
0020
0000
0000
0001
0000
0000
0031
0000
0200
0000
0000
1000
,
0000
0000
0310
0000
0002
0000
0000
0010
0000
0000
0103
0000
2000
0000
0000
0100
,
0000
0000
3010
0000
0200
0000
0000
0001
0000
0000
0310
0000
2000
0000
0000
0001
,
0000
0000
3100
0000
0020
0000
0000
0001
0000
0000
1030
0000
0110
0000
0000
1001
,
0000
0000
1100
0000
0000
0011
0000
0000
1001
0000
0000
0000
0100
0000
0010
0000
,
0100
0001
0000
0100
0010
0000
1000
0010
0000
0100
0010
0000
1000
0000
1000
0000
,
0100
0000
0100
0000
0010
0000
0000
0100
0000
0000
1000
0000
0001
0000
0100
0000
,
0101
0000
1000
0100
1100
0000
0010
0010
,
0100
0000
0100
0000
1000
0000
0000
0001
0000
0000
1001
0000
0000
0000
0100
0000
,
1000
0100
0000
0001
0100
0000
0010
1000
0000
0010
0001
0000
0010
0000
0010
0000
,
0100
0000
0100
0000
0001
0000
0000
0010
0000
0000
0100
0000
0010
0000
0001
0000
,
0011
0000
1000
0010
1010
0000
0001
0001
,
0001
0000
0001
0000
0000
0000
1000
0000
0100
0000
0000
0000
1000
0000
0010
0100
,
0010
0000
0100
0001
0000
0100
1000
0000
0100
0000
0010
0000
1000
0000
0100
0000
,
0001
0000
0100
0010
0000
0001
0100
0000
0000
0000
0010
0000
0110
0000
0100
0000
,
0001
0000
0010
0100
0000
0010
0001
0000
0100
0000
0010
0000
0100
0000
0100
0000
,
0010
0000
1000
0100
0000
0010
0100
0000
1000
0000
0001
0000
1001
0000
1000
0000
,
0010
0000
0100
0010
0000
1000
0010
0000
1000
0000
0100
0000
0001
0000
0100
0000
,
0010
0000
0001
0100
0000
0001
0010
0000
0000
0000
0100
0000
0010
0000
0001
0000
,
0100
0000
0010
0100
0000
0001
0100
0000
0010
0000
1000
0000
0000
0000
0100
0000
,
0010
0000
0100
1000
0000
0100
0010
0000
0100
0000
0010
0000
0000
0000
0001
0000
,
0100
0000
0010
0100
0000
0001
1000
0000
0100
0000
0020
0000
0000
0000
0000
0000
,
0100
0000
0000
0001
0000
0001
0000
0000
0130
0000
0000
0000
1000
0000
1000
0000
,
0001
0000
0001
0000
0100
0000
0000
0010
0000
0000
0110
0000
0000
0000
0001
0000
,
1000
0000
0000
0000
0100
0000
0000
0010
0000
0000
0110
0000
0000
0000
0100
0000
,
1000
0000
0010
1000
0000
0010
0100
0000
0010
0000
1000
0000
0001
0000
0010
0000
,
0100
1000
0000
0101
0000
0000
0000
1000
,
1001
0000
0000
0000
0100
0000
0000
0010
0000
0000
0110
0000
0000
0100
0001
0000
,
0010
0000
0001
1000
0000
0001
0100
0000
0010
0000
1000
0000
0100
0000
1000
0000
,
0010
0000
0100
0010
0000
0100
0001
0000
0010
0000
0200
0000
0000
0000
0010
0000
,
0010
0000
0000
1000
0000
1000
0000
0000
0310
0000
0000
0000
0001
0000
0001
0000
,
1000
0000
1000
0000
0010
0000
0000
0100
0000
0000
0110
0000
0000
0000
0001
0000
,
1000
0000
0000
0000
0100
0000
0000
0010
0000
0000
0110
0000
0000
0000
0100
0000
,
1000
0000
0010
0100
0000
0010
1000
0000
0010
0000
0100
0000
0001
0000
0010
0000
,
0100
1000
0000
1001
0000
0000
0000
0001
,
0101
0000
0000
0000
0010
0000
0000
0100
0000
0000
0110
0000
0000
0100
1000
0000
,
0010
0000
0100
0010
0000
0010
1000
0000
0100
0000
0010
0000
0100
0000
1000
0000
,
0010
0000
0100
0001
0000
1000
0001
0000
0010
0000
0200
0000
0000
0000
1000
0000
,
1000
0000
0000
0010
0000
0010
0000
0000
1300
0000
0001
0000
0100
0000
0010
0000
,
0100
0000
0001
0010
0000
0001
0100
0000
0010
0000
0100
0000
0001
0000
0010
0000
,
0100
0000
0010
0100
0000
0010
0001
0000
1000
0000
0010
0000
1000
0000
0100
0000
,
0010
0000
0100
1000
0000
0010
0100
0000
0010
0000
1000
0000
0000
0000
0010
0000
,
0010
0000
0100
0010
0000
0100
0010
0000
1000
0000
0100
0000
0010
0000
0100
0000
,
1000
0000
0010
0100
0000
0010
1000
0000
0010
0000
0100
0000
0001
0000
0010
0000
,
1000
0000
0010
0001
0000
0100
0001
0000
0010
0000
0100
0000
0010
0000
0001
0000
,
0100
0000
1000
0100
0000
0001
0100
0000
0010
0000
1000
0000
0000
0000
0001
0000
,
0010
0100
0010
0100
1000
0020
0000
0000
,
0000
0000
0000
0000
0000
0030
0000
0000
;
