#TITLE:licca;
#SUBTITLE:;
#ARTIST:Qrispy Joybox;
#TITLETRANSLIT:;
#SUBTITLETRANSLIT:;
#ARTISTTRANSLIT:;
#CREDIT:Grithokskulk;
#BANNER:licca.png;
#BACKGROUND:licca-bg.png;
#LYRICSPATH:;
#CDTITLE:REFLEC BEAT.png;
#MUSIC:licca.mp3;
#OFFSET:-0.221;
#SAMPLESTART:58.655;
#SAMPLELENGTH:15.000;
#SELECTABLE:YES;
#BPMS:0.000=196.000,68.000=98.000,70.000=196.000,74.000=98.000,76.000=196.000,80.000=98.000,82.000=196.000,123.000=98.000,125.000=196.000,129.000=98.000,131.000=196.000,135.000=98.000,137.000=196.000,141.000=98.000,156.000=196.000,289.000=98.000,291.000=196.000,295.000=98.000,297.000=196.000,301.000=98.000,303.000=196.000;
#STOPS:86.000=0.960
,141.000=0.620
,156.000=0.940
;
#BGCHANGES:;

//---------------dance-single - ----------------
#NOTES:
     dance-single:
     :
     Easy:
     3:
     0.243,0.250,0.074,0.037,0.000: // measure 1
1001
0000
0000
0000
,  // measure 2
0000
0000
0000
0000
,  // measure 3
0000
0000
0000
0000
,  // measure 4
0000
0000
0000
0000
,  // measure 5
0100
0000
0000
0000
,  // measure 6
0010
0010
0000
0000
,  // measure 7
1000
0000
0000
0000
,  // measure 8
0100
0100
0000
0000
,  // measure 9
1001
0000
0000
0000
,  // measure 10
0110
0000
0000
0000
,  // measure 11
1001
0000
0000
0000
,  // measure 12
0110
0000
0010
0000
,  // measure 13
0110
0000
0000
0000
,  // measure 14
1001
0000
0000
0000
,  // measure 15
0110
0000
0000
0000
,  // measure 16
1000
0000
0100
0000
,  // measure 17
0010
0010
0000
0010
,  // measure 18
0010
0000
0100
0100
,  // measure 19
0000
0100
0100
0000
,  // measure 20
1000
1000
0000
1000
,  // measure 21
1000
0000
0001
0001
,  // measure 22
0000
0001
0001
1000
,  // measure 23
0000
0100
0000
1000
,  // measure 24
0010
0100
0010
1000
,  // measure 25
0000
0001
0000
0010
,  // measure 26
0010
0200
0300
0010
,  // measure 27
0000
0001
0000
0100
,  // measure 28
0100
0001
0001
1000
,  // measure 29
0000
0100
0000
1000
,  // measure 30
1000
0020
0030
0100
,  // measure 31
0100
0000
0100
0100
,  // measure 32
0000
0010
0010
0000
,  // measure 33
0010
0010
0000
1000
,  // measure 34
1000
0000
1000
1000
,  // measure 35
0000
0001
0001
0000
,  // measure 36
0001
0001
0010
0000
,  // measure 37
0100
0000
0010
0000
,  // measure 38
0100
0000
1000
0010
,  // measure 39
0100
0010
1000
0000
,  // measure 40
0000
0010
0000
0100
,  // measure 41
0000
0010
0010
0010
,  // measure 42
0000
0001
0000
0100
,  // measure 43
0000
0001
0001
0001
,  // measure 44
0000
1000
0000
0100
,  // measure 45
0000
1000
1000
1000
,  // measure 46
1000
0000
0010
0010
,  // measure 47
0000
0100
0010
0100
,  // measure 48
0000
0001
0000
0010
,  // measure 49
0000
0001
0001
0001
,  // measure 50
0000
0100
0000
0010
,  // measure 51
0000
0100
0100
0100
,  // measure 52
0000
0010
0000
0100
,  // measure 53
0000
0001
0000
1000
,  // measure 54
1000
0000
0100
0100
,  // measure 55
0000
1000
1000
1000
,  // measure 56
0000
0001
0000
1000
,  // measure 57
0000
0002
0000
0003
,  // measure 58
0000
0100
0000
0010
,  // measure 59
0000
2000
0000
3000
,  // measure 60
0000
0100
0000
1000
,  // measure 61
0000
0010
0000
0100
,  // measure 62
0000
0001
0000
0010
,  // measure 63
0000
0001
0001
0001
,  // measure 64
0000
0010
0000
0001
,  // measure 65
0000
0100
0010
0100
,  // measure 66
0000
0001
0000
1000
,  // measure 67
0000
0100
1000
0010
,  // measure 68
0000
1000
0000
0001
,  // measure 69
0000
0010
0000
0001
,  // measure 70
0000
0000
0100
0100
,  // measure 71
0000
0100
0010
1000
,  // measure 72
0000
0100
0100
0000
,  // measure 73
0100
0100
0000
0010
,  // measure 74
0010
0000
0100
0100
,  // measure 75
0000
1000
1000
0000
,  // measure 76
0001
0001
0000
0010
,  // measure 77
0010
0000
0100
0100
;

//---------------dance-single - ----------------
#NOTES:
     dance-single:
     :
     Medium:
     7:
     0.502,0.570,0.641,0.158,0.000:
2002
0000
0000
0000
,
0000
0000
0000
0000
,
0000
0000
0000
0000
,
0000
0000
0000
3003
,
0101
0101
0101
0010
,
0100
0000
0001
0000
1000
0100
1000
0000
,
1100
1100
1100
1100
,
1000
0000
0010
0000
0100
0010
0100
0000
,
1001
0000
0000
0000
,
1100
0000
0000
0000
,
0011
0000
0000
0000
,
0110
0000
0001
0000
,
1001
0000
0000
0000
,
1100
0000
0000
0000
,
0110
0000
0000
0000
,
1100
0000
0011
0000
,
1001
0000
1001
0000
0000
0110
0000
0110
,
0000
0100
0001
1000
1100
0000
1100
0000
,
0000
0011
0000
0011
0000
0100
0010
0000
,
0110
0000
0110
0000
0000
1001
0000
1001
,
0000
0100
0010
0100
1100
0000
1100
0000
,
0000
1001
0000
1001
0000
0000
0010
0000
,
0100
0001
0010
0001
,
0100
0010
0100
0001
,
1000
0100
0010
0100
,
1000
0020
0100
1030
,
0100
0010
0100
1000
,
0001
0010
0001
0100
,
1000
0100
0010
1000
,
0100
0020
0030
0110
,
0110
0000
0000
1001
0000
1001
0000
0010
,
0100
0010
0101
0000
0101
0000
0000
1001
,
0000
1001
0000
1000
0100
0000
0110
0000
,
0110
0000
0000
1001
0000
1001
0000
0010
,
0100
0010
0101
0000
0101
0000
0000
1001
,
0000
1001
0000
0000
0200
0000
0300
0000
,
0020
0030
0200
0300
,
0020
0030
0100
0010
,
0001
0010
0200
0300
,
0000
0000
1000
0000
0100
1000
0100
0000
,
1000
0100
1000
0000
0010
0000
0100
0000
,
0001
0000
0010
0000
0001
0010
0001
0000
,
0010
0001
0010
0000
0001
0000
0100
0000
,
0010
0000
0100
0000
0001
1000
0001
0000
,
1000
0001
1000
0000
0001
1000
0001
0000
,
0010
0100
0000
0010
0000
0010
0010
0000
,
0000
0110
0110
0020
,
0030
0000
0100
0000
1000
0100
1000
0000
,
0100
1000
0100
0000
1000
0000
0010
0000
,
0100
0000
0001
0000
0010
0001
0010
0000
,
0001
0010
0001
0000
0010
0000
0001
0000
,
0100
0000
0010
0000
0100
0001
0100
0000
,
0001
0100
0001
0000
0100
0001
0100
0000
,
0001
0100
0000
0010
0000
0010
0020
0000
,
0030
0100
0100
0200
,
0300
0000
0010
0000
1000
0010
1000
0000
,
0001
1000
0002
0000
0000
0000
1003
0000
,
0100
1000
0100
0000
0010
0100
0010
0000
,
0100
1000
0200
0000
0000
0000
0310
0000
,
0001
0010
0001
0000
0100
0001
0100
0000
,
0010
0100
0010
0000
1000
0010
1000
0000
,
0100
1000
0000
0100
0000
0100
0200
0000
,
0300
0010
0100
1001
,
0000
0000
1000
0000
0010
1000
0010
0000
,
0100
0001
0100
0000
0001
0000
0010
0000
,
0100
0000
0010
0000
0001
1000
0001
0000
,
0100
0010
0100
0000
0010
0000
1000
0000
,
0000
0000
0100
0000
1000
0100
1000
0000
,
0010
0100
0010
0000
0100
0001
0100
0000
,
0001
0010
0000
0100
0000
0010
0020
0000
,
0030
0100
0010
2001
,
3000
0000
1001
0000
1001
0000
0000
0110
,
0000
0110
0000
0001
0010
0100
1100
0000
,
1100
0000
0000
0011
0000
0011
0000
0100
,
0010
0000
0110
0000
0110
0000
0000
1001
,
0000
1001
0000
1000
0100
0010
0110
0000
,
0110
0000
0000
1001
0000
1001
0000
0000
;

//---------------dance-single - ----------------
#NOTES:
     dance-single:
     :
     Hard:
     9:
     0.753,0.819,0.651,0.390,0.181:
0210
0000
0000
0000
,
0002
0000
0000
0300
,
0020
0000
0000
0003
,
0200
0000
0000
0330
,
1001
0000
1000
0100
0010
0100
1000
1010
,
0000
0000
0101
0000
0000
0000
0010
0000
0100
0010
0100
0000
0010
0000
0000
0000
,
0011
0000
0001
0100
1000
0100
0001
1001
,
0000
0110
0000
0100
1000
1000
0010
0000
,
0220
0000
0330
0000
,
2020
0000
3030
0000
,
2002
0000
3003
0000
,
0022
0000
0000
0000
0030
0000
0000
0000
0103
0000
0000
0100
0000
0000
0100
0000
,
0220
0000
0330
0000
,
2002
0000
3003
0000
,
0202
0000
0303
0000
,
0220
0000
0000
0330
0000
0000
1000
0100
1000
0001
0100
0001
,
1001
0000
1001
0000
0010
0110
0000
0110
,
0000
0000
0100
0001
0100
0000
0001
0000
0010
0000
0010
0000
0100
0000
0000
0000
1100
0000
0000
0000
0000
0000
0000
0000
1100
0000
0000
0000
0000
0000
0000
0000
,
1000
0000
0000
0000
1001
0000
0000
0000
0000
0000
0000
0000
1001
0000
0000
0000
0000
0000
0001
0100
0001
0000
0100
0000
0020
0000
0000
0000
0130
0000
0000
0000
,
0101
0000
0101
0000
1000
1100
0000
1100
,
0000
0000
0100
0010
0100
0000
0010
0000
0001
0000
0001
0000
1000
0000
0000
0000
1010
0000
0000
0000
0000
0000
0000
0000
1010
0000
0000
0000
0000
0000
0000
0000
,
0001
0011
0000
0011
0000
0000
0100
0010
,
0100
1000
0100
0010
0100
0001
0100
1000
,
0100
0001
0100
1000
0100
0010
0100
1000
,
0100
0001
0100
1000
0100
0010
0100
0001
,
0100
0010
0200
1000
1000
0000
0310
0001
,
0010
1000
0010
0001
0010
0100
0010
0001
,
0010
0100
0010
1000
0010
0100
0010
0001
,
0010
1000
0010
0001
0010
0100
0010
0001
,
0010
1000
0020
0100
0130
0000
1001
0000
,
1001
0000
0000
0000
0000
0000
0000
0000
0100
0000
0000
0000
0110
0000
0000
0000
0000
0000
0000
0000
0110
0000
0000
0000
0000
0000
0100
0001
0100
0000
0010
0000
,
0100
0100
0001
0000
1001
0000
0000
0000
1001
0000
0000
0000
1000
0000
1100
0000
,
0000
0000
0000
0000
1100
0000
0000
0000
0000
0000
0100
0010
0100
0000
0100
0000
0020
0000
0000
0000
0030
0000
0000
0000
0011
0000
0000
0000
0000
0000
0000
0000
,
0011
0000
0000
0000
0000
0000
0000
0000
0001
0000
0000
0000
0101
0000
0000
0000
0000
0000
0000
0000
0101
0000
0000
0000
0000
0000
0010
0100
0010
0000
0100
0000
,
0001
0001
1000
0000
0110
0000
0000
0000
0110
0000
0000
0000
0001
0000
1001
0000
,
0000
1001
0000
0000
2000
0000
0000
0000
,
0200
0000
0000
3000
2000
0000
0000
0300
,
0200
0000
0000
3000
2000
0300
0200
3000
,
0002
0300
0200
0003
2000
0000
0000
0000
,
3300
0000
0001
0000
0100
0010
0100
0000
,
0001
0010
1000
0010
0001
0100
0010
0000
,
1000
0100
0010
0000
0010
0100
1000
0000
,
1000
0010
0001
0010
1000
0100
0001
0000
,
0001
0100
0010
0000
0010
0001
0100
0000
,
0100
1000
0100
0010
1000
0010
0100
0010
,
1000
0200
0000
0010
0010
0010
0010
0320
,
0000
0130
0110
0000
0011
0000
1001
0000
,
0001
0100
1000
0000
1000
0100
0001
0000
,
0001
1000
0100
0001
0100
1000
0010
0000
,
0010
0100
0010
0000
1000
0001
1000
0000
,
0001
0010
0100
0010
0001
0100
1000
0000
,
0100
0010
1000
0000
1000
0100
0010
0000
,
0010
0100
1000
1000
1000
0010
0100
0100
,
0001
0020
0000
0100
0100
0100
0100
0230
,
0000
0310
0010
0100
0010
0100
0010
0000
,
0001
0100
0010
1000
0010
0001
0010
1000
,
0010
0100
0010
1000
0010
1000
0010
1000
,
0010
1000
0100
0010
0100
1000
0100
0001
,
0100
1000
0100
0010
0100
0010
0100
0010
,
0100
0010
0001
0001
0001
0100
0010
0010
,
0010
1000
0100
0100
0100
0010
0100
1000
,
0010
0200
0000
0010
0010
0010
0010
0310
,
0000
0010
0110
0000
1001
0000
0110
0000
,
0010
0100
1000
0010
1000
0001
1000
0100
,
1000
0010
1000
0010
0100
0001
0010
0000
,
0100
0010
0001
0100
0001
1000
0001
0010
,
0001
0100
0001
0010
0100
1000
0010
0000
,
0110
0000
0100
0100
0100
1000
0100
0100
,
0100
0001
0100
0100
0100
0010
1000
0100
,
0010
0002
0000
1000
1000
1000
1000
2003
,
0000
0001
3001
0010
0100
1000
0002
0000
,
0003
0000
1001
0000
1001
0000
0100
0110
,
0000
0000
0000
0000
0110
0000
0000
0000
0000
0000
0100
0001
0100
0000
0001
0000
0010
0000
0010
0000
0100
0000
0000
0000
0011
0000
0000
0000
0000
0000
0000
0000
,
0011
0000
0000
0000
0000
0000
0000
0000
1000
0000
0000
0000
1010
0000
0000
0000
0000
0000
0000
0000
1010
0000
0000
0000
0000
0000
0010
0100
0010
0000
0100
0000
,
0002
1003
1100
0000
1100
0000
0001
1001
,
0000
0000
0000
0000
1001
0000
0000
0000
0000
0000
0001
0100
0001
0000
0010
0000
0100
0000
0100
0000
0010
0000
0000
0000
0011
0000
0000
0000
0000
0000
0000
0000
,
0011
0000
1000
1010
0000
0011
0000
0000
;
