#TITLE:kailua;
#SUBTITLE:;
#ARTIST:kors k;
#TITLETRANSLIT:;
#SUBTITLETRANSLIT:;
#ARTISTTRANSLIT:;
#CREDIT:Grithokskulk;
#BANNER:kailua-bn.png;
#BACKGROUND:kailua-bg.png;
#LYRICSPATH:;
#CDTITLE:beatmania IIDX.png;
#MUSIC:kailua.mp3;
#OFFSET:-1.694;
#SAMPLESTART:67.355;
#SAMPLELENGTH:15.000;
#SELECTABLE:YES;
#BPMS:0.000=146.000;
#STOPS:;
#BGCHANGES:;

//---------------dance-single - ----------------
#NOTES:
     dance-single:
     :
     Easy:
     3:
     0.206,0.312,0.000,0.496,0.000:
0002
0000
0000
0000
,
0000
0000
0000
0000
,
0023
0000
0000
0000
,
0000
0000
0000
0000
,
0230
0000
0000
0000
,
0000
0000
0000
0000
,
0320
0000
0000
0000
,
0000
0000
0000
0030
,
0001
0100
0001
0000
,
0100
0010
0100
0000
,
0001
0010
0100
1000
,
0020
0000
0000
0030
,
0100
0100
0100
0100
,
0010
0010
0010
0010
,
1000
0001
1000
0001
,
0002
0000
0000
0003
,
0010
0001
0020
0030
,
0001
0100
0002
0003
,
1000
0100
2000
3000
,
0010
0100
0020
0030
,
0100
0001
0200
0300
,
0010
1000
0020
0030
,
1000
0100
2000
3100
,
1000
0010
0200
0300
,
0020
0000
0000
0000
,
0000
0000
0000
0000
,
2030
0000
0000
0000
,
0000
0000
0000
0000
,
3200
0000
0000
0000
,
0000
0000
0000
0000
,
2300
0000
0000
0000
,
0000
0000
3020
0230
,
0302
0000
0000
0000
,
0000
0000
0000
0000
,
0023
0000
0000
0000
,
0000
0000
0032
0203
,
0320
0000
0000
0000
,
0000
0000
0000
0100
,
0200
0000
0000
0000
,
0000
0000
0000
0330
,
0002
0000
2003
0000
,
3200
0000
0000
0000
,
2300
0000
3020
0000
,
0230
0000
0000
0000
,
0320
0000
0230
0000
,
0302
0000
0000
0000
,
0023
0000
0032
0000
,
2003
0000
3020
0230
,
0320
0000
2030
0000
,
3200
0000
0000
0000
,
2300
0000
3002
0000
,
0023
0000
0032
0203
,
0320
0000
0230
0000
,
0000
0000
0000
0010
,
0020
0000
0000
0000
,
0000
0000
0000
0330
,
1000
0100
2000
3000
,
0001
0100
0002
0003
,
0010
0001
0020
0030
,
0100
0010
0200
0300
,
0020
0000
0000
0000
,
0000
0000
0000
0000
,
0000
0000
0000
0000
,
0000
0000
0000
0001
,
0031
0000
0000
0000
;

//---------------dance-single - ----------------
#NOTES:
     dance-single:
     :
     Medium:
     5:
     0.308,0.369,0.027,0.594,0.000:
0020
0000
0000
0230
0000
0000
0302
0000
,
0000
0000
0000
0000
,
0023
0000
0000
0032
0000
0000
0203
0000
,
0000
0000
0000
0000
,
0302
0000
0000
0203
0000
0000
0320
0000
,
0000
0000
0000
0000
,
0230
0000
0000
0302
0000
0000
0023
0000
,
0000
0000
0000
0030
,
0100
1100
1000
1010
,
0010
0100
0010
0000
1000
0001
1000
0000
,
0001
0000
0010
0000
0001
0100
0001
0000
,
0020
0000
0000
0030
,
0100
0010
0100
0000
0010
0000
0010
0000
,
0001
1000
0001
0000
0100
0000
0100
0000
,
0010
1000
0010
0000
1000
0100
1000
0000
,
0002
0000
0000
0003
,
1000
0100
1000
0000
0020
0000
0030
0000
,
0100
0001
0100
0000
0020
0000
0030
0000
,
1000
0001
1000
0000
0200
0000
0300
0000
,
0010
0100
0010
0000
0002
0000
0003
0000
,
0100
0001
0100
0000
0020
0000
1030
0000
,
0100
1000
0100
0000
2000
0000
3010
0000
,
0100
0010
0100
0000
0001
1000
0001
0000
,
0010
0020
0030
0000
0100
0200
0300
0000
,
0020
0000
0000
0032
0000
0000
0203
0000
,
0000
0000
0000
0000
,
0302
0000
0000
2003
0000
0000
3200
0000
,
0000
0000
0000
0000
,
2300
0000
0000
3200
0000
0000
0320
0000
,
0000
0000
0000
0000
,
0032
0000
0000
0203
0000
0000
0320
0000
,
0000
0000
0000
0000
0130
0001
0010
0100
,
0020
0000
0000
0032
0000
0000
0203
0000
,
0000
0000
0000
0000
0000
0000
0000
0310
,
0200
0000
0000
0302
0000
0000
2003
0000
,
0000
0000
0000
3000
0100
1000
0010
0100
,
0002
0000
0000
2000
0000
0000
0000
0000
,
0000
0000
0003
0000
0000
0100
0000
0020
,
0000
0000
0000
0000
,
0000
0000
0000
3030
,
0200
0000
0000
0320
0000
0000
2030
0000
,
0000
0000
0000
0000
,
3200
0000
0000
0320
0000
0000
0230
0000
,
0000
0000
0000
0000
,
2300
0000
0000
3200
0000
0000
0302
0000
,
0000
0000
0000
0000
,
0203
0000
0000
0320
0000
0000
0032
0000
,
0000
0000
0000
0000
0103
0010
1000
0100
,
0020
0000
0000
0230
0000
0000
2300
0000
,
0000
0000
0000
0000
0000
0000
0000
3001
,
0200
0000
0000
0320
0000
0000
0230
0000
,
0000
0000
0000
0000
0301
0010
0100
1000
,
0020
0000
0000
0200
0000
0000
0000
0000
,
0000
0000
0030
0000
0000
0010
0000
0020
,
0000
0000
0000
0000
,
0000
0000
0000
0330
,
0100
0001
0100
0000
0010
1000
0010
0000
,
1000
0100
1000
0000
0002
0000
0003
0000
,
0010
0001
0010
0000
0100
1000
0100
0000
,
1000
0010
1000
0000
0020
0000
0030
0000
,
0200
0001
0000
0010
,
0000
1000
0000
0010
,
0000
0001
0000
0010
,
0000
0001
0000
0310
,
1001
0000
0000
0000
;

//---------------dance-single - ----------------
#NOTES:
     dance-single:
     :
     Hard:
     8:
     0.628,0.822,0.089,0.992,0.159: // measure 1
0102
0000
0000
0020
0003
0000
0200
0000
,  // measure 2
0000
0000
0000
0030
,  // measure 3
0020
0300
0000
0002
0030
0000
0200
0000
,  // measure 4
0000
0000
0000
0000
0000
0000
0000
0003
,  // measure 5
2000
0300
0000
0200
3000
0000
0002
0000
,  // measure 6
0000
0000
0000
0300
,  // measure 7
2000
0003
0000
0200
3000
0000
0002
0000
,  // measure 8
0000
0000
0000
0303
,  // measure 9
0100
0000
1000
0000
0010
0000
0000
0010
0100
0000
0010
0000
1000
0000
0000
1000
,  // measure 10
0001
1000
0001
1000
0001
0000
0010
0100
0010
0000
0001
0000
0100
0000
0010
0000
,  // measure 11
0200
0000
0001
0000
0000
0001
0000
0000
0001
0000
0000
0001
0000
0000
0001
0000
,  // measure 12
0302
0000
1003
1001
,  // measure 13
1000
0000
0100
0000
0010
0000
0200
0000
1000
0000
0000
1000
0000
0000
1300
0000
,  // measure 14
0010
0000
0100
0000
0010
0000
2000
0000
0001
0000
0000
0001
0000
0000
3001
0000
,  // measure 15
0020
0000
0000
0000
0230
0000
0000
0010
0000
0000
0010
0000
0010
0000
0010
0000
,  // measure 16
0020
0000
0330
1001
,  // measure 17
1000
0100
0000
1000
0010
0000
0100
0000
0010
0000
1000
0000
0001
0000
0000
0000
,  // measure 18
0010
0001
0000
0010
0100
0000
0010
0000
0001
0000
0100
0000
0010
0000
0000
0000
,  // measure 19
0100
0001
0000
0010
0001
0000
0100
0000
0010
0000
1000
0000
0100
0000
1000
0000
,  // measure 20
0010
0100
0000
0010
1000
0000
0010
0000
1000
0000
0100
0000
0010
0000
0000
0000
,  // measure 21
0001
0010
0000
0001
1000
0000
0001
0000
0100
0000
0010
0000
2000
0000
0000
0000
,  // measure 22
3100
1000
0000
0100
0010
0000
0100
0000
1000
0000
0010
0000
0200
0000
0000
0000
,  // measure 23
0301
0010
0000
0001
0100
0000
0010
0000
0100
0000
0001
0000
0020
0000
0000
0000
,  // measure 24
0130
0000
0200
0000
1300
0001
1000
0001
0100
0000
0200
0000
0301
1000
0001
1000
,  // measure 25
0200
0000
0000
0020
0300
0000
0002
0000
,  // measure 26
0000
0000
0000
0030
,  // measure 27
0200
0003
0000
0020
0300
0000
2000
0000
,  // measure 28
0000
0000
0000
0030
,  // measure 29
0200
3000
0000
0002
0300
0000
0200
0000
,  // measure 30
0000
0000
0000
0003
,  // measure 31
0020
0300
0000
0200
0030
0000
2000
0000
,  // measure 32
0000
0000
3300
0000
2000
3020
0230
0302
,  // measure 33
0020
0003
0000
0200
0030
0000
2300
0000
,  // measure 34
0010
0010
0000
0001
0000
0100
0000
3002
,  // measure 35
0020
0003
0000
0002
0030
0000
2003
0000
,  // measure 36
0010
0010
0000
3100
0020
0032
0203
0320
,  // measure 37
2030
0001
0000
3200
0000
0010
0000
2300
,  // measure 38
0000
0100
0000
3001
0000
0200
0000
0320
,  // measure 39
0100
0100
0100
0100
0100
0100
0100
0100
,  // measure 40
0100
0100
0100
0100
0100
0100
0130
0000
,  // measure 41
0020
1000
0130
0002
0010
0103
0020
1000
,  // measure 42
0100
1000
0100
1000
0100
1000
0100
1030
,  // measure 43
0200
0001
1300
0020
0001
1030
0200
0001
,  // measure 44
0010
0001
0010
0001
0010
0001
0010
0301
,  // measure 45
0020
0100
1030
0200
0001
0310
0002
0100
,  // measure 46
0010
0100
0010
0100
0010
0100
0010
0103
,  // measure 47
0020
0100
0031
0200
1000
0310
2000
0100
,  // measure 48
0001
0100
0001
0100
3002
0023
0230
2300
,  // measure 49
3020
0001
1030
0200
1000
0301
0020
0100
,  // measure 50
1000
0100
1000
0100
1000
0100
1030
0200
,  // measure 51
0302
0010
0103
0020
0100
0031
0200
1000
,  // measure 52
0010
1000
0010
1000
0320
0032
0203
0320
,  // measure 53
2030
0100
3001
0200
1000
0010
1000
0010
,  // measure 54
2300
0010
0100
0010
3100
0020
0130
2000
,  // measure 55
0001
0100
0001
0100
0001
0100
0001
0100
,  // measure 56
0001
0100
0001
0100
0001
0100
3001
0001
,  // measure 57
0200
0000
0000
0010
0000
0000
0310
0000
2000
0000
0000
0100
0000
0000
3100
0000
,  // measure 58
0002
0000
0000
0010
0000
0000
0013
0000
0200
0000
0000
0010
0000
0000
0310
0000
,  // measure 59
0002
0000
0000
0010
0000
0000
0013
0000
2000
0000
0000
0010
0000
0000
3010
0000
,  // measure 60
0200
0000
0000
0001
0000
0000
0301
0000
0200
0000
0000
1000
0000
0000
1300
0000
,  // measure 61
0010
0000
0100
0000
0220
0330
0001
0000
1000
0000
0100
0000
2200
3300
1000
0000
,  // measure 62
0010
0000
0100
0000
0220
0330
0010
0000
1000
0000
0001
0000
2002
3003
1000
0000
,  // measure 63
0100
0000
0010
0000
0220
0330
0100
0000
1000
0000
0010
0000
0220
0330
0100
0000
,  // measure 64
0002
0013
0200
0310
0002
0013
0002
1003
,  // measure 65
0110
0000
0000
0000
;
