#TITLE:cinder;
#SUBTITLE:;
#ARTIST:PHQUASE;
#TITLETRANSLIT:;
#SUBTITLETRANSLIT:;
#ARTISTTRANSLIT:;
#CREDIT:Grithokskulk;
#BANNER:cinder-bn.png;
#BACKGROUND:cinder-bg.png;
#LYRICSPATH:;
#CDTITLE:beatmania IIDX.png;
#MUSIC:cinder.mp3;
#OFFSET:-9.870;
#SAMPLESTART:20.895;
#SAMPLELENGTH:15.000;
#SELECTABLE:YES;
#BPMS:0.000=216.000,239.000=108.000,249.000=216.000,362.000=108.000;
#STOPS:167.000=0.280
,239.000=1.640
,249.000=2.500
;
#BGCHANGES:;

//---------------dance-single - ----------------
#NOTES:
     dance-single:
     :
     Easy:
     4:
     0.283,0.324,0.087,0.079,0.000:
1000
0000
1100
0000
,
0001
0000
0101
0000
,
1000
0000
1100
0000
,
0001
0000
0101
0000
,
1000
1000
0001
0100
,
0001
0001
1000
0100
,
1000
1000
0001
0001
,
1000
0001
0100
0002
,
0000
0000
0000
0000
,
0000
0000
0000
0003
,
0010
0100
1000
0100
,
0010
0100
1000
0100
,
0010
0100
1000
0100
,
0010
0100
1000
0010
,
0100
0001
0010
0001
,
0100
0001
0010
0100
,
1000
0100
0010
0100
,
1000
0100
0010
0001
,
1000
0010
0001
0010
,
1000
0010
0001
0010
,
1000
0010
0001
0010
,
1000
0001
0010
0100
,
1000
0100
0001
0100
,
1000
0100
0001
0100
,
1000
0010
0100
0001
,
0010
0100
1000
0010
,
0200
0000
0000
0000
,
0000
0000
0000
0000
,
0000
0000
0000
0000
,
0000
0000
0300
0000
,
0020
0000
0000
0000
,
0000
0000
0000
0000
,
0000
0000
0000
0000
,
0000
0000
0000
0030
,
0000
0000
0100
0100
,
0000
0100
0001
0000
,
0010
0000
0001
0000
,
1001
0000
1000
1000
,
1000
0000
0000
0100
,
1000
0000
0010
0000
,
0100
0000
0010
0000
,
1000
0001
0010
0100
,
0010
0010
0000
0100
,
0000
1000
0000
0010
,
0000
0100
0010
1000
,
0000
0001
0000
1000
,
0000
0100
0000
1000
,
1000
1000
0000
0010
,
0010
0100
0100
0001
,
1000
1001
0000
0001
,
0000
0001
0000
2000
,
0000
3000
0000
0010
,
0000
0010
0000
2000
,
0000
3000
0000
0100
,
0000
0100
0000
0020
,
0000
0030
0000
0100
,
0000
0100
0100
0100
,
0220
0000
0000
0000
,
0000
0000
0000
0000
,
0000
0000
0000
0330
,
0100
1000
0010
0100
,
0010
0010
1000
1000
,
0001
1001
0110
0000
,
0010
0000
1001
0000
,
0001
0000
0011
0000
,
0010
0000
0100
0010
,
0100
0000
1000
0100
,
0010
0100
1000
0100
,
0010
0100
1000
0100
,
0010
0100
1000
0010
,
0100
0000
0001
0100
,
0010
0100
0001
0100
,
0010
1000
0100
1000
,
0010
1000
0100
0010
,
0001
1000
0001
0010
,
1000
0010
0001
0010
,
1000
0010
0001
0010
,
1000
0010
0001
1000
,
0100
1000
0010
0001
,
0010
1000
0010
0001
,
0010
1000
0001
0010
,
0100
1000
0010
0100
,
0010
1000
0002
0000
,
0000
0000
0000
0000
,
0000
0000
0000
0000
,
0000
0000
0000
0000
,
0003
0000
2000
0000
,
0000
0000
0000
0000
,
0000
0000
0000
0000
,
0000
0000
0000
0000
,
0000
0000
3000
0000
;

//---------------dance-single - ----------------
#NOTES:
     dance-single:
     :
     Medium:
     6:
     0.428,0.502,0.397,0.222,0.000:
1100
0000
1010
0000
,
0110
0000
1010
0000
,
1001
0000
0011
0000
,
1001
0000
1100
0000
,
1000
0010
0110
0010
,
1000
0001
0011
0001
,
1000
0100
0010
0100
,
1000
0010
0100
0002
,
0000
0000
0000
0000
,
0000
0000
0000
0003
,
1000
0100
0110
0100
,
1000
0010
0110
0010
,
1000
0001
0011
0001
,
1000
0010
0100
0001
,
0010
0100
0110
0100
,
0010
0001
0101
0001
,
1000
0010
0110
0010
,
1000
0100
0010
0001
,
1000
0010
1000
0000
0001
0000
0001
0000
,
0010
0001
0010
0000
0100
0000
0100
0000
,
0010
0001
0010
0000
0001
0000
0001
0000
,
0100
0010
0100
0000
0001
0000
1000
0000
,
0100
1000
0100
0000
1000
0000
1000
0000
,
0010
0100
0010
0000
1000
0000
1000
0000
,
0100
1000
0100
0000
0010
0001
0010
0000
,
0001
0100
0010
1000
,
0002
2000
0000
0000
,
0000
0000
0000
0000
3003
0000
1000
0001
,
2000
0000
0000
0000
,
0000
0001
3001
0000
,
0200
0000
0000
0310
0000
0000
0000
0000
,
2000
0000
0000
3010
0000
0000
0001
0010
,
0002
0000
0000
0000
,
1000
0000
1003
0000
1000
0001
1000
0000
,
0001
0000
0000
0000
0010
0100
0010
0100
,
0000
0000
0010
0001
,
0100
0000
0000
0100
0010
0000
0100
0000
,
0001
0000
0000
0000
1000
0001
1000
0000
,
0100
0000
1000
0100
,
0010
0000
0100
0010
,
0001
0000
0100
0000
0010
0100
0010
0000
,
2000
3200
0320
0032
,
0103
0110
0000
0010
,
0000
0100
0001
0010
,
0000
0010
0001
0000
0100
0000
0001
0000
,
1000
0001
1000
0000
0100
0000
1000
0000
,
1000
0010
1000
0000
0010
0000
0100
0000
,
0010
1000
0010
0000
1000
0000
0001
0000
,
0010
0001
0010
0000
0001
0000
0100
0010
,
0100
0001
1000
1001
,
0000
1001
0000
0000
2002
0000
0000
0000
,
0000
3003
0000
0110
,
0000
0110
0000
0000
0220
0000
0000
0000
,
0000
0330
0000
0101
,
0000
0101
0000
0000
0202
0000
0000
0000
,
0000
0303
0000
1100
,
0000
1100
0000
1100
0000
1100
0000
0000
,
2002
0000
0000
0000
,
0000
0000
0000
0000
,
0000
0000
0000
3003
,
0010
0000
0100
0000
0001
0010
0001
0000
,
0010
0000
0010
0000
0100
0000
0010
0001
,
0000
0001
1000
0000
1000
0000
0010
0000
,
0110
0010
1000
0100
,
0110
0100
1000
0010
,
0110
0010
1000
0001
,
0011
0000
0001
0100
,
0110
0100
0001
1000
,
1001
1000
0001
0100
,
0110
0100
0001
1000
,
1100
0000
1000
0010
,
0110
0010
1000
0001
,
0011
0001
1000
0100
,
0110
0100
1000
0001
,
0100
0010
1000
0010
,
0011
0010
1000
0100
,
0101
0100
1000
0001
,
0011
0001
0100
0010
,
1010
1000
0001
0010
,
0110
0010
0001
0100
,
0110
0010
1000
0100
,
0101
0100
1000
0010
,
0110
0000
0100
0000
0002
0000
0000
2000
,
0000
0000
0000
0000
,
3003
0000
0200
0020
0000
0000
0000
0000
,
0000
0000
0300
0100
,
0130
0000
0000
0000
0002
0000
0000
2000
,
0000
0000
3003
0000
0200
0000
0000
2000
,
0000
3300
0001
0100
0002
0000
0000
0000
,
0000
0000
1000
0000
,
0100
0013
0000
0000
;

//---------------dance-single - ----------------
#NOTES:
     dance-single:
     :
     Hard:
     9:
     0.723,0.948,0.453,0.461,0.314: // measure 1
2100
3100
0102
0103
,  // measure 2
0120
0130
0102
0103
,  // measure 3
2100
3100
0102
0103
,  // measure 4
2100
3100
0101
1100
,  // measure 5
1000
1000
0010
0010
0200
0000
0320
0000
,  // measure 6
1030
1000
0001
0001
0020
0000
0032
0000
,  // measure 7
0103
0100
0001
0001
0010
0010
0100
0100
,  // measure 8
0010
0010
0001
0001
1000
1000
0010
0020
,  // measure 9
0000
0000
0000
0000
,  // measure 10
0000
0000
0000
0130
,  // measure 11
0001
0010
1000
0010
0001
0000
0011
0000
,  // measure 12
1000
0010
0100
0010
1000
0000
1100
0000
,  // measure 13
1000
0100
0001
0100
1000
0000
1001
0000
,  // measure 14
1000
0010
0100
0000
0110
0000
1001
0000
,  // measure 15
0010
0001
0100
0001
0010
0000
0011
0000
,  // measure 16
0001
1000
0010
0100
0010
0000
1010
0000
,  // measure 17
1000
0100
0010
0100
1000
0000
1100
0000
,  // measure 18
1000
0001
0100
0001
0010
0000
0011
0000
,  // measure 19
0001
0000
0001
0100
0000
0100
0010
0000
0010
0100
0000
0100
,  // measure 20
0001
0000
0001
1000
0000
1000
0100
0000
0100
0001
0000
0001
,  // measure 21
0100
0000
0100
1000
0000
1000
0010
0000
0010
0100
0000
0100
,  // measure 22
0010
0000
0010
1000
0000
1000
0002
0000
0000
2003
0000
0000
,  // measure 23
3001
0000
0001
0010
0000
0010
0100
0000
0100
0010
0000
0010
,  // measure 24
0001
0000
0001
0100
0000
0100
1000
0000
1000
0100
0000
0100
,  // measure 25
0001
0000
0001
0010
0000
0010
0100
0000
0100
0001
0000
0001
,  // measure 26
0100
0000
0100
1000
0000
1000
0010
0000
0010
0100
0000
0000
,  // measure 27
0102
0000
1000
0023
0100
0000
0001
0000
,  // measure 28
0100
0000
1000
0000
0100
0000
1030
2000
,  // measure 29
0100
0010
0001
0010
,  // measure 30
0100
3001
1001
0000
,  // measure 31
0002
0000
1000
0023
0100
0000
0001
0000
,  // measure 32
0230
0000
0310
0002
1000
0000
0010
0023
,  // measure 33
1000
0100
0001
1000
,  // measure 34
0100
0000
0031
0000
1000
1000
1001
0000
,  // measure 35
0001
0000
0101
0000
0100
0010
0100
0010
,  // measure 36
0000
0010
1000
0100
0010
0000
0010
0100
,  // measure 37
1000
0000
1000
0010
0000
0010
1000
0001
,  // measure 38
0010
0000
0000
0011
0000
0001
0100
0010
,  // measure 39
0100
0000
0101
0000
0001
1000
0100
0001
,  // measure 40
0100
0000
1100
0000
1000
0010
0100
0010
,  // measure 41
1000
0000
1000
0001
0010
0001
0100
0001
,  // measure 42
2000
3200
0320
0032
,  // measure 43
0003
0010
0100
1000
0100
0010
0000
0100
,  // measure 44
1000
0010
0100
0000
0010
1000
0001
0000
,  // measure 45
1000
0000
0000
0001
0000
0000
0000
0000
0000
0001
0000
0000
0010
0000
0000
0001
0000
0000
0100
0000
0000
0000
0010
0000
,  // measure 46
0000
0000
0100
0000
0000
0000
0001
0000
0000
0000
0000
0000
1001
0000
0000
0000
0000
0000
1000
0000
0000
0100
0000
0000
,  // measure 47
1000
0000
0100
0000
1100
0000
0010
0001
,  // measure 48
0010
0000
0001
0000
0011
0000
0001
0100
,  // measure 49
0001
0000
0100
0010
0100
0000
0010
1000
,  // measure 50
0100
0010
0100
0000
1100
0000
1001
0001
,  // measure 51
0001
0101
0100
0100
0120
0000
0000
0000
,  // measure 52
1000
0000
0001
0000
0130
0000
1001
1000
,  // measure 53
1000
1001
0001
0001
0021
0000
0000
0000
,  // measure 54
1000
0000
0001
0000
0130
0000
0011
0001
,  // measure 55
0001
0101
0100
0100
0120
0000
0000
0000
,  // measure 56
1000
0001
0130
0110
,  // measure 57
0100
0101
0000
1001
0000
1100
0000
0000
,  // measure 58
0220
0000
0000
0000
,  // measure 59
0000
0000
0000
0000
,  // measure 60
0000
0000
0000
0330
,  // measure 61
1000
0100
0010
0100
1000
0000
0010
0000
0100
0001
0100
0000
0010
0000
0100
0000
,  // measure 62
0001
0000
0000
0001
0010
0001
0100
0010
0100
0000
0000
0100
0001
0010
0100
0010
,  // measure 63
0000
0010
0001
0000
1001
0000
0000
0000
2100
0000
0000
0000
3001
0000
0000
0000
,  // measure 64
0102
1003
2100
3001
,  // measure 65
0102
1003
2010
3001
,  // measure 66
0012
1003
1010
0101
,  // measure 67
0011
0000
1001
0000
0001
0100
0010
0000
,  // measure 68
0010
0100
0001
0000
0001
0010
1000
0010
,  // measure 69
0001
0000
0011
0000
1000
0010
0100
0000
,  // measure 70
0100
0010
1000
0000
1000
0100
0010
0100
,  // measure 71
1000
0000
0000
0000
1000
0000
0000
0000
1000
0000
0000
0000
0010
0000
0000
0100
0000
0000
0001
0000
0000
0000
0000
0000
,  // measure 72
0001
0000
0100
0000
0010
0000
0000
0000
1000
0100
1000
0100
1000
0000
0000
0000
,  // measure 73
0001
0100
0001
0100
0001
0000
0000
0000
1000
0000
0100
0000
0010
0000
0000
0000
,  // measure 74
0010
0100
1000
0000
1000
0010
0001
0010
,  // measure 75
0100
0000
0001
0000
0010
0000
0100
0000
0100
0010
0000
0010
,  // measure 76
0001
0000
0001
0100
0000
0100
1000
0000
1000
0100
0000
0100
,  // measure 77
0010
0000
0010
1000
0000
1000
0100
0000
0100
0001
0000
0001
,  // measure 78
0100
0000
0100
1000
0000
1000
0010
0000
0010
0100
0000
0100
,  // measure 79
0002
0000
0000
2003
0000
0000
3100
0000
0100
1000
0000
1000
,  // measure 80
0010
0000
0010
0100
0000
0100
0001
0000
0001
0010
0000
0010
,  // measure 81
0001
0000
0001
0100
0000
0100
1000
0000
1000
0100
0000
0100
,  // measure 82
0010
0000
0010
1000
0000
1000
0100
0000
0100
0010
0000
0010
,  // measure 83
0100
0000
0000
0000
0100
0000
1000
0000
0000
0000
1000
0000
0002
0000
0000
0000
0000
0000
1003
0000
0000
0200
0000
0000
,  // measure 84
0001
1000
0010
1000
,  // measure 85
0301
0000
0100
0200
1000
0000
0010
0000
,  // measure 86
1000
0000
0001
0000
0010
0300
1000
0000
,  // measure 87
1001
0000
0000
0000
0002
0000
0103
0002
,  // measure 88
0010
0000
0100
0003
0020
0000
1030
0200
,  // measure 89
0001
0300
0010
0020
0100
0000
0001
0000
,  // measure 90
1000
0001
1000
0100
,  // measure 91
0031
0001
1001
0000
2000
3200
0320
0230
,  // measure 92
2300
0000
3200
0000
0320
0000
0230
0000
2300
0000
3200
0000
0320
0030
0000
0000
;
